osu file format v14

[General]
AudioFilename: audio.mp3
AudioLeadIn: 0
PreviewTime: 29592
Countdown: 0
SampleSet: Soft
StackLeniency: 0.7
Mode: 0
LetterboxInBreaks: 0
WidescreenStoryboard: 1

[Editor]
Bookmarks: 13654,43654,76381
DistanceSpacing: 1.1
BeatDivisor: 4
GridSize: 32
TimelineZoom: 1

[Metadata]
Title:Gokuaku no Hana
TitleUnicode:極悪の華
Artist:onoken feat. Misaki
ArtistUnicode:onoken feat. 実咲
Creator:milr_
Version:Light Insane
Source:pop'n music 解明リドルズ
Tags:Kaimei Riddles acnozei mystycute mysty Rin KIKYO video game pop japanese electronic konami bemani
BeatmapID:4022899
BeatmapSetID:1941899

[Difficulty]
HPDrainRate:6.5
CircleSize:4
OverallDifficulty:7
ApproachRate:8.7
SliderMultiplier:1.5
SliderTickRate:1

[Events]
//Background and Video events
0,0,"99465183_p0.jpg",0,0
//Break Periods
2,68400,70282
2,90217,94827
//Storyboard Layer 0 (Background)
//Storyboard Layer 1 (Fail)
//Storyboard Layer 2 (Pass)
//Storyboard Layer 3 (Foreground)
//Storyboard Layer 4 (Overlay)
//Storyboard Sound Samples

[TimingPoints]
297,359.281437125748,4,2,1,40,1,0
297,-133.333333333333,4,2,1,40,0,0
1015,359.281437125748,4,2,1,40,1,0
1015,-133.333333333333,4,2,1,40,0,0
6044,-333.333333333333,4,2,1,40,0,0
7841,-133.333333333333,4,2,1,40,0,0
8200,340.909090909091,4,2,1,70,1,0
19109,-133.333333333333,4,2,1,50,0,0
24222,-100,4,2,1,70,0,0
29762,-100,4,2,1,40,0,0
30018,-100,4,2,1,80,0,0
31381,-80,4,2,1,80,0,0
31467,-80,4,2,1,5,0,0
31722,-80,4,2,1,80,0,0
31807,-80,4,2,1,5,0,0
32063,-80,4,2,1,80,0,0
32148,-80,4,2,1,5,0,0
32234,-100,4,2,1,80,0,0
32319,-100,4,2,1,5,0,0
32404,-100,4,2,1,80,0,0
32489,-100,4,2,1,40,0,0
32745,-100,4,2,1,80,0,0
34109,-80,4,2,1,80,0,0
34194,-80,4,2,1,5,0,0
34450,-80,4,2,1,80,0,0
34535,-80,4,2,1,5,0,0
34790,-80,4,2,1,80,0,0
34876,-80,4,2,1,5,0,0
34961,-100,4,2,1,80,0,0
35046,-100,4,2,1,5,0,0
35131,-100,4,2,1,80,0,0
42972,-200,4,2,1,80,0,0
43654,-66.6666666666667,4,2,1,80,0,0
43739,-66.6666666666667,4,2,1,5,0,0
43995,-66.6666666666667,4,2,1,80,0,0
44080,-66.6666666666667,4,2,1,5,0,0
44336,-66.6666666666667,4,2,1,80,0,0
44421,-66.6666666666667,4,2,1,5,0,0
44506,-80,4,2,1,80,0,0
46381,-66.6666666666667,4,2,1,80,0,0
46467,-66.6666666666667,4,2,1,5,0,0
46722,-66.6666666666667,4,2,1,80,0,0
46807,-66.6666666666667,4,2,1,5,0,0
47063,-66.6666666666667,4,2,1,80,0,0
47148,-66.6666666666667,4,2,1,5,0,0
47234,-80,4,2,1,80,0,0
54563,-66.6666666666667,4,2,1,80,0,0
54648,-66.6666666666667,4,2,1,5,0,0
54904,-66.6666666666667,4,2,1,80,0,0
54989,-66.6666666666667,4,2,1,5,0,0
55245,-66.6666666666667,4,2,1,80,0,0
55330,-66.6666666666667,4,2,1,5,0,0
55415,-80,4,2,1,80,0,0
57290,-66.6666666666667,4,2,1,80,0,0
57376,-66.6666666666667,4,2,1,5,0,0
57631,-66.6666666666667,4,2,1,80,0,0
57717,-66.6666666666667,4,2,1,5,0,0
57972,-66.6666666666667,4,2,1,80,0,0
58057,-66.6666666666667,4,2,1,5,0,0
58143,-80,4,2,1,80,0,0
63768,-66.6666666666667,4,2,1,80,0,0
65472,-100,4,2,1,70,0,0
76126,-100,4,2,1,40,0,0
76381,-100,4,2,1,80,0,0
77745,-80,4,2,1,80,0,0
77830,-80,4,2,1,5,0,0
78086,-80,4,2,1,80,0,0
78171,-80,4,2,1,5,0,0
78427,-80,4,2,1,80,0,0
78512,-80,4,2,1,5,0,0
78597,-100,4,2,1,80,0,0
78682,-100,4,2,1,5,0,0
78768,-100,4,2,1,80,0,0
78853,-100,4,2,1,40,0,0
79109,-100,4,2,1,80,0,0
80472,-80,4,2,1,80,0,0
80557,-80,4,2,1,5,0,0
80813,-80,4,2,1,80,0,0
80898,-80,4,2,1,5,0,0
81154,-80,4,2,1,80,0,0
81239,-80,4,2,1,5,0,0
81325,-100,4,2,1,80,0,0
81410,-100,4,2,1,5,0,0
81495,-100,4,2,1,80,0,0
88654,-133.333333333333,4,2,1,80,0,0
89336,-200,4,2,1,40,0,0
90018,-200,4,2,1,70,0,0
98200,-100,4,2,1,70,0,0
101609,-133.333333333333,4,2,1,80,0,0
101950,-100,4,2,1,80,0,0
102290,-80,4,2,1,80,0,0
103654,-66.6666666666667,4,2,1,80,0,0
103739,-66.6666666666667,4,2,1,5,0,0
103995,-66.6666666666667,4,2,1,80,0,0
104080,-66.6666666666667,4,2,1,5,0,0
104336,-66.6666666666667,4,2,1,80,0,0
104421,-66.6666666666667,4,2,1,5,0,0
104506,-80,4,2,1,80,0,0
110131,-66.6666666666667,4,2,1,80,0,0
111836,-100,4,2,1,70,0,0
118654,-200,4,2,1,70,0,0
118995,-200,4,2,1,5,0,0

[Colours]
Combo1 : 183,103,214
Combo2 : 171,191,91
Combo3 : 216,101,67
Combo4 : 117,204,113

[HitObjects]
174,190,297,6,0,P|196:152|271:160,1,112.500004291535
328,180,1015,6,0,P|317:228|298:304,2,112.500004291535,2|2|2,0:3|0:0|0:0,0:0:0:0:
495,148,2092,2,0,P|484:95|480:69,1,56.2500021457673,2|2,0:0|0:0,0:0:0:0:
512,26,2452,5,2,0:3:0:0:
439,1,2631,1,0,0:0:0:0:
386,56,2811,1,2,0:0:0:0:
408,130,2991,1,2,0:0:0:0:
350,177,3170,6,0,P|342:215|335:256,1,56.2500021457673,2|0,0:0|0:0,0:0:0:0:
403,276,3529,2,0,P|414:324|419:351,1,56.2500021457673,2|0,0:0|0:0,0:0:0:0:
353,378,3889,5,2,0:3:0:0:
254,228,4248,1,2,0:0:0:0:
111,307,4607,1,2,0:0:0:0:
285,347,4967,6,0,P|294:299|300:267,1,56.2500021457673,2|2,0:0|0:0,0:0:0:0:
254,228,5326,2,0,P|216:237|187:244,1,56.2500021457673,2|2,0:3|0:0,0:0:0:0:
158,303,5685,2,0,P|120:312|91:319,1,56.2500021457673,2|2,0:0|0:0,0:0:0:0:
44,274,6044,6,0,P|12:226|116:195,1,202.499993820191,2|0,0:3|0:0,0:0:0:0:
120,199,7841,6,0,P|127:174|131:155,3,28.1250010728836,2|0|0|0,0:0|0:0|0:0|0:0,0:0:0:0:
131,98,8200,6,0,P|177:112|216:123,1,75,4|2,1:2|0:0,0:0:0:0:
243,186,8540,2,0,P|302:171|343:161,1,75,2|2,0:0|0:0,0:0:0:0:
327,94,8881,5,2,0:1:0:0:
368,29,9052,1,8,0:0:0:0:
440,10,9222,1,0,0:0:0:0:
512,41,9393,1,2,0:0:0:0:
512,41,9563,6,0,P|505:69|498:96,3,37.5,0|0|2|0,1:2|0:0|0:0|0:0,0:0:0:0:
470,102,9904,2,0,P|485:154|494:185,1,75,2|2,0:0|0:0,0:0:0:0:
399,245,10245,5,2,0:1:0:0:
329,209,10415,1,8,0:0:0:0:
329,209,10501,1,2,0:0:0:0:
329,209,10586,2,0,P|302:219|269:231,3,37.5,0|0|2|0,1:0|0:0|0:1|0:0,0:0:0:0:
287,235,10927,6,0,B|267:267|267:267|212:250,1,75,0|0,1:2|1:2,0:0:0:0:
184,192,11268,2,0,B|164:160|164:160|109:177,1,75,2|2,0:0|0:0,0:0:0:0:
128,171,11609,5,2,0:1:0:0:
62,213,11779,1,8,0:0:0:0:
25,143,11950,1,0,1:2:0:0:
95,100,12120,1,2,0:0:0:0:
189,58,12290,6,0,P|196:30|204:10,3,37.5,0|2|2|0,1:2|0:0|0:0|0:0,0:0:0:0:
210,14,12631,5,0,1:2:0:0:
223,17,12717,1,2,0:0:0:0:
235,22,12802,1,8,0:0:0:0:
290,76,12972,1,2,0:1:0:0:
358,43,13143,6,0,P|444:25|517:10,1,150,0|2,1:2|1:0,0:0:0:0:
504,12,13569,1,0,1:0:0:0:
504,12,13654,1,4,1:2:0:0:
445,65,13825,1,2,0:0:0:0:
490,128,13995,1,8,0:0:0:0:
425,168,14165,1,2,0:0:0:0:
327,113,14336,5,2,0:1:0:0:
261,73,14506,1,0,1:2:0:0:
225,138,14677,2,0,P|245:198|257:234,1,75,8|2,0:1|0:0,0:0:0:0:
318,242,15018,6,0,P|312:270|303:300,3,37.5,0|0|0|0,1:2|0:0|1:2|0:0,0:0:0:0:
299,288,15359,1,8,0:1:0:0:
185,252,15529,1,2,0:0:0:0:
151,318,15700,6,0,P|131:358|79:355,1,75,2|0,0:1|1:0,0:0:0:0:
34,341,16040,2,0,P|11:297|41:260,1,75,8|2,0:0|0:0,0:0:0:0:
68,219,16381,5,0,1:2:0:0:
119,121,16552,1,2,0:0:0:0:
26,71,16722,6,0,P|12:29|1:-11,1,75,12|2,0:0|1:2,0:0:0:0:
134,38,17063,2,0,P|124:88|112:130,1,75,8|2,0:0|1:2,0:0:0:0:
252,75,17404,2,0,P|238:33|227:-7,1,75,12|2,0:0|1:2,0:0:0:0:
186,145,17745,6,0,P|213:153|235:160,3,37.5,4|2|2|2,1:2|1:0|1:1|1:1,0:0:0:0:
230,149,18086,1,2,1:0:0:0:
323,191,18256,1,0,1:0:0:0:
370,97,18427,2,0,P|393:64|435:82,1,75,0|0,1:0|1:0,0:0:0:0:
491,105,18768,2,0,P|478:162|464:224,1,112.5,8|0,0:0|0:0,0:0:0:0:
466,214,19109,6,0,P|409:200|338:182,1,112.500004291535,4|2,1:2|0:0,0:0:0:0:
302,338,19790,2,0,P|248:354|176:377,1,112.500004291535,2|2,0:0|0:0,0:0:0:0:
130,331,20302,1,2,0:0:0:0:
130,331,20472,6,0,P|142:281|152:251,1,56.2500021457673,2|0,0:1|0:0,0:0:0:0:
231,229,20813,2,0,P|219:279|209:309,1,56.2500021457673,2|2,0:0|0:0,0:0:0:0:
121,157,21154,1,2,0:0:0:0:
121,157,21495,5,2,0:0:0:0:
50,186,21665,1,2,0:0:0:0:
6,123,21836,1,2,0:1:0:0:
6,123,22006,2,0,P|-8:80|53:47,1,112.500004291535,2|2,0:0|0:0,0:0:0:0:
104,4,22518,6,0,P|159:17|225:34,1,112.500004291535,2|2,0:1|0:0,0:0:0:0:
257,89,23029,1,2,0:0:0:0:
190,119,23200,2,0,P|178:161|170:193,1,56.2500021457673,2|2,0:1|0:0,0:0:0:0:
304,254,23540,5,2,0:1:0:0:
304,254,23711,1,2,0:1:0:0:
234,222,23881,1,2,0:1:0:0:
202,288,24052,1,0,1:1:0:0:
309,366,24222,2,0,P|347:366|362:329,1,75,8|0,1:1|0:0,0:0:0:0:
427,301,24563,6,0,P|415:239|396:147,1,150,4|8,1:2|0:0,0:0:0:0:
512,0,25245,1,2,0:1:0:0:
449,41,25415,1,8,0:0:0:0:
497,107,25586,1,2,0:1:0:0:
497,107,25756,1,0,1:1:0:0:
381,158,25927,5,2,1:1:0:0:
381,158,26097,1,2,1:1:0:0:
331,98,26268,2,0,P|284:87|250:78,1,75,8|0,0:0|0:0,0:0:0:0:
221,15,26609,5,2,0:1:0:0:
152,42,26779,1,8,0:0:0:0:
83,70,26950,2,0,P|54:102|83:139,1,75,2|0,0:1|1:1,0:0:0:0:
129,174,27290,5,2,1:1:0:0:
129,174,27461,1,2,1:1:0:0:
6,331,27802,1,2,1:1:0:0:
75,293,27972,5,8,0:0:0:0:
75,293,28143,1,0,0:0:0:0:
113,358,28313,1,2,1:1:0:0:
180,325,28484,1,2,1:1:0:0:
274,160,28825,5,2,1:1:0:0:
204,193,28995,1,2,1:1:0:0:
269,239,29165,1,8,0:0:0:0:
269,239,29336,2,0,P|314:225|355:214,1,75,8|0,0:0|1:1,0:0:0:0:
401,317,29677,6,0,P|421:323|452:335,3,37.5,8|2|2|2,0:0|0:0|0:0|0:0,0:0:0:0:
444,320,30018,5,2,1:0:0:0:
500,228,30188,1,2,1:0:0:0:
399,177,30359,2,0,P|415:118|423:78,1,75,8|2,1:0|0:0,0:0:0:0:
478,58,30700,5,2,1:0:0:0:
362,37,30870,1,2,1:0:0:0:
245,14,31040,2,0,P|203:7|188:52,1,75,8|2,1:0|0:0,0:0:0:0:
265,120,31381,5,2,1:0:0:0:
54,22,31722,1,2,1:0:0:0:
41,278,32063,1,2,1:0:0:0:
112,246,32234,1,2,1:2:0:0:
49,201,32404,6,0,P|39:176|32:156,3,37.5,10|2|2|2,0:0|0:0|0:0|0:0,0:0:0:0:
26,159,32745,1,2,1:0:0:0:
71,95,32915,1,2,1:0:0:0:
199,151,33086,2,0,P|187:201|175:245,1,75,8|2,1:0|0:1,0:0:0:0:
226,280,33427,5,2,1:0:0:0:
318,235,33597,1,8,0:0:0:0:
277,173,33768,1,8,1:0:0:0:
277,173,33938,1,2,0:1:0:0:
339,130,34109,5,2,1:0:0:0:
512,276,34450,1,2,1:0:0:0:
278,382,34790,1,2,1:0:0:0:
255,310,34961,1,2,1:2:0:0:
334,329,35131,6,0,P|313:256|297:199,1,112.5,8|0,0:0|0:0,0:0:0:0:
308,213,35472,2,0,P|257:227|226:236,1,75,4|2,1:2|0:0,0:0:0:0:
198,299,35813,1,0,1:0:0:0:
128,267,35984,1,2,0:1:0:0:
149,196,36154,6,0,P|134:144|125:107,1,75,0|2,1:0|0:0,0:0:0:0:
60,91,36495,1,0,1:0:0:0:
27,158,36665,1,8,0:0:0:0:
92,247,36836,5,0,1:0:0:0:
59,313,37006,1,8,0:0:0:0:
118,358,37177,2,0,P|160:362|166:315,1,75,0|2,1:0|0:0,0:0:0:0:
164,263,37518,5,0,1:0:0:0:
249,214,37688,1,8,0:0:0:0:
303,309,37859,1,0,1:0:0:0:
303,309,38029,1,0,1:0:0:0:
359,360,38200,6,0,P|396:351|438:339,1,75,4|2,1:2|1:2,0:0:0:0:
512,357,38540,2,0,P|495:301|485:263,1,75,2|2,1:0|1:2,0:0:0:0:
491,210,38881,2,0,P|454:219|412:231,1,75,2|2,1:0|1:2,0:0:0:0:
338,213,39221,2,0,P|355:269|365:307,1,75,2|2,1:0|1:2,0:0:0:0:
237,220,39563,5,2,1:0:0:0:
260,146,39734,1,2,1:2:0:0:
406,181,39904,1,2,1:0:0:0:
429,108,40075,1,2,1:2:0:0:
449,36,40245,6,0,P|395:50|357:59,1,75,2|2,1:0|1:2,0:0:0:0:
272,3,40586,2,0,P|218:17|180:26,1,75,2|2,1:0|1:2,0:0:0:0:
194,32,40842,1,0,0:0:0:0:
188,42,40927,6,0,P|197:74|203:99,3,37.5,2|0|2|0,1:0|1:0|1:2|1:0,0:0:0:0:
267,109,41268,2,0,P|261:137|254:163,3,37.5,2|0|2|0,1:0|1:0|1:2|1:0,0:0:0:0:
210,201,41609,5,2,1:0:0:0:
182,194,41694,1,0,1:0:0:0:
155,188,41779,1,2,1:2:0:0:
127,181,41864,1,0,1:0:0:0:
100,175,41950,2,0,P|57:165|42:162,3,37.5,2|0|2|0,1:0|1:0|1:2|1:0,0:0:0:0:
11,216,42290,6,0,P|8:252|57:272,1,75,0|2,1:0|0:0,0:0:0:0:
131,312,42631,2,0,P|129:267|92:250,1,75,2|2,0:1|0:0,0:0:0:0:
0,384,42972,1,2,0:0:0:0:
0,384,43654,5,4,1:2:0:0:
249,286,43995,1,2,1:0:0:0:
41,124,44336,1,2,1:0:0:0:
9,193,44506,5,0,1:0:0:0:
73,232,44677,2,0,P|128:213|175:199,1,93.75,8|2,0:0|0:0,0:0:0:0:
118,101,45018,5,2,1:0:0:0:
169,9,45188,1,0,0:1:0:0:
269,52,45359,2,0,P|256:109|246:160,1,93.75,8|2,0:0|0:0,0:0:0:0:
239,149,45614,1,0,0:0:0:0:
229,156,45700,5,2,1:1:0:0:
273,230,45870,1,0,1:0:0:0:
352,200,46040,2,0,P|379:160|423:163,1,93.75,8|2,0:0|0:0,0:0:0:0:
493,199,46381,5,4,1:2:0:0:
267,7,46722,1,2,1:0:0:0:
238,300,47063,1,2,1:0:0:0:
313,270,47234,5,0,1:0:0:0:
300,350,47404,2,0,P|345:361|415:375,1,93.75,8|2,0:0|0:0,0:0:0:0:
500,255,47745,5,2,1:0:0:0:
403,299,47915,1,0,0:1:0:0:
345,189,48086,2,0,P|296:176|243:161,1,93.75,8|2,0:0|0:0,0:0:0:0:
247,172,48342,1,0,0:0:0:0:
238,180,48427,5,2,1:2:0:0:
195,247,48597,1,2,1:0:0:0:
264,282,48768,2,0,P|301:303|281:365,1,93.75,8|0,0:0|0:0,0:0:0:0:
138,375,49109,5,4,1:2:0:0:
138,375,49279,1,2,0:1:0:0:
75,322,49450,2,0,P|98:252|110:214,1,93.75,8|0,0:0|0:0,0:0:0:0:
8,170,49790,6,0,P|26:130|81:149,1,93.75,2|0,0:1|1:0,0:0:0:0:
201,131,50131,2,0,P|183:171|128:152,1,93.75,8|2,0:0|0:0,0:0:0:0:
183,0,50472,5,2,1:0:0:0:
253,35,50643,1,0,1:0:0:0:
199,123,50813,2,0,P|135:104|99:93,1,93.75,8|0,0:0|0:0,0:0:0:0:
15,154,51154,5,2,0:1:0:0:
112,242,51325,1,0,1:0:0:0:
181,206,51495,2,0,P|206:187|170:116,1,93.75,8|2,0:0|0:0,0:0:0:0:
107,18,51836,6,0,P|119:67|134:122,1,93.75,0|2,0:0|1:0,0:0:0:0:
285,180,52177,1,12,0:0:0:0:
313,110,52347,1,2,1:2:0:0:
244,73,52518,5,2,1:0:0:0:
300,20,52688,1,2,1:2:0:0:
452,0,52859,1,12,0:0:0:0:
396,53,53029,1,2,1:2:0:0:
495,92,53200,6,0,P|507:146|519:192,1,93.75,12|2,0:0|1:2,0:0:0:0:
378,212,53540,2,0,P|366:158|354:112,1,93.75,12|2,0:0|1:2,0:0:0:0:
442,254,53881,5,12,0:0:0:0:
495,323,54052,1,0,1:0:0:0:
495,323,54137,1,0,1:0:0:0:
495,323,54222,1,0,1:0:0:0:
427,364,54393,1,0,1:0:0:0:
363,315,54563,5,4,1:2:0:0:
457,102,54904,1,2,1:0:0:0:
228,19,55245,1,2,1:0:0:0:
188,85,55415,5,0,1:0:0:0:
260,110,55586,2,0,P|293:123|294:175,1,93.75,8|2,0:0|0:0,0:0:0:0:
205,255,55927,5,2,1:0:0:0:
157,154,56097,1,0,0:1:0:0:
59,200,56268,2,0,P|46:253|33:312,1,93.75,8|2,0:0|0:0,0:0:0:0:
30,298,56523,1,0,0:0:0:0:
23,306,56609,5,2,1:1:0:0:
94,347,56779,1,0,1:0:0:0:
135,275,56950,2,0,P|193:288|243:298,1,93.75,8|2,0:0|0:0,0:0:0:0:
288,379,57290,5,4,1:2:0:0:
167,154,57631,1,2,1:0:0:0:
393,24,57972,1,2,1:0:0:0:
369,100,58143,5,0,1:0:0:0:
316,45,58313,2,0,P|266:32|224:21,1,93.75,8|2,0:0|0:0,0:0:0:0:
273,153,58654,5,2,1:0:0:0:
362,200,58825,1,0,0:1:0:0:
404,105,58995,2,0,P|462:87|511:74,1,93.75,8|2,0:0|0:0,0:0:0:0:
502,85,59251,1,0,0:0:0:0:
511,92,59336,5,2,1:2:0:0:
482,176,59506,1,2,1:0:0:0:
448,261,59677,1,8,0:0:0:0:
504,317,59847,6,0,P|431:302|376:391,1,187.5,4|2,1:2|0:1,0:0:0:0:
306,340,60359,2,0,P|289:279|276:241,1,93.75,8|0,0:0|1:0,0:0:0:0:
287,243,60614,1,0,1:0:0:0:
294,237,60700,1,2,0:1:0:0:
367,269,60870,1,0,1:0:0:0:
402,194,61040,1,8,0:0:0:0:
226,183,61211,6,0,P|239:116|266:-11,1,187.5,4|2,1:2|0:1,0:0:0:0:
167,42,61722,2,0,P|130:32|102:78,1,93.75,8|0,0:0|1:0,0:0:0:0:
106,83,61978,1,0,1:0:0:0:
112,93,62063,1,2,0:1:0:0:
153,161,62234,1,0,1:0:0:0:
85,202,62404,2,0,P|100:251|113:297,1,93.75,8|0,0:0|0:0,0:0:0:0:
14,374,62745,5,0,1:0:0:0:
121,295,62915,1,2,1:0:0:0:
188,329,63086,1,12,1:2:0:0:
229,264,63256,1,0,1:0:0:0:
229,264,63427,5,2,1:0:0:0:
158,157,63597,1,2,1:0:0:0:
263,94,63768,2,0,P|312:112|379:134,1,112.500004291535,12|0,1:2|1:0,0:0:0:0:
443,50,64109,6,0,P|482:37|515:25,2,56.2500021457673,12|8|0,0:2|0:0|1:0,0:0:0:0:
503,158,64450,1,12,0:2:0:0:
503,158,64535,1,8,0:0:0:0:
503,158,64620,1,0,1:0:0:0:
386,200,64790,6,0,P|395:160|401:125,2,56.2500021457673,12|8|0,0:2|0:0|1:0,0:0:0:0:
327,287,65131,1,12,0:2:0:0:
327,287,65217,1,8,0:0:0:0:
327,287,65302,1,0,1:0:0:0:
415,343,65472,1,4,1:2:0:0:
256,192,65643,12,2,68200,1:0:0:0:
132,197,70927,5,4,1:2:0:0:
170,131,71097,1,2,0:0:0:0:
237,175,71268,1,8,0:0:0:0:
279,109,71438,1,2,0:0:0:0:
410,134,71609,5,2,0:1:0:0:
451,70,71779,1,0,1:2:0:0:
391,20,71950,2,0,P|343:31|295:43,1,75,8|2,0:1|0:0,0:0:0:0:
279,109,72290,6,0,P|250:101|223:92,3,37.5,0|0|0|0,1:2|0:0|1:2|0:0,0:0:0:0:
235,92,72631,1,8,0:1:0:0:
140,16,72802,1,2,0:0:0:0:
82,64,72972,6,0,P|47:80|54:132,1,75,2|0,0:1|1:0,0:0:0:0:
0,175,73313,2,0,P|16:210|68:203,1,75,8|2,0:0|0:0,0:0:0:0:
109,174,73654,5,0,1:2:0:0:
200,115,73825,1,2,0:0:0:0:
253,221,73995,6,0,P|239:266|224:317,1,75,12|2,0:0|1:2,0:0:0:0:
205,110,74336,2,0,P|250:124|301:139,1,75,8|2,0:1|1:2,0:0:0:0:
381,17,74677,2,0,P|367:62|352:113,1,75,12|2,0:0|1:2,0:0:0:0:
415,141,75018,6,0,P|443:133|466:124,3,37.5,4|2|0|0,1:2|1:0|1:0|1:2,0:0:0:0:
457,120,75359,1,2,1:0:0:0:
511,177,75529,1,0,1:0:0:0:
405,216,75700,6,0,P|375:237|389:278,1,75,2|8,1:0|0:0,0:0:0:0:
442,311,76040,2,0,P|432:341|423:372,3,37.5,8|2|2|2,0:0|0:0|0:0|0:0,0:0:0:0:
421,351,76381,5,2,1:0:0:0:
323,384,76552,1,2,1:0:0:0:
285,294,76722,2,0,P|286:250|240:234,1,75,8|2,1:0|0:0,0:0:0:0:
200,193,77063,5,2,1:0:0:0:
172,320,77234,1,2,1:0:0:0:
54,285,77404,2,0,P|41:221|30:178,1,75,8|2,1:0|0:0,0:0:0:0:
0,146,77745,5,2,1:0:0:0:
195,11,78086,1,2,1:0:0:0:
270,259,78427,1,2,1:0:0:0:
216,203,78597,1,2,1:2:0:0:
291,182,78768,6,0,P|306:187|338:195,3,37.5,10|2|2|2,0:0|0:0|0:0|0:0,0:0:0:0:
335,200,79109,1,2,1:0:0:0:
370,128,79279,1,2,1:0:0:0:
501,173,79450,2,0,P|489:227|476:273,1,75,8|2,1:0|0:1,0:0:0:0:
412,268,79790,5,2,1:0:0:0:
491,384,79961,1,8,0:0:0:0:
421,357,80131,1,8,1:0:0:0:
421,357,80302,1,2,0:1:0:0:
350,325,80472,5,2,1:0:0:0:
430,137,80813,1,2,1:0:0:0:
224,64,81154,1,2,1:0:0:0:
284,15,81325,1,2,1:2:0:0:
297,91,81495,6,0,P|282:143|264:208,1,112.5,8|0,0:0|0:0,0:0:0:0:
270,210,81836,2,0,P|215:191|179:178,1,75,0|2,1:0|0:0,0:0:0:0:
161,123,82177,1,0,1:0:0:0:
91,152,82347,1,2,0:1:0:0:
22,180,82518,6,0,P|1:221|28:255,1,75,0|2,1:0|0:0,0:0:0:0:
54,303,82859,1,0,1:0:0:0:
120,269,83029,1,8,0:0:0:0:
203,343,83200,5,0,1:0:0:0:
270,375,83370,1,8,0:0:0:0:
304,311,83540,2,0,P|289:261|278:220,1,75,0|2,1:0|0:0,0:0:0:0:
230,186,83881,5,0,1:0:0:0:
323,130,84052,1,8,0:0:0:0:
387,238,84222,1,0,1:0:0:0:
387,238,84393,1,0,1:0:0:0:
449,198,84563,6,0,P|461:142|472:105,1,75,4|2,1:2|1:2,0:0:0:0:
512,62,84904,2,0,P|456:49|419:38,1,75,2|2,1:0|1:2,0:0:0:0:
375,0,85245,2,0,P|362:55|351:92,1,75,2|2,1:0|1:2,0:0:0:0:
311,136,85586,2,0,P|366:148|403:159,1,75,2|2,1:0|1:2,0:0:0:0:
254,88,85927,5,2,1:0:0:0:
210,149,86097,1,2,1:2:0:0:
351,222,86268,1,2,1:0:0:0:
307,283,86438,1,2,1:2:0:0:
243,248,86609,6,0,P|196:262|160:273,1,75,2|2,1:0|1:2,0:0:0:0:
97,363,86950,2,0,P|50:377|14:388,1,75,2|2,1:0|1:2,0:0:0:0:
19,377,87205,1,0,0:0:0:0:
12,372,87290,6,0,P|21:340|28:317,3,37.5,2|0|2|0,1:0|1:0|1:2|1:0,0:0:0:0:
78,286,87631,2,0,P|69:254|62:231,3,37.5,2|0|2|0,1:0|1:0|1:2|1:0,0:0:0:0:
24,189,87972,5,2,1:0:0:0:
52,182,88057,1,0,1:0:0:0:
79,176,88142,1,2,1:2:0:0:
107,169,88227,1,0,1:0:0:0:
134,163,88313,2,0,P|177:153|192:150,3,37.5,2|0|2|0,1:0|1:0|1:2|1:0,0:0:0:0:
223,204,88654,6,0,P|226:240|190:258,1,56.2500021457673,0|2,1:0|0:0,0:0:0:0:
119,283,88994,2,0,P|129:246|156:234,1,56.2500021457673,2|2,0:1|0:0,0:0:0:0:
163,345,89336,6,0,P|281:374|318:381,1,150,2|4,0:0|1:2,0:0:0:0:
256,192,95472,12,2,98200,0:0:0:0:
284,82,99052,5,0,1:0:0:0:
284,82,99137,1,0,1:0:0:0:
284,82,99222,2,0,P|240:72|206:63,1,75,8|0,1:0|1:0,0:0:0:0:
157,8,99563,6,0,P|121:29|136:73,1,75,2|2,1:0|0:0,0:0:0:0:
220,157,99904,2,0,P|217:121|185:106,1,75,2|2,1:0|0:0,0:0:0:0:
124,153,100245,5,2,1:0:0:0:
88,220,100415,1,0,1:0:0:0:
20,189,100586,1,8,0:0:0:0:
103,368,100927,5,2,0:1:0:0:
249,303,101268,2,0,P|262:247|276:192,1,112.5,4|0,1:2|0:0,0:0:0:0:
275,193,101609,5,2,0:1:0:0:
390,24,101950,2,0,P|426:24|436:67,1,75,4|0,1:2|0:0,0:0:0:0:
501,103,102290,5,8,0:0:0:0:
444,219,102461,1,0,1:0:0:0:
333,153,102631,1,8,0:0:0:0:
360,89,102802,1,0,1:0:0:0:
390,24,102972,5,10,0:0:0:0:
279,61,103143,1,2,1:0:0:0:
183,13,103313,6,0,P|202:81|227:168,1,140.625,8|0,0:0|0:0,0:0:0:0:
221,148,103654,5,0,0:2:0:0:
16,288,103995,1,4,1:2:0:0:
296,380,104336,1,4,1:2:0:0:
271,306,104506,5,0,1:0:0:0:
219,361,104677,2,0,P|168:374|121:386,1,93.75,8|2,0:0|0:0,0:0:0:0:
16,288,105018,5,4,1:2:0:0:
80,187,105188,1,0,0:1:0:0:
176,250,105359,2,0,P|218:219|204:175,1,93.75,8|2,0:0|0:0,0:0:0:0:
205,176,105614,1,0,0:0:0:0:
198,169,105700,5,2,1:2:0:0:
168,96,105870,1,2,1:0:0:0:
143,17,106040,1,8,0:0:0:0:
220,35,106211,6,0,P|297:51|431:75,1,187.5,6|2,1:2|0:1,0:0:0:0:
487,46,106722,2,0,P|479:103|472:153,1,93.75,8|0,0:0|1:0,0:0:0:0:
466,144,106978,1,0,1:0:0:0:
457,151,107063,1,2,0:1:0:0:
377,184,107234,1,0,1:0:0:0:
441,235,107404,1,8,0:0:0:0:
509,281,107575,6,0,P|507:335|390:376,1,187.5,4|2,1:2|0:1,0:0:0:0:
348,314,108086,2,0,P|293:327|248:336,1,93.75,8|0,0:0|1:0,0:0:0:0:
250,342,108342,1,0,1:0:0:0:
245,351,108427,1,2,0:1:0:0:
177,295,108597,1,0,1:0:0:0:
251,256,108768,2,0,P|285:231|274:175,1,93.75,8|0,0:0|0:0,0:0:0:0:
400,130,109109,5,0,1:0:0:0:
275,176,109279,1,2,1:0:0:0:
242,101,109450,1,12,1:2:0:0:
170,137,109620,1,0,1:0:0:0:
170,137,109790,5,2,1:0:0:0:
121,7,109961,1,2,1:0:0:0:
6,76,110131,2,0,P|27:147|50:213,1,112.500004291535,12|0,1:2|1:0,0:0:0:0:
140,236,110472,6,0,P|129:280|120:312,2,56.2500021457673,12|8|0,0:2|0:0|1:0,0:0:0:0:
231,152,110813,1,12,0:2:0:0:
231,152,110898,1,8,0:0:0:0:
231,152,110984,1,0,1:0:0:0:
322,231,111154,6,0,P|353:221|393:206,2,56.2500021457673,12|8|0,0:2|0:0|1:0,0:0:0:0:
261,336,111495,1,12,0:2:0:0:
261,336,111580,1,8,0:0:0:0:
261,336,111665,1,0,1:0:0:0:
331,371,111836,5,4,1:2:0:0:
371,307,112006,1,2,0:0:0:0:
440,342,112177,1,8,0:0:0:0:
483,276,112347,1,2,0:0:0:0:
417,202,112518,5,2,0:1:0:0:
364,144,112688,1,0,1:2:0:0:
418,88,112859,2,0,P|460:98|500:107,1,75,8|2,0:1|0:0,0:0:0:0:
355,137,113200,6,0,P|327:146|301:156,3,37.5,0|0|0|0,1:2|0:0|1:2|0:0,0:0:0:0:
310,144,113540,1,8,0:1:0:0:
261,19,113711,1,2,0:0:0:0:
200,63,113881,6,0,P|167:73|171:130,1,75,2|0,0:1|1:0,0:0:0:0:
174,183,114222,2,0,P|192:221|241:221,1,75,8|2,0:0|0:0,0:0:0:0:
288,198,114563,5,0,1:2:0:0:
364,288,114734,1,2,0:0:0:0:
241,375,114904,6,0,P|225:325|214:287,1,75,12|2,0:0|1:2,0:0:0:0:
297,192,115245,2,0,P|313:142|324:104,1,75,8|2,0:0|1:2,0:0:0:0:
190,85,115586,2,0,P|174:35|163:-3,1,75,12|2,0:0|1:2,0:0:0:0:
94,0,115927,6,0,P|68:6|40:12,3,37.5,4|2|2|2,1:2|1:0|1:0|1:0,0:0:0:0:
47,12,116268,1,8,1:0:0:0:
12,84,116438,1,0,1:0:0:0:
85,113,116609,1,2,1:0:0:0:
25,272,116950,6,0,P|31:300|38:328,3,37.5,4|2|2|2,1:2|0:1|1:1|1:1,0:0:0:0:
28,317,117290,1,8,1:2:0:0:
98,356,117461,1,0,1:0:0:0:
136,290,117631,1,2,1:0:0:0:
332,354,117972,5,4,1:2:0:0:
334,342,118057,1,2,0:1:0:0:
338,331,118142,1,8,0:2:0:0:
342,321,118227,1,8,0:2:0:0:
345,310,118312,1,2,1:0:0:0:
284,261,118484,1,0,1:0:0:0:
238,325,118654,6,0,P|205:310|204:270,1,75,2|0,1:0|0:0,0:0:0:0:
