osu file format v14

[General]
AudioFilename: audio.mp3
AudioLeadIn: 0
PreviewTime: 29592
Countdown: 0
SampleSet: Soft
StackLeniency: 0.7
Mode: 0
LetterboxInBreaks: 0
WidescreenStoryboard: 1

[Editor]
Bookmarks: 13654,43654,76381
DistanceSpacing: 1.1
BeatDivisor: 4
GridSize: 32
TimelineZoom: 1.7

[Metadata]
Title:Gokuaku no Hana
TitleUnicode:極悪の華
Artist:onoken feat. Misaki
ArtistUnicode:onoken feat. 実咲
Creator:milr_
Version:Insane
Source:pop'n music 解明リドルズ
Tags:Kaimei Riddles acnozei mystycute mysty Rin KIKYO video game pop japanese electronic konami bemani
BeatmapID:4021924
BeatmapSetID:1941899

[Difficulty]
HPDrainRate:7
CircleSize:4
OverallDifficulty:7
ApproachRate:9
SliderMultiplier:1.6
SliderTickRate:1

[Events]
//Background and Video events
0,0,"99465183_p0.jpg",0,0
//Break Periods
2,68400,70327
2,90218,94872
//Storyboard Layer 0 (Background)
//Storyboard Layer 1 (Fail)
//Storyboard Layer 2 (Pass)
//Storyboard Layer 3 (Foreground)
//Storyboard Layer 4 (Overlay)
//Storyboard Sound Samples

[TimingPoints]
297,359.281437125748,4,2,1,40,1,0
297,-133.333333333333,4,2,1,40,0,0
1015,359.281437125748,4,2,1,40,1,0
1015,-133.333333333333,4,2,1,40,0,0
6044,-333.333333333333,4,2,1,40,0,0
7841,-133.333333333333,4,2,1,40,0,0
8200,340.909090909091,4,2,1,70,1,0
19109,-133.333333333333,4,2,1,50,0,0
24222,-100,4,2,1,70,0,0
29762,-100,4,2,1,40,0,0
30018,-100,4,2,1,80,0,0
31381,-80,4,2,1,80,0,0
31467,-80,4,2,1,5,0,0
31722,-80,4,2,1,80,0,0
31807,-80,4,2,1,5,0,0
32063,-80,4,2,1,80,0,0
32148,-80,4,2,1,5,0,0
32234,-100,4,2,1,80,0,0
32319,-100,4,2,1,80,0,0
32404,-100,4,2,1,80,0,0
32489,-100,4,2,1,40,0,0
32745,-100,4,2,1,80,0,0
34109,-80,4,2,1,80,0,0
34194,-80,4,2,1,5,0,0
34450,-80,4,2,1,80,0,0
34535,-80,4,2,1,5,0,0
34790,-80,4,2,1,80,0,0
34876,-80,4,2,1,5,0,0
34961,-100,4,2,1,80,0,0
35046,-100,4,2,1,80,0,0
35131,-100,4,2,1,80,0,0
42972,-200,4,2,1,80,0,0
43654,-66.6666666666667,4,2,1,80,0,0
43739,-66.6666666666667,4,2,1,5,0,0
43995,-66.6666666666667,4,2,1,80,0,0
44080,-66.6666666666667,4,2,1,5,0,0
44336,-66.6666666666667,4,2,1,80,0,0
44421,-66.6666666666667,4,2,1,5,0,0
44506,-80,4,2,1,80,0,0
46381,-66.6666666666667,4,2,1,80,0,0
46467,-66.6666666666667,4,2,1,5,0,0
46722,-66.6666666666667,4,2,1,80,0,0
46807,-66.6666666666667,4,2,1,5,0,0
47063,-66.6666666666667,4,2,1,80,0,0
47148,-66.6666666666667,4,2,1,5,0,0
47234,-80,4,2,1,80,0,0
54563,-66.6666666666667,4,2,1,80,0,0
54648,-66.6666666666667,4,2,1,5,0,0
54904,-66.6666666666667,4,2,1,80,0,0
54989,-66.6666666666667,4,2,1,5,0,0
55245,-66.6666666666667,4,2,1,80,0,0
55330,-66.6666666666667,4,2,1,5,0,0
55415,-80,4,2,1,80,0,0
57290,-66.6666666666667,4,2,1,80,0,0
57376,-66.6666666666667,4,2,1,5,0,0
57631,-66.6666666666667,4,2,1,80,0,0
57717,-66.6666666666667,4,2,1,5,0,0
57972,-66.6666666666667,4,2,1,80,0,0
58057,-66.6666666666667,4,2,1,5,0,0
58143,-80,4,2,1,80,0,0
63768,-66.6666666666667,4,2,1,80,0,0
65472,-100,4,2,1,70,0,0
76126,-100,4,2,1,40,0,0
76381,-100,4,2,1,80,0,0
77745,-80,4,2,1,80,0,0
77830,-80,4,2,1,5,0,0
78086,-80,4,2,1,80,0,0
78171,-80,4,2,1,5,0,0
78427,-80,4,2,1,80,0,0
78512,-80,4,2,1,5,0,0
78597,-100,4,2,1,80,0,0
78682,-100,4,2,1,80,0,0
78768,-100,4,2,1,80,0,0
78853,-100,4,2,1,40,0,0
79109,-100,4,2,1,80,0,0
80472,-80,4,2,1,80,0,0
80557,-80,4,2,1,5,0,0
80813,-80,4,2,1,80,0,0
80898,-80,4,2,1,5,0,0
81154,-80,4,2,1,80,0,0
81239,-80,4,2,1,5,0,0
81325,-100,4,2,1,80,0,0
81410,-100,4,2,1,80,0,0
81495,-100,4,2,1,80,0,0
88654,-133.333333333333,4,2,1,80,0,0
89336,-200,4,2,1,40,0,0
90018,-200,4,2,1,70,0,0
98200,-100,4,2,1,70,0,0
101609,-133.333333333333,4,2,1,80,0,0
101950,-100,4,2,1,80,0,0
102290,-80,4,2,1,80,0,0
103654,-66.6666666666667,4,2,1,80,0,0
103739,-66.6666666666667,4,2,1,5,0,0
103995,-66.6666666666667,4,2,1,80,0,0
104080,-66.6666666666667,4,2,1,5,0,0
104336,-66.6666666666667,4,2,1,80,0,0
104421,-66.6666666666667,4,2,1,5,0,0
104506,-80,4,2,1,80,0,0
110131,-66.6666666666667,4,2,1,80,0,0
111836,-100,4,2,1,70,0,0
118654,-200,4,2,1,70,0,0
118995,-200,4,2,1,5,0,0

[Colours]
Combo1 : 183,103,214
Combo2 : 171,191,91
Combo3 : 216,101,67
Combo4 : 117,204,113

[HitObjects]
276,250,297,6,0,P|291:192|307:124,1,120.000004577637
251,77,1015,5,2,0:3:0:0:
229,149,1374,1,2,0:0:0:0:
304,133,1733,1,2,0:0:0:0:
131,96,2092,2,0,P|123:65|112:30,1,60.0000022888184,2|2,0:0|0:0,0:0:0:0:
46,7,2452,5,2,0:3:0:0:
5,73,2631,1,0,0:0:0:0:
66,124,2811,1,2,0:0:0:0:
23,186,2991,1,2,0:0:0:0:
157,253,3170,5,2,0:0:0:0:
163,244,3350,1,0,0:0:0:0:
93,219,3529,2,0,P|81:259|67:301,1,60.0000022888184,2|0,0:0|0:0,0:0:0:0:
18,363,3889,5,2,0:3:0:0:
191,322,4248,1,2,0:0:0:0:
364,281,4607,1,2,0:0:0:0:
483,376,4967,2,0,P|506:359|495:327,1,60.0000022888184,2|2,0:0|0:0,0:0:0:0:
425,329,5326,5,2,0:3:0:0:
465,266,5506,1,2,0:0:0:0:
501,200,5685,1,2,0:0:0:0:
461,137,5865,1,2,0:0:0:0:
348,208,6044,6,0,B|327:175|327:175|197:152|197:152|230:194,1,215.999993408203,2|0,0:3|0:0,0:0:0:0:
225,199,7841,6,0,P|241:227|252:244,3,30.0000011444092,2|0|0|0,0:0|0:0|0:0|0:0,0:0:0:0:
299,273,8200,6,0,B|283:314|283:314|221:328,1,80,4|2,1:2|0:0,0:0:0:0:
123,360,8540,2,0,B|139:319|139:319|175:312,1,80,2|2,0:0|0:0,0:0:0:0:
175,312,8881,5,2,0:1:0:0:
4,276,9052,1,8,0:0:0:0:
31,208,9222,1,0,0:0:0:0:
57,138,9393,1,2,0:0:0:0:
190,203,9563,6,0,P|197:230|203:256,3,40,0|0|2|0,1:2|0:0|0:0|0:0,0:0:0:0:
268,275,9904,1,2,0:0:0:0:
293,205,10075,1,2,0:0:0:0:
293,205,10245,5,2,0:1:0:0:
452,151,10415,1,8,0:0:0:0:
403,260,10586,2,0,P|377:252|356:245,3,40,0|0|2|0,1:0|0:0|0:1|0:0,0:0:0:0:
358,242,10927,6,0,P|410:230|450:221,1,80,0|0,1:2|1:2,0:0:0:0:
512,353,11268,2,0,P|460:365|420:374,1,80,2|2,0:0|0:0,0:0:0:0:
434,370,11609,5,2,0:1:0:0:
470,289,11779,1,8,0:0:0:0:
386,255,11950,1,0,1:2:0:0:
351,338,12120,1,2,0:0:0:0:
273,307,12290,6,0,P|246:298|210:286,3,40,0|2|2|0,1:2|0:0|0:0|0:0,0:0:0:0:
227,307,12631,1,0,1:2:0:0:
218,320,12717,1,2,0:0:0:0:
210,333,12802,1,8,0:0:0:0:
112,289,12972,1,2,0:1:0:0:
206,225,13143,6,0,P|258:196|234:100,1,160,0|2,1:2|1:0,0:0:0:0:
245,107,13569,1,0,1:0:0:0:
245,107,13654,1,4,1:2:0:0:
210,43,13825,1,2,0:0:0:0:
136,76,13995,1,8,0:0:0:0:
175,145,14165,1,2,0:0:0:0:
330,208,14336,6,0,P|361:199|386:190,1,40,2|2,0:1|0:1,0:0:0:0:
395,127,14506,2,0,P|428:135|454:143,1,40,0|0,1:2|0:0,0:0:0:0:
497,175,14677,1,8,0:1:0:0:
465,69,14847,1,2,0:0:0:0:
435,236,15018,6,0,B|419:255|419:255|435:285,3,40,0|0|0|0,1:2|0:0|1:2|0:0,0:0:0:0:
435,277,15359,1,8,0:1:0:0:
499,384,15529,5,2,0:0:0:0:
504,375,15614,1,0,0:0:0:0:
509,366,15700,1,2,0:1:0:0:
374,321,15870,1,0,1:0:0:0:
330,380,16040,1,8,0:0:0:0:
193,334,16210,1,2,0:0:0:0:
107,380,16381,5,0,1:2:0:0:
146,271,16552,1,2,0:0:0:0:
279,309,16722,6,0,B|288:346|288:346|256:372,1,80,12|2,0:0|1:2,0:0:0:0:
59,317,17063,2,0,B|21:306|21:306|15:266,1,80,8|2,0:0|1:2,0:0:0:0:
162,122,17404,2,0,B|189:94|189:94|227:109,1,80,12|2,0:0|1:2,0:0:0:0:
271,172,17745,6,0,P|300:165|334:157,3,40,4|2|2|2,1:2|1:0|1:1|1:1,0:0:0:0:
317,155,18086,1,2,1:0:0:0:
352,23,18256,1,0,1:0:0:0:
483,52,18427,2,0,P|498:83|463:115,1,80,0|0,1:0|1:0,0:0:0:0:
397,98,18768,6,0,P|409:160|421:218,1,120,8|0,0:0|0:0,0:0:0:0:
420,215,19109,6,0,P|472:212|491:273,1,120.000004577637,4|2,1:2|0:0,0:0:0:0:
341,351,19790,2,0,P|289:354|270:293,1,120.000004577637,2|2,0:0|0:0,0:0:0:0:
313,237,20302,1,2,0:0:0:0:
315,228,20472,6,0,B|298:200|298:200|250:213,1,60.0000022888184,2|0,0:1|0:0,0:0:0:0:
213,252,20813,2,0,B|186:259|186:259|169:231,1,60.0000022888184,2|2,0:0|0:0,0:0:0:0:
134,167,21154,2,0,P|79:183|30:196,1,90.0000034332277,2|0,0:0|0:0,0:0:0:0:
47,191,21495,5,2,0:0:0:0:
12,258,21665,1,2,0:0:0:0:
79,300,21836,5,2,0:1:0:0:
79,300,22006,2,0,B|119:299|144:349|203:360,1,120.000004577637,2|2,0:0|0:0,0:0:0:0:
247,319,22518,2,0,P|296:321|306:251,1,120.000004577637,2|2,0:1|0:0,0:0:0:0:
366,364,23029,1,2,0:0:0:0:
370,357,23200,6,0,P|401:334|429:358,1,60.0000022888184,2|2,0:1|0:0,0:0:0:0:
504,367,23540,1,2,0:1:0:0:
478,295,23711,1,2,0:1:0:0:
453,221,23881,5,2,0:1:0:0:
446,225,24052,1,0,1:1:0:0:
508,96,24222,2,0,P|495:43|488:13,1,80,8|0,1:1|0:0,0:0:0:0:
489,18,24563,5,4,1:2:0:0:
312,112,24904,1,8,0:0:0:0:
352,176,25245,5,2,0:1:0:0:
175,83,25586,1,2,0:1:0:0:
208,16,25756,1,0,1:1:0:0:
276,47,25927,5,2,1:1:0:0:
272,56,26097,1,2,1:1:0:0:
106,111,26268,2,0,B|72:90|72:90|96:39,1,80,8|0,0:0|0:0,0:0:0:0:
169,150,26609,5,2,0:1:0:0:
322,229,26779,1,8,0:0:0:0:
390,197,26950,1,2,0:1:0:0:
359,132,27120,1,0,1:1:0:0:
289,164,27290,5,2,1:1:0:0:
289,164,27461,1,2,1:1:0:0:
55,281,27802,1,2,1:1:0:0:
131,364,27972,5,8,0:0:0:0:
131,364,28143,1,0,0:0:0:0:
91,215,28313,1,2,1:1:0:0:
2,336,28484,1,2,1:1:0:0:
272,253,28825,5,2,1:1:0:0:
315,185,28996,1,2,1:1:0:0:
242,143,29166,1,8,0:0:0:0:
203,216,29336,1,8,0:0:0:0:
203,216,29506,1,0,1:1:0:0:
371,245,29677,6,0,P|404:238|426:234,3,40,8|2|2|2,0:0|0:0|0:0|0:0,0:0:0:0:
415,228,30018,5,2,1:0:0:0:
490,326,30188,1,2,1:0:0:0:
345,380,30359,2,0,P|305:353|317:307,1,80,8|2,1:0|0:0,0:0:0:0:
351,267,30700,5,2,1:0:0:0:
486,204,30870,1,2,1:0:0:0:
403,124,31040,2,0,P|414:74|423:24,1,80,8|2,1:0|0:0,0:0:0:0:
510,2,31381,6,0,P|516:24|486:44,1,50,2|0,1:0|0:0,0:0:0:0:
256,192,31722,2,0,L|256:128,1,50,2|0,1:0|0:0,0:0:0:0:
2,2,32063,2,0,P|-4:24|26:44,1,50,2|0,1:0|0:0,0:0:0:0:
21,49,32234,1,2,1:2:0:0:
124,26,32404,6,0,P|105:20|87:14,3,40,10|2|2|2,0:0|0:0|0:0|0:0,0:0:0:0:
64,110,32745,5,2,1:0:0:0:
165,153,32915,1,2,1:0:0:0:
226,29,33086,1,8,1:0:0:0:
246,40,33256,1,2,0:1:0:0:
298,95,33427,5,2,1:0:0:0:
344,10,33597,1,8,0:0:0:0:
468,52,33768,1,8,1:0:0:0:
405,165,33938,1,2,0:1:0:0:
466,209,34109,6,0,P|488:200|513:191,1,50,2|0,1:0|0:0,0:0:0:0:
256,192,34450,2,0,L|256:256,1,50,2|0,1:0|0:0,0:0:0:0:
46,209,34790,2,0,P|24:200|-1:191,1,50,2|0,1:0|0:0,0:0:0:0:
0,183,34961,1,2,1:2:0:0:
100,104,35131,6,0,P|143:129|123:202,1,120,8|0,0:0|0:0,0:0:0:0:
127,198,35472,6,0,P|109:257|98:297,1,80,4|2,1:2|0:0,0:0:0:0:
39,312,35813,1,0,1:0:0:0:
201,372,35984,1,2,0:1:0:0:
201,372,36154,6,0,P|201:325|177:310,1,80,0|2,1:0|0:0,0:0:0:0:
136,248,36495,1,0,1:0:0:0:
302,296,36665,1,8,0:0:0:0:
302,296,36836,5,0,1:0:0:0:
340,363,37006,1,8,0:0:0:0:
473,326,37177,2,0,P|502:306|482:258,1,80,0|2,1:0|0:0,0:0:0:0:
455,202,37518,5,0,1:0:0:0:
390,239,37688,1,8,0:0:0:0:
258,191,37859,1,0,1:0:0:0:
258,191,38029,1,0,1:0:0:0:
289,122,38200,5,4,1:2:0:0:
356,157,38370,1,2,1:2:0:0:
191,245,38540,2,0,P|172:177|160:136,1,80,2|2,1:0|1:2,0:0:0:0:
206,10,38881,5,2,1:0:0:0:
136,40,39052,1,2,1:2:0:0:
14,199,39222,1,2,1:0:0:0:
84,172,39393,1,2,1:2:0:0:
31,122,39563,6,0,P|50:54|62:13,1,80,2|2,1:0|1:2,0:0:0:0:
191,245,39904,1,2,1:0:0:0:
175,318,40075,1,2,1:2:0:0:
0,384,40245,5,2,1:0:0:0:
46,326,40415,1,2,1:2:0:0:
271,374,40586,2,0,P|252:306|240:265,1,80,2|2,1:0|1:2,0:0:0:0:
256,291,40842,1,0,0:0:0:0:
263,285,40927,6,0,P|296:294|318:300,3,40,2|0|2|0,1:0|1:0|1:2|1:0,0:0:0:0:
361,339,41268,2,0,P|388:330|411:323,3,40,2|0|2|0,1:0|1:0|1:2|1:0,0:0:0:0:
462,294,41609,5,2,1:0:0:0:
486,277,41694,1,0,1:0:0:0:
498,250,41779,1,2,1:2:0:0:
493,221,41864,1,0,1:0:0:0:
473,198,41949,1,2,1:0:0:0:
445,190,42035,1,0,1:0:0:0:
417,200,42120,1,2,1:2:0:0:
397,222,42205,1,0,1:0:0:0:
393,251,42290,6,0,P|385:287|379:313,7,40,0|0|2|0|2|0|2|0,1:0|0:0|0:0|0:0|0:1|0:0|0:0|0:0,0:0:0:0:
376,301,42972,2,0,P|311:283|282:277,1,80,2|0,0:0|0:0,0:0:0:0:
298,280,43654,6,0,P|288:244|317:228,1,60.0000022888184,4|0,1:2|0:0,0:0:0:0:
307,42,43995,2,0,P|342:51|342:84,1,60.0000022888184,2|0,1:0|0:0,0:0:0:0:
508,169,44336,2,0,P|482:195|453:178,1,60.0000022888184,2|0,1:0|0:0,0:0:0:0:
455,185,44506,5,0,1:0:0:0:
509,67,44677,2,0,P|449:88|396:107,1,100,8|2,0:0|0:0,0:0:0:0:
378,168,45018,5,2,1:0:0:0:
250,126,45188,1,0,0:1:0:0:
284,57,45359,2,0,P|260:4|200:14,1,100,8|2,0:0|0:0,0:0:0:0:
196,9,45614,1,0,0:0:0:0:
169,20,45700,5,2,1:1:0:0:
212,188,45870,1,0,1:0:0:0:
53,222,46040,1,8,0:0:0:0:
8,154,46211,1,2,0:0:0:0:
13,143,46296,1,0,0:0:0:0:
18,132,46381,6,0,P|61:148|95:158,1,60.0000022888184,4|0,1:2|0:0,0:0:0:0:
179,314,46722,2,0,P|171:268|163:234,1,60.0000022888184,2|0,1:0|0:0,0:0:0:0:
257,84,47063,2,0,P|221:113|195:137,1,60.0000022888184,2|0,1:0|0:0,0:0:0:0:
204,132,47234,5,0,1:0:0:0:
137,88,47404,2,0,P|132:38|198:14,1,100,8|2,0:0|0:0,0:0:0:0:
238,46,47745,5,2,1:0:0:0:
369,5,47915,1,0,0:1:0:0:
414,72,48086,2,0,P|401:124|388:177,1,100,8|2,0:0|0:0,0:0:0:0:
367,185,48342,1,0,0:0:0:0:
344,200,48427,5,2,1:2:0:0:
504,239,48597,1,2,1:0:0:0:
464,382,48768,2,0,P|405:376|397:286,1,150,8|0,0:0|0:0,0:0:0:0:
393,290,49109,5,4,1:2:0:0:
246,336,49279,1,2,0:1:0:0:
246,336,49450,2,0,P|231:273|220:231,1,100,8|0,0:0|0:0,0:0:0:0:
342,106,49790,5,2,0:1:0:0:
287,198,49961,1,0,1:0:0:0:
186,137,50131,1,8,0:0:0:0:
247,45,50302,1,2,0:0:0:0:
238,72,50387,1,0,0:0:0:0:
229,99,50472,5,2,1:0:0:0:
176,6,50643,1,0,1:0:0:0:
0,118,50813,1,8,0:0:0:0:
29,187,50984,1,0,0:0:0:0:
98,155,51154,6,0,P|112:101|127:35,1,100,2|0,0:1|1:0,0:0:0:0:
0,256,51495,2,0,B|14:314|66:320|73:385,1,150,8|0,0:0|0:0,0:0:0:0:
72,384,51836,5,0,0:0:0:0:
193,330,52006,1,2,1:0:0:0:
131,229,52177,1,12,0:0:0:0:
131,229,52347,1,2,1:2:0:0:
53,197,52518,5,2,1:0:0:0:
204,156,52688,1,2,1:2:0:0:
263,225,52859,1,12,0:0:0:0:
414,184,53029,1,2,1:2:0:0:
483,225,53200,6,0,P|475:258|466:294,1,50,12|0,0:0|0:0,0:0:0:0:
408,333,53370,2,0,P|400:300|391:264,1,50,2|0,1:2|0:0,0:0:0:0:
327,186,53540,1,12,0:0:0:0:
473,108,53711,1,2,1:2:0:0:
503,39,53881,5,12,0:0:0:0:
435,4,54052,1,0,1:0:0:0:
427,12,54137,1,0,1:0:0:0:
420,19,54222,1,0,1:0:0:0:
381,128,54393,1,0,1:0:0:0:
489,183,54563,6,0,P|511:197|502:241,1,60.0000022888184,4|0,1:2|0:0,0:0:0:0:
256,352,54904,2,0,L|256:288,1,60.0000022888184,2|0,1:0|0:0,0:0:0:0:
23,183,55245,2,0,P|1:197|10:241,1,60.0000022888184,2|0,1:0|0:0,0:0:0:0:
7,237,55415,5,0,1:0:0:0:
115,198,55586,2,0,P|110:139|67:128,1,100,8|2,0:0|0:0,0:0:0:0:
10,93,55927,5,2,1:0:0:0:
91,269,56097,1,0,0:1:0:0:
186,229,56268,2,0,P|171:290|156:339,1,100,8|2,0:0|0:0,0:0:0:0:
135,334,56523,1,0,0:0:0:0:
110,345,56609,5,2,1:1:0:0:
234,384,56779,1,0,1:0:0:0:
317,277,56950,1,8,0:0:0:0:
240,178,57120,1,2,0:0:0:0:
229,182,57205,1,0,0:0:0:0:
219,187,57290,6,0,P|184:176|179:147,1,60.0000022888184,4|0,1:2|0:0,0:0:0:0:
365,20,57631,2,0,P|392:-4|419:5,1,60.0000022888184,2|0,1:0|0:0,0:0:0:0:
436,229,57972,2,0,P|443:264|421:283,1,60.0000022888184,2|0,1:0|0:0,0:0:0:0:
420,284,58143,5,0,1:0:0:0:
415,146,58313,2,0,P|492:165|536:177,1,100,8|2,0:0|0:0,0:0:0:0:
479,83,58654,5,2,1:0:0:0:
340,117,58825,1,0,0:1:0:0:
366,205,58995,2,0,P|321:242|276:199,1,100,8|2,0:0|0:0,0:0:0:0:
263,217,59251,1,0,0:0:0:0:
237,208,59336,5,2,1:2:0:0:
273,50,59506,1,2,1:0:0:0:
99,11,59677,1,8,0:0:0:0:
55,75,59847,6,0,P|124:56|202:36,1,150,4|0,1:2|0:0,0:0:0:0:
199,36,60188,1,2,0:1:0:0:
141,217,60359,1,8,0:0:0:0:
69,188,60529,5,0,1:0:0:0:
35,213,60614,1,0,1:0:0:0:
50,252,60700,1,2,0:1:0:0:
175,301,60870,1,0,1:0:0:0:
230,168,61040,1,8,0:0:0:0:
141,217,61211,6,0,P|210:198|288:178,1,150,4|0,1:2|0:0,0:0:0:0:
285,178,61552,1,2,0:1:0:0:
368,285,61722,1,8,0:0:0:0:
268,365,61893,5,0,1:0:0:0:
259,339,61978,1,0,1:0:0:0:
250,313,62063,1,2,0:1:0:0:
365,209,62234,1,0,1:0:0:0:
421,159,62404,6,0,P|430:101|362:48,1,150,8|0,0:0|0:0,0:0:0:0:
364,48,62745,1,0,1:0:0:0:
208,7,62915,5,2,1:0:0:0:
231,82,63086,1,12,1:2:0:0:
257,155,63256,1,0,1:0:0:0:
347,285,63427,5,2,1:0:0:0:
365,209,63597,1,2,1:0:0:0:
184,169,63768,2,0,P|132:198|165:267,1,120.000004577637,12|0,1:2|1:0,0:0:0:0:
228,291,64109,5,12,0:2:0:0:
257,311,64194,1,8,0:0:0:0:
244,341,64279,1,0,1:0:0:0:
122,377,64450,2,0,P|110:331|104:307,2,60.0000022888184,12|8|0,0:2|0:0|1:0,0:0:0:0:
155,200,64790,5,12,0:2:0:0:
168,230,64875,1,8,0:0:0:0:
139,250,64960,1,0,1:0:0:0:
17,222,65131,2,0,P|25:193|33:164,2,60.0000022888184,12|8|0,0:2|0:0|1:0,0:0:0:0:
93,116,65472,5,4,1:2:0:0:
256,192,65643,12,2,68200,1:0:0:0:
290,115,70927,5,4,1:2:0:0:
335,52,71097,1,2,0:0:0:0:
262,12,71268,1,8,0:0:0:0:
217,76,71438,1,2,0:0:0:0:
336,197,71609,6,0,P|327:228|320:258,1,40,2|2,0:1|0:1,0:0:0:0:
260,273,71779,2,0,P|269:308|278:339,1,40,0|0,1:2|0:0,0:0:0:0:
319,370,71950,1,8,0:1:0:0:
187,278,72120,1,2,0:0:0:0:
377,324,72290,6,0,B|389:310|389:310|414:316,3,40,0|0|0|0,1:2|0:0|1:2|0:0,0:0:0:0:
420,318,72631,1,8,0:1:0:0:
507,207,72802,5,2,0:0:0:0:
497,210,72887,1,0,0:0:0:0:
488,213,72972,1,2,0:1:0:0:
363,104,73143,1,0,1:0:0:0:
397,172,73313,1,8,0:0:0:0:
272,281,73484,1,2,0:0:0:0:
202,174,73654,5,0,1:2:0:0:
306,211,73825,1,2,0:0:0:0:
222,369,73995,6,0,B|189:341|189:341|209:285,1,80,12|2,0:0|1:2,0:0:0:0:
3,250,74336,2,0,B|43:235|43:235|82:280,1,80,8|2,0:1|1:2,0:0:0:0:
215,120,74677,1,12,0:0:0:0:
166,180,74847,1,2,1:2:0:0:
100,145,75018,6,0,P|111:117|120:96,3,40,4|2|0|0,1:2|1:0|1:0|1:2,0:0:0:0:
108,100,75359,1,2,1:0:0:0:
0,0,75529,1,0,1:0:0:0:
0,0,75700,2,0,P|56:24|100:41,1,80,2|8,1:0|0:0,0:0:0:0:
202,9,76040,6,0,P|230:20|260:30,3,40,8|2|2|2,0:0|0:0|0:0|0:0,0:0:0:0:
245,32,76381,5,2,1:0:0:0:
206,137,76552,1,2,1:0:0:0:
356,200,76722,2,0,P|365:152|323:131,1,80,8|2,1:0|0:0,0:0:0:0:
310,68,77063,5,2,1:0:0:0:
488,0,77234,1,2,1:0:0:0:
432,104,77404,2,0,P|446:157|458:198,1,80,8|2,1:0|0:0,0:0:0:0:
486,259,77745,6,0,P|512:247|499:216,1,50,2|0,1:0|0:0,0:0:0:0:
256,160,78086,2,0,L|256:224,1,50,2|0,1:0|0:0,0:0:0:0:
26,259,78427,2,0,P|0:247|13:216,1,50,2|0,1:0|0:0,0:0:0:0:
6,222,78597,1,2,1:2:0:0:
91,164,78768,6,0,P|80:207|72:230,3,40,10|2|2|2,0:0|0:0|0:0|0:0,0:0:0:0:
48,286,79109,5,2,1:0:0:0:
153,364,79279,1,2,1:0:0:0:
229,293,79450,1,8,1:0:0:0:
209,253,79620,1,2,0:1:0:0:
256,192,79790,5,2,1:0:0:0:
394,256,79961,1,8,0:0:0:0:
353,353,80131,1,8,1:0:0:0:
452,384,80302,1,2,0:1:0:0:
502,326,80472,6,0,P|491:290|483:262,1,50,2|0,1:0|0:0,0:0:0:0:
256,192,80813,2,0,L|256:256,1,50,2|0,1:0|0:0,0:0:0:0:
10,326,81154,2,0,P|21:290|29:262,1,50,2|0,1:0|0:0,0:0:0:0:
19,273,81325,5,2,1:2:0:0:
152,383,81495,2,0,P|157:329|101:295,1,120,8|0,0:0|0:0,0:0:0:0:
99,288,81836,6,0,P|86:218|78:182,1,80,0|2,1:0|0:0,0:0:0:0:
24,163,82177,1,0,1:0:0:0:
170,239,82347,1,2,0:1:0:0:
170,239,82518,6,0,P|203:208|188:167,1,80,0|2,1:0|0:0,0:0:0:0:
152,118,82859,1,0,1:0:0:0:
289,5,83029,1,8,0:0:0:0:
289,5,83200,5,0,1:0:0:0:
266,74,83370,1,8,0:0:0:0:
361,137,83540,2,0,P|344:72|334:33,1,80,0|2,1:0|0:0,0:0:0:0:
435,147,83881,5,0,1:0:0:0:
507,128,84052,1,8,0:0:0:0:
398,297,84222,1,0,1:0:0:0:
398,297,84393,1,0,1:0:0:0:
469,317,84563,5,4,1:2:0:0:
452,243,84734,1,2,1:2:0:0:
323,276,84904,2,0,P|334:223|345:174,1,80,2|2,1:0|1:2,0:0:0:0:
335,375,85245,5,2,1:0:0:0:
276,333,85415,1,2,1:2:0:0:
154,195,85586,1,2,1:0:0:0:
213,237,85756,1,2,1:2:0:0:
146,266,85927,6,0,P|136:307|123:357,1,80,2|2,1:0|1:2,0:0:0:0:
6,181,86268,1,2,1:0:0:0:
70,222,86438,1,2,1:2:0:0:
195,71,86609,5,2,1:0:0:0:
128,106,86779,1,2,1:2:0:0:
2,2,86950,2,0,P|62:22|94:34,1,80,2|2,1:0|1:2,0:0:0:0:
84,34,87205,1,0,0:0:0:0:
91,39,87290,6,0,P|116:31|151:24,3,40,2|0|2|0,1:0|1:0|1:2|1:0,0:0:0:0:
185,81,87631,2,0,P|210:89|245:96,3,40,2|0|2|0,1:0|1:0|1:2|1:0,0:0:0:0:
277,43,87972,5,2,1:0:0:0:
306,37,88057,1,0,1:0:0:0:
335,32,88142,1,2,1:2:0:0:
365,26,88227,1,0,1:0:0:0:
394,21,88312,1,2,1:0:0:0:
424,15,88398,1,0,1:0:0:0:
453,10,88483,1,2,1:2:0:0:
483,4,88568,1,0,1:0:0:0:
512,0,88654,6,0,P|502:34|490:78,1,60.0000022888184,0|2,1:0|0:0,0:0:0:0:
416,111,88995,1,2,0:1:0:0:
463,171,89165,1,2,0:0:0:0:
512,230,89336,6,0,P|447:223|403:286,1,140,2|0,0:0|0:0,0:0:0:0:
403,276,90018,1,4,1:2:0:0:
256,192,95472,12,2,98200,0:0:0:0:
328,151,99052,5,0,1:0:0:0:
328,151,99137,1,0,1:0:0:0:
328,151,99222,2,0,P|277:165|243:174,1,80,8|0,1:0|1:0,0:0:0:0:
188,125,99563,5,2,1:0:0:0:
155,195,99734,1,2,0:0:0:0:
215,242,99904,1,2,1:0:0:0:
182,312,100075,1,2,0:0:0:0:
42,384,100245,5,2,1:0:0:0:
42,384,100415,1,0,1:0:0:0:
0,315,100586,6,0,P|52:330|122:352,1,120,8|0,0:0|0:0,0:0:0:0:
114,349,100927,1,2,0:1:0:0:
247,269,101268,2,0,P|282:296|264:342,1,80,4|0,1:2|0:0,0:0:0:0:
338,373,101609,6,0,P|412:355|447:345,1,90.0000034332277,2|0,0:1|0:0,0:0:0:0:
425,351,101950,1,4,1:2:0:0:
482,301,102120,1,0,0:0:0:0:
373,236,102290,6,0,B|325:252|325:252|294:204,1,100,8|0,0:0|1:0,0:0:0:0:
252,88,102631,1,8,0:0:0:0:
358,162,102802,1,0,1:0:0:0:
363,155,102887,1,0,0:0:0:0:
369,148,102972,6,0,P|407:160|437:168,1,50,10|0,0:0|0:0,0:0:0:0:
465,108,103143,2,0,P|503:120|533:128,1,50,2|2,1:0|0:1,0:0:0:0:
471,30,103313,6,0,P|395:45|311:62,1,150,8|0,0:0|0:0,0:0:0:0:
323,59,103654,6,0,B|298:37|298:37|306:6,1,60.0000022888184,0|0,0:2|0:0,0:0:0:0:
477,239,103995,2,0,B|502:216|502:216|494:185,1,60.0000022888184,4|0,1:2|0:0,0:0:0:0:
280,365,104336,2,0,B|254:342|254:342|262:311,1,60.0000022888184,4|0,1:2|0:0,0:0:0:0:
266,310,104506,5,0,1:0:0:0:
356,340,104677,2,0,P|337:281|322:226,1,100,8|2,0:0|0:0,0:0:0:0:
208,258,105018,5,4,1:2:0:0:
244,150,105188,1,0,0:1:0:0:
354,178,105359,2,0,P|382:156|360:93,1,100,8|2,0:0|0:0,0:0:0:0:
348,82,105614,1,0,0:0:0:0:
327,64,105700,5,2,1:2:0:0:
182,116,105870,1,2,1:0:0:0:
98,0,106040,1,8,0:0:0:0:
0,158,106211,6,0,P|1:103|111:104,1,150,6|0,1:2|0:0,0:0:0:0:
80,75,106552,1,2,0:1:0:0:
151,232,106722,1,8,0:0:0:0:
94,178,106893,5,0,1:0:0:0:
60,202,106978,1,0,1:0:0:0:
75,241,107063,1,2,0:1:0:0:
179,319,107234,1,0,1:0:0:0:
240,205,107404,1,8,0:0:0:0:
343,383,107575,6,0,P|326:310|302:213,1,150,4|0,1:2|0:0,0:0:0:0:
308,237,107915,1,2,0:1:0:0:
404,133,108086,1,8,0:0:0:0:
240,205,108256,5,0,1:0:0:0:
225,166,108342,1,0,1:0:0:0:
259,142,108427,1,2,0:1:0:0:
379,204,108597,1,0,1:0:0:0:
309,317,108768,6,0,B|250:305|250:305|228:277|228:277|159:264,1,150,8|0,0:0|0:0,0:0:0:0:
174,266,109109,1,0,1:0:0:0:
0,382,109279,5,2,1:0:0:0:
73,362,109450,1,12,1:2:0:0:
146,343,109620,1,0,1:0:0:0:
70,195,109790,5,2,1:0:0:0:
49,270,109961,1,2,1:0:0:0:
220,325,110131,2,0,P|236:259|250:202,1,120.000004577637,12|0,1:2|1:0,0:0:0:0:
202,140,110472,5,12,0:2:0:0:
223,102,110557,1,8,0:0:0:0:
265,114,110643,1,0,1:0:0:0:
311,258,110813,2,0,P|276:270|240:283,2,60.0000022888184,12|8|0,0:2|0:0|1:0,0:0:0:0:
351,37,111154,5,12,0:2:0:0:
393,25,111240,1,8,0:0:0:0:
414,63,111325,1,0,1:0:0:0:
361,200,111495,2,0,P|332:189|304:180,2,60.0000022888184,12|8|0,0:2|0:0|1:0,0:0:0:0:
503,91,111836,5,4,1:2:0:0:
427,67,112006,1,2,0:0:0:0:
407,143,112177,1,8,0:0:0:0:
485,168,112347,1,2,0:0:0:0:
506,263,112518,6,0,P|476:273|446:282,1,40,2|2,0:1|0:1,0:0:0:0:
431,345,112688,2,0,P|408:335|388:327,1,40,0|0,1:2|0:0,0:0:0:0:
337,282,112859,1,8,0:1:0:0:
203,346,113029,1,2,0:0:0:0:
274,378,113200,6,0,B|289:364|289:364|283:345,3,40,0|0|0|0,1:2|0:0|1:2|0:0,0:0:0:0:
277,335,113540,1,8,0:1:0:0:
137,297,113711,1,2,0:0:0:0:
100,362,113881,5,2,0:1:0:0:
0,233,114052,1,0,1:0:0:0:
73,252,114222,1,8,0:0:0:0:
173,123,114393,1,2,0:0:0:0:
19,59,114563,5,0,1:2:0:0:
41,135,114734,1,2,0:0:0:0:
241,90,114904,2,0,P|228:46|214:-3,1,80,12|2,0:0|1:2,0:0:0:0:
207,17,115160,1,0,0:0:0:0:
196,20,115245,2,0,P|144:31|99:42,1,80,8|2,0:0|1:2,0:0:0:0:
238,167,115586,2,0,P|276:176|316:184,1,80,12|2,0:0|1:2,0:0:0:0:
372,138,115927,6,0,B|378:116|378:116|354:95,3,40,4|2|2|2,1:2|1:0|1:0|1:0,0:0:0:0:
358,98,116268,1,8,1:0:0:0:
507,56,116438,1,0,1:0:0:0:
466,128,116609,2,0,P|478:186|487:238,1,80,2|0,1:0|0:0,0:0:0:0:
501,325,116950,6,0,P|506:293|510:272,3,40,4|2|2|2,1:2|0:1|1:1|1:1,0:0:0:0:
500,278,117290,1,8,1:2:0:0:
317,331,117461,1,0,1:0:0:0:
380,377,117631,2,0,P|403:351|391:309,1,80,2|0,1:0|0:0,0:0:0:0:
230,271,117972,5,4,1:2:0:0:
249,231,118057,1,2,0:1:0:0:
293,234,118143,1,8,0:2:0:0:
316,196,118228,1,8,0:2:0:0:
282,167,118313,1,2,1:0:0:0:
125,220,118484,1,0,1:0:0:0:
200,369,118654,6,0,B|240:355|240:355|267:389,1,80,2|0,1:0|0:0,0:0:0:0:
