osu file format v14

[General]
AudioFilename: audio.mp3
AudioLeadIn: 0
PreviewTime: 29592
Countdown: 0
SampleSet: Soft
StackLeniency: 0.7
Mode: 0
LetterboxInBreaks: 0
WidescreenStoryboard: 1

[Editor]
Bookmarks: 13654,43654,76381
DistanceSpacing: 1.1
BeatDivisor: 4
GridSize: 32
TimelineZoom: 1

[Metadata]
Title:Gokuaku no Hana
TitleUnicode:極悪の華
Artist:onoken feat. Misaki
ArtistUnicode:onoken feat. 実咲
Creator:milr_
Version:Hard
Source:pop'n music 解明リドルズ
Tags:Kaimei Riddles acnozei mystycute mysty Rin KIKYO video game pop japanese electronic konami bemani
BeatmapID:4024050
BeatmapSetID:1941899

[Difficulty]
HPDrainRate:6
CircleSize:4
OverallDifficulty:6
ApproachRate:8
SliderMultiplier:1.4
SliderTickRate:1

[Events]
//Background and Video events
0,0,"99465183_p0.jpg",0,0
//Break Periods
2,68400,70177
2,90217,94722
//Storyboard Layer 0 (Background)
//Storyboard Layer 1 (Fail)
//Storyboard Layer 2 (Pass)
//Storyboard Layer 3 (Foreground)
//Storyboard Layer 4 (Overlay)
//Storyboard Sound Samples

[TimingPoints]
297,359.281437125748,4,2,1,40,1,0
297,-133.333333333333,4,2,1,40,0,0
1015,359.281437125748,4,2,1,40,1,0
1015,-133.333333333333,4,2,1,40,0,0
6044,-200,4,2,1,40,0,0
8200,340.909090909091,4,2,1,70,1,0
8200,-111.111111111111,4,2,1,70,0,0
13654,-100,4,2,1,70,0,0
19109,-111.111111111111,4,2,1,50,0,0
24222,-111.111111111111,4,2,1,70,0,0
24563,-100,4,2,1,70,0,0
29762,-100,4,2,1,40,0,0
30018,-100,4,2,1,80,0,0
31722,-100,4,2,1,80,0,0
32063,-100,4,2,1,80,0,0
32234,-100,4,2,1,80,0,0
32489,-100,4,2,1,40,0,0
32745,-100,4,2,1,80,0,0
34450,-100,4,2,1,80,0,0
34790,-100,4,2,1,80,0,0
34961,-100,4,2,1,80,0,0
43995,-100,4,2,1,80,0,0
44336,-100,4,2,1,80,0,0
44506,-100,4,2,1,80,0,0
46722,-100,4,2,1,80,0,0
47063,-100,4,2,1,80,0,0
47234,-100,4,2,1,80,0,0
54904,-100,4,2,1,80,0,0
55245,-100,4,2,1,80,0,0
55415,-100,4,2,1,80,0,0
57631,-100,4,2,1,80,0,0
57972,-100,4,2,1,80,0,0
58143,-100,4,2,1,80,0,0
65472,-100,4,2,1,70,0,0
76126,-100,4,2,1,40,0,0
76381,-100,4,2,1,80,0,0
78086,-100,4,2,1,80,0,0
78427,-100,4,2,1,80,0,0
78597,-100,4,2,1,80,0,0
78853,-100,4,2,1,40,0,0
79109,-100,4,2,1,80,0,0
80813,-100,4,2,1,80,0,0
81154,-100,4,2,1,80,0,0
81325,-100,4,2,1,80,0,0
89336,-133.333333333333,4,2,1,40,0,0
90018,-100,4,2,1,70,0,0
101609,-100,4,2,1,80,0,0
103995,-100,4,2,1,80,0,0
104336,-100,4,2,1,80,0,0
104506,-100,4,2,1,80,0,0
111836,-100,4,2,1,70,0,0
118995,-100,4,2,1,5,0,0

[Colours]
Combo1 : 183,103,214
Combo2 : 171,191,91
Combo3 : 216,101,67
Combo4 : 117,204,113

[HitObjects]
150,174,297,6,0,P|168:140|231:145,1,105.000004005432
291,226,1015,2,0,P|278:273|264:338,2,105.000004005432,2|2|2,0:3|0:0|0:0,0:0:0:0:
385,179,2092,2,0,P|376:138|369:109,1,52.5000020027161,2|2,0:0|0:0,0:0:0:0:
411,67,2452,5,2,0:3:0:0:
311,11,2811,1,2,0:0:0:0:
261,27,2991,1,2,0:0:0:0:
272,78,3170,2,0,P|257:147|244:197,1,105.000004005432,2|2,0:0|0:0,0:0:0:0:
339,234,3889,6,0,P|374:265|366:320,2,105.000004005432,2|2|2,0:3|0:0|0:0,0:0:0:0:
251,294,4967,2,0,P|214:282|196:276,1,52.5000020027161,2|2,0:0|0:0,0:0:0:0:
149,227,5326,5,2,0:3:0:0:
62,286,5685,1,2,0:0:0:0:
20,256,5865,1,2,0:0:0:0:
40,212,6044,6,0,B|65:196|65:196|93:78|93:78|77:60|77:60|86:27|86:27|105:17|105:17|220:45,1,350,2|2,0:3|0:0,0:0:0:0:
298,172,8200,6,0,P|384:149|435:135,1,125.999996154785,4|2,1:2|0:0,0:0:0:0:
489,180,8711,1,2,0:0:0:0:
489,180,8881,6,0,P|478:224|470:252,1,62.9999980773926,2|8,0:1|0:0,0:0:0:0:
416,288,9222,2,0,P|381:277|351:268,1,62.9999980773926,0|2,0:0|0:0,0:0:0:0:
294,227,9563,6,0,P|288:208|283:191,2,31.4999990386963,0|0|2,1:2|0:0|0:0,0:0:0:0:
257,293,9904,2,0,P|261:325|219:334,1,62.9999980773926,2|2,0:0|0:0,0:0:0:0:
170,317,10245,5,2,0:1:0:0:
101,291,10415,2,0,P|96:261|90:240,1,31.4999990386963,8|2,0:0|0:0,0:0:0:0:
101,252,10586,2,0,P|50:265|18:272,1,62.9999980773926,0|2,1:0|0:1,0:0:0:0:
0,205,10927,6,0,P|-1:165|25:156,1,62.9999980773926,0|0,1:2|1:2,0:0:0:0:
87,178,11268,1,2,0:0:0:0:
121,112,11438,1,2,0:0:0:0:
188,145,11609,6,0,P|176:198|170:227,1,62.9999980773926,2|8,0:1|0:0,0:0:0:0:
114,249,11950,2,0,P|124:288|136:332,1,62.9999980773926,0|2,1:2|0:0,0:0:0:0:
185,359,12290,6,0,P|204:354|232:346,3,31.4999990386963,0|2|2|0,1:2|0:0|0:0|0:0,0:0:0:0:
221,342,12631,1,0,1:2:0:0:
286,301,12802,1,8,0:0:0:0:
328,368,12972,1,2,0:1:0:0:
328,368,13143,6,0,P|384:354|454:337,1,125.999996154785,0|2,1:2|1:0,0:0:0:0:
455,329,13569,1,0,1:0:0:0:
460,321,13654,1,4,1:2:0:0:
414,259,13825,1,2,0:0:0:0:
486,232,13995,2,0,P|511:209|501:165,1,70,8|2,0:0|0:0,0:0:0:0:
468,110,14336,6,0,P|427:121|386:132,1,70,2|0,0:1|1:2,0:0:0:0:
366,195,14677,2,0,P|316:180|278:170,1,70,8|2,0:1|0:0,0:0:0:0:
235,132,15018,6,0,P|241:106|245:88,3,35,0|0|0|0,1:2|0:0|1:2|0:0,0:0:0:0:
250,90,15359,1,8,0:1:0:0:
200,29,15529,1,2,0:0:0:0:
200,29,15700,6,0,P|158:43|128:53,1,70,2|0,0:1|1:0,0:0:0:0:
65,17,16040,2,0,P|26:36|33:77,1,70,8|2,0:0|0:0,0:0:0:0:
73,123,16381,5,0,1:2:0:0:
73,123,16552,1,2,0:0:0:0:
24,182,16722,2,0,P|11:217|-3:256,1,70,12|2,0:0|1:2,0:0:0:0:
85,233,17063,2,0,P|97:269|112:312,1,70,8|2,0:0|1:2,0:0:0:0:
169,240,17404,2,0,P|215:260|252:278,1,70,12|2,0:0|1:2,0:0:0:0:
298,310,17745,6,0,P|289:340|283:367,3,35,4|2|2|2,1:2|1:0|1:1|1:1,0:0:0:0:
296,351,18086,1,2,1:0:0:0:
367,381,18256,1,0,1:0:0:0:
413,324,18427,2,0,P|401:278|392:245,1,70,0|0,1:0|1:0,0:0:0:0:
332,216,18768,6,0,P|321:175|376:138,1,105,8|0,0:0|0:0,0:0:0:0:
373,130,19109,6,0,P|459:110|497:101,1,125.999996154785,4|2,1:2|0:0,0:0:0:0:
400,1,19790,2,0,P|343:14|269:29,1,125.999996154785,2|2,0:0|0:0,0:0:0:0:
225,79,20302,1,2,0:0:0:0:
225,79,20472,6,0,P|233:116|241:156,1,62.9999980773926,2|0,0:1|0:0,0:0:0:0:
307,167,20813,1,2,0:0:0:0:
257,295,21154,1,2,0:0:0:0:
124,252,21495,2,0,P|93:226|104:195,1,62.9999980773926,2|2,0:0|0:0,0:0:0:0:
135,147,21836,5,2,0:1:0:0:
135,147,22006,2,0,P|190:162|266:182,1,125.999996154785,2|2,0:0|0:0,0:0:0:0:
293,243,22518,2,0,P|356:229|443:212,1,125.999996154785,2|2,0:1|0:0,0:0:0:0:
500,106,23200,6,0,P|503:70|477:51,1,62.9999980773926,2|2,0:1|0:0,0:0:0:0:
432,3,23540,2,0,P|397:11|385:46,1,62.9999980773926,2|2,0:1|0:1,0:0:0:0:
326,76,23881,1,2,0:1:0:0:
362,139,24052,1,0,1:1:0:0:
433,162,24222,6,0,P|419:219|406:263,1,94.499997116089,8|0,1:1|0:0,0:0:0:0:
409,253,24563,5,4,1:2:0:0:
502,383,24904,1,8,0:0:0:0:
351,349,25245,5,2,0:1:0:0:
351,349,25415,1,8,0:0:0:0:
282,384,25586,2,0,P|246:373|240:343,1,70,2|0,0:1|1:1,0:0:0:0:
291,286,25927,6,0,P|280:236|272:198,1,70,2|2,1:1|1:1,0:0:0:0:
209,181,26268,2,0,P|161:193|117:204,2,70,8|0|2,0:0|0:0|0:1,0:0:0:0:
248,116,26779,1,8,0:0:0:0:
248,116,26950,2,0,P|300:127|344:137,1,70,2|0,0:1|1:1,0:0:0:0:
355,195,27290,5,2,1:1:0:0:
426,165,27461,1,2,1:1:0:0:
356,28,27802,1,2,1:1:0:0:
356,28,27972,6,0,P|302:41|266:50,1,70,8|0,0:0|0:0,0:0:0:0:
223,2,28313,1,2,1:1:0:0:
189,72,28484,1,2,1:1:0:0:
299,189,28825,5,2,1:1:0:0:
299,189,28995,1,2,1:1:0:0:
262,257,29165,1,8,0:0:0:0:
191,227,29336,2,0,P|146:240|112:249,1,70,8|0,0:0|1:1,0:0:0:0:
76,307,29677,6,0,P|52:299|27:294,3,35,8|2|2|2,0:0|0:0|0:0|0:0,0:0:0:0:
33,290,30018,6,0,P|2:262|17:230,1,70,2|2,1:0|1:0,0:0:0:0:
52,175,30359,1,8,1:0:0:0:
197,232,30700,5,2,1:0:0:0:
270,259,30870,1,2,1:0:0:0:
307,192,31040,1,8,1:0:0:0:
205,76,31381,5,2,1:0:0:0:
354,43,31722,1,2,1:0:0:0:
503,10,32063,1,2,1:0:0:0:
503,10,32234,1,2,1:2:0:0:
447,63,32404,6,0,P|455:90|464:124,3,35,10|2|2|2,0:0|0:0|0:0|0:0,0:0:0:0:
468,103,32745,6,0,P|499:120|494:167,1,70,2|2,1:0|1:0,0:0:0:0:
446,204,33086,2,0,P|428:233|382:211,1,70,8|2,1:0|0:1,0:0:0:0:
336,181,33427,5,2,1:0:0:0:
295,116,33597,1,8,0:0:0:0:
228,155,33768,2,0,P|243:201|254:238,1,70,8|2,1:0|0:1,0:0:0:0:
220,293,34109,5,2,1:0:0:0:
85,369,34450,1,2,1:0:0:0:
8,236,34790,1,2,1:0:0:0:
8,236,34961,1,2,1:2:0:0:
72,279,35131,2,0,P|106:268|149:254,1,70,8|2,0:0|0:2,0:0:0:0:
181,193,35472,6,0,P|163:134|139:48,1,140,4|0,1:2|1:0,0:0:0:0:
202,9,35984,1,2,0:1:0:0:
202,9,36154,2,0,P|270:3|291:72,1,140,0|0,1:0|1:0,0:0:0:0:
252,126,36665,1,8,0:0:0:0:
181,94,36836,6,0,P|140:109|104:120,1,70,0|8,1:0|0:0,0:0:0:0:
64,172,37177,2,0,P|76:211|104:310,1,140,0|0,1:0|1:0,0:0:0:0:
171,338,37688,1,8,0:0:0:0:
209,271,37859,1,0,1:0:0:0:
209,271,38029,1,0,1:0:0:0:
272,310,38200,6,0,P|287:338|332:344,1,70,4|2,1:2|1:2,0:0:0:0:
391,379,38540,2,0,P|422:380|450:344,1,70,2|2,1:0|1:2,0:0:0:0:
506,305,38881,6,0,P|522:278|505:236,1,70,2|2,1:0|1:2,0:0:0:0:
473,177,39222,2,0,P|427:189|390:198,1,70,2|2,1:0|1:2,0:0:0:0:
362,256,39563,5,2,1:0:0:0:
362,256,39734,1,2,1:2:0:0:
289,221,39904,1,2,1:0:0:0:
317,151,40075,1,2,1:2:0:0:
353,85,40245,6,0,P|349:47|299:29,1,70,2|2,1:0|1:2,0:0:0:0:
254,0,40586,2,0,P|216:4|198:54,1,70,2|2,1:0|1:2,0:0:0:0:
224,99,40927,6,0,P|215:130|207:161,3,35,2|0|2|0,1:0|1:0|1:2|1:0,0:0:0:0:
183,156,41268,2,0,P|135:141|96:128,1,70,2|2,1:0|1:2,0:0:0:0:
57,184,41609,6,0,P|62:208|69:234,3,35,2|0|2|0,1:0|1:0|1:2|1:0,0:0:0:0:
100,234,41950,2,0,P|88:280|84:293,3,35,2|0|2|0,1:0|1:0|1:2|1:0,0:0:0:0:
59,289,42290,6,0,P|22:308|30:351,1,70,0|2,1:0|0:0,0:0:0:0:
79,382,42631,2,0,P|128:370|162:360,1,70,2|2,0:1|0:0,0:0:0:0:
206,315,42972,1,2,0:0:0:0:
129,17,43654,5,4,1:2:0:0:
304,68,43995,1,2,1:0:0:0:
479,119,44336,1,2,1:0:0:0:
440,185,44506,5,0,1:0:0:0:
369,155,44677,2,0,P|323:169|288:180,1,70,8|2,0:0|0:0,0:0:0:0:
251,229,45018,6,0,P|224:266|237:300,1,70,2|0,1:0|0:1,0:0:0:0:
269,353,45359,1,8,0:0:0:0:
339,318,45529,1,2,0:0:0:0:
339,318,45700,6,0,P|378:327|424:339,1,70,2|0,1:1|1:0,0:0:0:0:
471,292,46040,2,0,P|461:257|452:219,1,70,8|2,0:0|0:0,0:0:0:0:
385,186,46381,5,4,1:2:0:0:
469,23,46722,1,2,1:0:0:0:
304,96,47063,1,2,1:0:0:0:
264,29,47234,5,0,1:0:0:0:
196,65,47404,2,0,P|212:117|226:160,1,70,8|2,0:0|0:0,0:0:0:0:
276,182,47745,6,0,P|286:217|237:236,1,70,2|0,1:0|0:1,0:0:0:0:
200,281,48086,1,8,0:0:0:0:
151,222,48256,1,2,0:0:0:0:
151,222,48427,6,0,P|103:237|73:247,1,70,2|2,1:2|1:0,0:0:0:0:
16,205,48768,2,0,P|31:138|48:71,1,105,8|0,0:0|0:0,0:0:0:0:
39,102,49109,5,4,1:2:0:0:
84,40,49279,1,2,0:1:0:0:
152,78,49450,2,0,P|167:112|214:99,1,70,8|0,0:0|0:0,0:0:0:0:
265,84,49790,6,0,P|278:34|290:-6,1,70,2|0,0:1|1:0,0:0:0:0:
349,59,50131,1,8,0:0:0:0:
413,102,50302,1,2,0:0:0:0:
370,166,50472,6,0,P|353:195|311:191,1,70,2|0,1:0|1:0,0:0:0:0:
254,156,50813,2,0,P|220:157|203:186,1,70,8|0,0:0|0:0,0:0:0:0:
249,256,51154,5,2,0:1:0:0:
249,256,51325,1,0,1:0:0:0:
186,299,51495,2,0,P|198:339|210:379,1,70,8|2,0:0|0:0,0:0:0:0:
280,378,51836,5,0,0:0:0:0:
319,312,52006,1,2,1:0:0:0:
391,351,52177,1,12,0:0:0:0:
391,351,52347,1,2,1:2:0:0:
463,323,52518,6,0,P|471:276|478:242,1,70,2|2,1:0|1:2,0:0:0:0:
411,202,52859,2,0,P|399:251|390:292,1,70,12|2,0:0|1:2,0:0:0:0:
478,162,53200,5,12,0:0:0:0:
449,91,53370,1,2,1:2:0:0:
381,123,53540,1,12,0:0:0:0:
381,123,53711,1,2,1:2:0:0:
332,61,53881,6,0,P|335:26|297:5,1,70,12|0,0:0|1:0,0:0:0:0:
299,3,54137,1,0,1:0:0:0:
289,0,54222,2,0,P|241:15|216:21,1,70,0|0,1:0|1:0,0:0:0:0:
147,0,54563,5,4,1:2:0:0:
36,144,54904,1,2,1:0:0:0:
195,233,55245,1,2,1:0:0:0:
160,301,55415,5,0,1:0:0:0:
86,280,55586,2,0,P|57:271|53:231,1,70,8|2,0:0|0:0,0:0:0:0:
83,165,55927,6,0,P|68:121|56:84,1,70,2|0,1:0|0:1,0:0:0:0:
18,34,56268,1,8,0:0:0:0:
91,3,56438,1,2,0:0:0:0:
91,3,56609,6,0,P|147:20|181:31,1,70,2|0,1:1|1:0,0:0:0:0:
216,74,56950,2,0,P|223:112|183:130,1,70,8|2,0:0|0:0,0:0:0:0:
139,175,57290,5,4,1:2:0:0:
260,311,57631,1,2,1:0:0:0:
428,240,57972,1,2,1:0:0:0:
385,176,58143,5,0,1:0:0:0:
450,135,58313,2,0,P|486:138|503:106,1,70,8|2,0:0|0:0,0:0:0:0:
469,44,58654,2,0,P|417:30|389:19,1,70,2|0,1:0|0:1,0:0:0:0:
357,87,58995,1,8,0:0:0:0:
308,147,59165,5,2,0:0:0:0:
308,147,59336,2,0,P|258:135|253:100,1,70,2|2,1:2|1:0,0:0:0:0:
217,54,59677,1,8,0:0:0:0:
148,87,59847,6,0,P|162:140|183:228,1,140,4|2,1:2|0:1,0:0:0:0:
242,272,60359,1,8,0:0:0:0:
291,214,60529,1,0,1:0:0:0:
291,214,60700,6,0,P|335:204|370:194,1,70,2|0,0:1|1:0,0:0:0:0:
418,246,61040,1,8,0:0:0:0:
486,210,61211,6,0,P|503:162|440:110,1,140,4|2,1:2|0:1,0:0:0:0:
372,141,61722,1,8,0:0:0:0:
309,181,61893,1,0,1:0:0:0:
309,181,62063,6,0,P|277:173|240:164,1,70,2|0,0:1|1:0,0:0:0:0:
208,94,62404,2,0,P|157:105|92:119,1,105,8|0,0:0|0:0,0:0:0:0:
105,116,62745,5,0,1:0:0:0:
53,175,62915,1,2,1:0:0:0:
99,243,63086,1,12,1:2:0:0:
99,243,63256,1,0,1:0:0:0:
174,225,63427,6,0,P|202:248|199:290,1,70,2|2,1:0|1:0,0:0:0:0:
161,345,63768,2,0,P|118:333|91:326,1,70,12|0,1:2|1:0,0:0:0:0:
33,278,64109,6,0,P|7:286|-22:294,2,35,12|8|0,0:2|0:0|1:0,0:0:0:0:
75,210,64450,2,0,P|44:199|23:190,2,35,12|8|0,0:2|0:0|1:0,0:0:0:0:
150,184,64790,2,0,P|133:155|123:135,2,35,12|8|0,0:2|0:0|1:0,0:0:0:0:
225,207,65131,2,0,P|228:174|231:151,2,35,12|8|0,0:2|0:0|1:0,0:0:0:0:
276,269,65472,5,4,1:2:0:0:
256,192,65643,12,2,68200,1:0:0:0:
322,65,70927,5,4,1:2:0:0:
255,26,71097,1,2,0:0:0:0:
215,92,71268,2,0,P|227:133|241:183,1,70,8|2,0:0|0:0,0:0:0:0:
301,200,71609,6,0,P|303:242|273:261,1,70,2|0,0:1|1:2,0:0:0:0:
212,284,71950,2,0,P|158:267|121:256,1,70,8|2,0:1|0:0,0:0:0:0:
95,206,72290,6,0,P|102:180|108:159,3,35,0|0|0|0,1:2|0:0|1:2|0:0,0:0:0:0:
116,165,72631,1,8,0:1:0:0:
193,196,72802,1,2,0:0:0:0:
193,196,72972,6,0,P|204:141|214:108,1,70,2|0,0:1|1:0,0:0:0:0:
165,61,73313,2,0,P|173:30|225:24,1,70,8|2,0:0|0:0,0:0:0:0:
284,43,73654,5,0,1:2:0:0:
284,43,73825,1,2,0:0:0:0:
359,63,73995,6,0,P|349:105|340:149,1,70,12|2,0:0|1:2,0:0:0:0:
280,177,74336,2,0,P|311:206|344:236,1,70,8|2,0:1|1:2,0:0:0:0:
339,302,74677,2,0,P|380:289|422:275,1,70,12|2,0:0|1:2,0:0:0:0:
478,311,75018,6,0,P|484:280|491:256,3,35,4|2|0|0,1:2|1:0|1:0|1:2,0:0:0:0:
495,270,75359,1,2,1:0:0:0:
474,196,75529,1,0,1:0:0:0:
402,223,75700,2,0,P|390:187|375:147,1,70,2|8,1:0|0:0,0:0:0:0:
440,110,76040,6,0,P|444:88|448:71,3,35,8|2|2|2,0:0|0:0|0:0|0:0,0:0:0:0:
456,67,76381,6,0,P|444:36|402:27,1,70,2|2,1:0|1:0,0:0:0:0:
339,53,76722,1,8,1:0:0:0:
266,188,77063,5,2,1:0:0:0:
224,253,77234,1,2,1:0:0:0:
153,222,77404,1,8,1:0:0:0:
19,144,77745,5,2,1:0:0:0:
164,89,78086,1,2,1:0:0:0:
309,34,78427,1,2,1:0:0:0:
309,34,78597,1,2,1:2:0:0:
358,93,78768,6,0,P|380:100|414:109,3,35,10|2|2|2,0:0|0:0|0:0|0:0,0:0:0:0:
402,97,79109,6,0,P|425:65|461:77,1,70,2|2,1:0|1:0,0:0:0:0:
511,117,79450,2,0,P|517:149|487:171,1,70,8|2,1:0|0:1,0:0:0:0:
447,235,79790,5,2,1:0:0:0:
376,203,79961,1,8,0:0:0:0:
306,169,80131,2,0,P|324:232|334:263,1,70,8|2,1:0|0:1,0:0:0:0:
381,290,80472,5,2,1:0:0:0:
249,368,80813,1,2,1:0:0:0:
171,233,81154,1,2,1:0:0:0:
171,233,81325,1,2,1:2:0:0:
121,292,81495,2,0,P|81:303|46:312,1,70,8|2,0:0|0:2,0:0:0:0:
0,254,81836,6,0,P|-8:218|77:179,1,140,0|0,1:0|1:0,0:0:0:0:
143,210,82347,1,2,0:1:0:0:
143,210,82518,2,0,P|206:195|211:130,1,140,0|0,1:0|1:0,0:0:0:0:
160,70,83029,1,8,0:0:0:0:
217,18,83200,6,0,P|264:28|313:37,1,70,0|8,1:0|0:0,0:0:0:0:
322,100,83540,2,0,P|393:84|475:65,1,140,0|0,1:0|1:0,0:0:0:0:
509,127,84052,1,8,0:0:0:0:
448,172,84222,1,0,1:0:0:0:
448,172,84393,1,0,1:0:0:0:
497,232,84563,6,0,P|504:273|461:292,1,70,4|2,1:2|1:2,0:0:0:0:
436,350,84904,2,0,P|396:335|402:288,1,70,2|2,1:0|1:2,0:0:0:0:
322,276,85245,6,0,P|334:223|340:185,1,70,2|2,1:0|1:2,0:0:0:0:
399,162,85586,2,0,P|389:113|382:84,1,70,2|2,1:0|1:2,0:0:0:0:
330,42,85927,5,2,1:0:0:0:
330,42,86097,1,2,1:2:0:0:
259,72,86268,1,2,1:0:0:0:
291,142,86438,1,2,1:2:0:0:
325,211,86609,6,0,P|298:242|264:239,1,70,2|2,1:0|1:2,0:0:0:0:
198,217,86950,2,0,P|167:190|170:156,1,70,2|2,1:0|1:2,0:0:0:0:
202,95,87290,6,0,P|195:65|190:43,3,35,2|0|2|0,1:0|1:0|1:2|1:0,0:0:0:0:
161,40,87631,2,0,P|116:50|79:58,1,70,2|2,1:0|1:2,0:0:0:0:
40,112,87972,6,0,L|28:160,3,35,2|0|2|0,1:0|1:0|1:2|1:0,0:0:0:0:
65,172,88313,2,0,P|76:208|86:244,1,70,2|2,1:0|1:2,0:0:0:0:
36,299,88654,6,0,P|6:327|30:368,1,70,0|2,1:0|0:0,0:0:0:0:
81,383,88995,2,0,P|111:355|87:314,1,70,2|2,0:1|0:0,0:0:0:0:
144,264,89336,6,0,P|234:241|355:210,1,210.000008010865,2|4,0:0|1:2,0:0:0:0:
256,192,95472,12,2,98200,0:0:0:0:
324,69,99563,6,0,P|275:54|248:46,1,70,2|2,1:0|0:0,0:0:0:0:
198,98,99904,2,0,P|188:130|225:161,2,70,2|2|2,1:0|0:0|1:0,0:0:0:0:
283,136,100415,5,0,1:0:0:0:
283,136,100586,2,0,P|269:193|249:283,1,140,8|2,0:0|0:1,0:0:0:0:
91,360,101268,2,0,P|54:344|43:235,1,140,4|2,1:2|0:1,0:0:0:0:
127,99,101950,2,0,P|171:111|204:121,1,70,4|0,1:2|0:0,0:0:0:0:
234,183,102290,6,0,P|286:168|324:158,1,70,8|0,0:0|1:0,0:0:0:0:
343,99,102631,2,0,P|347:60|387:52,1,70,8|0,0:0|1:0,0:0:0:0:
443,18,102972,5,10,0:0:0:0:
494,76,103143,1,2,1:0:0:0:
436,126,103313,2,0,P|424:170|412:210,1,70,8|0,0:0|0:0,0:0:0:0:
474,245,103654,5,0,0:2:0:0:
330,356,103995,1,4,1:2:0:0:
253,189,104336,1,4,1:2:0:0:
317,231,104506,5,0,1:0:0:0:
274,294,104677,2,0,P|218:312|182:321,1,70,8|2,0:0|0:0,0:0:0:0:
149,366,105018,6,0,P|110:366|99:330,1,70,4|0,1:2|0:1,0:0:0:0:
26,312,105359,1,8,0:0:0:0:
88,262,105529,1,2,0:0:0:0:
88,262,105700,2,0,P|74:209|65:182,1,70,2|2,1:2|1:0,0:0:0:0:
12,142,106040,1,8,0:0:0:0:
73,94,106211,6,0,P|107:79|155:155,1,140,6|2,1:2|0:1,0:0:0:0:
187,220,106722,1,8,0:0:0:0:
263,195,106893,1,0,1:0:0:0:
263,195,107063,2,0,P|273:151|283:112,1,70,2|0,0:1|1:0,0:0:0:0:
235,63,107404,1,8,0:0:0:0:
295,14,107575,6,0,P|350:27|441:48,1,140,4|2,1:2|0:1,0:0:0:0:
499,84,108086,1,8,0:0:0:0:
456,148,108256,1,0,1:0:0:0:
456,148,108427,6,0,P|413:152|413:188,1,70,2|0,0:1|1:0,0:0:0:0:
453,235,108768,2,0,P|494:256|469:320,1,105,8|0,0:0|0:0,0:0:0:0:
487,308,109109,5,0,1:0:0:0:
429,358,109279,1,2,1:0:0:0:
387,296,109450,1,12,1:2:0:0:
387,296,109620,1,0,1:0:0:0:
325,342,109790,6,0,P|276:352|238:361,1,70,2|2,1:0|1:0,0:0:0:0:
195,310,110131,2,0,P|189:268|225:250,1,70,12|0,1:2|1:0,0:0:0:0:
264,199,110472,6,0,P|285:205|311:212,2,35,12|8|0,0:2|0:0|1:0,0:0:0:0:
219,136,110813,2,0,P|238:123|256:111,2,35,12|8|0,0:2|0:0|1:0,0:0:0:0:
141,131,111154,2,0,P|142:108|144:86,2,35,12|8|0,0:2|0:0|1:0,0:0:0:0:
87,187,111495,2,0,P|70:170|55:155,2,35,12|8|0,0:2|0:0|1:0,0:0:0:0:
138,245,111836,5,4,1:2:0:0:
71,284,112006,1,2,0:0:0:0:
118,346,112177,2,0,P|125:371|168:373,1,70,8|2,0:0|0:0,0:0:0:0:
225,328,112518,6,0,P|274:317|305:309,1,70,2|0,0:1|1:2,0:0:0:0:
354,361,112859,2,0,P|407:348|441:340,1,70,8|2,0:1|0:0,0:0:0:0:
487,302,113200,6,0,P|492:271|495:255,3,35,0|0|0|0,1:2|0:0|1:2|0:0,0:0:0:0:
484,259,113540,1,8,0:1:0:0:
415,223,113711,1,2,0:0:0:0:
415,223,113881,6,0,P|401:165|395:134,1,70,2|0,0:1|1:0,0:0:0:0:
467,120,114222,2,0,P|502:92|481:53,1,70,8|2,0:0|0:0,0:0:0:0:
441,20,114563,5,0,1:2:0:0:
441,20,114734,1,2,0:0:0:0:
379,65,114904,2,0,P|334:77|303:85,1,70,12|2,0:0|1:2,0:0:0:0:
300,77,115160,1,0,0:0:0:0:
290,71,115245,6,0,P|282:28|245:15,1,70,8|2,0:0|1:2,0:0:0:0:
194,54,115586,2,0,P|182:102|172:140,1,70,12|2,0:0|1:2,0:0:0:0:
236,171,115927,6,0,P|245:198|252:222,3,35,4|2|2|2,1:2|1:0|1:0|1:0,0:0:0:0:
241,216,116268,2,0,P|217:244|167:226,1,70,8|0,1:0|1:0,0:0:0:0:
116,209,116609,1,2,1:0:0:0:
21,88,116950,6,0,P|27:62|33:42,3,35,4|2|2|2,1:2|0:1|1:1|1:1,0:0:0:0:
21,45,117290,2,0,P|66:33|120:19,1,70,8|0,1:2|1:0,0:0:0:0:
154,68,117631,1,2,1:0:0:0:
292,139,117972,6,0,P|285:167|281:192,3,35,4|2|8|8,1:2|0:1|0:2|0:2,0:0:0:0:
287,185,118313,1,2,1:0:0:0:
213,160,118484,1,0,1:0:0:0:
186,232,118654,1,2,1:0:0:0:
