osu file format v14

[General]
AudioFilename: audio.mp3
AudioLeadIn: 0
PreviewTime: 29592
Countdown: 0
SampleSet: Soft
StackLeniency: 0.7
Mode: 0
LetterboxInBreaks: 0
WidescreenStoryboard: 0

[Editor]
Bookmarks: 13654,43654,76381
DistanceSpacing: 1.1
BeatDivisor: 4
GridSize: 32
TimelineZoom: 1.9

[Metadata]
Title:Gokuaku no Hana
TitleUnicode:極悪の華
Artist:onoken feat. Misaki
ArtistUnicode:onoken feat. 実咲
Creator:milr_
Version:Expert
Source:pop'n music 解明リドルズ
Tags:Kaimei Riddles acnozei mystycute mysty Rin KIKYO video game pop japanese electronic konami bemani
BeatmapID:4016778
BeatmapSetID:1941899

[Difficulty]
HPDrainRate:8
CircleSize:5
OverallDifficulty:8
ApproachRate:9
SliderMultiplier:1.4
SliderTickRate:1

[Events]
//Background and Video events
0,0,"99465183_p0.jpg",0,0
//Break Periods
2,68400,70327
2,90218,94872
//Storyboard Layer 0 (Background)
//Storyboard Layer 1 (Fail)
//Storyboard Layer 2 (Pass)
//Storyboard Layer 3 (Foreground)
//Storyboard Layer 4 (Overlay)
//Storyboard Sound Samples

[TimingPoints]
297,359.281437125748,4,2,1,40,1,0
297,-133.333333333333,4,2,1,40,0,0
1015,359.281437125748,4,2,1,40,1,0
1015,-133.333333333333,4,2,1,40,0,0
6044,-333.333333333333,4,2,1,40,0,0
7841,-133.333333333333,4,2,1,40,0,0
8200,340.909090909091,4,2,1,70,1,0
19109,-133.333333333333,4,2,1,50,0,0
24222,-100,4,2,1,70,0,0
29762,-100,4,2,1,40,0,0
30018,-100,4,2,1,80,0,0
31381,-80,4,2,1,80,0,0
31467,-80,4,2,1,5,0,0
31722,-80,4,2,1,80,0,0
31807,-80,4,2,1,5,0,0
32063,-80,4,2,1,80,0,0
32148,-80,4,2,1,5,0,0
32234,-100,4,2,1,80,0,0
32319,-100,4,2,1,5,0,0
32404,-100,4,2,1,80,0,0
32489,-100,4,2,1,40,0,0
32745,-100,4,2,1,80,0,0
34109,-80,4,2,1,80,0,0
34194,-80,4,2,1,5,0,0
34450,-80,4,2,1,80,0,0
34535,-80,4,2,1,5,0,0
34790,-80,4,2,1,80,0,0
34876,-80,4,2,1,5,0,0
34961,-100,4,2,1,80,0,0
35046,-100,4,2,1,5,0,0
35131,-100,4,2,1,80,0,0
42972,-200,4,2,1,80,0,0
43654,-66.6666666666667,4,2,1,80,0,0
43739,-66.6666666666667,4,2,1,5,0,0
43995,-66.6666666666667,4,2,1,80,0,0
44080,-66.6666666666667,4,2,1,5,0,0
44336,-66.6666666666667,4,2,1,80,0,0
44421,-66.6666666666667,4,2,1,5,0,0
44506,-80,4,2,1,80,0,0
46381,-66.6666666666667,4,2,1,80,0,0
46467,-66.6666666666667,4,2,1,5,0,0
46722,-66.6666666666667,4,2,1,80,0,0
46807,-66.6666666666667,4,2,1,5,0,0
47063,-66.6666666666667,4,2,1,80,0,0
47148,-66.6666666666667,4,2,1,5,0,0
47234,-80,4,2,1,80,0,0
54563,-66.6666666666667,4,2,1,80,0,0
54648,-66.6666666666667,4,2,1,5,0,0
54904,-66.6666666666667,4,2,1,80,0,0
54989,-66.6666666666667,4,2,1,5,0,0
55245,-66.6666666666667,4,2,1,80,0,0
55330,-66.6666666666667,4,2,1,5,0,0
55415,-80,4,2,1,80,0,0
57290,-66.6666666666667,4,2,1,80,0,0
57376,-66.6666666666667,4,2,1,5,0,0
57631,-66.6666666666667,4,2,1,80,0,0
57717,-66.6666666666667,4,2,1,5,0,0
57972,-66.6666666666667,4,2,1,80,0,0
58057,-66.6666666666667,4,2,1,5,0,0
58143,-80,4,2,1,80,0,0
63768,-66.6666666666667,4,2,1,80,0,0
65472,-100,4,2,1,70,0,0
76126,-100,4,2,1,40,0,0
76381,-100,4,2,1,80,0,0
77745,-80,4,2,1,80,0,0
77830,-80,4,2,1,5,0,0
78086,-80,4,2,1,80,0,0
78171,-80,4,2,1,5,0,0
78427,-80,4,2,1,80,0,0
78512,-80,4,2,1,5,0,0
78597,-100,4,2,1,80,0,0
78682,-100,4,2,1,5,0,0
78768,-100,4,2,1,80,0,0
78853,-100,4,2,1,40,0,0
79109,-100,4,2,1,80,0,0
80472,-80,4,2,1,80,0,0
80557,-80,4,2,1,5,0,0
80813,-80,4,2,1,80,0,0
80898,-80,4,2,1,5,0,0
81154,-80,4,2,1,80,0,0
81239,-80,4,2,1,5,0,0
81325,-100,4,2,1,80,0,0
81410,-100,4,2,1,5,0,0
81495,-100,4,2,1,80,0,0
88654,-133.333333333333,4,2,1,80,0,0
89336,-200,4,2,1,40,0,0
90018,-200,4,2,1,70,0,0
98200,-100,4,2,1,70,0,0
101609,-133.333333333333,4,2,1,80,0,0
101950,-100,4,2,1,80,0,0
102290,-80,4,2,1,80,0,0
103654,-66.6666666666667,4,2,1,80,0,0
103739,-66.6666666666667,4,2,1,5,0,0
103995,-66.6666666666667,4,2,1,80,0,0
104080,-66.6666666666667,4,2,1,5,0,0
104336,-66.6666666666667,4,2,1,80,0,0
104421,-66.6666666666667,4,2,1,5,0,0
104506,-80,4,2,1,80,0,0
110131,-66.6666666666667,4,2,1,80,0,0
111836,-100,4,2,1,70,0,0
118654,-200,4,2,1,70,0,0
118995,-200,4,2,1,5,0,0

[Colours]
Combo1 : 183,103,214
Combo2 : 171,191,91
Combo3 : 216,101,67
Combo4 : 117,204,113

[HitObjects]
299,288,297,6,0,P|280:228|266:188,1,105.000004005432
207,156,1015,5,2,0:3:0:0:
231,97,1374,1,2,0:0:0:0:
292,122,1733,1,2,0:0:0:0:
425,13,2092,5,2,0:0:0:0:
369,44,2272,1,2,0:0:0:0:
401,98,2452,1,2,0:3:0:0:
501,131,2631,1,0,0:0:0:0:
474,192,2811,1,2,0:0:0:0:
464,188,2991,1,2,0:0:0:0:
453,184,3170,2,0,P|416:196|389:204,1,52.5000020027161,2|0,0:0|0:0,0:0:0:0:
351,338,3529,2,0,P|397:351|440:363,1,78.7500030040742,2|0,0:0|0:0,0:0:0:0:
462,379,3889,5,2,0:3:0:0:
498,322,4248,1,2,0:0:0:0:
440,289,4607,1,2,0:0:0:0:
281,372,4967,5,2,0:0:0:0:
225,339,5146,1,2,0:0:0:0:
171,302,5326,1,2,0:3:0:0:
219,220,5506,1,2,0:0:0:0:
309,260,5685,1,2,0:0:0:0:
347,208,5865,1,2,0:0:0:0:
292,173,6044,6,0,B|303:137|303:137|408:81|408:81|440:94,1,188.999994232178,2|0,0:3|0:0,0:0:0:0:
446,99,7841,6,0,P|452:120|457:137,3,26.2500010013581,2|0|0|0,0:0|0:0|0:0|0:0,0:0:0:0:
508,0,8200,5,4,1:2:0:0:
449,27,8370,1,2,0:0:0:0:
504,162,8540,1,2,0:0:0:0:
376,206,8711,1,2,0:0:0:0:
327,162,8881,5,2,0:1:0:0:
455,207,9052,2,0,P|448:230|442:257,1,35,8|0,0:0|0:0,0:0:0:0:
400,290,9222,1,0,0:0:0:0:
449,375,9393,1,2,0:0:0:0:
500,335,9563,5,0,1:2:0:0:
503,329,9648,1,0,0:0:0:0:
506,323,9734,1,2,0:0:0:0:
509,318,9819,1,0,0:0:0:0:
512,313,9904,1,2,0:0:0:0:
335,275,10075,1,2,0:0:0:0:
298,362,10245,1,2,0:1:0:0:
176,331,10415,5,8,0:0:0:0:
179,325,10501,1,2,0:0:0:0:
182,319,10586,2,0,B|192:296|183:288|166:284,1,35,0|0,1:0|0:0,0:0:0:0:
101,260,10756,2,0,P|83:268|62:277,1,35,2|0,0:1|0:0,0:0:0:0:
14,372,10927,5,0,1:2:0:0:
74,339,11097,1,0,1:2:0:0:
16,232,11268,1,2,0:0:0:0:
144,172,11438,1,2,0:0:0:0:
254,291,11609,6,0,B|271:282|275:272|266:253,1,35,2|0,0:1|0:0,0:0:0:0:
237,133,11779,2,0,B|220:142|216:152|225:171,1,35,8|0,0:0|0:0,0:0:0:0:
172,233,11950,6,0,P|202:242|223:249,1,35,0|0,1:2|0:0,0:0:0:0:
296,181,12120,2,0,P|326:190|347:197,1,35,2|2,0:0|0:0,0:0:0:0:
420,129,12290,5,0,1:2:0:0:
453,139,12376,1,2,0:0:0:0:
491,151,12461,1,2,0:0:0:0:
479,187,12546,1,0,0:0:0:0:
465,224,12631,2,0,P|472:248|481:278,1,35,0|2,1:2|0:0,0:0:0:0:
425,63,12802,2,0,P|418:39|409:9,1,35,8|0,0:0|0:0,0:0:0:0:
504,0,12972,5,2,0:1:0:0:
294,34,13143,2,0,P|377:57|431:70,1,140,0|2,1:2|1:0,0:0:0:0:
429,69,13569,1,0,1:0:0:0:
429,69,13654,1,4,1:2:0:0:
386,125,13825,1,2,0:0:0:0:
505,160,13995,2,0,P|497:191|491:215,1,35,8|0,0:0|0:0,0:0:0:0:
399,222,14165,2,0,P|407:191|413:167,1,35,2|0,0:0|0:0,0:0:0:0:
456,252,14336,5,2,0:1:0:0:
498,307,14506,1,0,1:2:0:0:
350,378,14677,1,8,0:1:0:0:
270,245,14847,1,2,0:0:0:0:
229,301,15018,5,0,1:2:0:0:
205,320,15103,1,0,0:0:0:0:
173,350,15188,1,0,1:2:0:0:
158,329,15273,1,0,0:0:0:0:
120,306,15359,1,8,0:1:0:0:
14,369,15529,2,0,P|5:338|-4:313,1,35,2|0,0:0|0:0,0:0:0:0:
58,298,15700,5,2,0:1:0:0:
19,246,15870,1,0,1:0:0:0:
51,110,16040,1,8,0:0:0:0:
12,59,16211,1,2,0:0:0:0:
33,183,16381,6,0,P|58:175|84:167,1,35,0|0,1:2|0:0,0:0:0:0:
158,188,16552,2,0,P|133:196|107:204,1,35,2|0,0:0|0:0,0:0:0:0:
184,130,16722,5,12,0:0:0:0:
263,231,16893,1,2,1:2:0:0:
386,200,17063,6,0,P|412:177|390:127,1,70,8|2,0:0|1:2,0:0:0:0:
207,193,17404,2,0,P|181:216|203:266,1,70,12|2,0:0|1:2,0:0:0:0:
322,377,17745,1,4,1:2:0:0:
333,339,17830,1,2,1:0:0:0:
344,301,17915,1,2,1:1:0:0:
354,263,18001,1,2,1:1:0:0:
335,297,18086,5,2,1:0:0:0:
500,353,18256,1,0,1:0:0:0:
445,315,18427,1,0,1:0:0:0:
495,164,18597,1,0,1:0:0:0:
294,237,18768,1,8,0:0:0:0:
294,237,19109,6,0,P|283:192|269:132,1,105.000004005432,4|2,1:2|0:0,0:0:0:0:
395,82,19790,2,0,P|432:62|422:3,1,105.000004005432,2|2,0:0|0:0,0:0:0:0:
425,6,20302,1,2,0:0:0:0:
363,25,20472,6,0,P|334:35|332:68,1,52.5000020027161,2|0,0:1|0:0,0:0:0:0:
355,163,20813,2,0,P|373:192|398:190,1,52.5000020027161,2|2,0:0|0:0,0:0:0:0:
510,162,21154,1,2,0:0:0:0:
510,162,21495,5,2,0:0:0:0:
480,223,21665,1,2,0:0:0:0:
455,366,21836,5,2,0:1:0:0:
455,366,22006,2,0,P|439:305|426:258,1,105.000004005432,2|2,0:0|0:0,0:0:0:0:
365,243,22518,2,0,B|328:249|314:303|283:310,1,105.000004005432,2|2,0:1|0:0,0:0:0:0:
286,309,23029,1,2,0:0:0:0:
356,338,23200,6,0,P|377:349|361:386,1,52.5000020027161,2|2,0:1|0:0,0:0:0:0:
244,258,23540,1,2,0:1:0:0:
202,277,23711,1,2,0:1:0:0:
167,221,23881,5,2,0:1:0:0:
8,353,24052,1,0,1:1:0:0:
72,372,24222,2,0,B|87:337|87:337|54:304,1,70,8|0,1:1|0:0,0:0:0:0:
0,204,24563,6,0,B|9:161|9:161|26:148|26:148|36:104,1,105,4|0,1:2|0:0,0:0:0:0:
31,99,24904,2,0,P|92:112|146:121,1,105,8|0,0:0|0:0,0:0:0:0:
134,119,25245,5,2,0:1:0:0:
213,211,25415,1,8,0:0:0:0:
250,100,25586,1,2,0:1:0:0:
201,146,25756,1,0,1:1:0:0:
353,182,25927,5,2,1:1:0:0:
355,175,26097,1,2,1:1:0:0:
423,68,26268,1,8,0:0:0:0:
295,148,26438,1,0,0:0:0:0:
264,205,26609,5,2,0:1:0:0:
317,244,26779,1,8,0:0:0:0:
383,377,26950,1,2,0:1:0:0:
498,332,27120,1,0,1:1:0:0:
467,276,27290,6,0,P|443:284|421:291,1,35,2|0,1:1|0:0,0:0:0:0:
381,369,27461,2,0,P|357:361|335:354,1,35,2|0,1:1|0:0,0:0:0:0:
190,258,27802,1,2,1:1:0:0:
190,258,27972,6,0,B|185:241|185:241|209:220,1,35,8|0,0:0|0:0,0:0:0:0:
255,261,28142,2,0,B|260:278|260:278|236:299,1,35
103,365,28313,2,0,P|96:332|92:316,1,35,2|0,1:1|0:0,0:0:0:0:
157,315,28484,2,0,P|161:332|165:350,1,35,2|0,1:1|0:0,0:0:0:0:
169,354,28825,5,2,1:1:0:0:
20,287,28995,1,2,1:1:0:0:
121,176,29165,1,8,0:0:0:0:
267,242,29336,2,0,P|212:257|176:267,1,70,8|0,0:0|1:1,0:0:0:0:
324,360,29677,6,0,P|348:368|375:376,3,35,8|2|2|2,0:0|0:0|0:0|0:0,0:0:0:0:
365,366,30018,5,2,1:0:0:0:
344,299,30188,1,2,1:0:0:0:
490,203,30359,2,0,P|501:238|462:262,1,70,8|2,1:0|0:0,0:0:0:0:
471,262,30700,5,2,1:0:0:0:
283,218,30870,1,2,1:0:0:0:
301,155,31040,2,0,P|256:164|216:173,1,70,8|2,1:0|0:0,0:0:0:0:
223,165,31296,1,0,0:0:0:0:
214,161,31381,6,0,B|234:149|238:137|224:105,1,43.75,2|0,1:0|0:0,0:0:0:0:
183,309,31722,2,0,B|183:332|191:341|226:345,1,43.75,2|0,1:0|0:0,0:0:0:0:
70,208,32063,2,0,B|49:196|37:199|16:227,1,43.75,2|0,1:0|0:0,0:0:0:0:
112,281,32234,6,0,P|119:257|129:229,1,35,2|0,1:2|0:0,0:0:0:0:
0,384,32404,2,0,P|7:360|17:332,3,35,10|2|2|2,0:0|0:0|0:0|0:0,0:0:0:0:
7,342,32745,5,2,1:0:0:0:
76,368,32915,1,2,1:0:0:0:
156,222,33086,1,8,1:0:0:0:
303,270,33256,1,2,0:1:0:0:
272,366,33427,6,0,B|241:356|234:320|259:300,1,70,2|8,1:0|0:0,0:0:0:0:
432,251,33768,1,8,1:0:0:0:
408,312,33938,1,2,0:1:0:0:
502,378,34109,6,0,P|493:350|486:329,1,43.75,2|0,1:0|0:0,0:0:0:0:
494,216,34450,2,0,P|485:188|478:167,1,43.75,2|0,1:0|0:0,0:0:0:0:
486,54,34790,2,0,P|477:26|470:5,1,43.75,2|0,1:0|0:0,0:0:0:0:
459,114,34961,6,0,P|435:112|427:96,1,35,2|0,1:2|0:0,0:0:0:0:
290,66,35131,2,0,P|283:48|324:11,1,70,8|2,0:0|0:2,0:0:0:0:
367,45,35472,6,0,P|356:95|349:132,1,70,4|2,1:2|0:0,0:0:0:0:
229,177,35813,1,0,1:0:0:0:
203,117,35984,1,2,0:1:0:0:
147,6,36154,2,0,P|104:18|71:28,1,70,0|2,1:0|0:0,0:0:0:0:
12,142,36495,1,0,1:0:0:0:
129,196,36665,1,8,0:0:0:0:
212,78,36836,5,0,1:0:0:0:
337,133,37006,1,8,0:0:0:0:
294,249,37177,2,0,P|271:223|276:190,1,70,0|2,1:0|0:0,0:0:0:0:
482,147,37518,5,0,1:0:0:0:
502,208,37688,1,8,0:0:0:0:
343,207,37859,1,0,1:0:0:0:
340,201,38029,1,0,1:0:0:0:
287,160,38200,6,0,P|298:146|286:115,1,35,4|0,1:2|0:0,0:0:0:0:
347,64,38370,2,0,P|339:46|320:39,1,35,2|0,1:2|0:0,0:0:0:0:
229,3,38540,1,2,1:0:0:0:
186,51,38711,1,2,1:2:0:0:
53,8,38881,6,0,P|36:23|53:39,1,35,2|0,1:0|0:0,0:0:0:0:
150,107,39052,2,0,P|167:124|156:148,1,35,2|0,1:2|0:0,0:0:0:0:
6,194,39222,1,2,1:0:0:0:
30,254,39393,1,2,1:2:0:0:
1,372,39563,6,0,P|33:361|51:355,1,35,2|0,1:0|0:0,0:0:0:0:
104,192,39734,2,0,P|87:198|71:204,1,35,2|0,1:2|0:0,0:0:0:0:
190,375,39904,1,2,1:0:0:0:
167,315,40075,1,2,1:2:0:0:
256,247,40245,6,0,P|274:249|283:278,1,35,2|0,1:0|0:0,0:0:0:0:
353,374,40415,2,0,P|369:364|370:341,1,35,2|0,1:2|0:0,0:0:0:0:
504,327,40586,1,2,1:0:0:0:
471,230,40756,5,2,1:2:0:0:
473,224,40842,1,0,0:0:0:0:
476,218,40927,1,2,1:0:0:0:
505,182,41012,1,0,1:0:0:0:
472,148,41097,1,2,1:2:0:0:
439,115,41182,1,0,1:0:0:0:
458,75,41268,6,0,P|480:70|511:61,1,35,2|0,1:0|1:0,0:0:0:0:
382,193,41438,2,0,P|410:187|432:183,1,35,2|0,1:2|1:0,0:0:0:0:
326,157,41609,5,2,1:0:0:0:
278,144,41694,1,0,1:0:0:0:
256,192,41779,1,2,1:2:0:0:
234,240,41864,1,0,1:0:0:0:
186,227,41949,1,2,1:0:0:0:
96,191,42120,5,2,1:2:0:0:
90,194,42205,1,0,1:0:0:0:
84,197,42290,2,0,P|59:207|39:216,7,35,0|0|2|0|2|0|2|0,1:0|0:0|0:0|0:0|0:1|0:0|0:0|0:0,0:0:0:0:
45,207,42972,6,0,P|16:194|21:152,1,70,2|0,0:0|0:0,0:0:0:0:
117,12,43654,6,0,B|138:6|138:6|155:47,1,52.5000020027161,4|0,1:2|0:0,0:0:0:0:
289,174,43995,2,0,B|283:195|283:195|239:189,1,52.5000020027161,2|0,1:0|0:0,0:0:0:0:
18,255,44336,2,0,B|2:239|2:239|29:204,1,52.5000020027161,2|0,1:0|0:0,0:0:0:0:
27,209,44506,5,0,1:0:0:0:
184,313,44677,1,8,0:0:0:0:
153,371,44847,1,2,0:0:0:0:
58,314,45018,5,2,1:0:0:0:
60,308,45188,1,0,0:1:0:0:
274,231,45359,1,8,0:0:0:0:
245,334,45529,1,2,0:0:0:0:
273,371,45614,1,0,0:0:0:0:
311,355,45700,6,0,B|316:341|332:335|352:348,1,43.75,2|2,1:1|0:1,0:0:0:0:
470,377,45870,2,0,B|451:376|441:359|445:333,1,43.75,0|0,1:0|0:0,0:0:0:0:
413,265,46040,6,0,P|421:225|432:169,1,87.5,8|2,0:0|0:0,0:0:0:0:
438,175,46296,1,0,0:0:0:0:
503,192,46381,6,0,B|515:174|515:174|491:138,1,52.5000020027161,4|0,1:2|0:0,0:0:0:0:
256,192,46722,2,0,B|268:210|268:210|244:246,1,52.5000020027161,2|0,1:0|0:0,0:0:0:0:
23,192,47063,2,0,B|35:174|35:174|11:138,1,52.5000020027161,2|0,1:0|0:0,0:0:0:0:
12,143,47234,5,0,1:0:0:0:
159,33,47404,1,8,0:0:0:0:
69,3,47575,1,2,0:0:0:0:
142,177,47745,5,2,1:0:0:0:
201,155,47915,1,0,0:1:0:0:
263,317,48086,1,8,0:0:0:0:
86,369,48256,5,2,0:0:0:0:
69,337,48342,1,0,0:0:0:0:
97,315,48427,2,0,B|112:312|131:320|136:346,1,43.75,2|0,1:2|0:0,0:0:0:0:
210,356,48597,2,0,B|207:376|188:384|173:381,1,43.75,2|2,1:0|0:1,0:0:0:0:
256,236,48768,6,0,B|303:250|303:250|326:285|326:285|379:299,1,131.25,8|0,0:0|0:0,0:0:0:0:
364,295,49109,1,4,1:2:0:0:
507,254,49279,5,2,0:1:0:0:
457,384,49450,2,0,P|436:301|427:263,1,87.5,8|0,0:0|0:0,0:0:0:0:
441,294,49705,1,0,0:0:0:0:
446,287,49790,1,2,0:1:0:0:
396,237,49961,1,0,1:0:0:0:
381,74,50131,1,8,0:0:0:0:
509,148,50302,1,2,0:0:0:0:
456,190,50472,6,0,B|440:169|440:169|406:186,1,43.75,2|0,1:0|0:0,0:0:0:0:
328,223,50643,2,0,B|312:244|312:244|278:227,1,43.75,0|0,1:0|0:0,0:0:0:0:
221,146,50813,2,0,P|172:135|128:125,1,87.5,8|0,0:0|0:0,0:0:0:0:
108,150,51069,1,0,0:0:0:0:
77,175,51154,5,2,0:1:0:0:
132,227,51325,1,0,1:0:0:0:
275,104,51495,1,8,0:0:0:0:
145,0,51665,1,2,0:0:0:0:
102,54,51836,5,0,0:0:0:0:
0,14,52006,1,2,1:0:0:0:
160,148,52177,2,0,P|112:163|70:177,1,87.5,12|2,0:0|1:2,0:0:0:0:
12,314,52518,5,2,1:0:0:0:
175,370,52688,1,2,1:2:0:0:
274,225,52859,2,0,P|316:253|306:304,1,87.5,12|2,0:0|1:2,0:0:0:0:
296,311,53114,1,0,0:0:0:0:
272,333,53200,5,12,0:0:0:0:
208,198,53370,1,2,1:2:0:0:
314,106,53540,1,12,0:0:0:0:
389,238,53711,1,2,1:2:0:0:
466,376,53881,5,12,0:0:0:0:
510,222,54052,1,0,1:0:0:0:
502,220,54137,1,0,1:0:0:0:
493,217,54222,2,0,P|484:178|478:157,1,43.75,0|0,1:0|0:0,0:0:0:0:
446,265,54393,2,0,B|424:270|421:279|431:302,1,43.75,0|0,1:0|1:0,0:0:0:0:
322,182,54563,6,0,B|313:197|313:197|276:183,1,52.5000020027161,4|0,1:2|0:0,0:0:0:0:
125,369,54904,2,0,B|115:355|115:355|72:367,1,52.5000020027161,2|0,1:0|0:0,0:0:0:0:
2,90,55245,2,0,B|12:76|12:76|55:88,1,52.5000020027161,2|0,1:0|0:0,0:0:0:0:
54,81,55415,5,0,1:0:0:0:
208,10,55586,1,8,0:0:0:0:
138,202,55756,1,2,0:0:0:0:
29,146,55927,5,2,1:0:0:0:
27,152,56097,1,0,0:1:0:0:
221,211,56268,1,8,0:0:0:0:
196,149,56438,5,2,0:0:0:0:
217,113,56523,1,0,0:0:0:0:
257,132,56609,2,0,B|280:129|291:134|292:159,1,43.75,2|2,1:1|0:1,0:0:0:0:
367,208,56779,2,0,B|351:199|347:189|359:164,1,43.75,0|0,1:0|0:0,0:0:0:0:
471,45,56950,6,0,P|457:102|446:146,1,87.5,8|2,0:0|0:0,0:0:0:0:
442,134,57205,1,0,0:0:0:0:
496,179,57290,6,0,B|506:189|506:189|463:221,1,52.5000020027161,4|0,1:2|0:0,0:0:0:0:
333,32,57631,2,0,B|343:22|343:22|300:-10,1,52.5000020027161,2|0,1:0|0:0,0:0:0:0:
281,268,57972,2,0,B|251:291|251:291|261:301,1,52.5000020027161,2|0,1:0|0:0,0:0:0:0:
266,308,58143,5,0,1:0:0:0:
426,379,58313,1,8,0:0:0:0:
334,226,58484,1,2,0:0:0:0:
142,283,58654,5,2,1:0:0:0:
151,346,58825,1,0,0:1:0:0:
362,364,58995,1,8,0:0:0:0:
334,226,59165,1,2,0:0:0:0:
366,238,59251,1,0,0:0:0:0:
396,253,59336,6,0,B|417:259|428:275|422:293,1,43.75,2|0,1:2|0:0,0:0:0:0:
458,359,59506,2,0,B|485:352|482:332|466:312,1,43.75,2|2,1:0|0:1,0:0:0:0:
510,195,59677,1,8,0:0:0:0:
369,329,59847,6,0,B|322:316|322:316|291:341|291:341|236:325,1,131.25,4|0,1:2|0:0,0:0:0:0:
250,329,60188,1,2,0:1:0:0:
128,252,60359,1,8,0:0:0:0:
54,380,60529,1,0,1:0:0:0:
92,366,60614,1,0,1:0:0:0:
78,333,60700,5,2,0:1:0:0:
18,301,60870,1,0,1:0:0:0:
135,188,61040,1,8,0:0:0:0:
270,229,61211,6,0,P|309:209|284:117,1,131.25,4|0,1:2|0:0,0:0:0:0:
306,131,61552,1,2,0:1:0:0:
178,242,61722,1,8,0:0:0:0:
9,131,61893,1,0,1:0:0:0:
13,126,61978,1,0,1:0:0:0:
18,121,62063,6,0,B|27:102|41:96|65:112,1,43.75,2|0,0:1|0:0,0:0:0:0:
191,128,62234,2,0,P|191:100|165:93,1,43.75,0|0,1:0|0:0,0:0:0:0:
96,11,62404,6,0,P|84:78|69:156,1,131.25,8|0,0:0|0:0,0:0:0:0:
72,140,62745,1,0,1:0:0:0:
19,292,62915,5,2,1:0:0:0:
224,239,63086,1,12,1:2:0:0:
187,137,63256,1,0,1:0:0:0:
346,176,63427,6,0,B|352:203|352:203|326:220,1,43.75,2|0,1:0|0:0,0:0:0:0:
222,245,63597,2,0,B|208:253|208:253|214:280,1,43.75,2|0,1:0|0:0,0:0:0:0:
409,379,63768,6,0,B|424:347|424:347|515:330|515:330|491:381,1,157.500006008148,12|0,1:2|0:0,0:0:0:0:
502,356,64109,5,12,0:2:0:0:
502,356,64194,1,8,0:0:0:0:
502,356,64279,2,0,P|467:346|431:336,1,52.5000020027161,0|0,1:0|0:0,0:0:0:0:
333,182,64450,5,12,0:2:0:0:
333,182,64535,1,8,0:0:0:0:
333,182,64620,2,0,P|298:194|263:206,1,52.5000020027161,0|0,1:0|0:0,0:0:0:0:
206,323,64790,5,12,0:2:0:0:
162,337,64876,1,8,0:0:0:0:
117,355,64961,1,0,1:0:0:0:
71,374,65046,1,0,0:0:0:0:
38,336,65131,6,0,B|19:329|3:314|29:289,1,52.5000020027161,12|8,0:2|0:0,0:0:0:0:
157,188,65302,2,0,B|170:177|194:184|195:208,1,52.5000020027161,0|0,1:0|1:0,0:0:0:0:
256,372,65472,1,4,1:2:0:0:
256,192,65643,12,2,68200,1:0:0:0:
363,197,70927,5,4,1:2:0:0:
413,103,71097,1,2,0:0:0:0:
252,67,71268,2,0,P|260:98|267:132,1,35,8|0,0:0|0:0,0:0:0:0:
318,146,71438,2,0,P|326:118|334:92,1,35,2|0,0:0|0:0,0:0:0:0:
273,0,71609,5,2,0:1:0:0:
203,19,71779,1,0,1:2:0:0:
262,189,71950,1,8,0:1:0:0:
107,237,72120,1,2,0:0:0:0:
53,196,72290,5,0,1:2:0:0:
69,170,72376,1,0,0:0:0:0:
91,128,72461,1,0,1:2:0:0:
117,149,72546,1,0,0:0:0:0:
149,182,72631,1,8,0:1:0:0:
240,113,72802,2,0,B|244:96|241:86|219:77,1,35,2|0,0:0|0:0,0:0:0:0:
192,3,72972,5,2,0:1:0:0:
256,22,73143,1,0,1:0:0:0:
351,181,73313,1,8,0:0:0:0:
287,162,73484,1,2,0:0:0:0:
384,74,73654,6,0,P|407:68|431:62,1,35,0|0,1:2|0:0,0:0:0:0:
499,105,73825,2,0,P|476:111|452:117,1,35,2|0,0:0|0:0,0:0:0:0:
469,20,73995,5,12,0:0:0:0:
414,154,74165,1,2,1:2:0:0:
494,276,74336,6,0,B|519:262|526:234|506:205,1,70,8|2,0:1|1:2,0:0:0:0:
309,252,74677,2,0,B|284:266|277:294|297:323,1,70,12|2,0:0|1:2,0:0:0:0:
447,375,75018,5,4,1:2:0:0:
433,337,75103,1,2,1:0:0:0:
420,301,75188,1,0,1:0:0:0:
406,262,75273,1,0,1:2:0:0:
428,293,75359,5,2,1:0:0:0:
272,377,75529,1,0,1:0:0:0:
290,312,75700,1,2,1:0:0:0:
510,354,75870,1,8,0:0:0:0:
423,187,76040,2,0,P|392:195|371:202,3,35,8|2|2|2,0:0|0:0|0:0|0:0,0:0:0:0:
381,193,76381,5,2,1:0:0:0:
331,140,76552,1,2,1:0:0:0:
498,14,76722,2,0,P|504:46|459:62,1,70,8|2,1:0|0:0,0:0:0:0:
469,71,77063,5,2,1:0:0:0:
254,20,77234,1,2,1:0:0:0:
233,85,77404,2,0,P|247:127|261:174,1,70,8|2,1:0|0:0,0:0:0:0:
251,160,77660,1,0,0:0:0:0:
247,168,77745,6,0,B|222:174|210:166|200:140,1,43.75,2|0,1:0|0:0,0:0:0:0:
24,221,78086,2,0,B|31:196|44:189|71:194,1,43.75,2|0,1:0|0:0,0:0:0:0:
89,2,78427,2,0,B|106:20|105:35|88:56,1,43.75,2|0,1:0|0:0,0:0:0:0:
17,75,78597,6,0,P|43:83|72:91,1,35,2|0,1:2|0:0,0:0:0:0:
191,153,78768,2,0,P|162:162|133:170,3,35,10|2|2|2,0:0|0:0|0:0|0:0,0:0:0:0:
150,158,79109,5,2,1:0:0:0:
170,91,79279,1,2,1:0:0:0:
382,5,79450,1,8,1:0:0:0:
333,160,79620,1,2,0:1:0:0:
264,67,79790,6,0,P|258:107|294:127,1,70,2|8,1:0|0:0,0:0:0:0:
440,187,80131,1,8,1:0:0:0:
414,124,80302,1,2,0:1:0:0:
509,0,80472,6,0,L|492:57,1,43.75,2|0,1:0|0:0,0:0:0:0:
512,167,80813,2,0,L|495:224,1,43.75,2|0,1:0|0:0,0:0:0:0:
512,343,81154,2,0,L|495:400,1,43.75,2|0,1:0|0:0,0:0:0:0:
467,293,81325,6,0,P|480:276|508:288,1,35,2|0,1:2|0:0,0:0:0:0:
336,229,81495,2,0,P|345:262|352:297,1,70,8|2,0:0|0:2,0:0:0:0:
408,334,81836,6,0,P|398:367|345:365,1,70,0|2,1:0|0:0,0:0:0:0:
217,338,82177,1,0,1:0:0:0:
249,283,82347,1,2,0:1:0:0:
310,156,82518,2,0,P|241:183|223:192,1,70,0|2,1:0|0:0,0:0:0:0:
308,316,82859,1,0,1:0:0:0:
172,258,83029,1,8,0:0:0:0:
136,379,83200,5,0,1:0:0:0:
0,321,83370,1,8,0:0:0:0:
72,210,83540,2,0,P|73:172|44:152,1,70,0|2,1:0|0:0,0:0:0:0:
39,5,83881,5,0,1:0:0:0:
11,66,84052,1,8,0:0:0:0:
187,36,84222,1,0,1:0:0:0:
184,29,84393,1,0,1:0:0:0:
145,85,84563,6,0,P|136:117|130:141,1,35,4|0,1:2|0:0,0:0:0:0:
203,187,84734,2,0,P|211:217|219:248,1,35,2|0,1:2|0:0,0:0:0:0:
297,267,84904,1,2,1:0:0:0:
260,321,85075,1,2,1:2:0:0:
136,259,85245,6,0,P|138:240|163:232,1,35,2|0,1:0|0:0,0:0:0:0:
219,120,85415,2,0,P|246:134|246:154,1,35,2|0,1:2|0:0,0:0:0:0:
345,222,85586,1,2,1:0:0:0:
397,261,85756,1,2,1:2:0:0:
506,173,85927,6,0,P|496:142|489:121,1,35,2|0,1:0|0:0,0:0:0:0:
426,1,86097,2,0,P|417:31|411:52,1,35,2|0,1:2|0:0,0:0:0:0:
345,222,86268,1,2,1:0:0:0:
407,198,86438,1,2,1:2:0:0:
312,84,86609,6,0,P|310:64|287:65,1,35,2|0,1:0|0:0,0:0:0:0:
184,1,86779,2,0,P|166:8|175:23,1,35,2|0,1:2|0:0,0:0:0:0:
98,148,86950,1,2,1:0:0:0:
234,233,87120,5,2,1:2:0:0:
241,231,87205,1,0,0:0:0:0:
248,229,87290,1,2,1:0:0:0:
286,262,87376,1,0,1:0:0:0:
263,301,87461,1,2,1:2:0:0:
240,342,87546,1,0,1:0:0:0:
276,373,87631,2,0,P|297:367|330:360,1,35,2|0,1:0|1:0,0:0:0:0:
398,284,87802,2,0,P|421:277|450:270,1,35,2|0,1:2|1:0,0:0:0:0:
512,192,87972,5,2,1:0:0:0:
482,155,88057,1,0,1:0:0:0:
439,179,88143,1,2,1:2:0:0:
394,203,88228,1,0,1:0:0:0:
366,164,88313,1,2,1:0:0:0:
256,192,88484,5,2,1:2:0:0:
250,194,88569,1,0,1:0:0:0:
243,196,88654,2,0,P|212:204|180:213,1,52.5000020027161,0|2,1:0|0:0,0:0:0:0:
84,142,88995,5,2,0:1:0:0:
147,124,89165,1,2,0:0:0:0:
93,261,89336,6,0,P|67:219|-6:232,1,122.5,2|0,0:0|0:0,0:0:0:0:
0,224,90018,1,4,1:2:0:0:
256,192,95472,12,2,98200,0:0:0:0:
357,190,99052,5,0,1:0:0:0:
357,190,99137,1,0,1:0:0:0:
357,190,99222,2,0,P|314:179|279:170,1,70,8|0,1:0|1:0,0:0:0:0:
217,308,99563,5,2,1:0:0:0:
243,371,99734,1,2,0:0:0:0:
302,343,99904,1,2,1:0:0:0:
279,278,100075,1,2,0:0:0:0:
133,338,100245,5,2,1:0:0:0:
71,312,100415,1,0,1:0:0:0:
40,372,100586,2,0,P|19:291|9:255,1,105,8|0,0:0|0:0,0:0:0:0:
59,224,100927,5,2,0:1:0:0:
229,303,101268,2,0,P|261:307|278:271,1,70,4|0,1:2|0:0,0:0:0:0:
302,218,101609,6,0,P|356:235|394:246,1,78.7500030040742,2|0,0:1|0:0,0:0:0:0:
377,241,101950,5,4,1:2:0:0:
360,307,102120,1,0,0:0:0:0:
506,379,102290,5,8,0:0:0:0:
502,373,102461,1,0,1:0:0:0:
439,214,102631,1,8,0:0:0:0:
284,275,102802,5,0,1:0:0:0:
271,307,102887,1,0,0:0:0:0:
296,328,102972,2,0,B|306:343|302:350|340:350,1,43.75,10|0,0:0|0:0,0:0:0:0:
421,375,103143,2,0,B|423:358|418:350|399:344,1,43.75,2|2,1:0|0:1,0:0:0:0:
355,239,103313,6,0,P|408:224|447:211,1,87.5,8|0,0:0|0:0,0:0:0:0:
447,220,103569,1,0,0:0:0:0:
506,195,103654,6,0,B|513:179|513:179|479:150,1,52.5000020027161,0|0,0:2|0:0,0:0:0:0:
229,5,103995,2,0,B|222:21|222:21|256:50,1,52.5000020027161,4|0,1:2|0:0,0:0:0:0:
283,379,104336,2,0,B|290:363|290:363|256:334,1,52.5000020027161,4|0,1:2|0:0,0:0:0:0:
258,335,104506,5,0,1:0:0:0:
326,179,104677,1,8,0:0:0:0:
171,278,104847,1,2,0:0:0:0:
18,229,105018,5,4,1:2:0:0:
1,293,105188,1,0,0:1:0:0:
196,375,105359,1,8,0:0:0:0:
229,185,105529,1,2,0:0:0:0:
196,209,105614,1,0,0:0:0:0:
162,232,105700,6,0,B|155:250|156:262|184:280,1,43.75,2|0,1:2|0:0,0:0:0:0:
262,354,105870,2,0,B|285:344|287:334|274:314,1,43.75,2|2,1:0|0:1,0:0:0:0:
346,162,106040,1,8,0:0:0:0:
508,287,106211,6,0,B|464:273|464:273|433:292|433:292|376:278,1,131.25,6|0,1:2|0:0,0:0:0:0:
385,280,106552,1,2,0:1:0:0:
293,203,106722,1,8,0:0:0:0:
416,144,106893,1,0,1:0:0:0:
434,183,106978,1,0,1:0:0:0:
401,205,107063,5,2,0:1:0:0:
346,162,107234,1,0,1:0:0:0:
403,5,107404,1,8,0:0:0:0:
501,75,107575,6,0,B|528:97|528:97|510:161|510:161|480:134,1,131.25,4|0,1:2|0:0,0:0:0:0:
487,140,107915,1,2,0:1:0:0:
336,46,108086,1,8,0:0:0:0:
257,172,108256,5,0,1:0:0:0:
251,177,108342,1,0,1:0:0:0:
243,179,108427,2,0,B|213:185|204:174|201:155,1,43.75,2|0,0:1|0:0,0:0:0:0:
107,126,108597,2,0,B|107:108|112:99|139:92,1,43.75,0|0,1:0|0:0,0:0:0:0:
91,23,108768,6,0,B|121:13|121:13|173:71|173:71|217:56,1,131.25,8|0,0:0|0:0,0:0:0:0:
193,63,109109,1,0,1:0:0:0:
329,11,109279,5,2,1:0:0:0:
372,166,109450,1,12,1:2:0:0:
169,206,109620,1,0,1:0:0:0:
280,302,109790,6,0,B|298:291|298:291|286:264,1,43.75,2|0,1:0|0:0,0:0:0:0:
168,201,109961,2,0,B|150:212|150:212|162:239,1,43.75,2|0,1:0|0:0,0:0:0:0:
9,373,110131,6,0,B|30:341|30:341|115:319|115:319|92:372,1,157.500006008148,12|0,1:2|0:0,0:0:0:0:
102,347,110472,5,12,0:2:0:0:
102,347,110557,1,8,0:0:0:0:
102,347,110643,2,0,P|139:357|169:364,1,52.5000020027161,0|0,1:0|0:0,0:0:0:0:
253,227,110813,5,12,0:2:0:0:
253,227,110898,1,8,0:0:0:0:
253,227,110984,2,0,P|286:235|320:243,1,52.5000020027161,0|0,1:0|0:0,0:0:0:0:
459,372,111154,5,12,0:2:0:0:
490,332,111239,1,8,0:0:0:0:
461,297,111325,1,0,1:0:0:0:
416,312,111410,1,0,0:0:0:0:
411,359,111495,6,0,B|389:372|372:366|363:342,1,52.5000020027161,12|8,0:2|0:0,0:0:0:0:
397,223,111665,2,0,B|387:208|389:192|415:184,1,52.5000020027161,0|0,1:0|1:0,0:0:0:0:
478,204,111836,5,4,1:2:0:0:
498,143,112006,1,2,0:0:0:0:
392,124,112177,6,0,P|383:94|377:74,1,35,8|0,0:0|0:0,0:0:0:0:
484,39,112347,2,0,P|475:9|469:-11,1,35,2|0,0:0|0:0,0:0:0:0:
362,30,112518,5,2,0:1:0:0:
298,12,112688,1,0,1:2:0:0:
267,174,112859,1,8,0:1:0:0:
119,139,113029,1,2,0:0:0:0:
75,89,113200,5,0,1:2:0:0:
87,60,113285,1,0,0:0:0:0:
95,14,113370,1,0,1:2:0:0:
128,26,113455,1,0,0:0:0:0:
163,52,113540,1,8,0:1:0:0:
105,205,113711,1,2,0:0:0:0:
12,177,113881,5,2,0:1:0:0:
44,238,114052,1,0,1:0:0:0:
161,375,114222,1,8,0:0:0:0:
129,314,114393,1,2,0:0:0:0:
29,311,114563,6,0,P|58:303|86:297,1,35,0|0,1:2|0:0,0:0:0:0:
143,245,114734,2,0,P|114:253|86:259,1,35,2|0,0:0|0:0,0:0:0:0:
195,292,114904,5,12,0:0:0:0:
342,234,115075,1,2,1:2:0:0:
324,273,115160,1,0,0:0:0:0:
308,311,115245,5,8,0:0:0:0:
348,371,115415,1,2,1:2:0:0:
506,298,115586,2,0,P|506:256|471:242,1,70,12|2,0:0|1:2,0:0:0:0:
512,96,115927,5,4,1:2:0:0:
469,107,116012,1,2,1:0:0:0:
426,118,116097,1,2,1:0:0:0:
383,130,116182,1,2,1:0:0:0:
421,109,116268,5,8,1:0:0:0:
469,172,116438,1,0,1:0:0:0:
247,122,116609,1,2,1:0:0:0:
273,53,116950,5,4,1:2:0:0:
246,23,117035,1,2,0:1:0:0:
203,41,117120,1,2,1:1:0:0:
176,8,117205,1,2,1:1:0:0:
138,26,117290,5,8,1:2:0:0:
67,4,117461,1,0,1:0:0:0:
0,183,117631,1,2,1:0:0:0:
68,166,117972,5,4,1:2:0:0:
64,156,118057,1,2,0:1:0:0:
60,146,118143,1,8,0:2:0:0:
88,126,118228,1,8,0:2:0:0:
147,154,118313,5,2,1:0:0:0:
328,119,118484,1,0,1:0:0:0:
498,232,118654,6,0,L|430:218,1,70,2|0,1:0|0:0,0:0:0:0:
