osu file format v14

[General]
AudioFilename: audio.mp3
AudioLeadIn: 0
PreviewTime: 29592
Countdown: 0
SampleSet: Soft
StackLeniency: 0.7
Mode: 0
LetterboxInBreaks: 0
WidescreenStoryboard: 1

[Editor]
Bookmarks: 13654,43654,76381
DistanceSpacing: 1
BeatDivisor: 4
GridSize: 32
TimelineZoom: 1.2

[Metadata]
Title:Gokuaku no Hana
TitleUnicode:極悪の華
Artist:onoken feat. Misaki
ArtistUnicode:onoken feat. 実咲
Creator:milr_
Version:Easy
Source:pop'n music 解明リドルズ
Tags:Kaimei Riddles acnozei mystycute mysty Rin KIKYO video game pop japanese electronic konami bemani
BeatmapID:4024701
BeatmapSetID:1941899

[Difficulty]
HPDrainRate:2.5
CircleSize:2
OverallDifficulty:2.5
ApproachRate:3.5
SliderMultiplier:0.9
SliderTickRate:1

[Events]
//Background and Video events
0,0,"99465183_p0.jpg",0,0
//Break Periods
2,8400,12214
2,19309,23123
2,68400,69547
2,90218,94032
//Storyboard Layer 0 (Background)
//Storyboard Layer 1 (Fail)
//Storyboard Layer 2 (Pass)
//Storyboard Layer 3 (Foreground)
//Storyboard Layer 4 (Overlay)
//Storyboard Sound Samples

[TimingPoints]
297,359.281437125748,4,2,1,40,1,0
1015,359.281437125748,4,2,1,40,1,0
8200,340.909090909091,4,2,1,70,1,0
19109,-100,4,2,1,50,0,0
24222,-100,4,2,1,70,0,0
29762,-100,4,2,1,40,0,0
30018,-100,4,2,1,80,0,0
31722,-100,4,2,1,80,0,0
32063,-100,4,2,1,80,0,0
32234,-100,4,2,1,80,0,0
32489,-100,4,2,1,40,0,0
32745,-100,4,2,1,80,0,0
34450,-100,4,2,1,80,0,0
34790,-100,4,2,1,80,0,0
34961,-100,4,2,1,80,0,0
43995,-100,4,2,1,80,0,0
44336,-100,4,2,1,80,0,0
44506,-100,4,2,1,80,0,0
46722,-100,4,2,1,80,0,0
47063,-100,4,2,1,80,0,0
47234,-100,4,2,1,80,0,0
54904,-100,4,2,1,80,0,0
55245,-100,4,2,1,80,0,0
55415,-100,4,2,1,80,0,0
57631,-100,4,2,1,80,0,0
57972,-100,4,2,1,80,0,0
58143,-100,4,2,1,80,0,0
65472,-100,4,2,1,70,0,0
76126,-100,4,2,1,40,0,0
76381,-100,4,2,1,80,0,0
78086,-100,4,2,1,80,0,0
78427,-100,4,2,1,80,0,0
78597,-100,4,2,1,80,0,0
78853,-100,4,2,1,40,0,0
79109,-100,4,2,1,80,0,0
80813,-100,4,2,1,80,0,0
81154,-100,4,2,1,80,0,0
81325,-100,4,2,1,80,0,0
89336,-100,4,2,1,40,0,0
90018,-100,4,2,1,70,0,0
101609,-100,4,2,1,80,0,0
103995,-100,4,2,1,80,0,0
104336,-100,4,2,1,80,0,0
104506,-100,4,2,1,80,0,0
111836,-100,4,2,1,70,0,0

[Colours]
Combo1 : 183,103,214
Combo2 : 171,191,91
Combo3 : 216,101,67
Combo4 : 117,204,113

[HitObjects]
161,184,1015,6,0,P|173:136|294:104,1,180,2|2,0:3|0:0,0:0:0:0:
368,135,2092,1,2,0:0:0:0:
452,166,2452,2,0,P|440:227|429:271,2,90,2|2|2,0:3|0:0|0:0,0:0:0:0:
339,25,3889,6,0,P|250:42|150:59,1,180,2|2,0:3|0:0,0:0:0:0:
114,133,4967,1,2,0:0:0:0:
192,176,5326,2,0,P|212:199|205:260,2,90,2|2|2,0:3|0:0|0:3,0:0:0:0:
256,192,6404,12,4,8200,1:2:0:0:
221,73,13654,6,0,P|169:71|145:107,1,90,4|8,1:2|0:0,0:0:0:0:
78,156,14336,2,0,P|94:211|106:256,1,90,2|8,0:1|0:1,0:0:0:0:
188,269,15018,2,0,P|179:313|168:365,2,90,0|8|2,1:2|0:1|0:1,0:0:0:0:
236,193,16040,1,8,0:0:0:0:
311,242,16381,6,0,P|353:250|391:205,1,90,0|12,1:2|0:0,0:0:0:0:
465,176,17063,2,0,P|481:132|449:87,1,90,8|12,0:0|0:0,0:0:0:0:
406,25,17745,1,4,1:2:0:0:
319,51,18086,1,2,1:0:0:0:
234,80,18427,1,0,1:0:0:0:
166,246,19109,5,4,1:2:0:0:
301,42,24563,6,0,P|239:30|195:22,1,90,4|8,1:2|0:0,0:0:0:0:
141,81,25245,2,0,P|133:115|182:162,1,90,2|2,0:1|0:1,0:0:0:0:
224,223,25927,2,0,P|212:271|200:322,2,90,2|8|2,1:1|0:0|0:1,0:0:0:0:
302,178,26950,1,2,0:1:0:0:
364,242,27290,5,2,1:1:0:0:
494,117,27972,2,0,P|485:54|412:31,1,135,8|2,0:0|1:1,0:0:0:0:
308,98,28995,2,0,P|293:138|236:138,1,90,2|8,1:1|0:0,0:0:0:0:
181,87,29677,1,8,0:0:0:0:
112,29,30018,5,2,1:0:0:0:
41,84,30359,1,8,1:0:0:0:
105,147,30700,2,0,P|139:197|126:231,1,90,2|8,1:0|1:0,0:0:0:0:
69,285,31381,2,0,P|51:344|38:389,2,90,2|2|2,1:0|1:0|1:0,0:0:0:0:
228,200,32745,6,0,P|273:212|321:227,1,90,2|8,1:0|1:0,0:0:0:0:
402,243,33427,2,0,P|417:184|428:140,1,90,2|8,1:0|1:0,0:0:0:0:
425,65,34109,2,0,P|477:79|515:89,2,90,2|2|2,1:0|1:0|1:0,0:0:0:0:
354,9,35131,1,8,0:0:0:0:
298,79,35472,6,0,P|275:125|155:116,1,180,4|0,1:2|1:0,0:0:0:0:
84,73,36495,1,0,1:0:0:0:
29,144,36836,2,0,P|49:223|75:336,1,180,0|0,1:0|1:0,0:0:0:0:
150,361,37859,1,0,1:0:0:0:
222,306,38200,6,0,P|271:321|320:335,1,90,4|2,1:2|1:0,0:0:0:0:
382,281,38881,2,0,P|397:240|356:197,1,90,2|2,1:0|1:0,0:0:0:0:
286,181,39563,1,2,1:0:0:0:
239,103,39904,1,2,1:0:0:0:
303,39,40245,2,0,P|361:56|402:67,1,90,2|2,1:0|1:0,0:0:0:0:
256,192,40927,12,0,42290,1:0:0:0:
213,262,43654,5,4,1:2:0:0:
170,341,43995,1,2,1:0:0:0:
85,310,44336,2,0,P|44:286|48:234,1,90,2|8,1:0|0:0,0:0:0:0:
84,168,45018,2,0,P|71:123|56:69,2,90,2|8|2,1:0|0:0|1:1,0:0:0:0:
168,198,46040,1,8,0:0:0:0:
250,234,46381,5,4,1:2:0:0:
299,158,46722,1,2,1:0:0:0:
378,200,47063,2,0,P|435:201|452:171,1,90,2|8,1:0|0:0,0:0:0:0:
510,109,47745,2,0,P|498:62|485:13,2,90,2|8|2,1:0|0:0|1:2,0:0:0:0:
330,125,49109,6,0,P|270:137|234:143,1,90,4|8,1:2|0:0,0:0:0:0:
181,209,49790,2,0,P|171:257|206:291,1,90,2|8,0:1|0:0,0:0:0:0:
285,293,50472,2,0,P|268:349|257:383,2,90,2|8|2,1:0|0:0|0:1,0:0:0:0:
348,228,51495,1,8,0:0:0:0:
415,61,52177,5,12,0:0:0:0:
346,2,52518,2,0,P|305:11|252:25,1,90,2|12,1:0|0:0,0:0:0:0:
206,96,53200,2,0,P|220:154|231:200,2,90,12|12|12,0:0|0:0|0:0,0:0:0:0:
29,132,54563,5,4,1:2:0:0:
0,218,54904,1,2,1:0:0:0:
84,249,55245,2,0,P|131:263|186:278,1,90,2|8,1:0|0:0,0:0:0:0:
260,270,55927,2,0,P|272:318|281:368,2,90,2|8|2,1:0|0:0|1:1,0:0:0:0:
310,195,56950,1,8,0:0:0:0:
259,120,57290,5,4,1:2:0:0:
177,158,57631,1,2,1:0:0:0:
124,84,57972,2,0,P|119:37|169:10,1,90,2|8,1:0|0:0,0:0:0:0:
235,36,58654,2,0,P|285:50|327:61,2,90,2|8|2,1:0|0:0|1:2,0:0:0:0:
103,66,59847,6,0,P|52:88|46:171,1,135,4|8,1:2|0:0,0:0:0:0:
94,233,60700,1,2,0:1:0:0:
214,172,61211,2,0,P|265:186|350:206,1,135,4|8,1:2|0:0,0:0:0:0:
432,224,62063,1,2,0:1:0:0:
408,310,62404,1,8,0:0:0:0:
239,372,63086,5,12,1:2:0:0:
175,309,63427,2,0,P|171:264|210:237,1,90,2|12,1:0|1:2,0:0:0:0:
272,179,64109,2,0,P|262:124|254:73,2,90,12|12|12,0:2|0:2|0:2,0:0:0:0:
347,228,65131,1,12,0:2:0:0:
404,158,65472,1,4,1:2:0:0:
256,192,65813,12,2,68200,1:0:0:0:
296,59,70927,6,0,P|241:46|194:36,1,90,4|8,1:2|0:0,0:0:0:0:
150,108,71609,2,0,P|143:143|188:190,1,90,2|8,0:1|0:1,0:0:0:0:
244,240,72290,2,0,P|231:287|213:342,2,90,0|8|2,1:2|0:1|0:1,0:0:0:0:
320,192,73313,1,8,0:0:0:0:
397,146,73654,6,0,P|439:164|449:221,1,90,0|12,1:2|0:0,0:0:0:0:
498,281,74336,2,0,P|494:317|442:340,1,90,8|12,0:1|0:0,0:0:0:0:
365,372,75018,1,4,1:2:0:0:
279,342,75359,1,2,1:0:0:0:
194,310,75700,1,2,1:0:0:0:
284,154,76381,5,2,1:0:0:0:
243,73,76722,1,8,1:0:0:0:
162,112,77063,2,0,P|139:139|86:140,1,90,2|8,1:0|1:0,0:0:0:0:
15,85,77745,2,0,P|29:36|41:-4,2,90,2|2|2,1:0|1:0|1:0,0:0:0:0:
85,251,79109,6,0,P|98:287|115:346,1,90,2|8,1:0|1:0,0:0:0:0:
196,369,79790,2,0,P|250:364|266:321,1,90,2|8,1:0|1:0,0:0:0:0:
321,265,80472,2,0,P|377:279|427:290,2,90,2|2|2,1:0|1:0|1:0,0:0:0:0:
245,215,81495,1,8,0:0:0:0:
193,288,81836,6,0,P|144:298|52:201,1,180,0|0,1:0|1:0,0:0:0:0:
11,138,82859,1,0,1:0:0:0:
70,70,83200,2,0,P|138:88|246:114,1,180,0|0,1:0|1:0,0:0:0:0:
308,176,84222,1,0,1:0:0:0:
247,242,84563,6,0,P|238:294|271:323,1,90,4|2,1:2|1:0,0:0:0:0:
336,368,85245,2,0,P|384:357|441:344,1,90,2|2,1:0|1:0,0:0:0:0:
495,293,85927,1,2,1:0:0:0:
443,219,86268,1,2,1:0:0:0:
392,144,86609,2,0,P|344:135|287:122,1,90,2|2,1:0|1:0,0:0:0:0:
256,192,87290,12,4,90018,1:2:0:0:
256,192,95472,12,2,98200,0:0:0:0:
301,113,99563,6,0,P|288:61|279:23,2,90,2|2|2,1:0|1:0|1:0,0:0:0:0:
381,153,100586,1,8,0:0:0:0:
465,184,100927,6,0,P|453:227|438:280,1,90,2|4,0:1|1:2,0:0:0:0:
384,341,101609,2,0,P|348:347|317:299,1,90,2|4,0:1|1:2,0:0:0:0:
257,241,102290,2,0,P|204:255|151:271,2,90,8|8|10,0:0|0:0|0:0,0:0:0:0:
307,166,103313,1,8,0:0:0:0:
348,85,103654,5,0,0:2:0:0:
301,8,103995,1,4,1:2:0:0:
224,55,104336,2,0,P|201:80|143:76,1,90,4|8,1:2|0:0,0:0:0:0:
60,103,105018,2,0,P|46:51|31:2,2,90,4|8|2,1:2|0:0|1:2,0:0:0:0:
9,228,106211,6,0,P|25:280|48:377,1,135,6|8,1:2|0:0,0:0:0:0:
131,378,107063,1,2,0:1:0:0:
165,247,107575,2,0,P|175:207|196:112,1,135,4|8,1:2|0:0,0:0:0:0:
175,27,108427,1,2,0:1:0:0:
262,5,108768,1,8,0:0:0:0:
353,159,109450,5,12,1:2:0:0:
267,185,109790,2,0,P|241:213|254:266,1,90,2|12,1:0|1:2,0:0:0:0:
335,289,110472,2,0,P|319:335|305:382,2,90,12|12|12,0:2|0:2|0:2,0:0:0:0:
421,263,111495,1,12,0:2:0:0:
505,231,111836,6,0,P|491:175|482:132,1,90,4|8,1:2|0:0,0:0:0:0:
408,94,112518,2,0,P|359:106|310:116,1,90,2|8,0:1|0:1,0:0:0:0:
255,177,113200,2,0,P|198:163|148:150,2,90,0|8|2,1:2|0:1|0:1,0:0:0:0:
304,253,114222,1,8,0:0:0:0:
248,324,114563,6,0,P|220:350|167:337,1,90,0|12,1:2|0:0,0:0:0:0:
86,314,115245,2,0,P|60:286|73:233,1,90,8|12,0:0|0:0,0:0:0:0:
109,157,115927,6,0,P|90:95|79:58,2,90,4|8|2,1:2|1:0|1:0,0:0:0:0:
193,189,116950,2,0,P|233:133|344:140,1,180,4|2,1:2|1:0,0:0:0:0:
390,206,117972,1,4,1:2:0:0:
353,288,118313,1,2,1:0:0:0:
266,263,118654,1,2,1:0:0:0:
