osu file format v14

[General]
AudioFilename: audio.mp3
AudioLeadIn: 0
PreviewTime: 29592
Countdown: 0
SampleSet: Soft
StackLeniency: 0.3
Mode: 0
LetterboxInBreaks: 0
WidescreenStoryboard: 1

[Editor]
Bookmarks: 117,297,476,656,835,1015,8200,19109,30018,43654,54563,65472,76381,90018,100927,111836,118654,118825,118995,119165,119336,119506,119677,119847,120018
DistanceSpacing: 0.1
BeatDivisor: 8
GridSize: 32
TimelineZoom: 3.299999

[Metadata]
Title:Gokuaku no Hana
TitleUnicode:極悪の華
Artist:onoken feat. Misaki
ArtistUnicode:onoken feat. 実咲
Creator:milr_
Version:Acno x Mysty's Expert
Source:pop'n music 解明リドルズ
Tags:Kaimei Riddles acnozei mystycute mysty Rin KIKYO video game pop japanese electronic konami bemani
BeatmapID:4043041
BeatmapSetID:1941899

[Difficulty]
HPDrainRate:6
CircleSize:4
OverallDifficulty:8
ApproachRate:9.3
SliderMultiplier:2
SliderTickRate:1

[Events]
//Background and Video events
0,0,"99465183_p0.jpg",0,0
//Break Periods
2,90218,98200
//Storyboard Layer 0 (Background)
//Storyboard Layer 1 (Fail)
//Storyboard Layer 2 (Pass)
//Storyboard Layer 3 (Foreground)
//Storyboard Layer 4 (Overlay)
//Storyboard Sound Samples

[TimingPoints]
297,359.281437125748,4,2,1,40,1,0
1015,359.281437125748,4,2,1,40,1,0
1015,-333.333333333333,4,2,1,40,0,0
3170,-250,4,2,1,40,0,0
3529,-166.666666666667,4,2,1,40,0,0
3889,-333.333333333333,4,2,1,40,0,0
8200,340.909090909091,4,2,1,70,1,0
9052,-62.5,4,2,1,70,0,0
9137,-100,4,2,1,5,0,0
9222,-62.5,4,2,1,70,0,0
9478,-100,4,2,1,70,0,0
9563,-62.5,4,2,1,70,0,0
9734,-166.666666666667,4,2,1,70,0,0
9819,-100,4,2,1,5,0,0
9904,-166.666666666667,4,2,1,70,0,0
10415,-100,4,2,1,70,0,0
10501,-100,4,2,1,70,0,0
10586,-62.5,4,2,1,70,0,0
10842,-100,4,2,1,5,0,0
10927,-62.5,4,2,1,70,0,0
11779,-166.666666666667,4,2,1,70,0,0
11864,-100,4,2,1,5,0,0
11950,-62.5,4,2,1,70,0,0
12205,-100,4,2,1,70,0,0
12290,-62.5,4,2,1,70,0,0
12631,-166.666666666667,4,2,1,70,0,0
12717,-100,4,2,1,70,0,0
12802,-55.5555555555556,4,2,1,70,0,0
13057,-100,4,2,1,5,0,0
13143,-83.3333333333333,4,2,1,70,0,0
16040,-100,4,2,1,70,0,0
16126,-100,4,2,1,5,0,0
16211,-100,4,2,1,70,0,0
16552,-166.666666666667,4,2,1,70,0,0
16637,-100,4,2,1,5,0,0
16722,-71.4285714285715,4,2,1,70,0,0
17404,-62.5,4,2,1,70,0,0
17660,-100,4,2,1,5,0,0
17745,-62.5,4,2,1,70,0,0
18768,-90.9090909090909,4,2,1,70,0,0
19023,-90.9090909090909,4,2,1,5,0,0
19109,-333.333333333333,4,2,1,50,0,0
24052,-125,4,2,1,50,0,0
24222,-83.3333333333333,4,2,1,70,0,0
24478,-83.3333333333333,4,2,1,5,0,0
24563,-166.666666666667,4,2,1,70,0,0
27290,-100,4,2,1,70,0,0
27376,-100,4,2,1,5,0,0
27461,-100,4,2,1,70,0,0
27546,-100,4,2,1,5,0,0
27802,-142.857142857143,4,2,1,70,0,0
27887,-142.857142857143,4,2,1,5,0,0
27972,-100,4,2,1,70,0,0
28057,-100,4,2,1,5,0,0
28143,-100,4,2,1,70,0,0
28228,-100,4,2,1,5,0,0
28313,-100,4,2,1,70,0,0
28398,-100,4,2,1,5,0,0
28484,-100,4,2,1,70,0,0
28569,-100,4,2,1,5,0,0
28825,-100,4,2,1,70,0,0
28910,-100,4,2,1,5,0,0
28995,-100,4,2,1,70,0,0
29080,-100,4,2,1,5,0,0
29165,-76.9230769230769,4,2,1,70,0,0
29251,-76.9230769230769,4,2,1,5,0,0
29336,-76.9230769230769,4,2,1,70,0,0
29421,-76.9230769230769,4,2,1,5,0,0
29506,-76.9230769230769,4,2,1,70,0,0
29677,-66.6666666666667,4,2,1,70,0,0
29762,-66.6666666666667,4,2,1,40,0,0
29932,-100,4,2,1,40,0,0
30018,-66.6666666666667,4,2,1,80,0,0
30359,-55.5555555555556,4,2,1,80,0,0
30614,-100,4,2,1,5,0,0
30700,-66.6666666666667,4,2,1,80,0,0
30785,-100,4,2,1,5,0,0
30870,-66.6666666666667,4,2,1,80,0,0
31040,-55.5555555555556,4,2,1,80,0,0
31296,-76.9230769230769,4,2,1,5,0,0
31381,-76.9230769230769,4,2,1,80,0,0
31467,-76.9230769230769,4,2,1,5,0,0
31722,-76.9230769230769,4,2,1,80,0,0
31807,-76.9230769230769,4,2,1,5,0,0
32063,-76.9230769230769,4,2,1,80,0,0
32148,-76.9230769230769,4,2,1,5,0,0
32234,-76.9230769230769,4,2,1,80,0,0
32404,-55.5555555555556,4,2,1,80,0,0
32489,-55.5555555555556,4,2,1,40,0,0
32660,-76.9230769230769,4,2,1,40,0,0
32745,-55.5555555555556,4,2,1,80,0,0
33086,-66.6666666666667,4,2,1,80,0,0
33171,-76.9230769230769,4,2,1,5,0,0
33256,-83.3333333333333,4,2,1,80,0,0
33342,-76.9230769230769,4,2,1,5,0,0
33427,-83.3333333333333,4,2,1,80,0,0
34194,-76.9230769230769,4,2,1,5,0,0
34450,-83.3333333333333,4,2,1,80,0,0
34535,-76.9230769230769,4,2,1,5,0,0
34790,-83.3333333333333,4,2,1,80,0,0
34876,-76.9230769230769,4,2,1,5,0,0
34961,-83.3333333333333,4,2,1,80,0,0
35131,-62.5,4,2,1,80,0,0
35387,-76.9230769230769,4,2,1,5,0,0
35472,-66.6666666666667,4,2,1,80,0,0
36665,-166.666666666667,4,2,1,80,0,0
36751,-71.4285714285714,4,2,1,5,0,0
36836,-166.666666666667,4,2,1,80,0,0
37177,-76.923076923077,4,2,1,80,0,0
38200,-100,4,2,1,80,0,0
38285,-71.4285714285714,4,2,1,5,0,0
38370,-100,4,2,1,80,0,0
38455,-71.4285714285714,4,2,1,5,0,0
38540,-100,4,2,1,80,0,0
38967,-71.4285714285714,4,2,1,5,0,0
39052,-100,4,2,1,80,0,0
39137,-71.4285714285714,4,2,1,5,0,0
39222,-100,4,2,1,80,0,0
39648,-71.4285714285714,4,2,1,5,0,0
39734,-100,4,2,1,80,0,0
39819,-71.4285714285714,4,2,1,5,0,0
39904,-100,4,2,1,80,0,0
41268,-125,4,2,1,80,0,0
41353,-71.4285714285714,4,2,1,80,0,0
41438,-125,4,2,1,80,0,0
41523,-71.4285714285714,4,2,1,80,0,0
41609,-125,4,2,1,80,0,0
43654,-71.4285714285714,4,2,1,80,0,0
43739,-71.4285714285714,4,2,1,5,0,0
43910,-71.4285714285714,4,2,1,5,0,0
43995,-71.4285714285714,4,2,1,80,0,0
44080,-71.4285714285714,4,2,1,5,0,0
44251,-71.4285714285714,4,2,1,5,0,0
44336,-62.5,4,2,1,80,0,0
44421,-62.5,4,2,1,5,0,0
44506,-62.5,4,2,1,80,0,0
44677,-83.3333333333333,4,2,1,80,0,0
45700,-333.333333333333,4,2,1,80,0,0
45870,-100,4,2,1,80,0,0
46040,-76.9230769230769,4,2,1,80,0,0
46296,-76.9230769230769,4,2,1,5,0,0
46381,-71.4285714285714,4,2,1,80,0,0
46467,-71.4285714285714,4,2,1,5,0,0
46637,-71.4285714285714,4,2,1,5,0,0
46722,-71.4285714285714,4,2,1,80,0,0
46807,-71.4285714285714,4,2,1,5,0,0
46978,-71.4285714285714,4,2,1,5,0,0
47063,-62.5,4,2,1,80,0,0
47148,-62.5,4,2,1,5,0,0
47234,-62.5,4,2,1,80,0,0
47404,-83.3333333333333,4,2,1,80,0,0
48427,-66.6666666666667,4,2,1,80,0,0
48512,-66.6666666666667,4,2,1,5,0,0
48597,-76.9230769230769,4,2,1,80,0,0
48682,-76.9230769230769,4,2,1,80,0,0
48768,-333.333333333333,4,2,1,80,0,0
49023,-333.333333333333,4,2,1,5,0,0
49109,-71.4285714285714,4,2,1,80,0,0
51495,-125,4,2,1,80,0,0
53200,-66.6666666666667,4,2,1,80,0,0
54563,-71.4285714285714,4,2,1,80,0,0
54648,-71.4285714285714,4,2,1,5,0,0
54819,-76.9230769230769,4,2,1,5,0,0
54904,-71.4285714285714,4,2,1,80,0,0
54989,-71.4285714285714,4,2,1,5,0,0
55160,-76.9230769230769,4,2,1,5,0,0
55245,-71.4285714285714,4,2,1,80,0,0
55330,-71.4285714285714,4,2,1,5,0,0
55415,-71.4285714285714,4,2,1,80,0,0
55586,-62.5,4,2,1,80,0,0
56268,-83.3333333333333,4,2,1,80,0,0
56609,-333.333333333333,4,2,1,80,0,0
56779,-100,4,2,1,80,0,0
56950,-76.9230769230769,4,2,1,80,0,0
57205,-76.9230769230769,4,2,1,5,0,0
57290,-71.4285714285714,4,2,1,80,0,0
57376,-71.4285714285714,4,2,1,5,0,0
57546,-76.9230769230769,4,2,1,5,0,0
57631,-71.4285714285714,4,2,1,80,0,0
57717,-71.4285714285714,4,2,1,5,0,0
57887,-76.9230769230769,4,2,1,5,0,0
57972,-71.4285714285714,4,2,1,80,0,0
58057,-71.4285714285714,4,2,1,5,0,0
58143,-71.4285714285714,4,2,1,80,0,0
58313,-62.5,4,2,1,80,0,0
58995,-83.3333333333333,4,2,1,80,0,0
59336,-333.333333333333,4,2,1,80,0,0
59421,-71.4285714285714,4,2,1,5,0,0
59506,-62.5,4,2,1,80,0,0
59592,-71.4285714285714,4,2,1,80,0,0
59677,-62.5,4,2,1,80,0,0
59847,-71.4285714285714,4,2,1,80,0,0
60103,-71.4285714285714,4,2,1,5,0,0
60188,-71.4285714285714,4,2,1,80,0,0
61467,-71.4285714285714,4,2,1,5,0,0
61552,-71.4285714285714,4,2,1,80,0,0
62063,-62.5,4,2,1,80,0,0
62148,-71.4285714285714,4,2,1,5,0,0
62234,-83.3333333333333,4,2,1,80,0,0
62319,-71.4285714285714,4,2,1,5,0,0
62404,-62.5,4,2,1,80,0,0
63427,-83.3333333333333,4,2,1,80,0,0
63512,-71.4285714285714,4,2,1,5,0,0
63597,-83.3333333333333,4,2,1,80,0,0
63768,-100,4,2,1,80,0,0
64023,-71.4285714285714,4,2,1,5,0,0
64109,-100,4,2,1,80,0,0
64279,-125,4,2,1,80,0,0
64364,-71.4285714285714,4,2,1,5,0,0
64450,-125,4,2,1,80,0,0
64705,-71.4285714285714,4,2,1,5,0,0
64790,-125,4,2,1,80,0,0
65472,-125,4,2,1,70,0,0
66580,-125,4,2,1,5,0,0
66665,-71.4285714285714,4,2,1,70,0,0
66751,-71.4285714285714,4,2,1,5,0,0
66836,-71.4285714285714,4,2,1,70,0,0
67773,-71.4285714285714,4,2,1,5,0,0
67859,-71.4285714285714,4,2,1,70,0,0
68114,-71.4285714285714,4,2,1,5,0,0
68200,-71.4285714285714,4,2,1,70,0,0
69222,-125,4,2,1,70,0,0
69307,-125,4,2,1,5,0,0
69393,-71.4285714285714,4,2,1,70,0,0
69478,-71.4285714285714,4,2,1,5,0,0
69563,-71.4285714285714,4,2,1,70,0,0
69904,-125,4,2,1,70,0,0
69989,-125,4,2,1,5,0,0
70075,-66.6666666666667,4,2,1,70,0,0
70330,-66.6666666666667,4,2,1,5,0,0
70415,-66.6666666666667,4,2,1,70,0,0
70671,-66.6666666666667,4,2,1,5,0,0
70756,-100,4,2,1,70,0,0
73313,-100,4,2,1,70,0,0
73398,-100,4,2,1,5,0,0
73484,-100,4,2,1,70,0,0
73825,-166.666666666667,4,2,1,70,0,0
73910,-166.666666666667,4,2,1,5,0,0
73995,-71.4285714285714,4,2,1,70,0,0
74677,-62.5,4,2,1,70,0,0
74932,-62.5,4,2,1,5,0,0
75018,-62.5,4,2,1,70,0,0
75529,-166.666666666667,4,2,1,70,0,0
75614,-166.666666666667,4,2,1,5,0,0
75700,-166.666666666667,4,2,1,70,0,0
75870,-71.4285714285714,4,2,1,70,0,0
75955,-66.6666666666667,4,2,1,5,0,0
76040,-333.333333333333,4,2,1,70,0,0
76126,-333.333333333333,4,2,1,40,0,0
76296,-333.333333333333,4,2,1,40,0,0
76381,-100,4,2,1,80,0,0
76722,-55.5555555555556,4,2,1,80,0,0
76978,-55.5555555555556,4,2,1,5,0,0
77063,-62.5,4,2,1,80,0,0
77148,-76.9230769230769,4,2,1,5,0,0
77234,-62.5,4,2,1,80,0,0
77404,-55.5555555555556,4,2,1,80,0,0
77660,-76.9230769230769,4,2,1,5,0,0
77745,-76.9230769230769,4,2,1,80,0,0
77830,-76.9230769230769,4,2,1,5,0,0
78086,-76.9230769230769,4,2,1,80,0,0
78171,-76.9230769230769,4,2,1,5,0,0
78427,-76.9230769230769,4,2,1,80,0,0
78512,-76.9230769230769,4,2,1,5,0,0
78597,-76.9230769230769,4,2,1,80,0,0
78768,-55.5555555555556,4,2,1,80,0,0
78853,-55.5555555555556,4,2,1,40,0,0
79023,-76.9230769230769,4,2,1,40,0,0
79109,-55.5555555555556,4,2,1,80,0,0
79450,-66.6666666666667,4,2,1,80,0,0
79535,-76.9230769230769,4,2,1,5,0,0
79620,-83.3333333333333,4,2,1,80,0,0
79705,-76.9230769230769,4,2,1,5,0,0
79790,-83.3333333333333,4,2,1,80,0,0
80472,-76.9230769230769,4,2,1,80,0,0
80557,-76.9230769230769,4,2,1,5,0,0
80813,-76.9230769230769,4,2,1,80,0,0
80898,-76.9230769230769,4,2,1,5,0,0
81154,-76.9230769230769,4,2,1,80,0,0
81239,-76.9230769230769,4,2,1,5,0,0
81325,-76.9230769230769,4,2,1,80,0,0
81495,-62.5,4,2,1,80,0,0
81751,-76.9230769230769,4,2,1,5,0,0
81836,-71.4285714285714,4,2,1,80,0,0
83029,-166.666666666667,4,2,1,80,0,0
83114,-76.9230769230769,4,2,1,5,0,0
83200,-166.666666666667,4,2,1,80,0,0
83540,-83.3333333333334,4,2,1,80,0,0
84563,-100,4,2,1,80,0,0
84648,-76.9230769230769,4,2,1,5,0,0
84734,-100,4,2,1,80,0,0
84819,-76.9230769230769,4,2,1,5,0,0
84904,-100,4,2,1,80,0,0
85245,-100,4,2,1,80,0,0
85330,-76.9230769230769,4,2,1,5,0,0
85415,-100,4,2,1,80,0,0
85501,-76.9230769230769,4,2,1,5,0,0
85586,-100,4,2,1,80,0,0
85927,-100,4,2,1,80,0,0
86012,-76.9230769230769,4,2,1,5,0,0
86097,-100,4,2,1,80,0,0
86183,-76.9230769230769,4,2,1,5,0,0
86268,-100,4,2,1,80,0,0
87631,-83.3333333333333,4,2,1,80,0,0
87717,-76.9230769230769,4,2,1,80,0,0
87802,-83.3333333333333,4,2,1,80,0,0
87887,-76.9230769230769,4,2,1,80,0,0
87972,-83.3333333333333,4,2,1,80,0,0
88654,-125,4,2,1,80,0,0
89336,-125,4,2,1,40,0,0
90018,-125,4,2,1,70,0,0
99563,-66.6666666666667,4,2,1,70,0,0
100330,-66.6666666666667,4,2,1,5,0,0
100415,-83.3333333333333,4,2,1,70,0,0
100501,-83.3333333333333,4,2,1,5,0,0
100586,-62.5,4,2,1,70,0,0
100842,-66.6666666666667,4,2,1,5,0,0
100927,-250,4,2,1,70,0,0
101182,-66.6666666666667,4,2,1,5,0,0
101268,-55.5555555555556,4,2,1,70,0,0
101523,-66.6666666666667,4,2,1,5,0,0
101609,-250,4,2,1,80,0,0
101864,-66.6666666666667,4,2,1,5,0,0
101950,-55.5555555555556,4,2,1,80,0,0
102205,-66.6666666666667,4,2,1,5,0,0
102290,-66.6666666666667,4,2,1,80,0,0
102376,-66.6666666666667,4,2,1,5,0,0
102461,-83.3333333333333,4,2,1,80,0,0
102546,-66.6666666666667,4,2,1,5,0,0
102631,-66.6666666666667,4,2,1,80,0,0
102717,-66.6666666666667,4,2,1,5,0,0
102802,-83.3333333333333,4,2,1,80,0,0
102887,-66.6666666666667,4,2,1,5,0,0
102972,-83.3333333333333,4,2,1,80,0,0
103313,-55.5555555555556,4,2,1,80,0,0
103569,-66.6666666666667,4,2,1,5,0,0
103654,-166.666666666667,4,2,1,80,0,0
103739,-166.666666666667,4,2,1,5,0,0
103910,-66.6666666666667,4,2,1,5,0,0
103995,-55.5555555555556,4,2,1,80,0,0
104080,-55.5555555555556,4,2,1,5,0,0
104251,-66.6666666666667,4,2,1,5,0,0
104336,-66.6666666666667,4,2,1,80,0,0
104421,-66.6666666666667,4,2,1,5,0,0
104506,-83.3333333333333,4,2,1,80,0,0
104592,-66.6666666666667,4,2,1,5,0,0
104677,-66.6666666666667,4,2,1,80,0,0
104762,-66.6666666666667,4,2,1,5,0,0
104847,-83.3333333333333,4,2,1,80,0,0
104932,-66.6666666666667,4,2,1,5,0,0
105018,-55.5555555555556,4,2,1,80,0,0
105529,-100,4,2,1,80,0,0
105614,-66.6666666666667,4,2,1,5,0,0
105700,-100,4,2,1,80,0,0
106211,-62.5,4,2,1,80,0,0
106467,-66.6666666666667,4,2,1,5,0,0
106552,-62.5,4,2,1,80,0,0
107915,-62.5,4,2,1,80,0,0
108768,-83.3333333333333,4,2,1,80,0,0
109023,-66.6666666666667,4,2,1,5,0,0
109109,-83.3333333333333,4,2,1,80,0,0
110131,-55.5555555555556,4,2,1,80,0,0
110387,-66.6666666666667,4,2,1,5,0,0
110472,-55.5555555555556,4,2,1,80,0,0
110643,-100,4,2,1,80,0,0
110728,-66.6666666666667,4,2,1,5,0,0
110813,-100,4,2,1,80,0,0
111069,-66.6666666666667,4,2,1,5,0,0
111154,-100,4,2,1,80,0,0
111495,-83.3333333333333,4,2,1,80,0,0
111580,-66.6666666666667,4,2,1,80,0,0
111665,-83.3333333333333,4,2,1,80,0,0
111751,-66.6666666666667,4,2,1,80,0,0
111836,-83.3333333333333,4,2,1,70,0,0
112859,-100,4,2,1,70,0,0
112944,-100,4,2,1,5,0,0
113029,-100,4,2,1,70,0,0
114307,-100,4,2,1,5,0,0
114393,-100,4,2,1,70,0,0
114734,-100,4,2,1,70,0,0
114904,-66.6666666666667,4,2,1,70,0,0
114989,-66.6666666666667,4,2,1,5,0,0
115075,-66.6666666666667,4,2,1,70,0,0
115245,-55.5555555555556,4,2,1,70,0,0
115330,-55.5555555555556,4,2,1,5,0,0
115415,-55.5555555555556,4,2,1,70,0,0
115586,-55.5555555555556,4,2,1,70,0,0
115671,-55.5555555555556,4,2,1,5,0,0
115756,-55.5555555555556,4,2,1,70,0,0
116268,-166.666666666667,4,2,1,70,0,0
116353,-166.666666666667,4,2,1,5,0,0
116438,-66.6666666666667,4,2,1,70,0,0
116523,-66.6666666666667,4,2,1,5,0,0
116609,-66.6666666666667,4,2,1,70,0,0
117290,-166.666666666667,4,2,1,70,0,0
117376,-166.666666666667,4,2,1,5,0,0
117461,-66.6666666666667,4,2,1,70,0,0
117546,-66.6666666666667,4,2,1,5,0,0
117631,-66.6666666666667,4,2,1,70,0,0
118313,-66.6666666666667,4,2,1,70,0,0
118398,-66.6666666666667,4,2,1,5,0,0
118484,-55.5555555555556,4,2,1,70,0,0
118569,-55.5555555555556,4,2,1,5,0,0
118654,-55.5555555555556,4,2,1,70,0,0
118995,-55.5555555555556,4,2,1,5,0,0

[Colours]
Combo1 : 183,103,214
Combo2 : 171,191,91
Combo3 : 216,101,67
Combo4 : 117,204,113

[HitObjects]
84,333,1015,6,0,P|54:337|25:346,2,59.9999981689454,2|2|2,0:3|0:0|0:0,0:0:0:0:
157,353,2092,1,2,0:0:0:0:
159,361,2272,1,2,0:0:0:0:
157,343,2452,5,2,0:3:0:0:
175,334,2631,1,0,0:0:0:0:
212,288,2811,1,2,0:0:0:0:
200,213,2991,1,2,0:0:0:0:
139,155,3170,6,0,P|119:161|96:175,1,40,2|0,0:0|0:0,0:0:0:0:
12,184,3529,2,0,P|36:176|65:159,1,59.9999981689454,2|0,0:0|0:0,0:0:0:0:
77,74,3889,6,0,P|84:45|89:4,2,59.9999981689454,2|2|2,0:3|0:0|0:0,0:0:0:0:
172,62,4967,1,2,0:0:0:0:
175,73,5146,1,2,0:0:0:0:
254,21,5326,5,2,0:3:0:0:
329,96,5506,1,2,0:0:0:0:
212,159,5685,1,2,0:0:0:0:
287,239,5865,1,2,0:0:0:0:
256,320,6044,5,2,0:3:0:0:
256,192,6134,12,0,7751,0:0:0:0:
254,327,7931,6,0,L|256:349,2,14.9999995422363
196,258,8200,5,4,1:2:0:0:
196,258,8370,1,2,0:0:0:0:
337,347,8540,5,2,0:0:0:0:
409,316,8711,1,2,0:0:0:0:
453,384,8881,1,2,0:1:0:0:
341,354,9052,6,0,B|337:377|356:388|356:388|361:367|342:354,1,80,8|0,0:0|0:0,0:0:0:0:
254,327,9222,2,0,B|350:347|408:311|436:217,1,240,0|2,0:0|0:0,0:0:0:0:
510,192,9563,5,0,1:2:0:0:
506,184,9648,1,0,0:0:0:0:
492,157,9734,2,0,L|479:120,1,29.9999990844727,2|0,0:0|0:0,0:0:0:0:
502,42,9904,5,2,0:0:0:0:
392,91,10075,1,2,0:0:0:0:
329,1,10245,1,2,0:1:0:0:
396,84,10415,6,0,B|409:69|409:69|390:105,1,50,8|2,0:0|0:0,0:0:0:0:
350,182,10586,2,0,P|311:249|344:179,1,240,0|0,1:0|0:0,0:0:0:0:
354,173,10927,5,0,1:2:0:0:
206,112,11097,1,0,1:2:0:0:
206,112,11268,1,2,0:0:0:0:
302,91,11438,5,2,0:0:0:0:
212,204,11609,1,2,0:1:0:0:
212,115,11779,2,0,L|173:92,1,29.9999990844727,8|0,0:0|0:0,0:0:0:0:
133,0,11950,2,0,B|133:50|188:71|188:71|82:67|75:148,1,240,0|2,1:2|0:0,0:0:0:0:
10,176,12290,5,0,1:2:0:0:
13,185,12376,1,2,0:0:0:0:
22,211,12461,1,2,0:0:0:0:
25,220,12547,1,0,0:0:0:0:
31,243,12631,6,0,L|43:288,1,29.9999990844727,0|2,1:2|0:0,0:0:0:0:
0,360,12802,2,0,B|-36:326|7:258|78:284|75:341|75:341|72:372|99:395|131:390|147:365,1,269.999991760254,8|0,0:0|0:0,0:0:0:0:
132,366,13143,6,0,P|237:317|361:291,1,239.999992675781,0|2,1:2|1:0,0:0:0:0:
357,291,13569,1,0,1:0:0:0:
357,291,13654,5,4,1:2:0:0:
505,242,13825,1,2,0:0:0:0:
457,325,13995,1,8,0:0:0:0:
415,218,14165,1,2,0:0:0:0:
411,209,14251,1,0,0:0:0:0:
422,216,14336,5,2,0:1:0:0:
295,191,14506,1,0,1:2:0:0:
321,71,14677,1,8,0:1:0:0:
321,71,14847,1,2,0:0:0:0:
396,5,15018,5,0,1:2:0:0:
404,0,15103,1,0,0:0:0:0:
439,14,15188,1,0,1:2:0:0:
447,20,15273,1,0,0:0:0:0:
447,54,15359,1,8,0:1:0:0:
388,124,15529,1,2,0:0:0:0:
224,27,15700,5,2,0:1:0:0:
156,70,15870,1,0,1:0:0:0:
96,0,16040,6,0,P|69:9|57:37,1,50,8|0,0:0|0:0,0:0:0:0:
37,100,16211,1,2,0:0:0:0:
140,154,16381,5,0,1:2:0:0:
136,165,16467,1,0,0:0:0:0:
128,191,16552,2,0,L|117:234,1,29.9999990844727,2|0,0:0|0:0,0:0:0:0:
130,310,16722,6,0,B|96:224|16:258|16:258,1,139.999995727539,12|2,0:0|1:2,0:0:0:0:
200,340,17063,1,8,0:0:0:0:
200,340,17234,1,2,1:2:0:0:
95,381,17404,6,0,B|71:330|87:241|179:221|233:260|233:260,1,240,12|0,0:0|0:0,0:0:0:0:
310,289,17745,5,4,1:2:0:0:
303,284,17830,1,2,1:0:0:0:
304,277,17915,1,2,1:1:0:0:
313,276,18001,1,2,1:1:0:0:
315,283,18086,1,2,1:0:0:0:
274,357,18256,5,0,1:0:0:0:
389,264,18427,1,0,1:0:0:0:
456,307,18597,1,0,1:0:0:0:
368,172,18768,6,0,L|414:0,1,165.000005035401,8|0,0:0|0:0,0:0:0:0:
435,85,19109,6,0,P|444:119|472:137,1,59.9999981689454,4|2,1:2|0:0,0:0:0:0:
318,14,19790,5,2,0:0:0:0:
270,74,19961,1,0,0:0:0:0:
198,49,20131,1,2,0:0:0:0:
198,49,20472,6,0,P|162:96|147:153,1,119.999996337891,2|2,0:1|0:0,0:0:0:0:
6,209,21495,6,0,P|15:232|25:245,1,29.9999990844727,2|2,0:0|0:0,0:0:0:0:
83,284,21836,6,0,P|143:262|201:247,2,119.999996337891,2|2|2,0:1|0:1|0:1,0:0:0:0:
83,284,23540,5,2,0:1:0:0:
101,252,23711,5,2,0:1:0:0:
175,212,23881,5,2,0:1:0:0:
271,225,24052,6,0,P|279:240|283:273,1,40,0|0,1:1|0:0,0:0:0:0:
285,350,24222,6,0,P|311:235|365:138,1,179.999994506836,8|0,1:1|0:0,0:0:0:0:
494,311,24563,6,0,P|474:357|410:370,2,119.999996337891,4|8|2,1:2|0:0|0:1,0:0:0:0:
476,300,25415,2,0,B|469:232|422:263|419:170,1,119.999996337891,8|0,0:0|1:1,0:0:0:0:
488,86,25927,5,2,1:1:0:0:
447,19,26097,1,2,1:1:0:0:
370,38,26268,1,8,0:0:0:0:
451,9,26438,5,0,0:0:0:0:
410,115,26609,1,2,0:1:0:0:
288,187,26779,6,0,P|251:133|243:68,1,119.999996337891,8|0,0:0|1:1,0:0:0:0:
254,13,27290,6,0,P|250:44|235:86,1,50,2|0,1:1|0:0,0:0:0:0:
210,152,27461,2,0,P|191:176|157:205,1,50,2|0,1:1|0:0,0:0:0:0:
256,288,27802,6,0,L|256:224,1,34.9999989318848,2|0,1:1|0:0,0:0:0:0:
258,13,27972,6,0,P|262:44|277:86,1,50,8|0,0:0|0:0,0:0:0:0:
302,152,28143,2,0,P|320:176|354:205,1,50
159,86,28313,6,0,P|134:97|108:101,1,50,2|0,1:1|0:0,0:0:0:0:
353,86,28484,2,0,P|378:97|404:101,1,50,2|0,1:1|0:0,0:0:0:0:
157,98,28825,6,0,P|132:94|110:83,1,50,2|0,1:1|0:0,0:0:0:0:
354,98,28995,2,0,P|379:94|402:83,1,50,2|0,1:1|0:0,0:0:0:0:
256,237,29165,6,0,L|178:259,1,64.9999970245363,8|0,0:0|0:0,0:0:0:0:
256,227,29336,6,0,L|334:249,1,64.9999970245363,8|0,0:0|0:0,0:0:0:0:
252,355,29506,1,0,1:1:0:0:
253,368,29677,6,0,P|251:277|256:129,1,225.000008583069,8|2,0:0|0:0,0:0:0:0:
231,72,30018,5,2,1:0:0:0:
426,134,30188,1,2,1:0:0:0:
239,77,30359,6,0,B|337:7|291:125|467:100|351:-10|475:0,1,269.999991760254,8|0,1:0|0:0,0:0:0:0:
489,36,30700,2,0,B|446:31|469:7|423:0,1,75.0000028610231,2|0,1:0|0:0,0:0:0:0:
294,22,30870,1,2,1:0:0:0:
495,30,31040,6,0,P|433:146|393:296,1,269.999991760254,8|0,1:0|0:0,0:0:0:0:
475,310,31381,6,0,B|478:335|506:337|520:329|508:305|486:324,1,64.9999970245363,2|0,1:0|0:0,0:0:0:0:
395,278,31722,2,0,B|415:262|403:236|389:229|373:251|401:260,1,64.9999970245363,2|0,1:0|0:0,0:0:0:0:
397,365,32063,2,0,B|372:355|357:378|357:394|384:396|378:367,1,64.9999970245363,2|0,1:0|0:0,0:0:0:0:
485,197,32234,5,2,1:2:0:0:
485,196,32404,2,0,B|535:267|438:322|408:276|415:269|375:239|327:265|323:315,1,269.999991760254,10|2,0:0|0:0,0:0:0:0:
323,315,32745,5,2,1:0:0:0:
131,369,32915,1,2,1:0:0:0:
272,384,33086,6,0,P|252:357|247:317,1,75.0000028610231,8|0,1:0|0:0,0:0:0:0:
169,289,33256,2,0,P|182:258|201:241,1,59.9999981689454,2|0,0:1|0:0,0:0:0:0:
282,203,33427,5,2,1:0:0:0:
213,47,33597,1,8,0:0:0:0:
297,87,33768,5,8,1:0:0:0:
115,154,33938,1,2,0:1:0:0:
38,55,34109,6,0,B|22:80|22:80|56:64,1,59.9999981689454,2|0,1:0|0:0,0:0:0:0:
21,196,34450,2,0,B|34:222|34:222|37:184,1,59.9999981689454,2|0,1:0|0:0,0:0:0:0:
98,324,34790,2,0,B|127:325|127:325|96:303,1,59.9999981689454,2|0,1:0|0:0,0:0:0:0:
16,302,34961,5,2,1:2:0:0:
16,302,35131,2,0,P|110:245|248:208,1,240,8|0,0:0|0:0,0:0:0:0:
289,268,35472,6,0,B|315:176|408:204|408:204,1,150.000005722046,4|2,1:2|0:0,0:0:0:0:
465,250,35813,1,0,1:0:0:0:
465,250,35984,1,2,0:1:0:0:
398,118,36154,6,0,B|490:94|512:189|512:189,1,150.000005722046,0|2,1:0|0:0,0:0:0:0:
465,250,36495,1,0,1:0:0:0:
465,250,36665,2,0,L|453:292,1,29.9999990844727,8|0,0:0|0:0,0:0:0:0:
492,348,36836,5,0,1:0:0:0:
360,291,37006,1,8,0:0:0:0:
499,346,37177,2,0,B|428:295|386:368|386:368,1,129.999994049073,0|2,1:0|0:0,0:0:0:0:
290,378,37518,5,0,1:0:0:0:
241,244,37688,1,8,0:0:0:0:
115,283,37859,1,0,1:0:0:0:
119,291,38029,1,0,1:0:0:0:
161,358,38200,6,0,P|137:364|112:386,1,50,4|0,1:2|0:0,0:0:0:0:
47,347,38370,2,0,P|29:329|-1:318,1,50,2|0,1:2|0:0,0:0:0:0:
5,241,38540,1,2,1:0:0:0:
5,241,38711,1,2,1:2:0:0:
104,203,38881,6,0,P|80:197|55:175,1,50,2|0,1:0|0:0,0:0:0:0:
14,118,39052,2,0,P|7:94|13:61,1,50,2|0,1:2|0:0,0:0:0:0:
72,9,39222,1,2,1:0:0:0:
72,9,39393,1,2,1:2:0:0:
154,91,39563,6,0,P|180:69|204:62,1,50,2|0,1:0|0:0,0:0:0:0:
253,0,39734,2,0,P|285:11|303:28,1,50,2|0,1:2|0:0,0:0:0:0:
337,102,39904,1,2,1:0:0:0:
337,102,40075,1,2,1:2:0:0:
431,47,40245,5,2,1:0:0:0:
393,204,40415,1,2,1:2:0:0:
337,102,40586,5,2,1:0:0:0:
512,69,40756,1,2,1:2:0:0:
512,69,40842,1,0,0:0:0:0:
512,69,40927,5,2,1:0:0:0:
503,85,41012,1,0,1:0:0:0:
488,118,41097,1,2,1:2:0:0:
475,170,41182,1,0,1:0:0:0:
454,242,41268,6,0,P|464:263|468:294,1,40,2|0,1:0|1:0,0:0:0:0:
512,353,41438,2,0,P|491:363|460:367,1,40,2|0,1:2|1:0,0:0:0:0:
361,330,41609,5,2,1:0:0:0:
349,319,41694,1,0,1:0:0:0:
356,304,41779,1,2,1:2:0:0:
371,306,41864,1,0,1:0:0:0:
374,322,41950,1,2,1:0:0:0:
272,383,42120,5,2,1:2:0:0:
272,383,42205,1,0,1:0:0:0:
272,383,42290,2,0,P|254:372|222:362,7,40,0|0|2|0|2|0|2|0,1:0|0:0|0:0|0:0|0:1|0:0|0:0|0:0,0:0:0:0:
252,384,42972,6,0,P|262:317|284:222,1,160,2|0,0:0|0:0,0:0:0:0:
274,217,43654,6,0,B|211:199|194:263|194:263|178:323|106:306,1,209.999993591309,4|0,1:2|0:0,0:0:0:0:
39,132,43995,6,0,B|54:195|119:177|119:177|178:162|199:231,1,209.999993591309,2|0,1:0|0:0,0:0:0:0:
67,365,44336,6,0,B|102:330|66:296|66:296|34:263|71:223,1,160,2|0,1:0|1:0,0:0:0:0:
225,127,44677,6,0,P|217:92|185:76,1,59.9999981689454,8|0,0:0|0:0,0:0:0:0:
147,138,44847,1,2,0:0:0:0:
0,29,45018,5,2,1:0:0:0:
74,9,45188,1,0,0:1:0:0:
106,79,45359,2,0,B|113:135|77:173|20:128|20:128,1,119.999996337891,8|2,0:0|0:0,0:0:0:0:
288,54,45700,6,0,L|310:49,1,14.9999995422363,2|2,1:1|0:1,0:0:0:0:
319,60,45870,6,0,B|279:53|295:30|247:28,1,50,0|0,1:0|0:0,0:0:0:0:
200,43,46040,2,0,B|352:80|343:134|282:134|384:170,1,194.999991073609,8|0,0:0|0:0,0:0:0:0:
424,132,46381,6,0,B|467:108|423:63|470:15|470:15|406:61|447:91,1,209.999993591309,4|0,1:2|0:0,0:0:0:0:
404,214,46722,6,0,B|403:263|464:247|482:312|482:312|474:233|428:254,1,209.999993591309,2|0,1:0|0:0,0:0:0:0:
343,153,47063,6,0,B|309:133|296:180|245:167|245:167|301:193|306:153,1,160,2|0,1:0|1:0,0:0:0:0:
488,184,47404,6,0,P|511:166|510:137,1,59.9999981689454,8|0,0:0|0:0,0:0:0:0:
436,130,47575,1,2,0:0:0:0:
506,306,47745,5,2,1:0:0:0:
421,361,47915,1,0,0:1:0:0:
316,305,48086,6,0,L|334:242,1,59.9999981689454,8|0,0:0|0:0,0:0:0:0:
321,319,48256,1,2,0:0:0:0:
223,329,48427,6,0,P|186:339|152:354,1,75.0000028610231,2|0,1:2|0:0,0:0:0:0:
98,291,48597,6,0,P|63:275|27:265,1,64.9999970245363,2|2,1:0|0:1,0:0:0:0:
37,187,48768,6,0,P|25:163|10:141,1,44.999998626709,8|0,0:0|0:0,0:0:0:0:
8,158,49109,6,0,P|84:138|94:54,1,139.999995727539,4|2,1:2|0:1,0:0:0:0:
49,30,49450,1,8,0:0:0:0:
123,166,49620,1,0,0:0:0:0:
213,82,49790,5,2,0:1:0:0:
237,3,49961,1,0,1:0:0:0:
289,61,50131,5,8,0:0:0:0:
161,25,50302,1,2,0:0:0:0:
258,157,50472,5,2,1:0:0:0:
261,170,50643,1,0,1:0:0:0:
274,246,50813,2,0,B|296:166|328:192|358:98,1,139.999995727539,8|0,0:0|0:0,0:0:0:0:
388,40,51154,5,2,0:1:0:0:
392,54,51239,1,0,0:0:0:0:
379,48,51325,1,0,1:0:0:0:
468,25,51495,6,0,P|501:49|480:101,1,80,8|2,0:0|0:0,0:0:0:0:
493,93,51836,5,0,0:0:0:0:
390,203,52006,5,2,1:0:0:0:
465,296,52177,2,0,L|517:314,1,40,12|0,0:0|0:0,0:0:0:0:
481,207,52347,5,2,1:2:0:0:
359,307,52518,1,2,1:0:0:0:
356,319,52688,1,2,1:2:0:0:
296,195,52859,6,0,L|277:142,1,40,12|0,0:0|0:0,0:0:0:0:
253,272,53029,5,2,1:2:0:0:
143,148,53200,6,0,L|108:60,1,75.0000028610231,12|0,0:0|0:0,0:0:0:0:
253,272,53370,5,2,1:2:0:0:
289,80,53540,6,0,L|304:-11,1,75.0000028610231,12|0,0:0|0:0,0:0:0:0:
253,272,53711,5,2,1:2:0:0:
399,198,53881,6,0,L|457:123,1,75.0000028610231,12|0,0:0|0:0,0:0:0:0:
421,286,54052,5,0,1:0:0:0:
372,281,54137,1,0,1:0:0:0:
340,308,54222,1,0,1:0:0:0:
331,341,54307,1,0,0:0:0:0:
316,352,54393,1,0,1:0:0:0:
221,384,54563,6,0,B|223:243|101:225|101:225,1,209.999993591309,4|0,1:2|0:0,0:0:0:0:
0,166,54904,6,0,B|120:238|197:141|197:141,1,209.999993591309,2|0,1:0|0:0,0:0:0:0:
274,135,55245,6,0,B|195:178|224:252|224:252,1,139.999995727539,2|0,1:0|1:0,0:0:0:0:
114,353,55586,6,0,B|93:386|72:392|44:377,1,80,8|0,0:0|0:0,0:0:0:0:
5,319,55756,1,2,0:0:0:0:
108,226,55927,5,2,1:0:0:0:
108,226,56097,1,0,0:1:0:0:
0,166,56268,2,0,B|84:194|79:107|79:107,1,119.999996337891,8|2,0:0|0:0,0:0:0:0:
166,24,56609,6,0,L|153:46,1,14.9999995422363,2|2,1:1|0:1,0:0:0:0:
181,50,56779,2,0,B|172:49|172:49|158:29|122:21,1,50,0|0,1:0|0:0,0:0:0:0:
0,22,56950,6,0,B|19:71|63:56|59:49|126:49|160:127,1,194.999991073609,8|0,0:0|0:0,0:0:0:0:
224,172,57290,6,0,B|205:191|205:219|205:219|168:242|162:293|162:293|148:250|164:228,1,209.999993591309,4|0,1:2|0:0,0:0:0:0:
254,91,57631,6,0,B|280:97|304:82|304:82|342:103|390:83|390:83|359:116|332:114,1,209.999993591309,2|0,1:0|0:0,0:0:0:0:
155,117,57972,6,0,B|149:99|132:89|132:89|132:59|103:38|103:38|134:45|141:62,1,139.999995727539,2|0,1:0|1:0,0:0:0:0:
293,226,58313,6,0,B|343:237|352:180|352:180,1,80,8|0,0:0|0:0,0:0:0:0:
331,113,58484,1,2,0:0:0:0:
451,38,58654,5,2,1:0:0:0:
451,38,58825,1,0,0:1:0:0:
512,168,58995,2,0,B|510:112|472:83|415:134|415:134,1,119.999996337891,8|2,0:0|0:0,0:0:0:0:
391,220,59336,6,0,L|372:214,1,14.9999995422363,2|0,1:2|0:0,0:0:0:0:
350,184,59506,2,0,B|385:209|353:223|395:253,1,80,2|2,1:0|0:1,0:0:0:0:
495,273,59677,1,8,0:0:0:0:
456,384,59847,6,0,B|441:292|396:262|292:277,1,209.999993591309,4|0,1:2|0:0,0:0:0:0:
302,281,60188,1,2,0:1:0:0:
154,326,60359,1,8,0:0:0:0:
247,376,60529,1,0,1:0:0:0:
254,384,60614,1,0,1:0:0:0:
252,371,60700,5,2,0:1:0:0:
209,242,60870,1,0,1:0:0:0:
71,250,61040,1,8,0:0:0:0:
17,309,61211,6,0,B|15:241|76:232|65:241|112:251|153:191|103:139|103:139,1,209.999993591309,4|0,1:2|0:0,0:0:0:0:
102,146,61552,1,2,0:1:0:0:
8,68,61722,1,8,0:0:0:0:
150,22,61893,1,0,1:0:0:0:
158,18,61978,1,0,1:0:0:0:
204,22,62063,6,0,B|203:54|184:67|184:67|175:94,1,80,2|0,0:1|0:0,0:0:0:0:
194,175,62234,2,0,B|172:186|157:178|157:178|136:183,1,59.9999981689454,0|0,1:0|0:0,0:0:0:0:
0,185,62404,6,0,B|138:69|234:61|267:75|281:124,1,320,8|0,0:0|1:0,0:0:0:0:
272,117,62915,1,2,1:0:0:0:
494,54,63086,1,12,1:2:0:0:
364,24,63256,1,0,1:0:0:0:
336,183,63427,6,0,P|363:185|391:156,1,59.9999981689454,2|0,1:0|0:0,0:0:0:0:
413,92,63597,1,2,1:0:0:0:
512,303,63768,6,0,B|522:248|475:230|439:253|401:295,1,150,12|0,1:2|0:0,0:0:0:0:
414,292,64109,5,12,0:2:0:0:
420,296,64194,1,8,0:0:0:0:
435,306,64279,2,0,L|486:332,1,40,0|0,1:0|0:0,0:0:0:0:
300,384,64450,5,12,0:2:0:0:
305,380,64535,1,8,0:0:0:0:
320,370,64620,2,0,L|370:343,1,40,0|0,1:0|0:0,0:0:0:0:
271,242,64790,5,12,0:2:0:0:
257,237,64876,1,8,0:0:0:0:
223,236,64961,1,0,1:0:0:0:
188,257,65046,1,0,0:0:0:0:
168,308,65131,2,0,P|175:331|196:345,1,40,12|8,0:2|0:0,0:0:0:0:
106,382,65302,2,0,P|98:358|77:344,1,40,0|0,1:0|1:0,0:0:0:0:
88,245,65472,5,4,1:2:0:0:
126,169,65643,1,0,0:0:0:0:
5,123,65813,1,0,0:0:0:0:
44,55,65984,1,0,0:0:0:0:
139,17,66154,5,0,0:0:0:0:
148,29,66239,1,0,0:0:0:0:
188,46,66325,1,0,0:0:0:0:
203,43,66410,1,0,0:0:0:0:
218,36,66495,6,0,P|233:52|238:83,1,40
299,122,66665,2,0,P|283:167|259:182,1,69.9999978637696
327,250,66836,5,0,0:0:0:0:
368,265,66921,1,0,0:0:0:0:
417,246,67006,1,0,0:0:0:0:
440,174,67092,1,0,0:0:0:0:
405,101,67177,5,0,0:0:0:0:
485,50,67347,1,0,0:0:0:0:
350,23,67518,1,0,0:0:0:0:
486,300,67688,2,0,L|500:232,1,69.9999978637696
305,113,67859,5,0,0:0:0:0:
415,182,68029,2,0,L|404:112,1,69.9999978637696
306,104,68200,5,2,1:0:0:0:
220,129,68370,1,0,0:0:0:0:
177,214,68540,1,0,0:0:0:0:
187,321,68711,1,0,0:0:0:0:
279,367,68881,5,0,0:0:0:0:
318,360,68967,1,0,0:0:0:0:
336,340,69052,1,0,0:0:0:0:
333,322,69137,1,0,0:0:0:0:
319,311,69222,6,0,P|308:282|294:257,1,40
226,268,69393,2,0,P|219:309|188:331,1,69.9999978637696
16,367,69563,5,0,0:0:0:0:
42,345,69648,1,0,0:0:0:0:
32,294,69734,1,0,0:0:0:0:
37,268,69819,1,0,0:0:0:0:
71,231,69904,6,0,P|84:199|89:177,1,40
117,296,70075,6,0,B|151:261|112:175|63:205|61:213|-1:192|25:124,1,225.000008583069,2|0,1:0|0:0,0:0:0:0:
8,147,70415,6,0,P|94:96|243:69,1,225.000008583069,2|0,1:0|0:0,0:0:0:0:
144,37,70756,1,8,0:0:0:0:
126,30,70842,1,8,0:0:0:0:
140,22,70927,5,4,1:2:0:0:
229,73,71097,1,2,0:0:0:0:
176,171,71268,1,8,0:0:0:0:
324,104,71438,1,2,0:0:0:0:
335,101,71523,1,0,0:0:0:0:
331,111,71609,5,2,0:1:0:0:
308,21,71779,1,0,1:2:0:0:
351,193,71950,1,8,0:1:0:0:
508,119,72120,1,2,0:0:0:0:
488,19,72290,5,0,1:2:0:0:
472,17,72376,1,0,0:0:0:0:
445,31,72461,1,0,1:2:0:0:
438,44,72546,1,0,0:0:0:0:
428,76,72631,1,8,0:1:0:0:
486,211,72802,1,2,0:0:0:0:
413,337,72972,5,2,0:1:0:0:
341,369,73143,1,0,1:0:0:0:
254,319,73313,6,0,P|243:293|249:263,1,50,8|0,0:0|0:0,0:0:0:0:
324,281,73484,1,2,0:0:0:0:
132,336,73654,5,0,1:2:0:0:
122,339,73739,1,0,0:0:0:0:
88,348,73825,2,0,L|59:356,1,29.9999990844727,2|0,0:0|0:0,0:0:0:0:
4,171,73995,6,0,B|108:123|115:239|115:239,1,139.999995727539,12|2,0:0|1:2,0:0:0:0:
109,232,74251,1,0,0:0:0:0:
105,238,74336,1,8,0:1:0:0:
22,273,74506,1,2,1:2:0:0:
122,339,74677,6,0,P|156:202|207:72,1,240,12|0,0:0|0:0,0:0:0:0:
225,38,75018,5,4,1:2:0:0:
222,29,75103,1,2,1:0:0:0:
228,24,75188,1,0,1:0:0:0:
235,29,75274,1,0,1:2:0:0:
232,36,75359,1,2,1:0:0:0:
177,108,75529,2,0,P|163:112|141:108,1,29.9999990844727,0|0,1:0|0:0,0:0:0:0:
99,50,75700,5,2,1:0:0:0:
243,172,75870,2,0,P|283:165|322:133,1,69.9999978637696,8|0,0:0|0:0,0:0:0:0:
402,120,76040,6,0,P|419:92|424:72,1,44.999998626709,8|2,0:0|0:0,0:0:0:0:
381,17,76381,5,2,1:0:0:0:
259,123,76552,1,2,1:0:0:0:
376,23,76722,6,0,B|429:48|404:95|391:84|363:132|384:185|439:196|435:185|483:174|484:240,1,269.999991760254,8|0,1:0|0:0,0:0:0:0:
509,265,77063,6,0,B|471:279|501:236|431:234,1,80,2|0,1:0|0:0,0:0:0:0:
331,183,77234,1,2,1:0:0:0:
512,256,77404,6,0,B|513:322|466:380|388:380|304:336,1,269.999991760254,8|0,1:0|0:0,0:0:0:0:
242,289,77745,6,0,B|231:265|251:253|251:253|244:267|251:280,1,64.9999970245363,2|0,1:0|0:0,0:0:0:0:
310,339,78086,2,0,B|335:341|335:364|335:364|326:352|312:351,1,64.9999970245363,2|0,1:0|0:0,0:0:0:0:
226,370,78427,2,0,B|210:391|190:379|190:379|206:378|213:366,1,64.9999970245363,2|0,1:0|0:0,0:0:0:0:
336,259,78597,5,2,1:2:0:0:
336,259,78768,2,0,B|117:288|201:349|96:376,1,269.999991760254,10|2,0:0|0:0,0:0:0:0:
97,370,79109,5,2,1:0:0:0:
28,188,79279,1,2,1:0:0:0:
7,339,79450,6,0,P|31:308|68:292,1,75.0000028610231,8|0,1:0|0:0,0:0:0:0:
101,222,79620,2,0,P|133:224|155:240,1,59.9999981689454,2|0,0:1|0:0,0:0:0:0:
231,299,79790,5,2,1:0:0:0:
177,84,79961,1,8,0:0:0:0:
257,133,80131,5,8,1:0:0:0:
101,222,80302,1,2,0:1:0:0:
15,113,80472,6,0,B|-11:112|3:104|-3:91|-3:91|12:96|15:114,1,64.9999970245363,2|0,1:0|0:0,0:0:0:0:
154,14,80813,2,0,B|142:-10|155:-1|164:-13|164:-13|168:3|154:15,1,64.9999970245363,2|0,1:0|0:0,0:0:0:0:
324,15,81154,2,0,B|338:-7|337:9|352:10|352:10|340:21|323:15,1,64.9999970245363,2|0,1:0|0:0,0:0:0:0:
234,90,81325,5,2,1:2:0:0:
234,90,81495,2,0,P|338:48|467:23,1,240,8|0,0:0|0:0,0:0:0:0:
512,96,81836,6,0,B|468:13|389:74|389:74,1,139.999995727539,0|2,1:0|0:0,0:0:0:0:
339,131,82177,1,0,1:0:0:0:
339,131,82347,1,2,0:1:0:0:
458,265,82518,6,0,B|507:185|415:147|415:147,1,139.999995727539,0|2,1:0|0:0,0:0:0:0:
339,131,82859,1,0,1:0:0:0:
339,131,83029,2,0,L|325:175,1,29.9999990844727,8|0,0:0|0:0,0:0:0:0:
356,237,83200,5,0,1:0:0:0:
193,175,83370,1,8,0:0:0:0:
363,231,83540,6,0,B|273:218|273:297|273:297,1,119.999996337891,0|2,1:0|0:0,0:0:0:0:
308,363,83881,1,0,1:0:0:0:
177,268,84052,1,8,0:0:0:0:
89,384,84222,1,0,1:0:0:0:
98,380,84393,1,0,1:0:0:0:
193,384,84563,6,0,P|182:360|162:344,1,50,4|0,1:2|0:0,0:0:0:0:
105,281,84734,2,0,P|78:278|54:287,1,50,2|0,1:2|0:0,0:0:0:0:
0,353,84904,1,2,1:0:0:0:
0,353,85075,1,2,1:2:0:0:
110,278,85245,6,0,P|103:250|82:229,1,50,2|0,1:0|0:0,0:0:0:0:
16,183,85415,2,0,P|22:155|43:134,1,50,2|0,1:2|0:0,0:0:0:0:
128,90,85586,1,2,1:0:0:0:
128,90,85756,1,2,1:2:0:0:
63,26,85927,6,0,P|94:14|121:13,1,50,2|0,1:0|0:0,0:0:0:0:
200,17,86097,2,0,P|225:37|240:60,1,50,2|0,1:2|0:0,0:0:0:0:
251,151,86268,1,2,1:0:0:0:
251,151,86438,1,2,1:2:0:0:
358,103,86609,5,2,1:0:0:0:
492,223,86779,1,2,1:2:0:0:
445,92,86950,5,2,1:0:0:0:
331,224,87120,1,2,1:2:0:0:
331,224,87205,1,0,0:0:0:0:
331,224,87290,5,2,1:0:0:0:
342,223,87376,1,0,1:0:0:0:
376,227,87461,1,2,1:2:0:0:
414,264,87546,1,0,1:0:0:0:
451,333,87631,2,0,P|422:342|398:367,1,59.9999981689454,2|0,1:0|1:0,0:0:0:0:
304,384,87802,2,0,P|275:375|251:350,1,59.9999981689454,2|0,1:2|1:0,0:0:0:0:
201,260,87972,5,2,1:0:0:0:
184,251,88057,1,0,1:0:0:0:
187,235,88143,1,2,1:2:0:0:
203,233,88228,1,0,1:0:0:0:
210,246,88313,1,2,1:0:0:0:
138,358,88484,5,2,1:2:0:0:
138,358,88569,1,0,1:0:0:0:
138,358,88654,2,0,P|111:345|94:339,7,40,0|0|2|0|2|0|2|0,1:0|0:0|0:0|0:0|0:1|0:0|0:0|0:0,0:0:0:0:
116,367,89336,6,0,P|105:292|68:209,1,160,2|0,0:0|0:0,0:0:0:0:
17,158,90018,5,4,1:2:0:0:
238,284,99052,5,0,1:0:0:0:
287,279,99137,1,0,1:0:0:0:
319,306,99222,1,8,1:0:0:0:
328,339,99307,1,0,0:0:0:0:
343,350,99393,1,0,1:0:0:0:
428,321,99563,6,0,P|437:246|453:173,1,150.000005722046,2|2,1:0|0:0,0:0:0:0:
250,261,99904,6,0,P|259:186|275:113,1,150.000005722046,2|2,1:0|0:0,0:0:0:0:
71,200,100245,6,0,P|76:163|84:127,1,75.0000028610231,2|0,1:0|0:0,0:0:0:0:
43,66,100415,2,0,P|49:91|66:135,1,59.9999981689454,0|0,1:0|0:0,0:0:0:0:
117,270,100586,6,0,P|206:250|241:82,1,239.999992675781,8|0,0:0|0:0,0:0:0:0:
191,72,100927,6,0,P|198:42|230:17,1,60,2|0,0:1|0:0,0:0:0:0:
108,120,101268,2,0,B|202:5|355:44|355:44,1,269.999991760254,4|0,1:2|0:0,0:0:0:0:
440,39,101609,6,0,P|433:69|401:94,1,60,2|0,0:1|0:0,0:0:0:0:
501,106,101950,2,0,B|474:29|373:14|305:114|354:179,1,269.999991760254,4|0,1:2|0:0,0:0:0:0:
356,165,102290,6,0,P|382:189|398:235,1,75.0000028610231,8|0,0:0|0:0,0:0:0:0:
479,224,102461,2,0,P|471:258|455:277,1,59.9999981689454,0|0,1:0|0:0,0:0:0:0:
304,268,102631,6,0,P|278:292|262:338,1,75.0000028610231,8|0,0:0|0:0,0:0:0:0:
181,327,102802,2,0,P|188:361|204:380,1,59.9999981689454,0|0,1:0|0:0,0:0:0:0:
358,384,102972,5,10,0:0:0:0:
358,384,103143,1,2,1:0:0:0:
464,355,103313,2,0,B|307:371|261:209|261:209,1,269.999991760254,8|0,0:0|0:0,0:0:0:0:
183,160,103654,6,0,P|200:135|187:162,1,89.9999972534181,0|0,0:2|0:0,0:0:0:0:
300,121,103995,2,0,B|143:105|97:267|97:267,1,269.999991760254,4|0,1:2|0:0,0:0:0:0:
1,261,104336,6,0,P|-2:299|38:339,1,75.0000028610231,4|0,1:2|0:0,0:0:0:0:
99,361,104506,2,0,B|108:377|124:379|124:379|108:368|106:355,1,59.9999981689454,0|0,1:0|0:0,0:0:0:0:
109,261,104677,6,0,P|140:282|195:267,1,75.0000028610231,8|0,0:0|0:0,0:0:0:0:
258,232,104847,2,0,B|276:232|287:219|287:219|269:227|256:223,1,59.9999981689454,2|0,0:0|0:0,0:0:0:0:
99,177,105018,6,0,B|25:116|104:90|29:8,2,179.999994506836,4|0|8,1:2|0:1|0:0,0:0:0:0:
31,105,105529,2,0,P|57:90|74:73,1,50,2|0,0:0|0:0,0:0:0:0:
125,6,105700,5,2,1:2:0:0:
316,62,105870,1,2,1:0:0:0:
125,6,106040,1,8,0:0:0:0:
160,103,106211,6,0,P|71:158|2:283,1,240,6|0,1:2|0:0,0:0:0:0:
15,282,106552,1,2,0:1:0:0:
6,180,106722,1,8,0:0:0:0:
166,248,106893,1,0,1:0:0:0:
164,291,106978,1,0,1:0:0:0:
121,303,107063,5,2,0:1:0:0:
19,378,107234,1,0,1:0:0:0:
80,230,107404,1,8,0:0:0:0:
164,291,107575,6,0,B|162:346|204:372|250:344|235:337|276:312|324:329|351:375,1,240,4|0,1:2|0:0,0:0:0:0:
362,368,107915,1,2,0:1:0:0:
504,310,108086,1,8,0:0:0:0:
297,197,108256,1,0,1:0:0:0:
296,243,108342,1,0,1:0:0:0:
342,256,108427,5,2,0:1:0:0:
442,376,108597,1,0,1:0:0:0:
512,193,108768,2,0,P|505:129|416:42,1,179.999994506836,8|0,0:0|0:0,0:0:0:0:
428,46,109109,5,0,1:0:0:0:
206,128,109279,1,2,1:0:0:0:
370,0,109450,5,12,1:2:0:0:
249,189,109620,1,0,1:0:0:0:
290,0,109790,5,2,1:0:0:0:
324,204,109960,1,2,1:0:0:0:
428,46,110131,6,0,B|392:93|342:90|303:39|323:39|281:-14|217:-21|196:45,1,269.999991760254,12|0,1:2|0:0,0:0:0:0:
198,41,110472,5,12,0:2:0:0:
194,51,110557,1,8,0:0:0:0:
181,82,110643,2,0,L|156:144,1,50,0|0,1:0|0:0,0:0:0:0:
6,109,110813,5,12,0:2:0:0:
10,119,110898,1,8,0:0:0:0:
23,150,110984,2,0,L|48:212,1,50,0|0,1:0|0:0,0:0:0:0:
189,224,111154,5,12,0:2:0:0:
173,228,111239,1,8,0:0:0:0:
146,239,111325,1,0,1:0:0:0:
103,264,111410,1,0,0:0:0:0:
43,316,111495,2,0,P|72:333|91:352,1,59.9999981689454,12|8,0:2|0:0,0:0:0:0:
181,384,111665,2,0,P|210:367|236:360,1,59.9999981689454,0|0,1:0|1:0,0:0:0:0:
316,271,111836,5,4,1:2:0:0:
448,325,112006,1,2,0:0:0:0:
459,324,112092,1,0,0:0:0:0:
450,316,112177,1,8,0:0:0:0:
360,365,112347,5,2,0:0:0:0:
413,232,112518,1,2,0:1:0:0:
486,200,112688,1,0,1:2:0:0:
423,112,112859,6,0,P|408:95|407:57,1,50,8|0,0:1|0:0,0:0:0:0:
482,61,113029,1,2,0:0:0:0:
309,183,113200,5,0,1:2:0:0:
293,185,113286,1,0,0:0:0:0:
266,174,113371,1,0,1:2:0:0:
259,161,113456,1,0,0:0:0:0:
262,124,113541,1,8,0:1:0:0:
304,48,113711,1,2,0:0:0:0:
189,9,113881,5,2,0:1:0:0:
141,71,114052,1,0,1:0:0:0:
50,37,114222,6,0,L|36:103,1,50,8|0,0:0|0:0,0:0:0:0:
36,23,114393,1,2,0:0:0:0:
107,176,114563,5,0,1:2:0:0:
109,185,114648,1,0,0:0:0:0:
115,204,114734,2,0,P|139:221|193:211,1,50,2|0,0:0|0:0,0:0:0:0:
221,301,114904,6,0,B|244:253|300:276|300:276,1,75.0000028610231,12|0,0:0|0:0,0:0:0:0:
489,317,115075,5,2,1:2:0:0:
491,326,115160,1,0,0:0:0:0:
496,359,115245,2,0,B|433:384|408:310|408:310,1,89.9999972534181,8|0,0:0|0:0,0:0:0:0:
366,127,115415,5,2,1:2:0:0:
372,120,115500,1,0,0:0:0:0:
398,98,115585,2,0,B|451:140|399:198|399:198,1,89.9999972534181,12|0,0:0|0:0,0:0:0:0:
374,256,115756,5,2,1:2:0:0:
102,365,115927,5,4,1:2:0:0:
66,352,116012,1,2,1:0:0:0:
48,300,116097,1,2,1:0:0:0:
78,250,116182,1,2,1:0:0:0:
150,221,116268,2,0,P|161:205|161:190,1,29.9999990844727,8|0,1:0|0:0,0:0:0:0:
68,227,116438,2,0,P|48:188|56:151,1,75.0000028610231,0|0,1:0|0:0,0:0:0:0:
125,102,116609,5,2,1:0:0:0:
128,92,116950,5,4,1:2:0:0:
156,69,117035,1,2,0:1:0:0:
202,64,117120,1,2,1:1:0:0:
255,91,117205,1,2,1:1:0:0:
286,161,117290,2,0,P|296:171|317:175,1,29.9999990844727,8|0,1:2|0:0,0:0:0:0:
378,134,117461,2,0,P|408:122|428:73,1,75.0000028610231,0|0,1:0|0:0,0:0:0:0:
426,9,117631,5,2,1:0:0:0:
436,13,117972,5,4,1:2:0:0:
441,55,118057,1,2,0:1:0:0:
454,105,118142,1,8,0:2:0:0:
474,166,118227,1,8,0:2:0:0:
506,236,118313,2,0,B|496:294|425:282|425:282,1,75.0000028610231,2|0,1:0|0:0,0:0:0:0:
379,341,118484,2,0,B|319:365|298:293|298:293,1,89.9999972534181,0|0,1:0|0:0,0:0:0:0:
256,192,118654,5,2,1:0:0:0:
