osu file format v14

[General]
AudioFilename: audio.mp3
AudioLeadIn: 0
PreviewTime: 89550
Countdown: 0
SampleSet: Soft
StackLeniency: 0.3
Mode: 0
LetterboxInBreaks: 0
WidescreenStoryboard: 1

[Editor]
Bookmarks: 979,12407,23836,26693,29550,32407,35264,35978,47407,58836,73121,78836,92585,102049,110263,116335
DistanceSpacing: 4.1
BeatDivisor: 16
GridSize: 8
TimelineZoom: 2.899999

[Metadata]
Title:unisonote
TitleUnicode:unisonote
Artist:onoken
ArtistUnicode:onoken
Creator:greenhue
Version:Xilver's Expert
Source:jubeat saucer fulfill
Tags:ORIGINAL SOUNDTRACK toybot vikala xilver xilver15 kloyd 10nya tennya pewdekz electronic instrumental video game jubeat plus artcore bemani
BeatmapID:2386280
BeatmapSetID:1142060

[Difficulty]
HPDrainRate:5
CircleSize:4.4
OverallDifficulty:9
ApproachRate:9.6
SliderMultiplier:1.8
SliderTickRate:1

[Events]
//Background and Video events
0,0,"cropped-1366-768-31276.jpg",0,0
//Break Periods
2,24928,26005
2,27785,29041
2,73320,78326
//Storyboard Layer 0 (Background)
//Storyboard Layer 1 (Fail)
//Storyboard Layer 2 (Pass)
//Storyboard Layer 3 (Foreground)
//Storyboard Layer 4 (Overlay)
//Storyboard Sound Samples

[TimingPoints]
979,357.142857142857,4,2,0,55,1,0
8925,-100,4,2,0,5,0,0
9014,-100,4,2,0,55,0,0
9103,-100,4,2,0,5,0,0
9193,-100,4,2,0,55,0,0
12407,-200,4,2,0,55,0,0
16693,-125,4,2,0,55,0,0
23836,-83.3333333333333,4,2,0,55,0,0
24371,-133.333333333333,4,2,0,55,0,0
26693,-83.3333333333333,4,2,0,55,0,0
27228,-133.333333333333,4,2,0,55,0,0
29550,-83.3333333333333,4,2,0,55,0,0
30086,-100,4,2,0,55,0,0
31871,-83.3333333333333,4,2,0,55,0,0
32764,-71.4285714285714,4,2,0,55,0,0
33300,-133.333333333333,4,2,0,55,0,0
34728,-100,4,2,0,55,0,0
34907,-83.3333333333333,4,2,0,55,0,0
35086,-71.4285714285714,4,2,0,55,0,0
35264,-66.6666666666667,4,2,0,55,0,0
35978,357.142857142857,4,2,0,55,1,0
35978,-166.666666666667,4,2,0,55,0,0
36156,-50,4,2,0,55,0,0
36692,-83.3333333333333,4,2,0,55,0,0
36960,-66.6666666666667,4,2,0,55,0,0
37228,-55.5555555555556,4,2,0,55,0,0
37942,-83.3333333333333,4,2,0,55,0,0
38120,-71.4285714285714,4,2,0,55,0,0
38478,-55.5555555555556,4,2,0,55,0,0
38835,-71.4285714285714,4,2,0,55,0,0
39013,-55.5555555555556,4,2,0,55,0,0
39549,-83.3333333333333,4,2,0,55,0,0
39817,-66.6666666666667,4,2,0,55,0,0
40085,-55.5555555555556,4,2,0,55,0,0
40978,-181.818181818181,4,2,0,55,0,0
41156,-50,4,2,0,55,0,0
41513,-66.6666666666667,4,2,0,55,0,0
43835,-181.818181818181,4,2,0,55,0,0
44192,-50,4,2,0,55,0,0
44549,-83.3333333333333,4,2,0,55,0,0
44728,-50,4,2,0,55,0,0
45263,-83.3333333333333,4,2,0,55,0,0
45442,-55.5555555555556,4,2,0,55,0,0
45799,-125,4,2,0,55,0,0
46156,-52.6315789473684,4,2,0,55,0,0
46513,-100,4,2,0,55,0,0
47406,-66.6666666666667,4,2,0,55,0,0
47763,-100,4,2,0,55,0,0
48477,-83.3333333333333,4,2,0,55,0,0
48835,-66.6666666666667,4,2,0,55,0,0
50620,-100,4,2,0,55,0,0
51335,-83.3333333333333,4,2,0,55,0,0
60085,-66.6666666666667,4,2,0,55,0,0
61335,-50,4,2,0,55,0,0
61692,-83.3333333333333,4,2,0,55,0,0
61870,-62.5,4,2,0,55,0,0
62227,-83.3333333333333,4,2,0,55,0,0
62406,-62.5,4,2,0,55,0,0
62763,-83.3333333333333,4,2,0,55,0,0
63299,-66.6666666666667,4,2,0,55,0,0
65085,-50,4,2,0,55,0,0
65799,-66.6666666666667,4,2,0,55,0,0
72406,-142.857142857143,4,2,0,55,0,0
80977,-100,4,2,0,55,0,0
81692,-142.857142857143,4,2,0,55,0,0
83835,-71.4285714285714,4,2,0,55,0,0
84549,-200,4,2,0,55,0,0
84817,-200,4,2,0,5,0,0
84906,-200,4,2,0,55,0,0
85174,-200,4,2,0,5,0,0
85263,-200,4,2,0,55,0,0
85531,-200,4,2,0,5,0,0
85620,-200,4,2,0,55,0,0
85888,-200,4,2,0,5,0,0
85977,-200,4,2,0,55,0,0
86245,-200,4,2,0,5,0,0
86335,-200,4,2,0,55,0,0
86602,-200,4,2,0,5,0,0
86692,-200,4,2,0,55,0,0
87049,-66.6666666666667,4,2,0,55,0,0
88835,-200,4,2,0,55,0,0
89906,-76.9230769230769,4,2,0,55,0,0
90263,-66.6666666666667,4,2,0,55,0,1
91692,-76.9230769230769,4,2,0,55,0,1
95620,-55.5555555555556,4,2,0,55,0,1
96513,-66.6666666666667,4,2,0,55,0,1
97049,-100,4,2,0,55,0,1
97406,-66.6666666666667,4,2,0,55,0,1
101335,-66.6666666666667,4,2,0,55,0,0
101692,-200,4,2,0,55,0,0
102049,-55.5555555555556,4,2,0,70,0,1
103120,-200,4,2,0,70,0,1
103835,-66.6666666666667,4,2,0,70,0,1
104192,-50,4,2,0,70,0,1
104549,-200,4,2,0,70,0,0
104906,-66.6666666666667,4,2,0,70,0,1
105977,-200,4,2,0,70,0,0
106692,-66.6666666666667,4,2,0,70,0,0
107049,-43.4782608695652,4,2,0,70,0,0
108835,-76.9230769230769,4,2,0,70,0,0
110442,-76.9230769230769,4,2,0,55,0,0
114727,-66.6666666666667,4,2,0,55,0,0
115977,-50,4,2,0,55,0,0
116335,-50,4,2,0,70,0,0

[Colours]
Combo1 : 182,249,172
Combo2 : 85,202,55
Combo3 : 96,204,109
Combo4 : 50,131,61

[HitObjects]
112,159,12407,6,0,B|82:152|63:123|63:123|93:167|89:212,1,157.5,2|0,0:0|0:0,0:0:0:0:
223,296,13121,2,0,B|176:290|128:300|128:300|159:274,1,135,2|0,0:0|0:0,0:0:0:0:
244,212,13836,2,0,P|264:202|278:182,1,45,2|0,0:0|0:0,0:0:0:0:
388,274,14193,2,0,P|369:261|345:259,1,45,0|0,0:0|0:0,0:0:0:0:
356,75,14550,2,0,P|345:118|360:160,1,90
472,202,15086,1,0,0:0:0:0:
302,290,15264,6,0,P|346:292|387:273,1,90,2|0,0:0|0:0,0:0:0:0:
199,209,15978,2,0,P|221:206|243:211,1,45,2|0,0:0|0:0,0:0:0:0:
52,132,16336,2,0,L|55:176,1,45,0|0,0:0|0:0,0:0:0:0:
120,336,16693,2,0,B|152:290|129:239|129:239|101:272,1,144,2|0,0:0|0:0,0:0:0:0:
143,115,17228,1,0,0:0:0:0:
338,197,17407,2,0,B|248:178|277:231|194:206,1,144,2|0,0:0|0:0,0:0:0:0:
472,317,18121,6,0,B|438:324|413:307|413:307|388:313|388:313|335:293|262:328,1,216,2|0,0:0|0:0,0:0:0:0:
57,203,18836,2,0,B|111:199|111:199|140:211|140:211|166:205|166:205|198:208,1,144,2|0,0:0|0:0,0:0:0:0:
324,40,19371,1,0,0:0:0:0:
406,147,19550,2,0,P|410:110|423:77,1,72,2|0,0:0|0:0,0:0:0:0:
306,240,19907,2,0,P|302:203|288:170,1,72,0|0,0:0|0:0,0:0:0:0:
472,280,20264,2,0,P|476:243|489:210,1,72,0|0,0:0|0:0,0:0:0:0:
374,341,20621,1,0,0:0:0:0:
306,240,20800,1,0,0:0:0:0:
205,366,20978,6,0,B|159:330|196:268|196:268|209:282|207:304,1,144,2|0,0:0|0:0,0:0:0:0:
127,205,21693,2,0,P|93:201|55:212,1,72,2|0,0:0|0:0,0:0:0:0:
227,50,22050,2,0,P|192:60|157:56,1,72,0|0,0:0|0:0,0:0:0:0:
306,240,22407,2,0,P|377:165|283:171,1,252,2|0,0:0|0:0,0:0:0:0:
458,278,23121,2,0,B|335:249|376:330|232:282,1,216,0|0,0:0|0:0,0:0:0:0:
157,288,23836,6,0,P|169:263|168:235,1,53.9999983520508,6|0,3:0|0:0,0:0:0:0:
75,77,24014,2,0,P|75:103|87:127,1,53.9999983520508,6|0,3:0|0:0,0:0:0:0:
280,110,24193,2,0,P|254:117|226:114,1,53.9999983520508,0|0,3:0|0:0,0:0:0:0:
446,184,24371,6,0,B|423:180|395:188|395:188|371:198|371:198|352:198|337:189|337:189|365:164,1,135.000005149842,8|0,3:0|3:0,0:0:0:0:
193,320,26514,5,4,3:0:0:0:
193,320,26603,1,4,3:0:0:0:
193,320,26693,2,0,P|203:298|205:267,1,53.9999983520508,4|0,3:0|0:0,0:0:0:0:
366,237,26871,2,0,P|356:215|353:184,1,53.9999983520508,8|0,3:0|0:0,0:0:0:0:
206,93,27050,2,0,L|259:85,1,53.9999983520508,0|0,3:0|0:0,0:0:0:0:
38,162,27228,6,0,B|18:174|21:201|21:201|34:224|65:215|65:215|82:202|82:180,1,135.000005149842,8|12,3:0|3:0,0:0:0:0:
237,192,29550,6,0,P|209:195|184:206,1,53.9999983520508,4|0,3:0|0:0,0:0:0:0:
112,48,29728,2,0,P|128:70|150:85,1,53.9999983520508,8|0,3:0|0:0,0:0:0:0:
60,230,29907,2,0,P|71:204|73:177,1,53.9999983520508,0|0,3:0|0:0,0:0:0:0:
328,81,30086,6,0,B|289:83|289:83|276:93|276:93|234:95,1,90,8|0,3:0|0:0,0:0:0:0:
431,185,30443,2,0,L|386:187,1,45,2|0,0:0|0:0,0:0:0:0:
138,76,31514,5,0,3:0:0:0:
289,213,31693,1,0,3:0:0:0:
289,213,31782,1,0,0:0:0:0:
289,213,31871,2,0,P|260:216|235:222,1,53.9999983520508,4|0,3:0|0:0,0:0:0:0:
77,254,32050,1,2,0:0:0:0:
184,332,32228,1,0,0:0:0:0:
184,332,32317,1,0,0:0:0:0:
184,332,32406,6,0,P|181:303|174:278,1,53.9999983520508,0|0,3:0|0:0,0:0:0:0:
143,120,32585,1,4,3:0:0:0:
305,115,32764,6,0,P|277:129|246:129,1,62.9999980773926,8|0,3:0|0:0,0:0:0:0:
18,239,32943,2,0,P|45:253|76:253,1,62.9999980773926,2|0,0:0|0:0,0:0:0:0:
341,320,33121,2,0,P|313:334|282:334,1,62.9999980773926,4|0,3:0|0:0,0:0:0:0:
429,195,33300,2,0,B|398:197|398:197|389:202|389:202|363:205,1,67.5000025749208,8|0,3:0|0:0,0:0:0:0:
428,79,33657,1,0,3:0:0:0:
416,90,33746,1,0,3:0:0:0:
416,90,34371,5,0,3:0:0:0:
195,268,34550,1,0,3:0:0:0:
195,268,34639,1,0,0:0:0:0:
195,268,34728,2,0,P|172:274|153:286,1,45,2|0,3:0|0:0,0:0:0:0:
0,191,34907,2,0,P|28:198|50:213,1,53.9999983520508,8|0,3:0|0:0,0:0:0:0:
143,120,35086,1,0,0:0:0:0:
408,226,35264,6,2,B|411:158|478:136|478:136|409:101|319:135|304:203|304:203|273:276|194:267,1,472.500018024445,2|4,1:0|3:0,0:1:0:0:
129,348,35978,2,0,L|155:342,1,26.9999991760254
107,49,36156,2,0,B|101:83|53:98|53:98|66:108|66:108|17:129|36:202|85:216|85:216|86:192|97:184,1,270,2|0,1:3|0:0,0:0:0:0:
97,183,36513,1,0,0:0:0:0:
336,111,36692,6,0,P|357:126|384:131,1,53.9999983520508,2|0,0:0|0:0,0:0:0:0:
269,111,36960,6,0,P|303:117|336:111,1,67.5000025749208,2|0,0:0|0:0,0:0:0:0:
197,140,37228,6,0,P|237:132|270:110,1,80.9999975280763,2|0,0:0|0:0,0:0:0:0:
197,140,37585,1,0,3:0:0:0:
410,321,37763,5,0,0:0:0:0:
410,321,37853,1,0,0:0:0:0:
410,321,37942,2,0,L|398:268,1,53.9999983520508,0|0,3:0|0:0,0:0:0:0:
69,328,38120,2,0,P|101:337|132:335,1,62.9999980773926,4|0,3:2|0:0,0:0:0:0:
250,319,38299,1,0,0:0:0:0:
92,71,38478,6,0,B|41:16|154:-38|190:98|70:89|112:177,1,242.999992584229,4|0,1:3|0:0,1:0:0:0:
183,267,38835,6,0,B|206:264|206:264|218:259|218:259|245:257,1,62.9999980773926,0|0,3:0|0:0,0:0:0:0:
492,172,39013,2,0,B|404:212|339:165|339:165|380:172|436:148,1,242.999992584229,8|0,3:0|0:0,0:0:0:0:
420,155,39370,1,0,0:0:0:0:
147,324,39549,6,0,P|167:347|179:367,1,53.9999983520508,2|0,0:0|0:0,0:0:0:0:
183,267,39817,6,0,P|163:303|144:327,1,67.5000025749208,2|0,0:0|0:0,0:0:0:0:
140,198,40085,6,0,P|159:237|184:268,1,80.9999975280763,2|0,0:0|0:0,0:0:0:0:
140,198,40442,1,0,3:0:0:0:
420,155,40620,5,2,3:2:0:0:
381,161,40710,1,0,0:0:0:0:
342,167,40799,1,0,0:0:0:0:
303,173,40888,1,0,0:0:0:0:
264,179,40978,2,0,L|239:181,1,24.7500007553101,0|0,3:0|0:0,0:0:0:0:
61,344,41156,6,0,P|50:256|31:294,1,270,8|0,1:3|0:0,0:0:0:0:
295,327,41513,2,0,B|270:326|270:326|255:334|255:334|228:332,1,67.5000025749208,8|0,3:0|0:0,0:0:0:0:
54,122,41692,6,0,P|87:111|120:113,1,67.5000025749208,8|0,3:2|0:0,0:0:0:0:
353,59,41870,2,2,B|313:50|283:11|283:11|241:69|273:116|273:116|310:129|322:178,1,270.000010299683,2|0,3:1|0:1,0:1:0:0:
501,264,42406,5,2,0:0:0:0:
410,234,42495,1,0,0:0:0:0:
466,294,42585,1,2,3:2:0:0:
421,279,42674,1,0,0:0:0:0:
448,327,42763,1,2,1:2:0:0:
426,320,42852,1,0,0:0:0:0:
435,363,42942,1,0,0:0:0:0:
435,363,43299,1,0,3:0:0:0:
179,168,43478,5,0,3:0:0:0:
184,198,43567,1,0,0:0:0:0:
190,227,43656,1,2,0:0:0:0:
195,257,43745,1,0,0:0:0:0:
200,287,43835,2,0,L|206:324,1,24.7500007553101,0|0,3:0|0:0,0:0:0:0:
179,168,44013,1,0,3:0:0:0:
478,126,44192,6,0,B|437:133|402:112|402:112|363:160|363:160|311:130|311:130|285:159|240:155,1,270,0|0,1:3|1:0,1:0:0:0:
406,281,44549,2,0,B|381:281|381:281|372:287|372:287|353:287,1,53.9999983520508,0|0,3:0|0:0,0:0:0:0:
56,170,44728,6,0,B|72:178|72:178|76:174|76:174|98:183|98:183|100:174|100:174|129:185|129:185|128:178|128:178|158:186|158:186|153:178|153:178|185:181|185:181|180:174|180:174|208:173|208:173|204:166|204:166|235:165|235:165|230:158|230:158|253:154|253:154|266:141,1,270,6|0,3:2|0:0,0:0:0:0:
145,75,45085,1,0,3:0:0:0:
96,341,45263,2,0,L|150:335,1,53.9999983520508,0|0,3:0|0:0,0:0:0:0:
454,301,45442,2,0,B|410:312|386:271|386:271|347:274|329:302|329:302|280:288|280:288|237:303,1,242.999992584229,6|0,3:2|0:0,0:0:0:0:
125,156,45799,6,0,B|96:159|96:159|84:166|84:166|55:169,1,72,0|0,3:0|0:0,0:0:0:0:
420,98,46156,2,0,B|425:28|425:28|349:88|349:88|343:134|376:172,1,256.499993150711,4|0,3:2|0:0,0:0:0:0:
210,243,46513,5,0,3:0:0:0:
223,260,46602,1,0,0:0:0:0:
231,280,46692,1,2,3:2:0:0:
233,300,46780,1,0,0:0:0:0:
229,321,46870,5,0,3:0:0:0:
239,238,46960,1,0,0:0:0:0:
248,154,47049,1,2,3:2:0:0:
222,365,47227,2,0,L|228:320,1,45,0|0,3:0|0:0,0:0:0:0:
279,56,47406,6,0,B|223:20|223:20|250:170,1,202.500007724762,4|0,3:2|0:0,0:0:0:0:
162,236,47763,2,0,L|147:147,1,90,8|0,0:0|0:0,0:0:0:0:
187,338,48120,1,0,3:0:0:0:
187,338,48210,1,0,0:0:0:0:
187,338,48299,1,0,0:0:0:0:
320,329,48477,2,0,P|332:305|335:278,1,53.9999983520508,8|0,0:0|2:0,2:0:0:0:
458,253,48656,2,0,P|438:234|427:209,1,53.9999983520508,0|0,0:0|0:0,0:0:0:0:
252,149,48835,6,0,B|324:123|312:174|386:144,1,135.000005149842,0|0,3:0|0:3,0:0:0:0:
421,50,49102,1,0,0:0:0:0:
424,70,49192,1,10,0:0:0:0:
165,100,49370,2,0,P|131:106|108:129,1,67.5000025749208,2|0,0:0|0:0,0:0:0:0:
249,213,49549,2,0,P|260:182|252:150,1,67.5000025749208,2|0,0:0|0:0,0:0:0:0:
97,228,49727,2,0,P|117:254|149:263,1,67.5000025749208,0|0,3:0|0:0,0:0:0:0:
172,183,49906,1,8,0:0:0:0:
172,183,50085,1,0,0:0:0:0:
462,169,50263,6,0,B|325:176|325:176|382:145,1,202.500007724762,0|0,3:0|0:0,0:0:0:0:
245,283,50620,2,0,L|334:277,1,90,8|0,0:0|0:0,0:0:0:0:
151,253,50977,1,0,3:0:0:0:
151,253,51067,1,0,0:0:0:0:
151,253,51156,1,0,0:0:0:0:
29,247,51335,2,0,P|47:227|54:202,1,53.9999983520508,8|0,0:0|0:0,0:0:0:0:
111,91,51513,2,0,P|118:116|137:135,1,53.9999983520508,0|0,0:0|0:0,0:0:0:0:
151,342,51692,6,0,P|133:288|141:236,1,107.999996704102,0|0,3:0|0:0,0:0:0:0:
265,277,51960,1,0,0:0:0:0:
245,283,52050,1,8,0:0:0:0:
235,159,52227,1,0,0:0:0:0:
404,356,52406,1,0,3:0:0:0:
384,350,52496,1,0,0:0:0:0:
364,344,52585,1,0,0:0:0:0:
479,184,52763,2,0,B|379:157|407:219|322:190,1,161.999995056153,2|0,0:0|0:0,0:0:0:0:
490,359,53120,6,0,B|517:334|517:334|508:264,1,107.999996704102,0|0,3:0|0:0,0:0:0:0:
340,94,53477,2,0,B|313:119|313:119|322:189,1,107.999996704102,8|0,0:0|0:0,0:0:0:0:
183,210,53835,1,0,3:0:0:0:
183,210,53924,1,0,0:0:0:0:
183,210,54013,1,0,0:0:0:0:
41,175,54192,2,0,P|67:170|94:172,1,53.9999983520508,8|0,0:0|0:0,0:0:0:0:
183,210,54370,2,0,P|209:215|236:213,1,53.9999983520508
426,180,54549,6,0,P|375:173|318:190,1,107.999996704102,0|0,3:0|0:0,0:0:0:0:
384,294,54817,1,0,0:0:0:0:
381,271,54906,1,8,0:0:0:0:
194,87,55085,2,0,P|197:113|216:136,1,53.9999983520508,2|0,0:0|0:0,0:0:0:0:
68,254,55263,2,0,P|89:238|99:210,1,53.9999983520508,2|0,0:0|0:0,0:0:0:0:
273,290,55442,2,0,P|248:279|219:284,1,53.9999983520508,0|0,0:0|0:0,0:0:0:0:
183,210,55620,1,0,3:0:0:0:
183,210,55799,1,0,0:0:0:0:
460,108,55977,6,0,B|368:73|388:133|302:98,1,161.999995056153,0|0,3:0|0:0,0:0:0:0:
460,108,56335,2,0,B|396:84|410:125|352:101,1,107.999996704102,2|0,0:0|0:0,0:0:0:0:
25,219,56692,6,0,B|117:184|97:244|182:209,1,161.999995056153,0|0,3:0|0:0,0:0:0:0:
25,219,57050,2,0,B|88:195|74:236|132:212,1,107.999996704102,2|0,0:0|0:0,0:0:0:0:
255,354,57406,5,4,0:0:0:0:
18,253,57584,2,0,P|41:239|54:216,1,53.9999983520508,4|0,3:0|0:0,0:0:0:0:
83,82,57763,2,0,P|82:108|96:131,1,53.9999983520508,8|0,3:0|0:0,0:0:0:0:
255,354,57942,5,0,0:0:0:0:
498,254,58120,2,0,P|474:240|461:217,1,53.9999983520508,4|0,3:0|0:0,0:0:0:0:
433,84,58299,2,0,P|433:110|419:133,1,53.9999983520508,8|0,3:0|0:0,0:0:0:0:
194,223,58477,6,0,P|171:209|144:209,1,53.9999983520508,4|0,0:0|0:0,0:0:0:0:
322,225,58656,2,0,P|344:211|371:211,1,53.9999983520508,0|0,3:0|0:0,0:0:0:0:
255,32,58835,5,2,0:0:0:0:
250,324,59192,5,2,0:0:0:0:
261,279,59281,1,0,0:0:0:0:
219,250,59370,5,0,0:0:0:0:
205,196,59459,1,0,0:0:0:0:
253,152,59549,5,2,0:0:0:0:
250,324,59727,1,0,3:0:0:0:
389,218,60085,6,0,L|321:224,1,67.5000025749208,4|0,3:2|0:0,0:0:0:0:
415,173,60442,6,0,L|347:179,1,67.5000025749208,0|0,3:0|0:0,0:0:0:0:
439,128,60799,6,0,B|335:183|351:84|246:141,1,202.500007724762,4|0,3:2|0:0,0:0:0:0:
385,65,61156,1,2,0:0:0:0:
30,192,61335,2,0,P|132:218|78:127,1,270,4|0,0:0|0:0,0:0:0:0:
253,28,61692,6,0,L|259:81,1,53.9999983520508,0|0,3:0|0:0,0:0:0:0:
459,178,61870,2,0,P|425:167|390:168,1,72,2|0,0:0|0:0,0:0:0:0:
390,168,62049,2,0,P|424:179|459:178,1,72,0|0,0:0|0:0,0:0:0:0:
259,81,62227,6,0,L|252:134,1,53.9999983520508
64,225,62406,2,0,P|98:213|133:214,1,72,0|0,3:0|0:0,0:0:0:0:
133,214,62585,2,0,P|98:225|63:224,1,72,0|0,0:0|0:0,0:0:0:0:
257,359,62763,6,0,B|254:340|254:340|259:327|259:327|258:306,1,53.9999983520508,0|0,0:0|0:0,0:0:0:0:
252,134,62942,1,0,0:0:0:0:
66,208,63299,6,0,L|134:214,1,67.5000025749208,4|0,3:2|0:0,0:0:0:0:
40,163,63656,6,0,L|108:169,1,67.5000025749208,0|0,3:0|0:0,0:0:0:0:
16,118,64013,1,0,3:0:0:0:
207,130,64192,6,0,B|104:74|120:173|16:118,1,202.500007724762,4|0,3:2|0:0,0:0:0:0:
275,66,64549,5,0,3:0:0:0:
275,66,64906,1,0,0:0:0:0:
264,338,65085,2,0,P|192:367|244:271,1,270,4|0,3:2|0:0,0:0:0:0:
245,272,65442,1,2,0:0:0:0:
253,205,65799,6,0,L|245:272,1,67.5000025749208,4|0,3:2|0:0,0:0:0:0:
245,137,66156,2,0,L|252:204,1,67.5000025749208,0|0,3:0|0:0,0:0:0:0:
253,4,66513,2,0,B|249:48|249:48|254:68|254:68|246:85|246:85|244:136,1,135.000005149842,4|0,3:2|0:0,0:0:0:0:
442,215,66870,5,0,0:0:0:0:
442,215,66960,1,0,0:0:0:0:
442,215,67049,2,0,P|410:218|375:204,1,67.5000025749208,4|0,3:2|0:0,0:0:0:0:
70,215,67227,2,0,P|102:218|136:204,1,67.5000025749208,0|0,0:0|0:0,0:0:0:0:
411,346,67406,5,0,3:0:0:0:
117,342,67585,1,0,0:0:0:0:
295,336,67763,5,2,0:0:0:0:
217,341,67942,1,0,0:0:0:0:
250,168,68120,5,0,3:0:0:0:
232,197,68298,1,0,0:0:0:0:
261,215,68477,1,0,0:0:0:0:
279,186,68656,1,0,0:0:0:0:
256,191,68834,5,0,3:0:0:0:
386,29,69013,1,0,0:0:0:0:
261,215,69192,5,0,0:0:0:0:
119,73,69371,1,0,0:0:0:0:
261,215,69549,5,0,3:0:0:0:
273,238,69727,1,0,0:0:0:0:
259,261,69906,1,0,0:0:0:0:
246,285,70085,1,0,0:0:0:0:
259,308,70263,5,0,3:0:0:0:
248,16,70442,2,0,B|248:40|248:40|256:48|256:48|256:96,1,67.5000025749208,0|0,3:2|0:0,0:0:0:0:
392,186,70620,2,0,P|358:184|326:193,1,67.5000025749208,4|0,3:2|0:0,0:0:0:0:
119,186,70799,2,0,P|153:184|186:193,1,67.5000025749208,0|0,3:0|0:0,0:0:0:0:
458,180,70977,2,0,P|428:188|390:185,1,67.5000025749208,0|0,3:0|0:0,0:0:0:0:
54,180,71156,2,0,P|84:188|121:185,1,67.5000025749208,0|0,3:0|0:0,0:0:0:0:
173,351,71335,2,0,P|184:319|184:286,1,67.5000025749208,4|0,3:2|0:0,0:0:0:0:
339,351,71513,2,0,P|327:319|327:286,1,67.5000025749208,0|0,3:0|0:0,0:0:0:0:
255,79,71692,1,0,3:0:0:0:
80,301,71870,6,0,P|114:299|145:310,1,67.5000025749208,0|0,3:0|3:0,3:0:0:0:
414,301,72049,2,0,P|395:273|389:240,1,67.5000025749208,4|0,3:2|3:0,3:0:0:0:
248,10,72227,2,0,P|234:40|208:61,1,67.5000025749208,0|0,3:0|3:0,3:0:0:0:
483,167,72406,5,4,3:2:0:0:
432,146,72495,1,0,3:0:0:0:
377,140,72584,1,0,3:0:0:0:
323,148,72673,1,0,3:0:0:0:
272,170,72763,1,2,3:2:0:0:
223,194,72853,1,0,3:0:0:0:
169,202,72942,1,0,3:0:0:0:
114,196,73031,1,0,3:0:0:0:
64,177,73120,5,2,0:0:0:0:
138,57,78835,6,0,P|165:114|162:176,1,125.999996154785,0|0,3:0|0:0,0:0:0:0:
162,176,79370,1,0,0:0:0:0:
272,258,79549,2,0,B|204:247|204:290|143:266,1,125.999996154785,8|0,0:0|0:0,0:0:0:0:
150,268,80085,1,0,0:0:0:0:
328,325,80263,6,0,P|346:299|353:269,1,62.9999980773926,0|0,3:0|0:0,0:0:0:0:
490,363,80620,2,0,P|467:341|454:312,1,62.9999980773926,0|0,0:0|0:0,0:0:0:0:
450,126,80977,2,0,B|406:87|406:87|424:208,1,180,8|0,0:0|0:0,0:0:0:0:
424,208,81513,1,0,0:0:0:0:
236,163,81692,5,0,3:0:0:0:
236,163,81870,2,0,L|298:159,1,62.9999980773926,4|0,3:0|0:0,0:0:0:0:
112,155,82227,1,0,0:0:0:0:
112,155,82405,2,0,B|162:158|162:158|174:154|174:154|187:160|187:160|237:162,1,125.999996154785,8|0,0:0|0:0,0:0:0:0:
235,162,82942,1,0,0:0:0:0:
282,305,83120,6,0,P|263:279|256:249,1,62.9999980773926,0|0,3:0|0:0,0:0:0:0:
120,343,83477,2,0,P|142:321|155:292,1,62.9999980773926,0|0,0:0|0:0,0:0:0:0:
282,305,83835,6,0,P|263:279|256:249,1,62.9999980773926,8|0,3:2|0:0,0:0:0:0:
120,343,84013,2,0,P|142:321|155:292,1,62.9999980773926,8|0,3:0|0:0,0:0:0:0:
202,109,84192,2,0,B|173:101|137:78|137:78|176:132|167:189,1,188.999994232178
357,29,84549,6,0,P|329:46|325:79,1,67.5,4|0,0:0|0:0,0:0:0:0:
469,154,84906,2,0,P|467:121|441:101,1,67.5,0|0,3:0|0:0,0:0:0:0:
304,192,85263,2,0,P|333:206|363:194,1,67.5,4|0,3:2|0:0,0:0:0:0:
228,84,85620,2,0,P|200:101|196:134,1,67.5,0|0,3:0|0:0,0:0:0:0:
186,292,85977,2,0,P|184:259|158:239,1,67.5,4|0,3:2|0:0,0:0:0:0:
23,147,86335,2,0,P|52:161|82:149,1,67.5,4|0,0:2|0:0,0:0:0:0:
361,359,86692,5,0,3:2:0:0:
193,378,86870,1,0,3:0:0:0:
361,378,87049,2,0,L|369:305,1,67.5000025749208,12|0,3:2|0:0,0:0:0:0:
193,359,87227,2,0,L|185:286,1,67.5000025749208,0|0,0:0|0:0,0:0:0:0:
398,57,87406,5,0,3:0:0:0:
385,214,87585,1,0,3:0:0:0:
114,57,87763,5,2,3:2:0:0:
127,214,87942,1,0,3:0:0:0:
264,249,88120,5,0,3:0:0:0:
262,239,88210,1,0,3:0:0:0:
260,229,88299,1,0,3:0:0:0:
258,219,88388,1,0,3:0:0:0:
256,209,88477,1,2,3:2:0:0:
307,171,88566,1,0,3:0:0:0:
293,109,88655,1,0,3:0:0:0:
230,97,88744,1,0,3:0:0:0:
195,151,88835,2,0,B|147:165|150:141|105:150,2,90,2|0|0,0:0|0:0|0:0,0:0:0:0:
344,167,89906,5,0,0:0:0:0:
308,212,89995,1,0,0:0:0:0:
319,268,90084,1,0,0:0:0:0:
366,299,90173,1,0,0:0:0:0:
423,284,90263,2,0,B|473:238|446:174|446:174|398:180|385:221,1,202.500007724762,2|0,3:2|0:0,0:0:0:0:
166,216,90620,2,0,B|195:214|195:214|207:208|207:208|231:207,1,67.5000025749208,0|0,3:0|0:0,0:0:0:0:
395,74,90799,2,0,B|335:83|335:83|320:74|320:74|258:82,1,135.000005149842,10|0,0:0|0:0,0:0:0:0:
162,109,91067,1,0,0:0:0:0:
162,109,91156,2,0,P|144:80|141:47,1,67.5000025749208,0|0,3:0|0:0,0:0:0:0:
55,266,91335,2,0,B|17:204|85:194|58:134,1,135.000005149842,6|0,3:2|0:0,0:0:0:0:
314,353,91692,6,0,P|347:306|347:249,1,116.999994644165,0|0,3:0|0:0,0:0:0:0:
248,257,91960,1,0,0:0:0:0:
253,277,92049,1,8,0:0:0:0:
327,38,92227,2,0,B|328:57|328:57|335:69|335:69|336:94,1,58.4999973220826,2|0,3:2|0:0,0:0:0:0:
461,158,92406,2,0,P|433:167|402:165,1,58.4999973220826,2|0,3:2|0:0,0:0:0:0:
224,181,92585,2,0,P|252:172|282:173,1,58.4999973220826
452,291,92763,2,0,B|404:270|404:270|286:304,1,175.499991966248,4|0,0:2|0:0,0:0:0:0:
206,375,93120,5,0,3:0:0:0:
179,212,93299,1,0,0:0:0:0:
183,357,93477,1,8,0:0:0:0:
204,235,93656,1,0,0:0:0:0:
91,285,93835,1,0,3:0:0:0:
286,304,94013,5,0,0:0:0:0:
286,326,94102,1,0,0:0:0:0:
297,346,94192,1,8,0:0:0:0:
324,319,94281,1,0,0:0:0:0:
335,282,94370,1,2,0:0:0:0:
329,245,94459,1,0,0:0:0:0:
312,130,94549,5,0,3:0:0:0:
317,123,94638,1,0,0:0:0:0:
322,116,94727,2,0,L|313:173,1,58.4999973220826,0|0,0:0|0:0,0:0:0:0:
171,262,94906,1,10,3:2:0:0:
176,269,94995,1,0,0:0:0:0:
181,276,95084,2,0,L|172:218,1,58.4999973220826
25,171,95263,2,0,B|43:169|43:169|51:164|51:164|62:168|62:168|81:165,1,58.4999973220826,0|0,3:0|0:0,0:0:0:0:
316,81,95442,2,0,B|297:84|297:84|286:80|286:80|278:85|278:85|261:88,1,58.4999973220826,8|0,3:0|0:0,0:0:0:0:
282,349,95620,2,0,P|361:304|270:296,1,242.999992584229,12|0,0:0|0:0,0:0:0:0:
414,191,95977,6,0,B|321:209|351:155|256:179,1,161.999995056153,0|0,3:0|0:0,0:0:0:0:
253,65,96245,1,0,0:0:0:0:
261,84,96335,1,8,0:0:0:0:
128,142,96513,2,0,P|110:113|108:80,1,67.5000025749208,2|0,0:0|0:0,0:0:0:0:
43,66,96692,2,0,P|77:67|108:81,1,67.5000025749208,0|0,3:0|0:0,0:0:0:0:
150,31,96870,2,0,P|133:61|107:81,1,67.5000025749208,0|0,0:0|0:0,0:0:0:0:
122,271,97049,2,0,P|141:208|128:143,1,135,8|0,0:0|0:0,0:0:0:0:
257,367,97406,6,0,P|235:303|248:238,1,135.000005149842,0|0,3:0|0:0,0:0:0:0:
359,281,97674,1,0,0:0:0:0:
351,300,97764,1,8,0:0:0:0:
320,86,97942,1,2,0:0:0:0:
488,164,98120,1,0,3:0:0:0:
488,164,98210,1,0,0:0:0:0:
488,164,98299,2,0,L|421:173,1,67.5000025749208,0|0,0:0|0:0,0:0:0:0:
132,213,98477,2,0,B|263:199|263:199|224:191|199:170,1,202.500007724762,10|0,0:0|0:0,0:0:0:0:
429,108,98835,6,0,B|390:87|390:87|420:172,1,135.000005149842,0|0,3:0|0:0,0:0:0:0:
358,255,99102,1,0,0:0:0:0:
350,236,99192,1,8,0:0:0:0:
132,213,99370,2,0,P|114:241|111:275,1,67.5000025749208,2|0,0:0|0:0,0:0:0:0:
47,287,99549,2,0,P|80:287|111:274,1,67.5000025749208,2|0,3:2|0:0,0:0:0:0:
155,323,99727,2,0,P|139:293|111:274,1,67.5000025749208,2|0,0:0|0:0,0:0:0:0:
201,126,99906,1,2,3:2:0:0:
196,119,99995,1,0,0:0:0:0:
191,112,100084,2,0,L|198:182,1,67.5000025749208
355,34,100263,6,0,P|312:46|282:77,1,90.0000034332277,0|0,3:0|0:0,0:0:0:0:
356,121,100501,1,0,0:0:0:0:
431,164,100620,2,0,P|442:121|430:78,1,90.0000034332277,8|0,0:0|0:0,0:0:0:0:
356,121,100858,1,0,0:0:0:0:
282,165,100977,2,0,P|313:196|356:207,1,90.0000034332277,0|0,3:0|0:0,0:0:0:0:
356,121,101215,1,0,0:0:0:0:
282,77,101335,6,0,P|245:78|215:87,1,67.5000025749208,8|0,0:0|0:0,0:0:0:0:
134,113,101513,2,0,P|97:112|67:102,1,67.5000025749208,2|0,0:0|0:0,0:0:0:0:
282,77,101692,2,0,P|245:78|215:87,1,67.5000025749208,0|0,3:0|0:0,0:0:0:0:
267,283,102049,6,0,B|267:260|285:242|285:242|227:218|160:244|137:317|137:317|91:284|53:294,1,323.999990112305,4|0,1:2|0:0,0:0:0:0:
424,60,102585,2,0,B|424:83|442:101|442:101|384:125|317:99|294:26|294:26|248:59|210:47,1,323.999990112305,4|0,1:2|0:0,0:0:0:0:
399,320,103120,6,0,P|367:320|332:333,1,67.5,4|0,3:2|0:0,0:0:0:0:
459,73,103477,2,0,P|427:85|394:85,1,67.5,6|0,3:2|0:0,0:0:0:0:
485,186,103835,6,0,P|454:183|417:191,1,67.5000025749208,0|0,3:0|0:0,0:0:0:0:
337,232,104013,2,0,P|306:235|269:226,1,67.5000025749208,4|0,3:0|0:0,0:0:0:0:
52,173,104192,2,0,P|150:191|76:123,1,270.000010299683,8|0,0:0|0:0,0:0:0:0:
76,123,104549,2,0,P|52:135|60:109,1,67.5,0|0,3:0|0:0,0:0:0:0:
150,226,104906,6,0,B|214:278|209:354|209:354|147:387|147:387|150:363|130:337,1,270.000010299683,4|0,3:2|0:0,0:0:0:0:
366,129,105442,2,0,B|302:181|307:257|307:257|369:290|369:290|366:266|385:240,1,270.000010299683,4|0,3:2|0:0,0:0:0:0:
172,80,105977,6,0,B|175:108|175:108|186:119|186:119|190:148,1,67.5,4|0,3:2|0:0,0:0:0:0:
308,22,106335,2,0,B|305:50|305:50|294:61|294:61|290:90,1,67.5,4|0,3:2|0:0,0:0:0:0:
453,176,106692,6,0,B|415:169|428:189|385:180,1,67.5000025749208,0|0,3:0|0:0,0:0:0:0:
61,197,106870,2,0,B|99:190|86:210|128:201,1,67.5000025749208,4|0,3:0|0:0,0:0:0:0:
313,261,107049,2,0,B|343:274|341:351|272:374|256:336|230:308|230:308|262:244|212:252|239:182,1,310.500005922318,12|0,3:2|0:0,0:0:0:0:
383,45,107406,5,0,3:0:0:0:
133,73,107585,1,0,3:0:0:0:
401,66,107763,1,8,3:2:0:0:
121,51,107942,1,0,3:0:0:0:
255,283,108120,5,0,3:0:0:0:
122,178,108299,1,0,3:0:0:0:
262,364,108477,1,8,3:2:0:0:
406,181,108656,1,0,3:0:0:0:
149,252,108835,6,0,L|155:310,1,58.4999973220826,4|0,3:2|0:0,0:0:0:0:
376,202,109013,2,0,L|369:260,1,58.4999973220826,0|0,3:2|0:0,0:0:0:0:
55,131,109192,2,0,L|61:189,1,58.4999973220826,4|0,3:2|0:0,0:0:0:0:
473,89,109370,2,0,L|466:147,1,58.4999973220826,0|0,3:0|0:0,0:0:0:0:
237,42,109549,5,4,3:2:0:0:
217,77,109638,1,0,3:0:0:0:
215,118,109727,1,0,3:0:0:0:
231,156,109816,1,0,3:0:0:0:
323,190,109906,5,4,3:2:0:0:
339,252,109995,1,0,3:0:0:0:
310,311,110084,1,0,3:0:0:0:
251,337,110173,1,0,3:0:0:0:
189,320,110263,1,0,3:0:0:0:
437,245,110442,5,2,3:2:0:0:
75,246,110620,1,2,0:0:0:0:
324,357,110799,1,0,0:0:0:0:
195,359,110977,5,0,3:0:0:0:
173,351,111156,1,0,0:0:0:0:
173,328,111334,1,2,3:2:0:0:
195,321,111513,1,2,0:0:0:0:
209,340,111691,5,0,3:0:0:0:
409,301,111870,1,0,0:0:0:0:
255,315,112049,1,2,3:2:0:0:
355,335,112227,1,2,0:2:0:0:
250,115,112406,5,0,3:0:0:0:
239,135,112585,1,0,0:0:0:0:
252,154,112763,1,2,0:0:0:0:
264,174,112942,1,0,0:0:0:0:
254,194,113120,1,0,3:0:0:0:
128,144,113299,6,0,P|156:137|185:137,1,58.4999973220826,0|0,1:0|0:0,0:0:0:0:
383,144,113477,2,0,P|355:137|326:137,1,58.4999973220826,6|0,3:2|0:0,0:0:0:0:
70,137,113656,2,0,P|98:144|127:144,1,58.4999973220826,0|0,0:0|0:0,0:0:0:0:
441,137,113835,2,0,P|412:144|383:144,1,58.4999973220826,0|0,3:0|0:0,0:0:0:0:
264,205,114013,2,0,P|260:233|264:262,1,58.4999973220826,0|0,1:0|0:0,0:0:0:0:
137,270,114192,2,0,P|141:243|136:211,1,58.4999973220826,4|0,3:2|0:0,0:0:0:0:
404,265,114370,2,0,P|400:238|404:206,1,58.4999973220826
274,42,114549,1,0,3:0:0:0:
253,307,114727,6,0,L|256:374,1,67.5000025749208,0|0,1:0|0:0,0:0:0:0:
480,207,114906,2,0,P|478:174|484:140,1,67.5000025749208,4|0,3:2|0:0,0:0:0:0:
58,193,115085,2,0,P|61:159|55:126,1,67.5000025749208,2|0,0:0|0:0,0:0:0:0:
299,353,115263,5,0,3:2:0:0:
274,330,115352,1,0,0:0:0:0:
270,297,115441,1,0,1:0:0:0:
287,269,115530,1,0,0:0:0:0:
374,245,115620,1,4,3:2:0:0:
413,208,115709,1,0,0:0:0:0:
420,155,115798,1,0,0:0:0:0:
393,110,115887,1,0,0:0:0:0:
316,58,115977,2,0,B|304:90|322:114|322:114|282:109|254:140|254:140|245:101|209:83|209:83|239:64|250:22|250:22|279:51|318:43,1,360,2|6,0:0|0:0,0:0:0:0:
256,192,116424,12,0,120620,0:0:0:0:
