osu file format v14

[General]
AudioFilename: audio.mp3
AudioLeadIn: 0
PreviewTime: 58824
Countdown: 0
SampleSet: Soft
StackLeniency: 0.4
Mode: 0
LetterboxInBreaks: 0
WidescreenStoryboard: 1

[Editor]
DistanceSpacing: 0.5
BeatDivisor: 4
GridSize: 32
TimelineZoom: 1.9

[Metadata]
Title:unisonote
TitleUnicode:unisonote
Artist:onoken
ArtistUnicode:onoken
Creator:Ermi
Version:Chiga's Hard
Source:jubeat saucer fulfill
Tags:electronic instrumental video game jubeat plus artcore bemani oriental chiga derandom otaku ren modding queue
BeatmapID:2693211
BeatmapSetID:1276405

[Difficulty]
HPDrainRate:4
CircleSize:4.2
OverallDifficulty:6.5
ApproachRate:8
SliderMultiplier:1.4
SliderTickRate:1

[Events]
//Background and Video events
0,0,"eh.jpg",0,0
//Break Periods
2,73309,78074
//Storyboard Layer 0 (Background)
//Storyboard Layer 1 (Fail)
//Storyboard Layer 2 (Pass)
//Storyboard Layer 3 (Foreground)
//Storyboard Layer 4 (Overlay)
//Storyboard Sound Samples

[TimingPoints]
790,357.142857142857,4,2,1,30,1,0
968,357.142857142857,4,2,1,30,1,0
968,-166.666666666667,4,2,1,30,0,0
2307,-166.666666666667,4,2,1,5,0,0
2396,-166.666666666667,4,2,1,30,0,0
3735,-166.666666666667,4,2,1,5,0,0
3825,-166.666666666667,4,2,1,30,0,0
5164,-166.666666666667,4,2,1,5,0,0
5253,-166.666666666667,4,2,1,30,0,0
6057,-166.666666666667,4,2,1,5,0,0
6146,-166.666666666667,4,2,1,30,0,0
6592,-166.666666666667,4,2,1,5,0,0
6682,-166.666666666667,4,2,1,30,0,0
6950,-166.666666666667,4,2,1,5,0,0
7039,-166.666666666667,4,2,1,30,0,0
7307,-166.666666666667,4,2,1,5,0,0
7396,-166.666666666667,4,2,1,30,0,0
8021,-166.666666666667,4,2,1,5,0,0
8110,-166.666666666667,4,2,1,30,0,0
8378,-166.666666666667,4,2,1,5,0,0
8467,-166.666666666667,4,2,1,30,0,0
9807,-166.666666666667,4,2,1,5,0,0
9896,-166.666666666667,4,2,1,30,0,0
10164,-166.666666666667,4,2,1,5,0,0
10253,-166.666666666667,4,2,1,30,0,0
10878,-166.666666666667,4,2,1,5,0,0
10967,-166.666666666667,4,2,1,30,0,0
11235,-166.666666666667,4,2,1,5,0,0
11325,-166.666666666667,4,2,1,30,0,0
11592,-166.666666666667,4,2,1,30,0,0
11682,-166.666666666667,4,2,1,30,0,0
11771,-166.666666666667,4,2,1,5,0,0
11860,-166.666666666667,4,2,1,30,0,0
12307,-166.666666666667,4,2,1,5,0,0
12396,-166.666666666667,4,2,1,40,0,0
12753,-166.666666666667,4,2,1,5,0,0
12932,-166.666666666667,4,2,1,40,0,0
13110,-166.666666666667,4,2,1,40,0,0
13646,-166.666666666667,4,2,1,40,0,0
13735,-166.666666666667,4,2,1,5,0,0
13825,-166.666666666667,4,2,1,40,0,0
15610,-166.666666666667,4,2,1,5,0,0
15789,-166.666666666667,4,2,1,40,0,0
15967,-166.666666666667,4,2,1,40,0,0
16414,-166.666666666667,4,2,1,5,0,0
16503,-166.666666666667,4,2,1,40,0,0
16592,-166.666666666667,4,2,1,5,0,0
16682,-166.666666666667,4,2,1,40,0,0
17217,-166.666666666667,4,2,1,5,0,0
17307,-166.666666666667,4,2,1,5,0,0
17396,-166.666666666667,4,2,1,40,0,0
17932,-166.666666666667,4,2,1,40,0,0
18110,-166.666666666667,4,2,1,40,0,0
18467,-166.666666666667,4,2,1,5,0,0
18646,-166.666666666667,4,2,1,40,0,0
18825,-166.666666666667,4,2,1,40,0,0
19360,-166.666666666667,4,2,1,40,0,0
19450,-166.666666666667,4,2,1,5,0,0
19539,-166.666666666667,4,2,1,40,0,0
21503,-166.666666666667,4,2,1,40,0,0
21682,-166.666666666667,4,2,1,40,0,0
22128,-166.666666666667,4,2,1,5,0,0
22217,-166.666666666667,4,2,1,40,0,0
22307,-166.666666666667,4,2,1,5,0,0
22396,-166.666666666667,4,2,1,40,0,0
23735,-166.666666666667,4,2,1,5,0,0
23825,-142.857142857143,4,2,1,60,0,0
29450,-142.857142857143,4,2,1,5,0,0
29539,-142.857142857143,4,2,1,75,0,0
35164,-142.857142857143,4,2,1,75,0,0
35253,-200,4,2,1,75,0,0
35877,-200,4,2,1,75,0,0
35967,357.142857142857,4,2,1,95,1,0
35967,-111.111111111111,4,2,1,95,0,0
36770,-111.111111111111,4,2,1,5,0,0
36859,-111.111111111111,4,2,1,5,0,0
36949,-111.111111111111,4,2,1,95,0,0
37038,-111.111111111111,4,2,1,5,0,0
37217,-111.111111111111,4,2,1,95,0,0
37306,-111.111111111111,4,2,1,5,0,0
37574,-111.111111111111,4,2,1,95,0,0
38467,-166.666666666666,4,2,1,95,0,0
38734,-111.111111111111,4,2,1,95,0,0
38824,-111.111111111111,4,2,1,95,0,0
39627,-111.111111111111,4,2,1,5,0,0
39717,-111.111111111111,4,2,1,5,0,0
39806,-111.111111111111,4,2,1,95,0,0
39895,-111.111111111111,4,2,1,5,0,0
40074,-111.111111111111,4,2,1,95,0,0
40163,-111.111111111111,4,2,1,5,0,0
40431,-111.111111111111,4,2,1,95,0,0
42306,-111.111111111111,4,2,1,5,0,0
42395,-111.111111111111,4,2,1,95,0,0
44092,-111.111111111111,4,2,1,5,0,0
44181,-166.666666666666,4,2,1,95,0,0
44449,-166.666666666666,4,2,1,95,0,0
44538,-111.111111111111,4,2,1,95,0,0
44895,-111.111111111111,4,2,1,95,0,0
45699,-111.111111111111,4,2,1,95,0,0
45788,-111.111111111111,4,2,1,95,0,0
45877,-111.111111111111,4,2,1,5,0,0
46145,-111.111111111111,4,2,1,95,0,0
46234,-111.111111111111,4,2,1,5,0,0
46324,-111.111111111111,4,2,1,95,0,0
46681,-111.111111111111,4,2,1,95,0,0
47127,-111.111111111111,4,2,1,5,0,0
47216,-111.111111111111,4,2,1,95,0,0
47395,-125,4,2,1,85,0,1
48020,-125,4,2,1,85,0,1
48109,-125,4,2,1,85,0,1
48734,-125,4,2,1,85,0,1
48824,-125,4,2,1,85,0,1
50877,-125,4,2,1,85,0,1
50966,-125,4,2,1,85,0,1
51591,-125,4,2,1,85,0,1
51681,-125,4,2,1,85,0,1
52663,-125,4,2,1,5,0,1
52752,-125,4,2,1,85,0,1
53020,-125,4,2,1,85,0,1
53109,-125,4,2,1,85,0,1
54449,-125,4,2,1,85,0,1
54538,-125,4,2,1,85,0,1
57306,-125,4,2,1,85,0,1
57395,-125,4,2,1,85,0,1
58824,-125,4,2,1,75,0,0
58913,-125,4,2,1,5,0,0
59181,-125,4,2,1,75,0,0
60163,-125,4,2,1,5,0,0
60431,-125,4,2,1,75,0,0
60520,-125,4,2,1,5,0,0
60788,-125,4,2,1,75,0,0
61591,-125,4,2,1,75,0,0
61681,-125,4,2,1,75,0,0
62841,-125,4,2,1,5,0,0
62931,-125,4,2,1,75,0,0
63020,-125,4,2,1,5,0,0
63288,-125,4,2,1,75,0,0
63377,-125,4,2,1,5,0,0
63645,-125,4,2,1,75,0,0
64627,-125,4,2,1,5,0,0
64895,-125,4,2,1,75,0,0
65520,-125,4,2,1,5,0,0
65788,-125,4,2,1,75,0,0
65877,-125,4,2,1,5,0,0
66145,-125,4,2,1,75,0,0
66234,-125,4,2,1,5,0,0
66502,-125,4,2,1,75,0,0
67395,-111.111111111111,4,2,1,75,0,0
67841,-111.111111111111,4,2,1,5,0,0
67931,-111.111111111111,4,2,1,75,0,0
68020,-111.111111111111,4,2,1,5,0,0
68109,-111.111111111111,4,2,1,75,0,0
68199,-111.111111111111,4,2,1,5,0,0
68288,-111.111111111111,4,2,1,75,0,0
68377,-111.111111111111,4,2,1,5,0,0
68466,-111.111111111111,4,2,1,75,0,0
68556,-111.111111111111,4,2,1,5,0,0
68645,-111.111111111111,4,2,1,75,0,0
68734,-111.111111111111,4,2,1,5,0,0
68824,-111.111111111111,4,2,1,75,0,0
69270,-111.111111111111,4,2,1,5,0,0
69359,-111.111111111111,4,2,1,75,0,0
69449,-111.111111111111,4,2,1,5,0,0
69538,-111.111111111111,4,2,1,75,0,0
69627,-111.111111111111,4,2,1,5,0,0
69716,-111.111111111111,4,2,1,75,0,0
69806,-111.111111111111,4,2,1,5,0,0
69895,-111.111111111111,4,2,1,75,0,0
69984,-111.111111111111,4,2,1,5,0,0
70074,-111.111111111111,4,2,1,75,0,0
70163,-111.111111111111,4,2,1,5,0,0
70252,-111.111111111111,4,2,1,75,0,0
70431,-111.111111111111,4,2,1,85,0,0
70520,-111.111111111111,4,2,1,5,0,0
70609,-111.111111111111,4,2,1,85,0,0
70699,-111.111111111111,4,2,1,5,0,0
70788,-111.111111111111,4,2,1,85,0,0
70877,-111.111111111111,4,2,1,5,0,0
70966,-111.111111111111,4,2,1,85,0,0
71056,-111.111111111111,4,2,1,5,0,0
71145,-111.111111111111,4,2,1,85,0,0
71234,-111.111111111111,4,2,1,5,0,0
71324,-111.111111111111,4,2,1,85,0,0
71413,-111.111111111111,4,2,1,5,0,0
71502,-111.111111111111,4,2,1,85,0,0
71591,-111.111111111111,4,2,1,5,0,0
71681,-111.111111111111,4,2,1,85,0,0
71949,-111.111111111111,4,2,1,5,0,0
72038,-111.111111111111,4,2,1,85,0,0
72127,-111.111111111111,4,2,1,5,0,0
72216,-111.111111111111,4,2,1,85,0,0
72306,-111.111111111111,4,2,1,5,0,0
72395,-111.111111111111,4,2,1,85,0,0
72752,-90.9090909090909,4,2,1,85,0,0
78824,-142.857142857143,4,2,1,60,0,0
79181,-142.857142857143,4,2,1,5,0,0
79359,-142.857142857143,4,2,1,60,0,0
83824,-125,4,2,1,60,0,0
84181,-166.666666666667,4,2,1,60,0,0
84449,-166.666666666667,4,2,1,60,0,0
84538,-117.647058823529,4,2,1,70,0,0
86681,-117.647058823529,4,2,1,80,0,0
88466,-105.263157894737,4,2,1,80,0,0
88824,-200,4,2,1,80,0,0
89895,-125,4,2,1,95,0,0
90074,-125,4,2,1,95,0,0
90252,-111.111111111111,4,2,1,100,0,1
101681,-111.111111111111,4,2,1,100,0,0
102038,-111.111111111111,4,2,1,100,0,1
104538,-111.111111111111,4,2,1,100,0,0
104895,-111.111111111111,4,2,1,100,0,1
106681,-111.111111111111,4,2,1,100,0,0
107395,-111.111111111111,4,2,1,100,0,1
109895,-90.9090909090908,4,2,1,100,0,0
110252,-99.9999999999999,4,2,1,85,0,1
110699,-99.9999999999999,4,2,1,5,0,1
110788,-99.9999999999999,4,2,1,85,0,1
110877,-99.9999999999999,4,2,1,5,0,1
110966,-99.9999999999999,4,2,1,85,0,1
111234,-99.9999999999999,4,2,1,5,0,1
111324,-99.9999999999999,4,2,1,85,0,1
111413,-99.9999999999999,4,2,1,5,0,1
111502,-99.9999999999999,4,2,1,85,0,1
111591,-99.9999999999999,4,2,1,5,0,1
111681,-99.9999999999999,4,2,1,85,0,1
112127,-99.9999999999999,4,2,1,5,0,1
112216,-99.9999999999999,4,2,1,85,0,1
112306,-99.9999999999999,4,2,1,5,0,1
112395,-99.9999999999999,4,2,1,85,0,1
112663,-99.9999999999999,4,2,1,5,0,1
112752,-99.9999999999999,4,2,1,85,0,1
112841,-99.9999999999999,4,2,1,5,0,1
112931,-99.9999999999999,4,2,1,85,0,1
113020,-99.9999999999999,4,2,1,5,0,1
113109,-99.9999999999999,4,2,1,85,0,1
113288,-99.9999999999999,4,2,1,100,0,1
113377,-99.9999999999999,4,2,1,5,0,1
113466,-99.9999999999999,4,2,1,100,0,1
113556,-99.9999999999999,4,2,1,5,0,1
113645,-99.9999999999999,4,2,1,100,0,1
113734,-99.9999999999999,4,2,1,5,0,1
113824,-99.9999999999999,4,2,1,100,0,1
113913,-99.9999999999999,4,2,1,5,0,1
114002,-99.9999999999999,4,2,1,100,0,1
114091,-99.9999999999999,4,2,1,5,0,1
114181,-99.9999999999999,4,2,1,100,0,1
114270,-99.9999999999999,4,2,1,5,0,1
114359,-99.9999999999999,4,2,1,100,0,1
114449,-99.9999999999999,4,2,1,5,0,1
114538,-99.9999999999999,4,2,1,100,0,1
114806,-99.9999999999999,4,2,1,5,0,1
114895,-99.9999999999999,4,2,1,100,0,1
114984,-99.9999999999999,4,2,1,5,0,1
115074,-99.9999999999999,4,2,1,100,0,1
115163,-99.9999999999999,4,2,1,5,0,1
115252,-99.9999999999999,4,2,1,100,0,1
115609,-83.3333333333333,4,2,1,100,0,1
115966,-83.3333333333333,4,2,1,100,0,0
116413,-83.3333333333333,4,2,1,5,0,0

[Colours]
Combo1 : 83,87,255
Combo2 : 178,178,178
Combo3 : 57,149,249

[HitObjects]
51,67,968,6,0,L|68:156,1,83.9999974365235,2|2,0:0|0:0,0:0:0:0:
144,191,1503,1,0,0:0:0:0:
144,191,1682,2,0,L|154:134,1,41.9999987182618,2|0,0:0|0:0,0:0:0:0:
69,230,2039,2,0,P|47:236|28:233,1,41.9999987182618,2|0,0:0|0:0,0:0:0:0:
129,293,2396,6,0,L|186:303,2,41.9999987182618,2|0|2,0:0|0:0|0:0,0:0:0:0:
210,374,2932,1,0,0:0:0:0:
210,374,3110,2,0,L|251:366,1,41.9999987182618,2|0,0:0|0:0,0:0:0:0:
327,348,3467,1,2,0:0:0:0:
245,256,3825,6,0,P|235:218|266:171,1,83.9999974365235,2|2,0:0|0:0,0:0:0:0:
236,103,4360,1,0,0:0:0:0:
236,103,4539,2,0,P|258:91|291:94,1,41.9999987182618,2|0,0:0|0:0,0:0:0:0:
330,30,4896,2,0,P|350:44|361:76,1,41.9999987182618,2|0,0:0|0:0,0:0:0:0:
426,112,5253,6,0,L|418:159,2,41.9999987182618,2|0|2,0:0|0:0|0:0,0:0:0:0:
496,191,5789,1,0,0:0:0:0:
496,191,5967,2,0,L|504:238,1,41.9999987182618,2|2,0:0|0:0,0:0:0:0:
468,305,6325,1,2,0:0:0:0:
348,210,6682,6,0,P|328:215|310:232,1,41.9999987182618,2|2,0:0|0:0,0:0:0:0:
237,276,7039,2,0,P|234:249|225:203,1,62.9999980773926,2|0,0:0|0:0,0:0:0:0:
223,204,7396,1,2,0:0:0:0:
321,93,7753,2,0,P|315:121|312:151,1,41.9999987182618,0|2,0:0|0:0,0:0:0:0:
348,210,8110,5,2,0:0:0:0:
220,113,8467,2,0,P|172:126|146:166,1,83.9999974365235,2|0,0:0|0:0,0:0:0:0:
74,128,9003,1,2,0:0:0:0:
74,128,9182,2,0,P|67:159|72:178,1,41.9999987182618,2|0,0:0|0:0,0:0:0:0:
127,247,9539,6,0,L|119:297,1,41.9999987182618,2|2,0:0|0:0,0:0:0:0:
42,343,9896,2,0,L|29:262,1,62.9999980773926,2|0,0:0|0:0,0:0:0:0:
28,270,10253,1,2,0:0:0:0:
126,370,10610,2,0,P|149:363|168:361,1,41.9999987182618,0|2,0:0|0:0,0:0:0:0:
254,373,10967,5,2,0:0:0:0:
188,246,11325,2,0,P|231:251|273:264,1,83.9999974365235,2|2,0:0|0:0,0:0:0:0:
346,235,11860,1,2,0:0:0:0:
346,235,12039,2,0,P|352:266|347:284,1,41.9999987182618,2|0,0:0|0:0,0:0:0:0:
276,175,12396,6,0,B|254:149|267:112|267:112|294:88|338:102,1,125.999996154785,2|0,0:0|0:0,0:0:0:0:
396,136,13110,2,0,B|408:120|406:93|406:93|431:131|413:174,1,125.999996154785,2|2,0:0|0:0,0:0:0:0:
346,235,13825,2,0,P|323:277|338:321,1,83.9999974365235,2|2,0:0|0:0,0:0:0:0:
452,376,14539,2,0,B|447:334|447:334|449:330|449:330|444:289,1,83.9999974365235,2|2,0:0|0:0,0:0:0:0:
512,237,15075,1,2,0:0:0:0:
512,237,15253,6,0,B|479:223|450:246|450:246|423:268|380:254,1,125.999996154785,2|0,0:0|0:0,0:0:0:0:
346,181,15967,2,0,P|319:159|261:164,1,83.9999974365235,2|2,0:0|0:0,0:0:0:0:
167,244,16682,6,0,B|208:223|208:223|208:172|165:160,1,125.999996154785,2|0,0:0|0:0,0:0:0:0:
93,129,17396,2,0,B|64:112|69:69|69:69|81:101|111:111,1,125.999996154785,2|0,0:0|0:0,0:0:0:0:
193,75,18110,6,0,P|241:38|297:60,1,125.999996154785,2|0,0:0|0:0,0:0:0:0:
323,143,18825,2,0,P|371:179|427:157,1,125.999996154785,2|2,0:0|0:0,0:0:0:0:
512,98,19539,2,0,P|473:89|428:78,1,83.9999974365235,2|2,0:0|0:0,0:0:0:0:
323,143,20253,2,0,P|282:153|241:162,1,83.9999974365235,2|2,0:0|0:0,0:0:0:0:
165,102,20789,1,2,0:0:0:0:
165,102,20967,6,0,B|129:98|113:128|113:128|141:185,1,125.999996154785,2|0,0:0|0:0,0:0:0:0:
208,251,21682,2,0,B|200:287|200:287|202:291|202:291|194:333,1,83.9999974365235,2|2,0:0|0:0,0:0:0:0:
52,343,22396,6,0,P|35:304|95:254,1,125.999996154785,2|2,0:0|0:0,0:0:0:0:
102,173,23110,2,0,P|127:176|145:188,1,41.9999987182618,2|2,0:0|0:0,0:0:0:0:
240,139,23467,2,0,P|253:167|240:213,1,62.9999980773926,2|0,0:0|0:0,0:0:0:0:
242,206,23825,5,4,3:1:0:0:
328,272,24003,2,0,L|381:262,1,48.9999985046387,0|0,3:0|1:0,0:0:0:0:
267,341,24360,2,2,L|376:361,1,97.9999970092774,0|0,0:0|0:0,0:1:0:0:
376,159,26503,1,8,0:0:0:0:
376,159,26592,1,8,0:0:0:0:
376,159,26681,5,4,3:1:0:0:
356,235,26860,2,0,P|327:225|306:194,1,48.9999985046387,0|0,3:0|1:0,0:0:0:0:
228,214,27217,2,2,P|221:174|204:101,1,97.9999970092774,0|0,0:0|0:0,0:1:0:0:
305,72,27753,2,0,P|299:95|294:119,1,48.9999985046387,2|0,0:0|0:0,0:0:0:0:
236,7,28110,6,0,B|169:14|169:14|166:18|166:18|88:26,1,146.999995513916,2|0,1:2|0:0,0:0:0:0:
5,61,28825,2,0,B|72:68|72:68|75:72|75:72|132:78|132:78|113:95|111:120,1,171.499994766236,2|0,0:0|0:0,0:0:0:0:
114,125,29539,5,4,3:1:0:0:
134,213,29717,1,0,3:0:0:0:
27,252,29896,2,0,P|18:232|21:203,1,48.9999985046387,8|0,0:0|1:0,0:0:0:0:
94,322,30253,1,0,1:0:0:0:
94,322,30432,2,0,L|85:378,1,48.9999985046387,8|0,0:0|0:0,0:0:0:0:
231,240,31503,6,0,L|238:288,1,48.9999985046387,8|0,0:0|1:0,0:0:0:0:
240,300,31771,1,0,1:0:0:0:
242,312,31860,1,0,1:0:0:0:
335,298,32039,2,0,L|327:346,1,48.9999985046387,0|8,3:0|0:0,0:0:0:0:
400,246,32396,5,4,3:1:0:0:
315,220,32574,1,0,3:0:0:0:
335,108,32753,2,0,P|356:110|380:127,1,48.9999985046387,8|0,0:0|1:0,0:0:0:0:
241,131,33110,1,0,1:0:0:0:
241,131,33289,2,0,L|231:68,1,48.9999985046387,8|0,0:0|0:0,0:0:0:0:
313,24,33646,5,8,0:0:0:0:
316,12,33735,1,8,0:0:0:0:
97,111,34360,5,8,0:0:0:0:
60,31,34539,2,0,L|66:7,2,24.4999992523194,0|0|0,1:0|1:0|3:0,0:0:0:0:
103,123,34896,2,0,L|85:194,1,73.4999977569581,8|0,0:0|0:0,0:0:0:0:
76,202,35253,6,0,P|131:223|151:279,1,122.5,2|0,0:0|0:0,0:0:0:0:
143,293,35967,6,0,B|184:284|184:284|191:286|191:286|237:272|237:272|228:318|228:318|252:365,1,188.999994232178,4|0,3:2|1:0,0:0:0:0:
377,300,36681,6,0,P|341:285|307:300,1,62.9999980773926,10|0,0:2|0:0,0:0:0:0:
310,304,36949,1,2,3:2:0:0:
452,265,37217,1,2,1:2:0:0:
313,205,37574,5,2,1:2:0:0:
372,139,37752,2,0,L|350:70,1,62.9999980773926,8|0,0:0|1:0,0:0:0:0:
355,63,38020,1,0,1:0:0:0:
360,48,38109,1,4,1:1:0:0:
274,94,38288,1,0,3:0:0:0:
227,21,38467,6,0,P|200:5|157:11,1,62.9999980773926,10|0,0:0|0:0,0:0:0:0:
159,18,38824,6,0,B|145:57|96:73|57:50|57:50|90:67|93:106,1,188.999994232178,4|0,3:2|1:0,0:0:0:0:
14,186,39538,6,0,P|1:157|13:121,1,62.9999980773926,10|0,0:0|0:0,0:0:0:0:
20,117,39806,1,2,3:2:0:0:
0,270,40074,1,2,1:2:0:0:
115,177,40431,5,0,3:0:0:0:
171,254,40609,2,0,P|190:260|216:256,3,31.4999990386963,10|2|2|10,0:0|0:2|1:2|1:2,0:0:0:0:
155,239,40967,6,0,L|169:317,1,62.9999980773926,2|0,0:2|3:1,0:0:0:0:
160,315,41234,1,0,1:0:0:0:
155,330,41324,1,8,1:2:0:0:
239,363,41502,1,2,0:0:0:0:
292,281,41681,6,0,B|315:252|349:257|349:257|377:272|381:310,1,125.999996154785,4|8,3:2|0:0,0:0:0:0:
456,358,42217,1,2,0:0:0:0:
495,278,42395,5,10,0:0:0:0:
480,271,42484,1,2,0:0:0:0:
463,268,42574,2,0,P|459:252|467:229,1,31.4999990386963,2|2,0:0|0:0,0:0:0:0:
453,224,42752,2,0,P|461:210|483:199,2,31.4999990386963,10|10|2,0:0|0:0|3:2,0:0:0:0:
361,94,43288,5,2,1:2:0:0:
310,161,43467,2,0,L|315:191,3,31.4999990386963,10|2|2|2,0:0|0:0|0:0|0:0,0:0:0:0:
319,207,43824,1,6,1:1:0:0:
226,174,44002,1,0,3:0:0:0:
189,258,44181,6,0,P|153:260|127:246,1,62.9999980773926,10|0,0:0|0:0,0:0:0:0:
119,236,44538,6,0,B|128:297|128:297|133:301|133:301|141:358,1,125.999996154785,4|10,3:2|0:0,0:0:0:0:
220,328,45074,1,2,1:2:0:0:
293,373,45252,1,10,0:2:0:0:
377,297,45431,6,0,P|359:245|319:237,1,94.499997116089,2|0,3:2|0:0,0:0:0:0:
310,241,45788,1,10,0:0:0:0:
254,122,46145,6,0,P|224:132|211:163,1,62.9999980773926,10|2,0:0|3:2,0:0:0:0:
370,68,46502,2,0,P|402:76|427:79,2,31.4999990386963,10|0|2,0:0|1:0|3:2,0:0:0:0:
271,14,46859,1,10,1:2:0:0:
258,3,46949,1,2,1:2:0:0:
242,1,47038,6,0,P|206:8|183:35,1,62.9999980773926,2|8,3:2|0:0,0:0:0:0:
167,48,47306,1,8,0:0:0:0:
152,53,47395,6,0,P|123:49|35:27,1,112,6|8,3:2|0:0,0:0:0:0:
0,126,47931,1,2,1:2:0:0:
0,126,48109,2,0,P|27:119|54:115,1,56,2|0,1:2|3:0,0:0:0:0:
138,150,48466,2,0,P|156:192|128:243,1,84,10|0,0:2|0:0,0:0:0:0:
135,236,48824,6,0,P|106:281|124:332,1,112,2|8,3:2|0:0,0:0:0:0:
215,359,49359,1,0,1:0:0:0:
215,359,49538,2,0,P|210:338|201:289,1,56,2|2,1:0|3:0,0:0:0:0:
258,229,49895,1,10,0:2:0:0:
258,229,50074,1,2,1:2:0:0:
327,293,50252,6,0,B|374:300|402:270|402:270|380:283|360:280,1,112,2|10,3:2|0:0,0:0:0:0:
359,197,50788,1,0,1:0:0:0:
359,197,50966,2,0,P|349:179|361:131,1,56,2|0,1:2|3:0,0:0:0:0:
446,79,51324,2,0,P|437:127|432:181,1,84,10|0,0:0|0:0,0:0:0:0:
436,175,51681,5,2,3:2:0:0:
355,55,52038,1,8,0:0:0:0:
277,107,52216,2,0,P|247:101|203:89,1,56,2|0,0:0|1:0,0:0:0:0:
212,84,52484,1,8,0:0:0:0:
202,73,52574,1,0,3:0:0:0:
123,112,52752,2,0,P|109:141|113:168,1,56,10|0,0:0|0:0,0:0:0:0:
125,25,53109,6,0,B|104:0|72:6|72:6|46:22|44:49,1,112,6|10,3:2|0:0,0:0:0:0:
22,139,53645,1,0,1:0:0:0:
22,139,53823,2,0,P|49:132|76:128,1,56,2|0,1:2|3:0,0:0:0:0:
148,201,54181,2,0,P|193:207|238:219,1,84,10|0,0:0|0:0,0:0:0:0:
241,225,54538,6,0,P|258:286|210:324,1,112,2|10,3:2|0:0,0:0:0:0:
140,347,55074,2,0,B|138:306|123:275|123:275|139:289|146:312,1,112,2|0,1:2|3:0,0:0:0:0:
58,330,55609,1,10,0:0:0:0:
58,330,55788,1,2,1:2:0:0:
1,261,55966,6,0,P|34:205|88:209,1,112,2|10,3:2|0:2,0:0:0:0:
117,127,56502,1,0,1:0:0:0:
117,127,56681,2,0,P|144:141|158:177,1,56,2|0,1:2|3:0,0:0:0:0:
250,221,57038,2,0,P|242:184|233:117,1,84,10|0,0:0|0:0,0:0:0:0:
237,124,57395,5,8,0:0:0:0:
330,71,57574,2,0,P|324:98|317:148,1,56,0|0,3:0|3:0,0:0:0:0:
375,202,57931,6,0,P|404:219|447:213,1,56,8|2,0:0|3:2,0:0:0:0:
439,217,58199,1,2,0:0:0:0:
451,210,58288,1,2,3:2:0:0:
434,305,58466,2,0,P|467:300|497:269,1,56,10|0,0:0|1:0,0:0:0:0:
355,370,58824,5,2,3:2:0:0:
355,370,59181,2,0,L|344:321,3,28,2|2|2|2,1:2|1:2|1:2|1:2,0:0:0:0:
346,328,59538,1,2,3:2:0:0:
251,331,59716,2,0,L|268:250,1,56,10|0,0:0|1:0,0:0:0:0:
266,262,59984,1,0,1:0:0:0:
269,248,60074,5,2,3:2:0:0:
137,277,60431,1,2,3:2:0:0:
5,305,60788,2,0,P|-23:261|18:204,1,112,10|0,0:0|3:0,0:0:0:0:
80,178,61324,2,0,P|88:151|81:122,1,56,10|0,0:0|1:0,0:0:0:0:
72,115,61591,1,0,1:0:0:0:
58,110,61681,1,0,3:0:0:0:
143,57,61859,6,0,P|174:63|208:67,2,56,2|10|2,1:2|0:0|1:2,0:0:0:0:
180,152,62395,2,0,P|207:148|235:142,2,56,2|10|2,3:2|0:0|1:2,0:0:0:0:
280,75,62931,5,2,3:2:0:0:
309,207,63288,1,2,3:2:0:0:
338,340,63645,2,0,B|392:332|392:332|397:335|397:335|450:327,1,112,10|2,0:0|3:2,0:0:0:0:
512,252,64181,2,0,L|437:242,1,56,10|0,0:0|1:0,0:0:0:0:
442,243,64449,1,0,1:0:0:0:
428,240,64538,5,2,3:2:0:0:
512,123,64895,1,2,3:2:0:0:
446,61,65074,2,0,P|418:62|393:82,1,56,10|0,0:0|1:0,0:0:0:0:
390,91,65341,1,0,1:0:0:0:
389,105,65431,1,2,3:2:0:0:
300,6,65788,5,2,3:2:0:0:
271,138,66145,1,2,3:2:0:0:
162,61,66502,2,0,L|71:72,1,84,10|0,0:0|1:0,0:0:0:0:
73,84,66859,2,0,L|19:77,1,28,2|0,3:2|3:0,0:0:0:0:
31,78,67038,5,10,0:0:0:0:
46,162,67216,1,2,1:2:0:0:
61,246,67395,6,0,P|33:257|-4:249,1,62.9999980773926,4|0,3:1|1:0,0:0:0:0:
146,249,67752,2,0,P|144:279|121:309,1,62.9999980773926,8|0,0:0|3:0,0:0:0:0:
191,166,68109,2,0,P|217:180|234:214,1,62.9999980773926,8|0,0:0|3:0,0:0:0:0:
326,275,68466,1,8,0:0:0:0:
341,191,68644,1,8,0:0:0:0:
323,290,68824,6,0,L|395:279,1,62.9999980773926,4|0,3:1|1:0,0:0:0:0:
441,376,69181,2,0,L|378:366,1,62.9999980773926,8|0,0:0|3:0,0:0:0:0:
476,296,69538,6,0,B|488:239|488:239|493:235|493:235|505:174,1,125.999996154785,12|8,0:1|0:0,0:0:0:0:
448,105,70074,1,8,0:0:0:0:
379,165,70252,6,0,P|347:179|299:163,1,62.9999980773926,4|8,3:1|0:0,0:0:0:0:
278,97,70609,1,8,0:0:0:0:
278,97,70788,1,8,0:0:0:0:
198,137,70966,1,8,0:0:0:0:
198,137,71145,1,8,0:0:0:0:
112,85,71324,5,8,0:0:0:0:
127,1,71502,1,0,3:0:0:0:
109,100,71681,5,4,3:1:0:0:
14,132,71859,2,0,P|-2:158|0:189,1,62.9999980773926,8|8,0:0|0:0,0:0:0:0:
69,244,72216,1,8,0:0:0:0:
153,200,72395,5,8,3:2:0:0:
167,194,72484,1,8,3:2:0:0:
182,195,72574,2,0,P|200:205|213:232,1,31.4999990386963,8|8,3:2|3:2,0:0:0:0:
225,212,72752,2,0,P|232:241|222:268,3,38.5000011749268,8|8|8|8,3:2|3:2|3:2|3:2,0:0:0:0:
222,266,73109,5,4,3:2:0:0:
479,69,78824,6,0,P|471:3|407:16,1,146.999995513916,6|0,3:2|3:0,0:0:0:0:
406,94,79538,1,10,0:0:0:0:
241,14,80073,1,0,3:0:0:0:
241,14,80252,6,0,P|249:44|264:118,1,97.9999970092774,2|2,3:2|1:2,0:0:0:0:
234,191,80788,1,0,3:0:0:0:
234,191,80966,1,10,0:0:0:0:
360,159,81324,2,0,P|355:175|347:215,1,48.9999985046387,2|2,0:0|1:2,0:0:0:0:
372,294,81681,5,2,3:2:0:0:
372,294,81859,2,0,P|392:308|419:311,1,48.9999985046387,0|0,3:0|1:0,0:0:0:0:
241,360,82395,6,0,L|122:382,1,97.9999970092774,10|2,0:0|1:2,0:0:0:0:
78,294,82931,1,0,3:0:0:0:
78,294,83109,2,0,L|141:305,1,48.9999985046387,2|0,3:2|0:0,0:0:0:0:
201,243,83466,2,0,P|209:221|201:185,1,48.9999985046387,2|0,1:2|3:0,0:0:0:0:
107,122,83824,5,10,0:0:0:0:
127,210,84002,1,8,0:0:0:0:
127,210,84181,1,2,3:2:0:0:
88,33,84538,6,0,B|145:27|145:27|151:30|151:30|207:24,1,119.000002269745,2|0,3:2|3:0,0:0:0:0:
342,130,85252,2,0,B|285:124|285:124|279:127|279:127|223:121,1,119.000002269745,2|0,3:2|3:2,0:0:0:0:
399,5,85966,2,0,P|383:41|388:63,1,59.5000011348725,2|0,3:2|0:0,0:0:0:0:
474,78,86324,2,0,P|490:42|485:20,1,59.5000011348725,2|0,3:2|0:0,0:0:0:0:
418,144,86681,5,6,3:1:0:0:
434,233,86859,1,0,3:0:0:0:
450,322,87038,2,0,L|517:310,1,59.5000011348725,10|2,0:2|1:2,0:0:0:0:
373,372,87395,6,0,P|357:340|367:303,1,59.5000011348725,2|0,3:2|3:2,0:0:0:0:
284,266,87752,2,0,P|306:237|343:231,1,59.5000011348725,0|0,3:0|3:2,0:0:0:0:
418,144,88109,2,0,P|401:141|378:132,3,29.7500005674362,2|0|0|0,3:2|3:0|3:0|3:0,0:0:0:0:
374,145,88466,2,0,P|359:136|339:117,3,33.2499991121292,2|0|0|0,3:2|3:0|3:0|3:0,0:0:0:0:
342,110,88824,6,0,L|352:37,2,70,6|2|2,3:2|0:0|0:0,0:0:0:0:
222,167,89895,1,2,1:0:0:0:
220,153,89984,1,2,1:0:0:0:
218,139,90074,2,0,P|202:130|180:129,1,28,2|2,1:0|1:0,0:0:0:0:
178,121,90252,6,0,P|135:130|130:212,1,125.999996154785,6|8,3:2|0:0,0:0:0:0:
89,281,90788,2,0,P|120:299|155:291,1,62.9999980773926,2|2,1:2|1:2,0:0:0:0:
159,288,91056,1,0,1:0:0:0:
167,274,91145,1,0,3:0:0:0:
256,306,91324,2,0,P|248:275|242:244,1,62.9999980773926,10|0,0:0|0:0,0:0:0:0:
333,348,91681,6,0,B|338:303|356:269|356:269|352:303|366:324,1,125.999996154785,2|8,3:2|0:0,0:0:0:0:
433,285,92216,1,2,1:2:0:0:
386,194,92395,1,6,1:1:0:0:
371,188,92484,1,0,1:0:0:0:
355,188,92574,1,0,3:2:0:0:
486,148,92752,2,0,P|478:179|472:210,1,62.9999980773926,8|0,0:0|0:0,0:0:0:0:
403,103,93109,6,0,P|368:56|299:66,1,125.999996154785,6|10,3:1|0:0,0:0:0:0:
219,20,93645,2,0,P|201:57|208:85,1,62.9999980773926,2|0,1:2|1:0,0:0:0:0:
212,90,93913,1,0,1:0:0:0:
225,98,94002,1,0,3:2:0:0:
195,192,94181,2,0,L|137:181,3,31.4999990386963,10|2|2|2,0:2|1:2|1:2|1:2,0:0:0:0:
149,179,94538,6,0,B|208:171|208:171|214:176|214:176|274:167,1,125.999996154785,2|10,3:2|0:0,0:0:0:0:
346,208,95074,1,2,1:2:0:0:
297,284,95252,1,6,1:1:0:0:
294,299,95341,1,0,1:0:0:0:
296,314,95431,1,0,3:2:0:0:
388,366,95609,2,0,P|381:338|374:297,1,62.9999980773926,10|0,0:2|0:0,0:0:0:0:
454,245,95966,6,0,B|489:233|514:256|514:256|529:285|511:318,1,125.999996154785,6|8,3:1|0:2,0:0:0:0:
449,379,96502,2,0,P|421:372|380:365,1,62.9999980773926,2|2,1:2|1:2,0:0:0:0:
371,364,96770,1,0,1:0:0:0:
355,364,96859,1,2,3:2:0:0:
339,272,97038,2,0,P|308:276|287:299,1,62.9999980773926,10|0,0:2|0:0,0:0:0:0:
184,384,97395,6,0,B|217:384|230:354|230:354|203:291,1,125.999996154785,2|8,3:2|0:0,0:0:0:0:
166,211,97931,1,0,1:0:0:0:
96,266,98109,1,6,1:1:0:0:
80,266,98199,1,0,1:0:0:0:
66,257,98288,1,2,3:2:0:0:
181,207,98466,2,0,P|214:214|253:219,1,62.9999980773926,10|0,0:0|0:0,0:0:0:0:
141,112,98824,6,0,P|120:76|25:96,1,125.999996154785,6|10,3:1|0:0,0:0:0:0:
11,161,99359,1,2,1:2:0:0:
11,161,99538,2,0,P|48:165|75:144,1,62.9999980773926,2|2,1:0|3:2,0:0:0:0:
158,192,99895,2,0,P|169:156|139:110,1,94.499997116089,10|0,0:2|0:0,0:0:0:0:
125,105,100252,5,2,3:2:0:0:
192,43,100431,1,2,1:0:0:0:
258,105,100609,2,0,P|292:100|327:91,1,62.9999980773926,10|0,0:0|0:0,0:0:0:0:
380,0,100966,6,0,P|384:34|395:68,2,41.9999987182618,6|2|2,0:1|1:0|1:0,0:0:0:0:
402,46,101324,6,0,P|414:78|432:109,2,41.9999987182618,10|2|2,0:0|1:2|1:2,0:0:0:0:
435,93,101681,5,2,1:2:0:0:
297,215,102038,6,0,B|305:154|305:154|310:150|310:150|319:92,1,125.999996154785,6|8,3:2|0:0,0:0:0:0:
241,8,102574,2,0,P|186:17|203:81,1,125.999996154785,2|0,3:2|1:0,0:0:0:0:
264,144,103109,6,0,P|233:147|208:174,1,62.9999980773926,2|0,3:2|1:0,0:0:0:0:
111,228,103466,2,0,P|141:222|173:241,1,62.9999980773926,10|0,0:0|0:0,0:0:0:0:
215,317,103824,1,2,3:2:0:0:
215,317,104002,1,0,3:2:0:0:
301,274,104181,2,0,B|307:256|304:231|304:231|322:265|327:310,1,125.999996154785,10|2,0:0|0:0,0:0:0:0:
239,193,104895,6,0,P|271:147|342:169,1,125.999996154785,4|2,3:2|3:2,0:0:0:0:
385,83,105431,1,8,0:0:0:0:
385,83,105609,2,0,P|414:110|413:143,1,62.9999980773926,2|0,1:2|3:0,0:0:0:0:
487,213,105966,6,0,P|497:156|515:80,2,125.999996154785,10|10|2,0:0|0:0|3:2,0:0:0:0:
486,228,106770,1,0,3:0:0:0:
487,243,106859,1,2,3:2:0:0:
401,213,107038,1,6,1:1:0:0:
401,213,107216,1,0,1:0:0:0:
329,265,107395,6,0,P|364:296|398:293,1,62.9999980773926,10|0,0:0|3:0,0:0:0:0:
250,220,107752,2,0,P|236:264|253:294,1,62.9999980773926,10|0,0:0|3:0,0:0:0:0:
270,124,108109,2,0,P|223:122|199:146,1,62.9999980773926,10|0,0:0|3:0,0:0:0:0:
386,107,108466,2,0,P|375:61|345:44,1,62.9999980773926,10|0,0:0|3:0,0:0:0:0:
273,0,108824,5,10,0:0:0:0:
273,0,109002,1,10,0:0:0:0:
197,44,109181,1,10,0:0:0:0:
197,44,109359,1,10,0:0:0:0:
104,1,109538,5,10,3:2:0:0:
88,0,109627,1,0,3:2:0:0:
72,4,109716,2,0,P|57:15|45:44,1,31.4999990386963,10|0,3:2|3:2,0:0:0:0:
30,28,109895,2,0,P|22:44|27:77,3,38.5000011749268,10|0|10|0,3:2|3:2|3:2|3:0,0:0:0:0:
12,79,110252,6,0,P|27:123|76:135,1,70,4|0,3:1|1:0,0:0:0:0:
187,133,110609,2,0,P|154:121|122:134,1,70,8|0,0:0|3:0,0:0:0:0:
52,255,110966,2,0,P|78:232|83:198,1,70,12|0,1:1|3:0,0:0:0:0:
110,45,111324,5,8,0:0:0:0:
122,133,111502,1,8,0:0:0:0:
105,28,111681,6,0,P|141:23|190:15,1,70,4|0,3:1|1:0,0:0:0:0:
275,106,112038,2,0,P|240:100|205:96,1,70,8|0,0:0|3:0,0:0:0:0:
370,41,112395,6,0,B|413:17|413:17|384:108,1,140,12|8,1:1|0:0,0:0:0:0:
357,191,112931,1,8,0:0:0:0:
467,170,113109,6,0,P|494:202|488:253,1,70,4|8,3:1|0:0,0:0:0:0:
449,305,113467,1,8,0:0:0:0:
449,305,113645,1,8,0:0:0:0:
351,290,113824,1,12,1:1:0:0:
351,290,114002,1,8,0:0:0:0:
284,369,114181,5,8,0:0:0:0:
186,384,114359,1,0,3:0:0:0:
301,365,114538,1,4,3:1:0:0:
222,291,114716,6,0,P|209:261|216:223,1,70,8|8,0:0|0:0,0:0:0:0:
294,177,115074,1,8,0:0:0:0:
204,111,115252,5,8,3:2:0:0:
186,114,115341,1,8,3:2:0:0:
168,117,115431,2,0,L|153:55,1,35,8|8,3:2|3:2,0:0:0:0:
142,70,115609,2,0,L|157:8,3,41.9999987182618,8|8|8|8,3:2|3:2|3:2|3:2,0:0:0:0:
158,9,115966,5,0,3:0:0:0:
106,208,116324,5,4,3:2:0:0:
256,192,116413,12,0,120609,0:0:0:0:
