osu file format v14

[General]
AudioFilename: audio.mp3
AudioLeadIn: 0
PreviewTime: 88660
Countdown: 0
SampleSet: Soft
StackLeniency: 0.7
Mode: 3
LetterboxInBreaks: 0
SpecialStyle: 0
WidescreenStoryboard: 1

[Editor]
Bookmarks: 20660,31327,31332,41993,63327,76660,88660,110660,131326,153326,162660
DistanceSpacing: 1
BeatDivisor: 12
GridSize: 4
TimelineZoom: 1.9

[Metadata]
Title:felys final remix
TitleUnicode:felys final remix
Artist:onoken
ArtistUnicode:onoken
Creator:shizehao
Version:BK's 6K MASTER
Source:CHUNITHM CRYSTAL PLUS
Tags:maimai でらっくす Splash チュウニズム パラダイス instrumental electronic artcore melodic orchestral strings BKwind xixi2333 famoss オンゲキ ongeki O.N.G.E.K.I SUMMER PLUS EZ2ON REBOOT : R -final remix-
BeatmapID:3915280
BeatmapSetID:1899428

[Difficulty]
HPDrainRate:8.5
CircleSize:6
OverallDifficulty:8.2
ApproachRate:5
SliderMultiplier:1.4
SliderTickRate:1

[Events]
//Background and Video events
0,0,"bg.jpg",0,0
//Break Periods
//Storyboard Layer 0 (Background)
//Storyboard Layer 1 (Fail)
//Storyboard Layer 2 (Pass)
//Storyboard Layer 3 (Foreground)
//Storyboard Layer 4 (Overlay)
//Storyboard Sound Samples

[TimingPoints]
9994,333.333333333333,4,2,1,60,1,0
89327,333.333333333333,4,2,1,60,1,1
110660,-100,4,2,1,60,0,0
131993,-100,4,2,1,60,0,1
153326,-100,4,2,1,60,0,0

[HitObjects]
469,192,9994,5,0,0:0:0:0:
384,192,10160,1,0,0:0:0:0:
213,192,10327,1,0,0:0:0:0:
384,192,10494,1,0,0:0:0:0:
298,192,10660,1,0,0:0:0:0:
128,192,10827,1,0,0:0:0:0:
469,192,10994,1,0,0:0:0:0:
384,192,11160,1,0,0:0:0:0:
213,192,11327,1,0,0:0:0:0:
384,192,11494,1,0,0:0:0:0:
298,192,11660,1,0,0:0:0:0:
128,192,11827,1,0,0:0:0:0:
213,192,11994,1,0,0:0:0:0:
42,192,12160,1,0,0:0:0:0:
384,192,12327,1,0,0:0:0:0:
298,192,12410,1,0,0:0:0:0:
128,192,12494,1,0,0:0:0:0:
469,192,12660,1,0,0:0:0:0:
384,192,12827,1,0,0:0:0:0:
213,192,12994,1,0,0:0:0:0:
384,192,13160,1,0,0:0:0:0:
298,192,13327,1,0,0:0:0:0:
128,192,13494,1,0,0:0:0:0:
469,192,13660,1,0,0:0:0:0:
384,192,13827,1,0,0:0:0:0:
213,192,13993,1,0,0:0:0:0:
384,192,14160,1,0,0:0:0:0:
298,192,14327,1,0,0:0:0:0:
128,192,14493,1,0,0:0:0:0:
213,192,14660,1,0,0:0:0:0:
298,192,14827,1,0,0:0:0:0:
469,192,14827,1,0,0:0:0:0:
384,192,14993,1,0,0:0:0:0:
298,192,15077,1,0,0:0:0:0:
128,192,15160,1,0,0:0:0:0:
469,192,15327,1,0,0:0:0:0:
384,192,15493,1,0,0:0:0:0:
213,192,15660,1,0,0:0:0:0:
384,192,15827,1,0,0:0:0:0:
298,192,15993,1,0,0:0:0:0:
128,192,16160,1,0,0:0:0:0:
469,192,16327,1,0,0:0:0:0:
384,192,16493,1,0,0:0:0:0:
213,192,16660,1,0,0:0:0:0:
384,192,16827,1,0,0:0:0:0:
298,192,16993,1,0,0:0:0:0:
128,192,17160,1,0,0:0:0:0:
213,192,17327,1,0,0:0:0:0:
42,192,17493,1,0,0:0:0:0:
384,192,17660,1,0,0:0:0:0:
298,192,17743,1,0,0:0:0:0:
128,192,17827,1,0,0:0:0:0:
469,192,17993,1,0,0:0:0:0:
384,192,18160,1,0,0:0:0:0:
213,192,18327,1,0,0:0:0:0:
384,192,18493,1,0,0:0:0:0:
298,192,18660,1,0,0:0:0:0:
128,192,18827,1,0,0:0:0:0:
469,192,18993,1,0,0:0:0:0:
384,192,19160,1,0,0:0:0:0:
213,192,19327,1,0,0:0:0:0:
384,192,19493,1,0,0:0:0:0:
42,192,19660,1,0,0:0:0:0:
298,192,19660,1,0,0:0:0:0:
128,192,19827,1,0,0:0:0:0:
213,192,19993,1,0,0:0:0:0:
469,192,19993,1,0,0:0:0:0:
298,192,20160,1,0,0:0:0:0:
384,192,20160,1,0,0:0:0:0:
42,192,20327,1,0,0:0:0:70:Kick 4.wav
213,192,20327,1,0,0:0:0:0:
298,192,20368,1,0,0:0:0:0:
384,192,20410,1,0,0:0:0:0:
128,192,20452,1,0,0:0:0:0:
213,192,20493,1,0,0:0:0:0:
298,192,20535,1,0,0:0:0:0:
384,192,20577,1,0,0:0:0:0:
42,192,20660,1,0,0:0:0:0:
469,192,20660,1,0,0:0:0:0:
298,192,20827,1,0,0:0:0:0:
213,192,20993,1,0,0:0:0:0:
469,192,20993,1,0,0:0:0:0:
42,192,21160,1,0,0:0:0:0:
384,192,21160,1,0,0:0:0:0:
298,192,21327,1,0,0:0:0:0:
128,192,21493,1,0,0:0:0:0:
213,192,21660,1,0,0:0:0:0:
469,192,21660,1,0,0:0:0:0:
384,192,21827,1,0,0:0:0:0:
213,192,21993,1,0,0:0:0:0:
469,192,21993,1,0,0:0:0:0:
128,192,22160,1,0,0:0:0:0:
384,192,22160,1,0,0:0:0:0:
42,192,22327,1,0,0:0:0:0:
298,192,22327,1,0,0:0:0:0:
213,192,22493,1,0,0:0:0:0:
469,192,22493,1,0,0:0:0:0:
42,192,22660,1,0,0:0:0:0:
384,192,22660,1,0,0:0:0:0:
128,192,22827,1,0,0:0:0:0:
298,192,22827,1,0,0:0:0:0:
213,192,22993,1,0,0:0:0:0:
469,192,22993,1,0,0:0:0:0:
384,192,23077,1,0,0:0:0:0:
128,192,23160,1,0,0:0:0:0:
298,192,23160,1,0,0:0:0:0:
42,192,23327,1,0,0:0:0:0:
469,192,23327,1,0,0:0:0:0:
298,192,23493,1,0,0:0:0:0:
213,192,23660,1,0,0:0:0:0:
469,192,23660,1,0,0:0:0:0:
42,192,23827,1,0,0:0:0:0:
384,192,23827,1,0,0:0:0:0:
213,192,23993,1,0,0:0:0:0:
128,192,24160,1,0,0:0:0:0:
298,192,24160,1,0,0:0:0:0:
42,192,24327,1,0,0:0:0:0:
469,192,24327,1,0,0:0:0:0:
213,192,24493,1,0,0:0:0:0:
384,192,24493,1,0,0:0:0:0:
128,192,24660,1,0,0:0:0:0:
298,192,24660,1,0,0:0:0:0:
213,192,24827,1,0,0:0:0:0:
384,192,24827,1,0,0:0:0:0:
42,192,24993,1,0,0:0:0:0:
469,192,24993,1,0,0:0:0:0:
128,192,25160,1,0,0:0:0:0:
298,192,25160,1,0,0:0:0:0:
213,192,25327,1,0,0:0:0:0:
384,192,25327,1,0,0:0:0:0:
42,192,25493,1,0,0:0:0:0:
128,192,25493,1,0,0:0:0:0:
469,192,25493,1,0,0:0:0:0:
298,192,25660,1,0,0:0:0:0:
213,192,25702,1,0,0:0:0:0:
128,192,25743,1,0,0:0:0:0:
384,192,25785,1,0,0:0:0:0:
298,192,25827,1,0,0:0:0:0:
213,192,25868,1,0,0:0:0:0:
128,192,25910,1,0,0:0:0:0:
42,192,25993,1,2,0:0:0:0:
298,192,25993,1,0,0:0:0:0:
469,192,25993,1,0,0:0:0:0:
213,192,26077,1,0,0:0:0:0:
128,192,26160,1,0,0:0:0:0:
298,192,26160,1,0,0:0:0:0:
213,192,26243,1,2,0:0:0:0:
384,192,26243,1,0,0:0:0:0:
469,192,26243,1,0,0:0:0:0:
42,192,26660,1,2,0:0:0:0:
213,192,26660,1,0,0:0:0:0:
469,192,26660,1,0,0:0:0:0:
298,192,26743,1,0,0:0:0:0:
213,192,26827,1,0,0:0:0:0:
384,192,26827,1,0,0:0:0:0:
42,192,26910,1,2,0:0:0:0:
128,192,26910,1,0,0:0:0:0:
298,192,26910,1,0,0:0:0:0:
298,192,27327,1,0,0:0:0:0:
469,192,27327,1,0,0:0:0:0:
42,192,27410,1,0,0:0:0:0:
128,192,27410,1,0,0:0:0:0:
213,192,27493,1,0,0:0:0:0:
384,192,27577,1,0,0:0:0:0:
469,192,27577,1,0,0:0:0:0:
42,192,27660,1,2,0:0:0:0:
128,192,27660,1,0,0:0:0:0:
298,192,27660,1,0,0:0:0:0:
213,192,27827,1,0,0:0:0:0:
42,192,27993,1,2,0:0:0:0:
298,192,27993,1,0,0:0:0:0:
469,192,27993,1,0,0:0:0:0:
213,192,28077,1,0,0:0:0:0:
128,192,28160,1,0,0:0:0:0:
298,192,28160,1,0,0:0:0:0:
213,192,28243,1,2,0:0:0:0:
384,192,28243,1,0,0:0:0:0:
469,192,28243,1,0,0:0:0:0:
42,192,28660,1,2,0:0:0:0:
298,192,28660,1,0,0:0:0:0:
469,192,28660,1,0,0:0:0:0:
42,192,28827,1,2,0:0:0:0:
298,192,28827,1,0,0:0:0:0:
469,192,28827,1,0,0:0:0:0:
128,192,28993,1,8,0:0:0:0:
384,192,28993,1,0,0:0:0:0:
213,192,29160,1,0,0:0:0:0:
469,192,29160,1,0,0:0:0:0:
384,192,29243,1,0,0:0:0:0:
42,192,29327,1,0,0:0:0:0:
298,192,29327,1,0,0:0:0:0:
469,192,29410,1,0,0:0:0:0:
128,192,29493,1,2,0:0:0:0:
213,192,29493,1,0,0:0:0:0:
384,192,29493,1,0,0:0:0:0:
42,192,29660,1,8,0:0:0:0:
213,192,29660,1,0,0:0:0:0:
469,192,29660,1,0,0:0:0:0:
384,192,29743,1,0,0:0:0:0:
42,192,29827,1,2,0:0:0:0:
128,192,29827,1,0,0:0:0:0:
298,192,29827,1,0,0:0:0:0:
469,192,29910,1,0,0:0:0:0:
128,192,29993,1,2,0:0:0:0:
213,192,29993,1,0,0:0:0:0:
384,192,29993,1,0,0:0:0:0:
128,192,30160,1,2,0:0:0:0:
213,192,30160,1,0,0:0:0:0:
384,192,30160,1,0,0:0:0:0:
42,192,30327,1,8,0:0:0:0:
298,192,30327,1,0,0:0:0:0:
469,192,30327,1,0,0:0:0:0:
128,192,30493,1,2,0:0:0:0:
213,192,30493,1,0,0:0:0:0:
384,192,30493,1,0,0:0:0:0:
298,192,30577,1,0,0:0:0:0:
42,192,30660,1,8,0:0:0:0:
213,192,30660,1,0,0:0:0:0:
469,192,30660,1,0,0:0:0:0:
128,192,30827,1,2,0:0:0:0:
298,192,30827,1,0,0:0:0:0:
384,192,30827,1,0,0:0:0:0:
42,192,30993,1,2,0:0:0:0:
384,192,30993,1,8,0:0:0:0:
128,192,31077,1,2,0:0:0:0:
213,192,31077,1,0,0:0:0:0:
298,192,31160,1,2,0:0:0:0:
469,192,31160,1,0,0:0:0:0:
42,192,31243,1,2,0:0:0:0:
128,192,31243,1,0,0:0:0:0:
213,192,31327,1,2,0:0:0:0:
298,192,31327,1,4,0:0:0:0:
384,192,31327,1,0,0:0:0:0:
469,192,31327,1,0,0:0:0:0:
384,192,31493,1,2,0:0:0:0:
469,192,31493,1,0,0:0:0:0:
42,192,31660,1,8,0:0:0:0:
128,192,31660,1,0,0:0:0:0:
298,192,31660,1,0,0:0:0:0:
42,192,31827,1,0,0:0:0:0:
384,192,31827,1,0,0:0:0:0:
469,192,31910,1,0,0:0:0:0:
213,192,31993,1,0,0:0:0:0:
384,192,31993,1,0,0:0:0:0:
469,192,32077,1,0,0:0:0:0:
42,192,32160,1,2,0:0:0:0:
128,192,32160,1,0,0:0:0:0:
298,192,32160,1,0,0:0:0:0:
42,192,32327,1,8,0:0:0:0:
213,192,32327,1,0,0:0:0:0:
469,192,32327,1,0,0:0:0:0:
384,192,32410,1,0,0:0:0:0:
128,192,32493,1,0,0:0:0:0:
298,192,32493,1,0,0:0:0:0:
213,192,32577,1,2,0:0:0:0:
384,192,32577,1,0,0:0:0:0:
469,192,32577,1,0,0:0:0:0:
42,192,32660,1,2,0:0:0:0:
128,192,32660,1,0,0:0:0:0:
298,192,32660,1,0,0:0:0:0:
42,192,32827,1,2,0:0:0:0:
128,192,32827,1,0,0:0:0:0:
213,192,32993,1,8,0:0:0:0:
384,192,32993,1,0,0:0:0:0:
469,192,32993,1,0,0:0:0:0:
128,192,33160,1,0,0:0:0:0:
469,192,33160,1,0,0:0:0:0:
42,192,33243,1,0,0:0:0:0:
128,192,33327,1,0,0:0:0:0:
298,192,33327,1,0,0:0:0:0:
42,192,33410,1,0,0:0:0:0:
213,192,33493,1,2,0:0:0:0:
384,192,33493,1,0,0:0:0:0:
469,192,33493,1,0,0:0:0:0:
42,192,33660,1,8,0:0:0:0:
298,192,33660,1,0,0:0:0:0:
469,192,33660,1,0,0:0:0:0:
128,192,33743,1,0,0:0:0:0:
213,192,33827,1,0,0:0:0:0:
384,192,33827,1,0,0:0:0:0:
42,192,33910,1,2,0:0:0:0:
128,192,33910,1,0,0:0:0:0:
298,192,33910,1,0,0:0:0:0:
213,192,33993,1,2,0:0:0:0:
384,192,33993,1,0,0:0:0:0:
469,192,33993,1,0,0:0:0:0:
384,192,34160,1,2,0:0:0:0:
469,192,34160,1,0,0:0:0:0:
42,192,34327,1,8,0:0:0:0:
128,192,34327,1,0,0:0:0:0:
298,192,34327,1,0,0:0:0:0:
42,192,34493,1,0,0:0:0:0:
384,192,34493,1,0,0:0:0:0:
469,192,34577,1,0,0:0:0:0:
213,192,34660,1,0,0:0:0:0:
384,192,34660,1,0,0:0:0:0:
469,192,34743,1,0,0:0:0:0:
42,192,34827,1,2,0:0:0:0:
128,192,34827,1,0,0:0:0:0:
298,192,34827,1,0,0:0:0:0:
42,192,34993,1,8,0:0:0:0:
213,192,34993,1,0,0:0:0:0:
469,192,34993,1,0,0:0:0:0:
384,192,35077,1,0,0:0:0:0:
128,192,35160,1,0,0:0:0:0:
298,192,35160,1,0,0:0:0:0:
213,192,35243,1,2,0:0:0:0:
384,192,35243,1,0,0:0:0:0:
469,192,35243,1,0,0:0:0:0:
42,192,35327,1,2,0:0:0:0:
128,192,35327,1,0,0:0:0:0:
298,192,35327,1,0,0:0:0:0:
42,192,35493,1,2,0:0:0:0:
128,192,35493,1,0,0:0:0:0:
213,192,35660,1,8,0:0:0:0:
384,192,35660,1,0,0:0:0:0:
469,192,35660,1,0,0:0:0:0:
128,192,35827,1,0,0:0:0:0:
469,192,35827,1,0,0:0:0:0:
42,192,35910,1,0,0:0:0:0:
128,192,35993,1,0,0:0:0:0:
298,192,35993,1,0,0:0:0:0:
42,192,36077,1,0,0:0:0:0:
213,192,36160,1,2,0:0:0:0:
384,192,36160,1,0,0:0:0:0:
469,192,36160,1,0,0:0:0:0:
42,192,36327,1,0,0:0:0:0:
298,192,36327,1,0,0:0:0:0:
128,192,36410,1,0,0:0:0:0:
213,192,36493,1,8,0:0:0:0:
384,192,36493,1,0,0:0:0:0:
42,192,36577,1,0,0:0:0:0:
128,192,36660,1,2,0:0:0:0:
298,192,36660,1,0,0:0:0:0:
469,192,36660,1,0,0:0:0:0:
298,192,36827,1,2,0:0:0:0:
469,192,36827,1,0,0:0:0:0:
42,192,36993,1,8,0:0:0:0:
213,192,36993,1,0,0:0:0:0:
384,192,36993,1,0,0:0:0:0:
128,192,37160,1,0,0:0:0:0:
298,192,37160,1,0,0:0:0:0:
469,192,37243,1,0,0:0:0:0:
213,192,37327,1,0,0:0:0:0:
298,192,37327,1,0,0:0:0:0:
469,192,37410,1,0,0:0:0:0:
42,192,37493,1,2,0:0:0:0:
128,192,37493,1,0,0:0:0:0:
384,192,37493,1,0,0:0:0:0:
42,192,37660,1,8,0:0:0:0:
213,192,37660,1,0,0:0:0:0:
469,192,37660,1,0,0:0:0:0:
384,192,37743,1,0,0:0:0:0:
128,192,37827,1,0,0:0:0:0:
213,192,37827,1,0,0:0:0:0:
298,192,37910,1,2,0:0:0:0:
384,192,37910,1,0,0:0:0:0:
469,192,37910,1,0,0:0:0:0:
42,192,37993,1,2,0:0:0:0:
128,192,37993,1,0,0:0:0:0:
213,192,37993,1,0,0:0:0:0:
42,192,38160,1,2,0:0:0:0:
213,192,38160,1,0,0:0:0:0:
128,192,38327,1,8,0:0:0:0:
298,192,38327,1,0,0:0:0:0:
469,192,38327,1,0,0:0:0:0:
213,192,38493,1,0,0:0:0:0:
384,192,38493,1,0,0:0:0:0:
42,192,38577,1,0,0:0:0:0:
213,192,38660,1,0,0:0:0:0:
298,192,38660,1,0,0:0:0:0:
42,192,38743,1,0,0:0:0:0:
128,192,38827,1,2,0:0:0:0:
384,192,38827,1,0,0:0:0:0:
469,192,38827,1,0,0:0:0:0:
42,192,38993,1,8,0:0:0:0:
298,192,38993,1,0,0:0:0:0:
469,192,38993,1,0,0:0:0:0:
128,192,39077,1,0,0:0:0:0:
298,192,39160,1,0,0:0:0:0:
384,192,39160,1,0,0:0:0:0:
42,192,39243,1,2,0:0:0:0:
128,192,39243,1,0,0:0:0:0:
213,192,39243,1,0,0:0:0:0:
298,192,39327,1,2,0:0:0:0:
384,192,39327,1,0,0:0:0:0:
469,192,39327,1,0,0:0:0:0:
298,192,39493,1,2,0:0:0:0:
469,192,39493,1,0,0:0:0:0:
42,192,39660,1,8,0:0:0:0:
213,192,39660,1,0,0:0:0:0:
384,192,39660,1,0,0:0:0:0:
128,192,39827,1,0,0:0:0:0:
298,192,39827,1,0,0:0:0:0:
469,192,39910,1,0,0:0:0:0:
42,192,39993,1,0,0:0:0:0:
213,192,39993,1,0,0:0:0:0:
298,192,40077,1,0,0:0:0:0:
128,192,40160,128,2,40243:0:0:0:0:
384,192,40160,128,0,40243:0:0:0:0:
469,192,40160,128,0,40243:0:0:0:0:
213,192,40243,128,0,40327:0:0:0:0:
42,192,40327,128,8,40410:0:0:0:0:
298,192,40327,128,0,40410:0:0:0:0:
469,192,40327,128,0,40410:0:0:0:0:
128,192,40410,128,0,40493:0:0:0:0:
213,192,40493,128,0,40577:0:0:0:0:
384,192,40493,128,0,40577:0:0:0:0:
42,192,40577,128,2,40660:0:0:0:0:
128,192,40577,128,0,40660:0:0:0:0:
298,192,40660,128,2,40743:0:0:0:0:
384,192,40660,128,0,40743:0:0:0:0:
469,192,40660,128,0,40743:0:0:0:0:
128,192,40743,128,0,40827:0:0:0:0:
213,192,40827,128,2,40910:0:0:0:0:
384,192,40827,128,0,40910:0:0:0:0:
469,192,40827,128,0,40910:0:0:0:0:
298,192,40910,128,0,40993:0:0:0:0:
42,192,40993,128,8,41077:0:0:0:0:
128,192,40993,128,0,41077:0:0:0:0:
213,192,40993,128,0,41077:0:0:0:0:
469,192,41077,128,0,41160:0:0:0:0:
213,192,41160,128,2,41243:0:0:0:0:
384,192,41160,128,0,41243:0:0:0:0:
128,192,41243,128,0,41327:0:0:0:0:
42,192,41327,128,8,41410:0:0:0:0:
298,192,41327,128,0,41410:0:0:0:0:
469,192,41327,128,0,41410:0:0:0:0:
213,192,41410,128,0,41493:0:0:0:0:
128,192,41493,128,2,41577:0:0:0:0:
384,192,41493,128,0,41577:0:0:0:0:
469,192,41493,128,0,41577:0:0:0:0:
298,192,41577,128,0,41660:0:0:0:0:
42,192,41660,128,8,41743:0:0:0:0:
213,192,41660,128,0,41743:0:0:0:0:
469,192,41660,128,0,41743:0:0:0:0:
384,192,41743,128,0,41827:0:0:0:0:
42,192,41827,128,0,41910:0:0:0:0:
128,192,41827,128,0,41910:0:0:0:0:
298,192,41910,128,0,41993:0:0:0:0:
42,192,41993,1,2,0:0:0:0:
213,192,41993,1,4,0:0:0:0:
384,192,41993,1,0,0:0:0:0:
469,192,41993,1,0,0:0:0:0:
128,192,42160,1,2,0:0:0:0:
298,192,42160,1,0,0:0:0:0:
384,192,42160,1,0,0:0:0:0:
42,192,42327,1,8,0:0:0:0:
213,192,42327,1,0,0:0:0:0:
298,192,42327,1,0,0:0:0:0:
128,192,42493,1,0,0:0:0:0:
213,192,42493,1,0,0:0:0:0:
469,192,42493,1,0,0:0:0:0:
384,192,42577,1,0,0:0:0:0:
42,192,42660,1,0,0:0:0:0:
298,192,42660,1,0,0:0:0:0:
128,192,42743,1,0,0:0:0:0:
213,192,42827,1,2,0:0:0:0:
384,192,42827,1,0,0:0:0:0:
469,192,42827,1,0,0:0:0:0:
42,192,42910,1,0,0:0:0:0:
128,192,42993,1,8,0:0:0:0:
298,192,42993,1,0,0:0:0:0:
384,192,42993,1,0,0:0:0:0:
469,192,43077,1,0,0:0:0:0:
42,192,43160,1,0,0:0:0:0:
128,192,43160,1,0,0:0:0:0:
213,192,43243,1,2,0:0:0:0:
384,192,43243,1,0,0:0:0:0:
469,192,43243,1,0,0:0:0:0:
42,192,43327,1,2,0:0:0:0:
128,192,43327,1,0,0:0:0:0:
298,192,43327,1,0,0:0:0:0:
384,192,43410,1,0,0:0:0:0:
42,192,43493,1,2,0:0:0:0:
213,192,43493,1,0,0:0:0:0:
469,192,43493,1,0,0:0:0:0:
298,192,43577,1,0,0:0:0:0:
128,192,43660,1,8,0:0:0:0:
384,192,43660,1,0,0:0:0:0:
469,192,43660,1,0,0:0:0:0:
213,192,43743,1,0,0:0:0:0:
42,192,43827,1,0,0:0:0:0:
298,192,43827,1,0,0:0:0:0:
128,192,43910,1,0,0:0:0:0:
213,192,43993,1,0,0:0:0:0:
469,192,43993,1,0,0:0:0:0:
384,192,44077,1,0,0:0:0:0:
42,192,44160,1,2,0:0:0:0:
128,192,44160,1,0,0:0:0:0:
298,192,44160,1,0,0:0:0:0:
469,192,44243,1,0,0:0:0:0:
213,192,44327,1,8,0:0:0:0:
384,192,44327,1,0,0:0:0:0:
42,192,44410,1,0,0:0:0:0:
128,192,44493,1,0,0:0:0:0:
298,192,44493,1,0,0:0:0:0:
213,192,44577,1,2,0:0:0:0:
384,192,44577,1,0,0:0:0:0:
469,192,44577,1,0,0:0:0:0:
42,192,44660,1,2,0:0:0:0:
128,192,44660,1,0,0:0:0:0:
298,192,44660,1,0,0:0:0:0:
128,192,44827,1,2,0:0:0:0:
213,192,44827,1,0,0:0:0:0:
384,192,44827,1,0,0:0:0:0:
42,192,44993,1,8,0:0:0:0:
298,192,44993,1,0,0:0:0:0:
213,192,45160,1,0,0:0:0:0:
384,192,45160,1,0,0:0:0:0:
469,192,45160,1,0,0:0:0:0:
128,192,45243,1,0,0:0:0:0:
42,192,45327,1,0,0:0:0:0:
298,192,45327,1,0,0:0:0:0:
384,192,45410,1,0,0:0:0:0:
128,192,45493,1,2,0:0:0:0:
213,192,45493,1,0,0:0:0:0:
469,192,45493,1,0,0:0:0:0:
298,192,45577,1,0,0:0:0:0:
42,192,45660,1,8,0:0:0:0:
384,192,45660,1,0,0:0:0:0:
469,192,45660,1,0,0:0:0:0:
128,192,45743,1,0,0:0:0:0:
42,192,45827,1,0,0:0:0:0:
298,192,45827,1,0,0:0:0:0:
213,192,45910,1,2,0:0:0:0:
384,192,45910,1,0,0:0:0:0:
469,192,45910,1,0,0:0:0:0:
42,192,45993,1,2,0:0:0:0:
128,192,45993,1,0,0:0:0:0:
298,192,45993,1,0,0:0:0:0:
469,192,46077,1,0,0:0:0:0:
213,192,46160,1,2,0:0:0:0:
384,192,46160,1,0,0:0:0:0:
298,192,46243,1,0,0:0:0:0:
128,192,46327,1,8,0:0:0:0:
384,192,46327,1,0,0:0:0:0:
469,192,46327,1,0,0:0:0:0:
213,192,46410,1,0,0:0:0:0:
42,192,46493,1,0,0:0:0:0:
298,192,46493,1,0,0:0:0:0:
128,192,46577,1,0,0:0:0:0:
42,192,46660,1,0,0:0:0:0:
213,192,46660,1,0,0:0:0:0:
384,192,46660,1,0,0:0:0:0:
469,192,46743,1,0,0:0:0:0:
42,192,46827,1,2,0:0:0:0:
128,192,46827,1,0,0:0:0:0:
298,192,46827,1,0,0:0:0:0:
384,192,46910,1,0,0:0:0:0:
298,192,46993,1,0,0:0:0:0:
384,192,47077,1,0,0:0:0:0:
42,192,47160,1,8,0:0:0:0:
213,192,47160,1,0,0:0:0:0:
298,192,47243,1,0,0:0:0:0:
213,192,47327,1,2,0:0:0:0:
384,192,47327,1,0,0:0:0:0:
469,192,47327,1,0,0:0:0:0:
128,192,47493,1,2,0:0:0:0:
298,192,47493,1,0,0:0:0:0:
384,192,47493,1,0,0:0:0:0:
42,192,47660,1,8,0:0:0:0:
213,192,47660,1,0,0:0:0:0:
298,192,47660,1,0,0:0:0:0:
128,192,47827,1,0,0:0:0:0:
213,192,47827,1,0,0:0:0:0:
469,192,47827,1,0,0:0:0:0:
384,192,47910,1,0,0:0:0:0:
42,192,47993,1,0,0:0:0:0:
298,192,47993,1,0,0:0:0:0:
128,192,48077,1,0,0:0:0:0:
213,192,48160,1,2,0:0:0:0:
384,192,48160,1,0,0:0:0:0:
469,192,48160,1,0,0:0:0:0:
42,192,48243,1,0,0:0:0:0:
128,192,48327,1,8,0:0:0:0:
298,192,48327,1,0,0:0:0:0:
384,192,48327,1,0,0:0:0:0:
469,192,48410,1,0,0:0:0:0:
42,192,48493,1,0,0:0:0:0:
128,192,48493,1,0,0:0:0:0:
213,192,48577,1,2,0:0:0:0:
384,192,48577,1,0,0:0:0:0:
469,192,48577,1,0,0:0:0:0:
42,192,48660,1,2,0:0:0:0:
128,192,48660,1,0,0:0:0:0:
298,192,48660,1,0,0:0:0:0:
384,192,48743,1,0,0:0:0:0:
42,192,48827,1,2,0:0:0:0:
213,192,48827,1,0,0:0:0:0:
469,192,48827,1,0,0:0:0:0:
298,192,48910,1,0,0:0:0:0:
128,192,48993,1,8,0:0:0:0:
384,192,48993,1,0,0:0:0:0:
469,192,48993,1,0,0:0:0:0:
213,192,49077,1,0,0:0:0:0:
42,192,49160,1,0,0:0:0:0:
298,192,49160,1,0,0:0:0:0:
128,192,49243,1,0,0:0:0:0:
213,192,49327,1,0,0:0:0:0:
469,192,49327,1,0,0:0:0:0:
384,192,49410,1,0,0:0:0:0:
42,192,49493,1,2,0:0:0:0:
128,192,49493,1,0,0:0:0:0:
298,192,49493,1,0,0:0:0:0:
469,192,49577,1,0,0:0:0:0:
213,192,49660,1,8,0:0:0:0:
384,192,49660,1,0,0:0:0:0:
42,192,49743,1,0,0:0:0:0:
128,192,49827,1,0,0:0:0:0:
298,192,49827,1,0,0:0:0:0:
213,192,49910,1,2,0:0:0:0:
384,192,49910,1,0,0:0:0:0:
469,192,49910,1,0,0:0:0:0:
42,192,49993,1,2,0:0:0:0:
128,192,49993,1,0,0:0:0:0:
298,192,49993,1,0,0:0:0:0:
128,192,50160,1,2,0:0:0:0:
213,192,50160,1,0,0:0:0:0:
384,192,50160,1,0,0:0:0:0:
42,192,50327,1,8,0:0:0:0:
298,192,50327,1,0,0:0:0:0:
213,192,50493,1,0,0:0:0:0:
384,192,50493,1,0,0:0:0:0:
469,192,50493,1,0,0:0:0:0:
128,192,50577,1,0,0:0:0:0:
42,192,50660,1,0,0:0:0:0:
298,192,50660,1,0,0:0:0:0:
384,192,50743,1,0,0:0:0:0:
128,192,50827,1,2,0:0:0:0:
213,192,50827,1,0,0:0:0:0:
469,192,50827,1,0,0:0:0:0:
298,192,50910,1,0,0:0:0:0:
42,192,50993,1,8,0:0:0:0:
384,192,50993,1,0,0:0:0:0:
469,192,50993,1,0,0:0:0:0:
128,192,51077,1,0,0:0:0:0:
42,192,51160,1,0,0:0:0:0:
298,192,51160,1,0,0:0:0:0:
213,192,51243,1,2,0:0:0:0:
384,192,51243,1,0,0:0:0:0:
469,192,51243,1,0,0:0:0:0:
42,192,51327,1,2,0:0:0:0:
128,192,51327,1,0,0:0:0:0:
298,192,51327,1,0,0:0:0:0:
469,192,51410,1,0,0:0:0:0:
213,192,51493,1,2,0:0:0:0:
384,192,51493,1,0,0:0:0:0:
42,192,51577,1,0,0:0:0:0:
213,192,51660,1,8,0:0:0:0:
384,192,51660,1,0,0:0:0:0:
469,192,51660,1,0,0:0:0:0:
128,192,51743,1,0,0:0:0:0:
42,192,51827,1,2,0:0:0:0:
298,192,51827,1,0,0:0:0:0:
384,192,51827,1,0,0:0:0:0:
213,192,51910,1,0,0:0:0:0:
42,192,51993,1,8,0:0:0:0:
128,192,51993,1,0,0:0:0:0:
469,192,51993,1,0,0:0:0:0:
384,192,52077,1,0,0:0:0:0:
128,192,52160,1,2,0:0:0:0:
213,192,52160,1,0,0:0:0:0:
298,192,52243,1,0,0:0:0:0:
42,192,52327,1,8,0:0:0:0:
384,192,52327,1,0,0:0:0:0:
469,192,52327,1,0,0:0:0:0:
128,192,52410,1,0,0:0:0:0:
298,192,52493,1,2,0:0:0:0:
384,192,52493,1,0,0:0:0:0:
213,192,52577,1,0,0:0:0:0:
42,192,52660,1,4,0:0:0:0:
128,192,52660,1,2,0:0:0:0:
298,192,52660,1,0,0:0:0:0:
469,192,52660,1,0,0:0:0:0:
128,192,52827,1,2,0:0:0:0:
213,192,52827,1,0,0:0:0:0:
384,192,52827,1,0,0:0:0:0:
213,192,52993,1,8,0:0:0:0:
298,192,52993,1,0,0:0:0:0:
469,192,52993,1,0,0:0:0:0:
42,192,53160,1,0,0:0:0:0:
298,192,53160,1,0,0:0:0:0:
384,192,53160,1,0,0:0:0:0:
213,192,53327,1,0,0:0:0:0:
469,192,53327,1,0,0:0:0:0:
384,192,53410,1,0,0:0:0:0:
42,192,53493,1,2,0:0:0:0:
128,192,53493,1,0,0:0:0:0:
298,192,53493,1,0,0:0:0:0:
469,192,53577,1,0,0:0:0:0:
128,192,53660,1,8,0:0:0:0:
213,192,53660,1,0,0:0:0:0:
384,192,53660,1,0,0:0:0:0:
42,192,53743,1,0,0:0:0:0:
384,192,53827,1,0,0:0:0:0:
469,192,53827,1,0,0:0:0:0:
42,192,53910,1,2,0:0:0:0:
128,192,53910,1,0,0:0:0:0:
298,192,53910,1,0,0:0:0:0:
213,192,53993,1,2,0:0:0:0:
384,192,53993,1,0,0:0:0:0:
469,192,53993,1,0,0:0:0:0:
128,192,54077,1,0,0:0:0:0:
42,192,54160,1,2,0:0:0:0:
298,192,54160,1,0,0:0:0:0:
469,192,54160,1,0,0:0:0:0:
213,192,54243,1,0,0:0:0:0:
42,192,54327,1,8,0:0:0:0:
128,192,54327,1,0,0:0:0:0:
384,192,54327,1,0,0:0:0:0:
298,192,54410,1,0,0:0:0:0:
213,192,54493,1,0,0:0:0:0:
469,192,54493,1,0,0:0:0:0:
384,192,54577,1,0,0:0:0:0:
42,192,54660,1,0,0:0:0:0:
298,192,54660,1,0,0:0:0:0:
128,192,54743,1,0,0:0:0:0:
213,192,54827,1,2,0:0:0:0:
384,192,54827,1,0,0:0:0:0:
469,192,54827,1,0,0:0:0:0:
42,192,54910,1,0,0:0:0:0:
128,192,54993,1,8,0:0:0:0:
298,192,54993,1,0,0:0:0:0:
469,192,55077,1,0,0:0:0:0:
213,192,55160,1,0,0:0:0:0:
384,192,55160,1,0,0:0:0:0:
42,192,55243,1,2,0:0:0:0:
128,192,55243,1,0,0:0:0:0:
298,192,55243,1,0,0:0:0:0:
213,192,55327,1,2,0:0:0:0:
384,192,55327,1,0,0:0:0:0:
469,192,55327,1,0,0:0:0:0:
128,192,55493,1,2,0:0:0:0:
298,192,55493,1,0,0:0:0:0:
384,192,55493,1,0,0:0:0:0:
213,192,55660,1,8,0:0:0:0:
469,192,55660,1,0,0:0:0:0:
42,192,55827,1,0,0:0:0:0:
128,192,55827,1,0,0:0:0:0:
298,192,55827,1,0,0:0:0:0:
213,192,55993,1,0,0:0:0:0:
469,192,55993,1,0,0:0:0:0:
42,192,56160,1,2,0:0:0:0:
213,192,56160,1,0,0:0:0:0:
384,192,56160,1,0,0:0:0:0:
298,192,56243,1,0,0:0:0:0:
42,192,56327,1,8,0:0:0:0:
128,192,56327,1,0,0:0:0:0:
469,192,56327,1,0,0:0:0:0:
384,192,56410,1,0,0:0:0:0:
213,192,56493,1,0,0:0:0:0:
469,192,56493,1,0,0:0:0:0:
42,192,56577,1,2,0:0:0:0:
128,192,56577,1,0,0:0:0:0:
298,192,56577,1,0,0:0:0:0:
213,192,56660,1,2,0:0:0:0:
384,192,56660,1,0,0:0:0:0:
469,192,56660,1,0,0:0:0:0:
42,192,56743,1,0,0:0:0:0:
128,192,56827,1,2,0:0:0:0:
298,192,56827,1,0,0:0:0:0:
213,192,56910,1,0,0:0:0:0:
42,192,56993,1,8,0:0:0:0:
128,192,56993,1,0,0:0:0:0:
384,192,56993,1,0,0:0:0:0:
298,192,57077,1,0,0:0:0:0:
213,192,57160,1,0,0:0:0:0:
469,192,57160,1,0,0:0:0:0:
384,192,57243,1,0,0:0:0:0:
128,192,57327,1,0,0:0:0:0:
298,192,57327,1,0,0:0:0:0:
469,192,57327,1,0,0:0:0:0:
42,192,57410,1,0,0:0:0:0:
213,192,57493,1,2,0:0:0:0:
384,192,57493,1,0,0:0:0:0:
469,192,57493,1,0,0:0:0:0:
128,192,57577,1,0,0:0:0:0:
213,192,57660,1,0,0:0:0:0:
128,192,57743,1,0,0:0:0:0:
298,192,57827,1,8,0:0:0:0:
469,192,57827,1,0,0:0:0:0:
213,192,57910,1,0,0:0:0:0:
42,192,57993,1,2,0:0:0:0:
128,192,57993,1,0,0:0:0:0:
298,192,57993,1,0,0:0:0:0:
128,192,58160,1,2,0:0:0:0:
213,192,58160,1,0,0:0:0:0:
384,192,58160,1,0,0:0:0:0:
213,192,58327,1,8,0:0:0:0:
298,192,58327,1,0,0:0:0:0:
469,192,58327,1,0,0:0:0:0:
42,192,58493,1,0,0:0:0:0:
298,192,58493,1,0,0:0:0:0:
384,192,58493,1,0,0:0:0:0:
213,192,58660,1,0,0:0:0:0:
469,192,58660,1,0,0:0:0:0:
42,192,58827,1,2,0:0:0:0:
128,192,58827,1,0,0:0:0:0:
298,192,58827,1,0,0:0:0:0:
469,192,58910,1,0,0:0:0:0:
128,192,58993,1,8,0:0:0:0:
213,192,58993,1,0,0:0:0:0:
384,192,58993,1,0,0:0:0:0:
42,192,59077,1,0,0:0:0:0:
384,192,59160,1,0,0:0:0:0:
469,192,59160,1,0,0:0:0:0:
42,192,59243,1,2,0:0:0:0:
128,192,59243,1,0,0:0:0:0:
298,192,59243,1,0,0:0:0:0:
213,192,59327,1,2,0:0:0:0:
384,192,59327,1,0,0:0:0:0:
469,192,59327,1,0,0:0:0:0:
128,192,59410,1,0,0:0:0:0:
42,192,59493,1,2,0:0:0:0:
298,192,59493,1,0,0:0:0:0:
469,192,59493,1,0,0:0:0:0:
213,192,59577,1,0,0:0:0:0:
42,192,59660,1,8,0:0:0:0:
128,192,59660,1,0,0:0:0:0:
384,192,59660,1,0,0:0:0:0:
298,192,59743,1,0,0:0:0:0:
213,192,59827,1,0,0:0:0:0:
469,192,59827,1,0,0:0:0:0:
384,192,59910,1,0,0:0:0:0:
42,192,59993,1,0,0:0:0:0:
298,192,59993,1,0,0:0:0:0:
128,192,60077,1,0,0:0:0:0:
213,192,60160,1,2,0:0:0:0:
384,192,60160,1,0,0:0:0:0:
469,192,60160,1,0,0:0:0:0:
42,192,60243,1,0,0:0:0:0:
128,192,60327,1,8,0:0:0:0:
298,192,60327,1,0,0:0:0:0:
469,192,60410,1,0,0:0:0:0:
213,192,60493,1,0,0:0:0:0:
384,192,60493,1,0,0:0:0:0:
42,192,60577,1,2,0:0:0:0:
128,192,60577,1,0,0:0:0:0:
298,192,60577,1,0,0:0:0:0:
213,192,60660,1,2,0:0:0:0:
384,192,60660,1,0,0:0:0:0:
469,192,60660,1,0,0:0:0:0:
128,192,60827,1,2,0:0:0:0:
298,192,60827,1,0,0:0:0:0:
384,192,60827,1,0,0:0:0:0:
213,192,60993,1,8,0:0:0:0:
469,192,60993,1,0,0:0:0:0:
42,192,61160,1,0,0:0:0:0:
128,192,61160,1,0,0:0:0:0:
298,192,61160,1,0,0:0:0:0:
213,192,61327,1,0,0:0:0:0:
469,192,61327,1,0,0:0:0:0:
42,192,61493,1,2,0:0:0:0:
213,192,61493,1,0,0:0:0:0:
384,192,61493,1,0,0:0:0:0:
298,192,61577,1,0,0:0:0:0:
42,192,61660,1,8,0:0:0:0:
128,192,61660,1,0,0:0:0:0:
469,192,61660,1,0,0:0:0:0:
384,192,61743,1,0,0:0:0:0:
213,192,61827,1,0,0:0:0:0:
469,192,61827,1,0,0:0:0:0:
42,192,61910,1,2,0:0:0:0:
128,192,61910,1,0,0:0:0:0:
298,192,61910,1,0,0:0:0:0:
213,192,61993,1,2,0:0:0:0:
384,192,61993,1,0,0:0:0:0:
469,192,61993,1,0,0:0:0:0:
42,192,62077,1,0,0:0:0:0:
128,192,62160,1,2,0:0:0:0:
298,192,62160,1,0,0:0:0:0:
469,192,62243,1,0,0:0:0:0:
42,192,62327,1,8,0:0:0:0:
128,192,62327,1,0,0:0:0:0:
298,192,62327,1,0,0:0:0:0:
384,192,62410,1,0,0:0:0:0:
128,192,62493,1,2,0:0:0:0:
213,192,62493,1,0,0:0:0:0:
469,192,62493,1,0,0:0:0:0:
298,192,62577,1,0,0:0:0:0:
42,192,62660,1,8,0:0:0:0:
384,192,62660,1,0,0:0:0:0:
469,192,62660,1,0,0:0:0:0:
213,192,62743,1,0,0:0:0:0:
128,192,62827,1,2,0:0:0:0:
384,192,62827,1,0,0:0:0:0:
298,192,62910,1,0,0:0:0:0:
42,192,62993,1,8,0:0:0:0:
128,192,62993,1,0,0:0:0:0:
469,192,62993,1,0,0:0:0:0:
213,192,63077,1,0,0:0:0:0:
298,192,63160,1,0,0:0:0:0:
384,192,63243,1,0,0:0:0:0:
128,192,65993,1,0,0:0:0:0:
384,192,65993,1,0,0:0:0:0:
213,192,66160,1,0,0:0:0:0:
213,192,66327,1,0,0:0:0:0:
469,192,66327,1,0,0:0:0:0:
42,192,66493,1,0,0:0:0:0:
298,192,66493,1,0,0:0:0:0:
213,192,66660,1,0,0:0:0:0:
213,192,66827,1,0,0:0:0:0:
42,192,66993,1,0,0:0:0:0:
384,192,66993,1,0,0:0:0:0:
128,192,67160,1,0,0:0:0:0:
128,192,67327,1,0,0:0:0:0:
469,192,67327,1,0,0:0:0:0:
42,192,67493,1,0,0:0:0:0:
298,192,67493,1,0,0:0:0:0:
213,192,67660,1,0,0:0:0:0:
384,192,67660,1,0,0:0:0:0:
213,192,67827,1,0,0:0:0:0:
298,192,67827,1,0,0:0:0:0:
42,192,67993,1,0,0:0:0:0:
384,192,67993,1,0,0:0:0:0:
128,192,68160,1,0,0:0:0:0:
469,192,68160,1,0,0:0:0:0:
42,192,68327,1,0,0:0:0:0:
298,192,68327,1,0,0:0:0:0:
213,192,68493,1,0,0:0:0:0:
469,192,68493,1,0,0:0:0:0:
128,192,68660,1,0,0:0:0:0:
384,192,68660,1,0,0:0:0:0:
213,192,68827,1,0,0:0:0:0:
213,192,68993,1,0,0:0:0:0:
469,192,68993,1,0,0:0:0:0:
42,192,69160,1,0,0:0:0:0:
298,192,69160,1,0,0:0:0:0:
213,192,69327,1,0,0:0:0:0:
213,192,69493,1,0,0:0:0:0:
384,192,69493,1,0,0:0:0:0:
42,192,69660,1,0,0:0:0:0:
298,192,69660,1,0,0:0:0:0:
128,192,69827,1,0,0:0:0:0:
469,192,69827,1,0,0:0:0:0:
128,192,69993,1,0,0:0:0:0:
384,192,69993,1,0,0:0:0:0:
42,192,70160,1,0,0:0:0:0:
469,192,70160,1,0,0:0:0:0:
213,192,70327,1,0,0:0:0:0:
298,192,70327,1,0,0:0:0:0:
213,192,70493,1,0,0:0:0:0:
384,192,70493,1,0,0:0:0:0:
42,192,70660,1,0,0:0:0:0:
469,192,70660,1,0,0:0:0:0:
128,192,70827,1,0,0:0:0:0:
384,192,70827,1,0,0:0:0:0:
213,192,70993,1,0,0:0:0:0:
298,192,71035,1,0,0:0:0:0:
384,192,71077,1,0,0:0:0:0:
469,192,71118,1,0,0:0:0:0:
128,192,71160,1,0,0:0:0:0:
213,192,71202,1,0,0:0:0:0:
298,192,71243,1,0,0:0:0:0:
42,192,71327,1,0,0:0:0:0:
469,192,71327,1,0,0:0:0:0:
298,192,71493,1,0,0:0:0:0:
42,192,71660,1,0,0:0:0:0:
298,192,71660,1,0,0:0:0:0:
213,192,71827,1,0,0:0:0:0:
469,192,71827,1,0,0:0:0:0:
298,192,71993,1,0,0:0:0:0:
298,192,72160,1,0,0:0:0:0:
128,192,72327,1,0,0:0:0:0:
469,192,72327,1,0,0:0:0:0:
384,192,72493,1,0,0:0:0:0:
42,192,72660,1,0,0:0:0:0:
384,192,72660,1,0,0:0:0:0:
213,192,72827,1,0,0:0:0:0:
469,192,72827,1,0,0:0:0:0:
128,192,72993,1,0,0:0:0:0:
298,192,72993,1,0,0:0:0:0:
213,192,73160,1,0,0:0:0:0:
298,192,73160,1,0,0:0:0:0:
128,192,73327,1,0,0:0:0:0:
469,192,73327,1,0,0:0:0:0:
42,192,73493,1,0,0:0:0:0:
384,192,73493,1,0,0:0:0:0:
213,192,73660,1,0,0:0:0:0:
469,192,73660,1,0,0:0:0:0:
42,192,73827,1,0,0:0:0:0:
298,192,73827,1,0,0:0:0:0:
128,192,73993,1,0,0:0:0:0:
384,192,73993,1,0,0:0:0:0:
298,192,74160,1,0,0:0:0:0:
42,192,74327,1,0,0:0:0:0:
298,192,74327,1,0,0:0:0:0:
213,192,74493,1,0,0:0:0:0:
469,192,74493,1,0,0:0:0:0:
298,192,74660,1,0,0:0:0:0:
128,192,74827,1,0,0:0:0:0:
298,192,74827,1,0,0:0:0:0:
213,192,74993,1,0,0:0:0:0:
469,192,74993,1,0,0:0:0:0:
42,192,75160,1,0,0:0:0:0:
384,192,75160,1,0,0:0:0:0:
128,192,75327,1,0,0:0:0:0:
384,192,75327,1,0,0:0:0:0:
42,192,75493,1,0,0:0:0:0:
469,192,75493,1,0,0:0:0:0:
213,192,75660,1,0,0:0:0:0:
298,192,75660,1,0,0:0:0:0:
128,192,75827,1,0,0:0:0:0:
298,192,75827,1,0,0:0:0:0:
42,192,75993,1,0,0:0:0:0:
469,192,75993,1,0,0:0:0:0:
128,192,76160,1,0,0:0:0:0:
384,192,76160,1,0,0:0:0:0:
298,192,76327,1,0,0:0:0:0:
213,192,76368,1,0,0:0:0:0:
128,192,76410,1,0,0:0:0:0:
42,192,76452,1,0,0:0:0:0:
384,192,76493,1,0,0:0:0:0:
298,192,76535,1,0,0:0:0:0:
213,192,76577,1,0,0:0:0:0:
42,192,76660,1,0,0:0:0:70:Kick 4.wav
128,192,76660,1,0,0:0:0:0:
469,192,76660,1,0,0:0:0:0:
384,192,76827,1,0,0:0:0:0:
128,192,76993,1,0,0:0:0:0:
298,192,76993,1,0,0:0:0:0:
213,192,77160,1,0,0:0:0:70:LR_Snare Wet Echoing Hollow.wav
384,192,77160,1,0,0:0:0:0:
42,192,77327,1,0,0:0:0:70:LR_Snare Hollow.wav
298,192,77327,1,0,0:0:0:0:
469,192,77327,1,0,0:0:0:0:
298,192,77493,1,0,0:0:0:0:
128,192,77660,1,0,0:0:0:0:
384,192,77660,1,0,0:0:0:0:
298,192,77827,1,0,0:0:0:70:Kick 4.wav
42,192,77993,1,0,0:0:0:70:Kick 4.wav
213,192,77993,1,0,0:0:0:0:
384,192,77993,1,0,0:0:0:0:
298,192,78160,1,0,0:0:0:0:
469,192,78160,1,0,0:0:0:0:
42,192,78327,1,0,0:0:0:70:Kick 4.wav
213,192,78327,1,0,0:0:0:70:LR_Snare Wet Echoing Hollow.wav
384,192,78327,1,0,0:0:0:0:
128,192,78493,1,0,0:0:0:0:
298,192,78493,1,0,0:0:0:0:
42,192,78660,1,0,0:0:0:70:LR_Snare Hollow.wav
213,192,78660,1,0,0:0:0:0:
469,192,78660,1,0,0:0:0:0:
298,192,78827,1,0,0:0:0:0:
469,192,78827,1,0,0:0:0:0:
42,192,78993,1,0,0:0:0:0:
213,192,78993,1,0,0:0:0:0:
298,192,79160,1,0,0:0:0:0:
384,192,79160,1,0,0:0:0:0:
42,192,79327,1,0,0:0:0:70:Kick 4.wav
128,192,79327,1,0,0:0:0:0:
469,192,79327,1,0,0:0:0:0:
298,192,79493,1,0,0:0:0:0:
42,192,79660,1,0,0:0:0:70:Kick 4.wav
213,192,79660,1,0,0:0:0:0:
469,192,79660,1,0,0:0:0:0:
128,192,79827,1,0,0:0:0:70:LR_Snare Wet Echoing Hollow.wav
384,192,79827,1,0,0:0:0:0:
42,192,79993,1,0,0:0:0:70:LR_Snare Hollow.wav
213,192,79993,1,0,0:0:0:0:
298,192,79993,1,0,0:0:0:0:
298,192,80160,1,0,0:0:0:0:
469,192,80160,1,0,0:0:0:0:
42,192,80327,1,0,0:0:0:0:
128,192,80327,1,0,0:0:0:0:
213,192,80493,1,0,0:0:0:70:LR_Snare Hollow.wav
384,192,80493,1,0,0:0:0:0:
469,192,80493,1,0,0:0:0:0:
298,192,80660,1,0,0:0:0:0:
384,192,80660,1,0,0:0:0:0:
42,192,80827,1,0,0:0:0:70:LR_Snare Hollow.wav
213,192,80827,1,0,0:0:0:0:
469,192,80827,1,0,0:0:0:0:
42,192,80993,1,0,0:0:0:70:Kick 4.wav
128,192,80993,1,0,0:0:0:0:
298,192,80993,1,0,0:0:0:0:
213,192,81160,1,0,0:0:0:70:Kick 4.wav
384,192,81160,1,0,0:0:0:0:
42,192,81327,1,0,0:0:0:70:LR_Snare Hollow.wav
298,192,81327,1,0,0:0:0:0:
469,192,81327,1,0,0:0:0:0:
298,192,81493,1,0,0:0:0:0:
42,192,81660,1,0,0:0:0:0:
213,192,81660,1,0,0:0:0:0:
298,192,81702,1,0,0:0:0:0:
384,192,81743,1,0,0:0:0:0:
469,192,81785,1,0,0:0:0:0:
128,192,81827,1,0,0:0:0:0:
213,192,81868,1,0,0:0:0:0:
298,192,81910,1,0,0:0:0:0:
42,192,81993,1,0,0:0:0:70:Kick 4.wav
384,192,81993,1,0,0:0:0:0:
469,192,81993,1,0,0:0:0:0:
128,192,82160,1,0,0:0:0:0:
213,192,82327,1,0,0:0:0:0:
384,192,82327,1,0,0:0:0:0:
128,192,82493,1,0,0:0:0:70:LR_Snare Wet Echoing Hollow.wav
298,192,82493,1,0,0:0:0:0:
42,192,82660,1,0,0:0:0:70:LR_Snare Hollow.wav
213,192,82660,1,0,0:0:0:0:
469,192,82660,1,0,0:0:0:0:
213,192,82827,1,0,0:0:0:0:
128,192,82993,1,0,0:0:0:0:
384,192,82993,1,0,0:0:0:0:
213,192,83160,1,0,0:0:0:70:Kick 4.wav
128,192,83327,1,0,0:0:0:70:Kick 4.wav
298,192,83327,1,0,0:0:0:0:
469,192,83327,1,0,0:0:0:0:
42,192,83493,1,0,0:0:0:0:
213,192,83493,1,0,0:0:0:0:
128,192,83660,1,0,0:0:0:70:Kick 4.wav
298,192,83660,1,0,0:0:0:70:LR_Snare Wet Echoing Hollow.wav
469,192,83660,1,0,0:0:0:0:
213,192,83827,1,0,0:0:0:0:
384,192,83827,1,0,0:0:0:0:
42,192,83993,1,0,0:0:0:70:LR_Snare Hollow.wav
298,192,83993,1,0,0:0:0:0:
469,192,83993,1,0,0:0:0:0:
42,192,84160,1,0,0:0:0:0:
213,192,84160,1,0,0:0:0:0:
298,192,84327,1,0,0:0:0:0:
469,192,84327,1,0,0:0:0:0:
128,192,84493,1,0,0:0:0:0:
213,192,84493,1,0,0:0:0:0:
42,192,84660,1,0,0:0:0:70:Kick 4.wav
384,192,84660,1,0,0:0:0:0:
469,192,84660,1,0,0:0:0:0:
213,192,84827,1,0,0:0:0:0:
42,192,84993,1,0,0:0:0:70:LR_Snare Hollow.wav
298,192,84993,1,0,0:0:0:0:
469,192,84993,1,0,0:0:0:0:
128,192,85160,1,0,0:0:0:0:
384,192,85160,1,0,0:0:0:0:
42,192,85327,1,0,0:0:0:70:LR_Snare Hollow.wav
213,192,85327,1,0,0:0:0:0:
469,192,85327,1,0,0:0:0:0:
213,192,85493,1,0,0:0:0:0:
384,192,85493,1,0,0:0:0:0:
42,192,85660,1,0,0:0:0:70:Kick 4.wav
128,192,85660,1,0,0:0:0:0:
213,192,85827,1,0,0:0:0:70:LR_Snare Hollow.wav
384,192,85827,1,0,0:0:0:0:
469,192,85827,1,0,0:0:0:0:
42,192,85993,1,0,0:0:0:0:
213,192,85993,1,0,0:0:0:0:
298,192,86160,1,0,0:0:0:70:Kick 4.wav
469,192,86160,1,0,0:0:0:0:
42,192,86327,1,0,0:0:0:70:Kick 4.wav
213,192,86327,1,0,0:0:0:0:
128,192,86493,1,0,0:0:0:0:
298,192,86514,1,0,0:0:0:0:
42,192,86660,1,0,0:0:0:70:Kick 4.wav
469,192,86660,1,0,0:0:0:70:LR_Snare Hollow.wav
213,192,86681,1,0,0:0:0:0:
384,192,86688,1,0,0:0:0:0:
298,192,86827,1,0,0:0:0:0:
128,192,86882,1,0,0:0:0:0:
213,192,86938,1,0,0:0:0:0:
384,192,86993,1,0,0:0:0:0:
42,192,87049,1,0,0:0:0:0:
128,192,87105,1,0,0:0:0:0:
298,192,87160,1,0,0:0:0:0:
384,192,87202,1,0,0:0:0:0:
469,192,87243,1,0,0:0:0:0:
128,192,88660,1,0,0:0:0:0:
384,192,88660,1,0,0:0:0:0:
42,192,89327,1,2,0:0:0:0:
128,192,89327,1,4,0:0:0:0:
213,192,89327,1,0,0:0:0:0:
298,192,89327,1,0,0:0:0:0:
469,192,89327,128,0,90660:0:0:0:0:
42,192,89493,1,2,0:0:0:0:
213,192,89493,1,0,0:0:0:0:
128,192,89660,1,8,0:0:0:0:
384,192,89660,1,0,0:0:0:0:
42,192,89827,1,0,0:0:0:0:
213,192,89827,1,0,0:0:0:0:
384,192,89910,1,0,0:0:0:0:
128,192,89993,1,0,0:0:0:0:
298,192,89993,1,0,0:0:0:0:
42,192,90077,1,0,0:0:0:0:
213,192,90160,1,2,0:0:0:0:
298,192,90160,1,0,0:0:0:0:
384,192,90160,1,0,0:0:0:0:
42,192,90327,1,8,0:0:0:0:
384,192,90327,1,0,0:0:0:0:
213,192,90410,1,0,0:0:0:0:
42,192,90493,1,0,0:0:0:0:
128,192,90493,1,0,0:0:0:0:
298,192,90577,1,2,0:0:0:0:
384,192,90577,1,0,0:0:0:0:
42,192,90660,1,2,0:0:0:0:
128,192,90660,128,0,91160:0:0:0:0:
213,192,90660,1,0,0:0:0:0:
213,192,90827,1,2,0:0:0:0:
384,192,90827,1,0,0:0:0:0:
298,192,90993,1,8,0:0:0:0:
469,192,90993,1,0,0:0:0:0:
42,192,91160,1,0,0:0:0:0:
384,192,91160,128,0,91660:0:0:0:0:
469,192,91160,1,0,0:0:0:0:
298,192,91243,1,0,0:0:0:0:
42,192,91327,1,0,0:0:0:0:
213,192,91327,1,0,0:0:0:0:
469,192,91410,1,0,0:0:0:0:
128,192,91493,1,2,0:0:0:0:
213,192,91493,1,0,0:0:0:0:
298,192,91493,1,0,0:0:0:0:
42,192,91660,128,8,91827:0:0:0:0:
128,192,91660,1,0,0:0:0:0:
469,192,91660,1,0,0:0:0:0:
298,192,91743,1,0,0:0:0:0:
213,192,91827,1,0,0:0:0:0:
384,192,91910,1,2,0:0:0:0:
469,192,91910,1,0,0:0:0:0:
42,192,91993,128,2,92493:0:0:0:0:
128,192,91993,1,0,0:0:0:0:
298,192,91993,1,0,0:0:0:0:
128,192,92160,1,2,0:0:0:0:
298,192,92160,1,0,0:0:0:0:
213,192,92327,1,8,0:0:0:0:
469,192,92327,1,0,0:0:0:0:
128,192,92493,1,0,0:0:0:0:
298,192,92493,1,0,0:0:0:0:
469,192,92493,128,0,92993:0:0:0:0:
384,192,92577,1,0,0:0:0:0:
42,192,92660,1,0,0:0:0:0:
213,192,92660,1,0,0:0:0:0:
298,192,92743,1,0,0:0:0:0:
42,192,92827,1,2,0:0:0:0:
128,192,92827,1,0,0:0:0:0:
384,192,92827,1,0,0:0:0:0:
128,192,92993,1,8,0:0:0:0:
298,192,92993,128,0,93993:0:0:0:0:
384,192,92993,1,0,0:0:0:0:
213,192,93077,1,0,0:0:0:0:
42,192,93160,1,0,0:0:0:0:
469,192,93160,1,0,0:0:0:0:
213,192,93243,1,2,0:0:0:0:
384,192,93243,1,0,0:0:0:0:
42,192,93327,1,2,0:0:0:0:
128,192,93327,1,0,0:0:0:0:
469,192,93327,1,0,0:0:0:0:
42,192,93493,1,2,0:0:0:0:
128,192,93493,1,0,0:0:0:0:
213,192,93660,1,8,0:0:0:0:
384,192,93660,1,0,0:0:0:0:
128,192,93827,1,0,0:0:0:0:
469,192,93827,1,0,0:0:0:0:
213,192,93910,1,0,0:0:0:0:
42,192,93993,128,0,94660:0:0:0:0:
384,192,93993,1,0,0:0:0:0:
469,192,93993,1,0,0:0:0:0:
128,192,94077,1,0,0:0:0:0:
213,192,94160,1,2,0:0:0:0:
298,192,94160,1,0,0:0:0:0:
384,192,94160,1,0,0:0:0:0:
128,192,94327,1,0,0:0:0:0:
298,192,94327,1,0,0:0:0:0:
469,192,94410,1,0,0:0:0:0:
213,192,94493,1,8,0:0:0:0:
384,192,94493,1,0,0:0:0:0:
128,192,94577,1,0,0:0:0:0:
213,192,94660,1,2,0:0:0:0:
384,192,94660,1,0,0:0:0:0:
469,192,94660,128,0,95993:0:0:0:0:
42,192,94827,1,2,0:0:0:0:
213,192,94827,1,0,0:0:0:0:
128,192,94993,1,8,0:0:0:0:
384,192,94993,1,0,0:0:0:0:
42,192,95160,1,0,0:0:0:0:
213,192,95160,1,0,0:0:0:0:
384,192,95243,1,0,0:0:0:0:
128,192,95327,1,0,0:0:0:0:
298,192,95327,1,0,0:0:0:0:
42,192,95410,1,0,0:0:0:0:
213,192,95493,1,2,0:0:0:0:
298,192,95493,1,0,0:0:0:0:
384,192,95493,1,0,0:0:0:0:
42,192,95660,1,8,0:0:0:0:
384,192,95660,1,0,0:0:0:0:
213,192,95743,1,0,0:0:0:0:
42,192,95827,1,0,0:0:0:0:
128,192,95827,1,0,0:0:0:0:
298,192,95910,1,2,0:0:0:0:
384,192,95910,1,0,0:0:0:0:
42,192,95993,1,2,0:0:0:0:
128,192,95993,128,0,96493:0:0:0:0:
213,192,95993,1,0,0:0:0:0:
213,192,96160,1,2,0:0:0:0:
384,192,96160,1,0,0:0:0:0:
298,192,96326,1,0,0:0:0:0:
384,192,96326,1,0,0:0:0:0:
469,192,96410,1,0,0:0:0:0:
42,192,96493,1,0,0:0:0:0:
213,192,96493,1,0,0:0:0:0:
298,192,96493,128,0,96993:0:0:0:0:
384,192,96576,1,0,0:0:0:0:
128,192,96660,1,0,0:0:0:0:
469,192,96660,1,0,0:0:0:0:
213,192,96743,1,0,0:0:0:0:
42,192,96826,1,2,0:0:0:0:
384,192,96826,1,0,0:0:0:0:
42,192,96993,1,8,0:0:0:0:
128,192,96993,1,0,0:0:0:0:
469,192,96993,128,0,97160:0:0:0:0:
213,192,97076,1,0,0:0:0:0:
298,192,97160,1,0,0:0:0:0:
384,192,97160,1,0,0:0:0:0:
42,192,97243,1,2,0:0:0:0:
128,192,97243,1,0,0:0:0:0:
213,192,97326,1,2,0:0:0:0:
298,192,97326,1,0,0:0:0:0:
469,192,97326,128,0,97826:0:0:0:0:
42,192,97493,1,2,0:0:0:0:
298,192,97493,1,0,0:0:0:0:
213,192,97660,1,8,0:0:0:0:
384,192,97660,1,0,0:0:0:0:
42,192,97826,1,0,0:0:0:0:
128,192,97826,128,0,98326:0:0:0:0:
298,192,97826,1,0,0:0:0:0:
384,192,97910,1,0,0:0:0:0:
213,192,97993,1,0,0:0:0:0:
469,192,97993,1,0,0:0:0:0:
298,192,98076,1,0,0:0:0:0:
42,192,98160,1,2,0:0:0:0:
384,192,98160,1,0,0:0:0:0:
469,192,98160,1,0,0:0:0:0:
213,192,98326,1,8,0:0:0:0:
298,192,98326,128,0,99326:0:0:0:0:
384,192,98326,1,0,0:0:0:0:
42,192,98410,1,0,0:0:0:0:
128,192,98493,1,0,0:0:0:0:
469,192,98493,1,0,0:0:0:0:
213,192,98576,1,2,0:0:0:0:
384,192,98576,1,0,0:0:0:0:
42,192,98660,1,2,0:0:0:0:
128,192,98660,1,0,0:0:0:0:
469,192,98660,1,0,0:0:0:0:
42,192,98826,1,2,0:0:0:0:
128,192,98826,1,0,0:0:0:0:
213,192,98993,1,8,0:0:0:0:
469,192,98993,1,0,0:0:0:0:
42,192,99076,1,0,0:0:0:0:
128,192,99160,1,2,0:0:0:0:
384,192,99160,1,0,0:0:0:0:
469,192,99243,1,0,0:0:0:0:
42,192,99326,128,8,99993:0:0:0:0:
213,192,99326,1,0,0:0:0:0:
384,192,99410,1,0,0:0:0:0:
128,192,99493,1,2,0:0:0:0:
298,192,99493,1,0,0:0:0:0:
469,192,99576,1,0,0:0:0:0:
213,192,99660,1,8,0:0:0:0:
384,192,99660,1,0,0:0:0:0:
298,192,99743,1,0,0:0:0:0:
128,192,99826,1,2,0:0:0:0:
469,192,99826,1,0,0:0:0:0:
213,192,99910,1,0,0:0:0:0:
128,192,99993,1,2,0:0:0:0:
298,192,99993,1,4,0:0:0:0:
384,192,99993,1,0,0:0:0:0:
469,192,99993,128,0,101326:0:0:0:0:
42,192,100160,1,2,0:0:0:0:
298,192,100160,1,0,0:0:0:0:
128,192,100326,1,8,0:0:0:0:
384,192,100326,1,0,0:0:0:0:
42,192,100493,1,0,0:0:0:0:
213,192,100493,1,0,0:0:0:0:
384,192,100576,1,0,0:0:0:0:
128,192,100660,1,0,0:0:0:0:
298,192,100660,1,0,0:0:0:0:
42,192,100743,1,0,0:0:0:0:
213,192,100826,1,2,0:0:0:0:
298,192,100826,1,0,0:0:0:0:
384,192,100826,1,0,0:0:0:0:
42,192,100993,1,8,0:0:0:0:
384,192,100993,1,0,0:0:0:0:
213,192,101076,1,0,0:0:0:0:
42,192,101160,1,0,0:0:0:0:
128,192,101160,1,0,0:0:0:0:
298,192,101243,1,2,0:0:0:0:
384,192,101243,1,0,0:0:0:0:
42,192,101326,1,2,0:0:0:0:
128,192,101326,128,0,101826:0:0:0:0:
213,192,101326,1,0,0:0:0:0:
213,192,101493,1,2,0:0:0:0:
384,192,101493,1,0,0:0:0:0:
298,192,101660,1,8,0:0:0:0:
469,192,101660,1,0,0:0:0:0:
42,192,101826,1,0,0:0:0:0:
384,192,101826,128,0,102326:0:0:0:0:
469,192,101826,1,0,0:0:0:0:
298,192,101910,1,0,0:0:0:0:
42,192,101993,1,0,0:0:0:0:
213,192,101993,1,0,0:0:0:0:
469,192,102076,1,0,0:0:0:0:
128,192,102160,1,2,0:0:0:0:
213,192,102160,1,0,0:0:0:0:
298,192,102160,1,0,0:0:0:0:
42,192,102326,128,8,102493:0:0:0:0:
128,192,102326,1,0,0:0:0:0:
469,192,102326,1,0,0:0:0:0:
298,192,102410,1,0,0:0:0:0:
213,192,102493,1,0,0:0:0:0:
384,192,102576,1,2,0:0:0:0:
469,192,102576,1,0,0:0:0:0:
42,192,102660,128,2,103160:0:0:0:0:
128,192,102660,1,0,0:0:0:0:
298,192,102660,1,0,0:0:0:0:
128,192,102826,1,2,0:0:0:0:
298,192,102826,1,0,0:0:0:0:
213,192,102993,1,8,0:0:0:0:
469,192,102993,1,0,0:0:0:0:
128,192,103160,1,0,0:0:0:0:
298,192,103160,1,0,0:0:0:0:
469,192,103160,128,0,103660:0:0:0:0:
384,192,103243,1,0,0:0:0:0:
42,192,103326,1,0,0:0:0:0:
213,192,103326,1,0,0:0:0:0:
298,192,103410,1,0,0:0:0:0:
42,192,103493,1,2,0:0:0:0:
128,192,103493,1,0,0:0:0:0:
384,192,103493,1,0,0:0:0:0:
128,192,103660,1,8,0:0:0:0:
298,192,103660,128,0,104660:0:0:0:0:
384,192,103660,1,0,0:0:0:0:
213,192,103743,1,0,0:0:0:0:
42,192,103826,1,0,0:0:0:0:
469,192,103826,1,0,0:0:0:0:
213,192,103910,1,2,0:0:0:0:
384,192,103910,1,0,0:0:0:0:
42,192,103993,1,2,0:0:0:0:
128,192,103993,1,0,0:0:0:0:
469,192,103993,1,0,0:0:0:0:
42,192,104160,1,2,0:0:0:0:
128,192,104160,1,0,0:0:0:0:
213,192,104326,1,8,0:0:0:0:
384,192,104326,1,0,0:0:0:0:
128,192,104493,1,0,0:0:0:0:
469,192,104493,1,0,0:0:0:0:
213,192,104576,1,0,0:0:0:0:
42,192,104660,128,0,105326:0:0:0:0:
384,192,104660,1,0,0:0:0:0:
469,192,104660,1,0,0:0:0:0:
128,192,104743,1,0,0:0:0:0:
213,192,104826,1,2,0:0:0:0:
298,192,104826,1,0,0:0:0:0:
384,192,104826,1,0,0:0:0:0:
128,192,104993,1,0,0:0:0:0:
298,192,104993,1,0,0:0:0:0:
469,192,105076,1,0,0:0:0:0:
213,192,105160,1,8,0:0:0:0:
384,192,105160,1,0,0:0:0:0:
128,192,105243,1,0,0:0:0:0:
213,192,105326,1,2,0:0:0:0:
384,192,105326,1,0,0:0:0:0:
469,192,105326,128,0,106660:0:0:0:0:
42,192,105493,1,2,0:0:0:0:
213,192,105493,1,0,0:0:0:0:
128,192,105660,1,8,0:0:0:0:
384,192,105660,1,0,0:0:0:0:
42,192,105826,1,0,0:0:0:0:
213,192,105826,1,0,0:0:0:0:
384,192,105910,1,0,0:0:0:0:
128,192,105993,1,0,0:0:0:0:
298,192,105993,1,0,0:0:0:0:
42,192,106076,1,0,0:0:0:0:
213,192,106160,1,2,0:0:0:0:
298,192,106160,1,0,0:0:0:0:
384,192,106160,1,0,0:0:0:0:
42,192,106326,1,8,0:0:0:0:
384,192,106326,1,0,0:0:0:0:
213,192,106410,1,0,0:0:0:0:
42,192,106493,1,0,0:0:0:0:
128,192,106493,1,0,0:0:0:0:
298,192,106576,1,2,0:0:0:0:
384,192,106576,1,0,0:0:0:0:
42,192,106660,1,2,0:0:0:0:
128,192,106660,128,0,107160:0:0:0:0:
213,192,106660,1,0,0:0:0:0:
213,192,106826,1,2,0:0:0:0:
384,192,106826,1,0,0:0:0:0:
298,192,106993,1,8,0:0:0:0:
384,192,106993,1,0,0:0:0:0:
469,192,107076,1,0,0:0:0:0:
42,192,107160,1,0,0:0:0:0:
213,192,107160,1,0,0:0:0:0:
298,192,107160,128,0,107660:0:0:0:0:
384,192,107243,1,0,0:0:0:0:
128,192,107326,1,0,0:0:0:0:
469,192,107326,1,0,0:0:0:0:
213,192,107410,1,0,0:0:0:0:
42,192,107493,1,2,0:0:0:0:
384,192,107493,1,0,0:0:0:0:
42,192,107660,1,8,0:0:0:0:
128,192,107660,1,0,0:0:0:0:
469,192,107660,128,0,107826:0:0:0:0:
213,192,107743,1,0,0:0:0:0:
298,192,107826,1,0,0:0:0:0:
384,192,107826,1,0,0:0:0:0:
42,192,107910,1,2,0:0:0:0:
128,192,107910,1,0,0:0:0:0:
213,192,107993,1,2,0:0:0:0:
384,192,107993,1,0,0:0:0:0:
469,192,107993,128,0,108493:0:0:0:0:
42,192,108160,1,2,0:0:0:0:
213,192,108160,1,0,0:0:0:0:
298,192,108326,1,8,0:0:0:0:
384,192,108326,1,0,0:0:0:0:
42,192,108493,128,0,109326:0:0:0:0:
128,192,108493,1,0,0:0:0:0:
298,192,108493,1,0,0:0:0:0:
384,192,108576,1,0,0:0:0:0:
213,192,108660,1,0,0:0:0:0:
469,192,108660,1,0,0:0:0:0:
298,192,108743,1,0,0:0:0:0:
128,192,108826,1,2,0:0:0:0:
384,192,108826,1,0,0:0:0:0:
469,192,108826,1,0,0:0:0:0:
298,192,108910,1,0,0:0:0:0:
128,192,108993,128,8,109076:0:0:0:0:
213,192,108993,128,0,109076:0:0:0:0:
469,192,109076,128,0,109160:0:0:0:0:
298,192,109160,128,0,109243:0:0:0:0:
384,192,109160,128,0,109243:0:0:0:0:
128,192,109326,128,2,109410:0:0:0:0:
298,192,109326,128,0,109493:0:0:0:0:
469,192,109326,128,0,109410:0:0:0:0:
213,192,109410,128,0,109576:0:0:0:0:
128,192,109493,128,2,109660:0:0:0:0:
384,192,109493,128,0,109576:0:0:0:0:
42,192,109576,128,0,109743:0:0:0:0:
213,192,109660,128,8,109743:0:0:0:0:
384,192,109660,128,0,109826:0:0:0:0:
469,192,109660,128,0,109743:0:0:0:0:
298,192,109743,128,0,109910:0:0:0:0:
213,192,109826,128,2,109993:0:0:0:0:
469,192,109826,128,0,109910:0:0:0:0:
128,192,109910,128,0,109993:0:0:0:0:
42,192,109993,128,8,110160:0:0:0:0:
298,192,109993,128,0,110076:0:0:0:0:
384,192,109993,128,0,110076:0:0:0:0:
128,192,110076,128,0,110243:0:0:0:0:
213,192,110160,128,2,110326:0:0:0:0:
469,192,110160,128,0,110243:0:0:0:0:
298,192,110243,128,0,110410:0:0:0:0:
128,192,110326,128,8,110493:0:0:0:0:
384,192,110326,128,0,110493:0:0:0:0:
213,192,110410,128,0,110576:0:0:0:0:
42,192,110493,128,2,110576:0:0:0:0:
298,192,110493,128,0,110660:0:0:0:0:
384,192,110576,128,0,110743:0:0:0:0:
42,192,110660,128,4,110826:0:0:0:0:
128,192,110660,128,2,110826:0:0:0:0:
213,192,110660,128,0,110826:0:0:0:0:
469,192,110660,128,0,110826:0:0:0:0:
384,192,110993,128,0,111160:0:0:0:0:
128,192,111160,128,0,111660:0:0:0:0:
298,192,111660,128,0,111993:0:0:0:0:
469,192,111993,128,0,112160:0:0:0:0:
384,192,112160,128,0,112326:0:0:0:0:
213,192,112326,128,0,112493:0:0:0:0:
42,192,112493,128,0,112660:0:0:0:0:
213,192,112660,128,0,112826:0:0:0:0:
298,192,112826,128,0,112993:0:0:0:0:
128,192,112993,128,0,113160:0:0:0:0:
384,192,113160,128,0,113326:0:0:0:0:
298,192,113326,128,0,113660:0:0:0:0:
469,192,113660,128,0,113826:0:0:0:0:
128,192,113826,128,0,114326:0:0:0:0:
213,192,114326,128,0,114660:0:0:0:0:
469,192,114660,128,0,114826:0:0:0:0:
384,192,114826,128,0,114993:0:0:0:0:
213,192,114993,128,0,115160:0:0:0:0:
42,192,115160,128,0,115326:0:0:0:0:
213,192,115326,128,0,115493:0:0:0:0:
298,192,115493,128,0,115660:0:0:0:0:
128,192,115660,128,0,115826:0:0:0:0:
384,192,115826,128,0,115993:0:0:0:0:
298,192,115993,128,0,116326:0:0:0:0:
469,192,116326,128,0,116493:0:0:0:0:
128,192,116493,128,0,116993:0:0:0:0:
213,192,116993,128,0,117326:0:0:0:0:
469,192,117326,128,0,117493:0:0:0:0:
384,192,117493,128,0,117660:0:0:0:0:
213,192,117660,128,0,117826:0:0:0:0:
42,192,117826,128,0,117993:0:0:0:0:
213,192,117993,128,0,118160:0:0:0:0:
298,192,118160,128,0,118326:0:0:0:0:
128,192,118326,128,0,118493:0:0:0:0:
384,192,118493,128,0,118660:0:0:0:0:
298,192,118660,128,0,118993:0:0:0:0:
469,192,118993,128,0,119160:0:0:0:0:
128,192,119160,128,0,119493:0:0:0:0:
384,192,119493,128,0,119660:0:0:0:0:
42,192,119660,128,0,119826:0:0:0:0:
213,192,119826,128,0,119993:0:0:0:0:
298,192,119993,128,0,120160:0:0:0:0:
384,192,120160,128,0,120326:0:0:0:0:
469,192,120326,128,0,120493:0:0:0:0:
128,192,120493,128,0,120660:0:0:0:0:
384,192,120660,128,0,120826:0:0:0:0:
298,192,120826,128,0,121160:0:0:0:0:
213,192,121160,128,0,121326:0:0:0:0:
42,192,121326,1,0,0:0:0:70:Kick 4.wav
128,192,121326,1,0,0:0:0:0:
469,192,121326,1,0,0:0:0:0:
298,192,121493,1,0,0:0:0:0:
298,192,121660,1,0,0:0:0:0:
213,192,121826,1,0,0:0:0:70:LR_Snare Wet Echoing Hollow.wav
384,192,121826,1,0,0:0:0:0:
42,192,121993,1,0,0:0:0:70:LR_Snare Hollow.wav
128,192,121993,1,0,0:0:0:0:
298,192,121993,1,0,0:0:0:0:
469,192,121993,1,0,0:0:0:0:
298,192,122160,1,0,0:0:0:0:
128,192,122326,1,0,0:0:0:0:
384,192,122326,1,0,0:0:0:0:
128,192,122493,1,0,0:0:0:70:Kick 4.wav
42,192,122660,1,0,0:0:0:70:Kick 4.wav
213,192,122660,1,0,0:0:0:0:
384,192,122660,1,0,0:0:0:0:
384,192,122826,1,0,0:0:0:0:
469,192,122826,1,0,0:0:0:0:
42,192,122993,1,0,0:0:0:70:Kick 4.wav
128,192,122993,1,0,0:0:0:70:LR_Snare Wet Echoing Hollow.wav
298,192,122993,1,0,0:0:0:0:
213,192,123160,1,0,0:0:0:0:
42,192,123326,1,0,0:0:0:70:LR_Snare Hollow.wav
213,192,123326,1,0,0:0:0:0:
384,192,123326,1,0,0:0:0:0:
469,192,123326,1,0,0:0:0:0:
384,192,123493,1,0,0:0:0:0:
128,192,123660,1,0,0:0:0:0:
298,192,123660,1,0,0:0:0:0:
213,192,123826,1,0,0:0:0:0:
384,192,123826,1,0,0:0:0:0:
42,192,123993,1,0,0:0:0:70:Kick 4.wav
128,192,123993,1,0,0:0:0:0:
469,192,123993,1,0,0:0:0:0:
213,192,124160,1,0,0:0:0:0:
384,192,124160,1,0,0:0:0:0:
42,192,124326,1,0,0:0:0:70:Kick 4.wav
213,192,124326,1,0,0:0:0:0:
384,192,124326,1,0,0:0:0:0:
128,192,124493,1,0,0:0:0:70:LR_Snare Wet Echoing Hollow.wav
42,192,124660,1,0,0:0:0:70:LR_Snare Hollow.wav
213,192,124660,1,0,0:0:0:0:
384,192,124660,1,0,0:0:0:0:
469,192,124660,1,0,0:0:0:0:
384,192,124826,1,0,0:0:0:0:
128,192,124993,1,0,0:0:0:0:
298,192,124993,1,0,0:0:0:0:
384,192,125160,1,0,0:0:0:70:LR_Snare Hollow.wav
469,192,125160,1,0,0:0:0:0:
213,192,125326,1,0,0:0:0:0:
384,192,125493,1,0,0:0:0:70:LR_Snare Hollow.wav
469,192,125493,1,0,0:0:0:0:
42,192,125660,1,0,0:0:0:70:Kick 4.wav
128,192,125660,1,0,0:0:0:0:
298,192,125660,1,0,0:0:0:0:
213,192,125826,1,0,0:0:0:70:Kick 4.wav
384,192,125826,1,0,0:0:0:0:
42,192,125993,1,0,0:0:0:70:LR_Snare Hollow.wav
128,192,125993,1,0,0:0:0:0:
298,192,125993,1,0,0:0:0:0:
469,192,125993,1,0,0:0:0:0:
298,192,126160,1,0,0:0:0:0:
42,192,126326,1,0,0:0:0:0:
213,192,126326,1,0,0:0:0:0:
298,192,126368,1,0,0:0:0:0:
384,192,126410,1,0,0:0:0:0:
128,192,126451,1,0,0:0:0:0:
213,192,126493,1,0,0:0:0:0:
298,192,126535,1,0,0:0:0:0:
384,192,126576,1,0,0:0:0:0:
42,192,126660,1,2,0:0:0:0:
213,192,126660,1,0,0:0:0:0:
469,192,126660,1,0,0:0:0:0:
298,192,126743,1,0,0:0:0:0:
213,192,126826,1,0,0:0:0:0:
384,192,126826,1,0,0:0:0:0:
42,192,126910,1,2,0:0:0:0:
128,192,126910,1,0,0:0:0:0:
298,192,126910,1,0,0:0:0:0:
42,192,127326,1,2,0:0:0:0:
298,192,127326,1,0,0:0:0:70:LR_Snare Hollow.wav
469,192,127326,1,0,0:0:0:0:
213,192,127410,1,0,0:0:0:0:
128,192,127493,1,0,0:0:0:0:
298,192,127493,1,0,0:0:0:0:
213,192,127576,1,2,0:0:0:0:
384,192,127576,1,0,0:0:0:0:
469,192,127576,1,0,0:0:0:0:
42,192,127993,1,2,0:0:0:0:
213,192,127993,1,0,0:0:0:0:
384,192,128076,1,0,0:0:0:0:
469,192,128076,1,0,0:0:0:0:
298,192,128160,1,2,0:0:0:0:
42,192,128243,1,0,0:0:0:0:
128,192,128243,1,0,0:0:0:0:
213,192,128326,1,2,0:0:0:0:
384,192,128326,1,0,0:0:0:70:LR_Snare Wet Echoing Hollow.wav
469,192,128326,1,0,0:0:0:0:
298,192,128493,1,0,0:0:0:0:
42,192,128660,1,2,0:0:0:0:
213,192,128660,1,0,0:0:0:70:LR_Snare Hollow.wav
469,192,128660,1,0,0:0:0:0:
298,192,128743,1,0,0:0:0:0:
213,192,128826,1,0,0:0:0:0:
384,192,128826,1,0,0:0:0:0:
42,192,128910,1,2,0:0:0:0:
128,192,128910,1,0,0:0:0:0:
298,192,128910,1,0,0:0:0:0:
42,192,129326,1,2,0:0:0:0:
213,192,129326,1,0,0:0:0:0:
469,192,129326,1,0,0:0:0:0:
42,192,129493,1,2,0:0:0:0:
213,192,129493,1,0,0:0:0:0:
469,192,129493,1,0,0:0:0:0:
128,192,129660,1,0,0:0:0:70:LR_Snare Hollow.wav
384,192,129660,1,0,0:0:0:0:
42,192,129826,1,0,0:0:0:0:
298,192,129826,1,0,0:0:0:0:
128,192,129910,1,0,0:0:0:0:
213,192,129993,1,0,0:0:0:70:LR_Snare Hollow.wav
469,192,129993,1,0,0:0:0:0:
42,192,130076,1,0,0:0:0:0:
128,192,130160,1,2,0:0:0:0:
298,192,130160,1,0,0:0:0:0:
384,192,130160,1,0,0:0:0:0:
42,192,130326,1,0,0:0:0:0:
298,192,130326,1,0,0:0:0:0:
469,192,130326,1,0,0:0:0:0:
128,192,130410,1,0,0:0:0:0:
213,192,130493,1,2,0:0:0:0:
384,192,130493,1,0,0:0:0:70:LR_Snare Hollow.wav
469,192,130493,1,0,0:0:0:0:
128,192,130576,1,0,0:0:0:0:
42,192,130660,1,2,0:0:0:0:
298,192,130660,1,0,0:0:0:0:
469,192,130660,1,0,0:0:0:0:
42,192,130826,1,2,0:0:0:0:
298,192,130826,1,0,0:0:0:0:
469,192,130826,1,0,0:0:0:0:
128,192,130993,1,0,0:0:0:70:Kick 4.wav
213,192,130993,1,0,0:0:0:0:
384,192,130993,1,0,0:0:0:0:
42,192,131160,1,2,0:0:0:0:
298,192,131160,1,0,0:0:0:0:
469,192,131160,1,0,0:0:0:0:
128,192,131326,1,0,0:0:0:70:LR_Snare Hollow.wav
213,192,131326,1,0,0:0:0:0:
384,192,131326,1,0,0:0:0:0:
42,192,131493,1,2,0:0:0:0:
298,192,131493,1,0,0:0:0:0:
469,192,131493,1,0,0:0:0:0:
128,192,131660,1,0,0:0:0:0:
469,192,131660,1,0,0:0:0:0:
298,192,131743,1,2,0:0:0:0:
384,192,131743,1,0,0:0:0:0:
42,192,131826,1,2,0:0:0:0:
213,192,131826,1,0,0:0:0:0:
384,192,131910,1,2,0:0:0:0:
469,192,131910,1,0,0:0:0:0:
42,192,131993,1,4,0:0:0:0:
128,192,131993,1,2,0:0:0:0:
213,192,131993,1,0,0:0:0:0:
298,192,131993,1,0,0:0:0:0:
42,192,132160,1,2,0:0:0:0:
128,192,132160,1,0,0:0:0:0:
298,192,132160,1,0,0:0:0:0:
213,192,132326,1,8,0:0:0:0:
384,192,132326,1,0,0:0:0:0:
469,192,132326,1,0,0:0:0:0:
128,192,132493,128,0,132576:0:0:0:0:
298,192,132493,1,0,0:0:0:0:
213,192,132576,128,0,132660:0:0:0:0:
384,192,132576,1,0,0:0:0:0:
42,192,132660,1,0,0:0:0:0:
298,192,132660,128,0,132826:0:0:0:0:
469,192,132660,1,0,0:0:0:0:
213,192,132743,128,0,132910:0:0:0:0:
128,192,132826,128,2,132993:0:0:0:0:
384,192,132826,1,0,0:0:0:0:
42,192,132910,128,0,133076:0:0:0:0:
298,192,132993,128,8,133160:0:0:0:0:
469,192,132993,1,0,0:0:0:0:
213,192,133076,128,0,133243:0:0:0:0:
128,192,133160,128,0,133326:0:0:0:0:
384,192,133160,1,0,0:0:0:0:
42,192,133243,128,2,133410:0:0:0:0:
298,192,133243,1,0,0:0:0:0:
213,192,133326,128,2,133410:0:0:0:0:
384,192,133326,128,0,133410:0:0:0:0:
469,192,133326,128,0,133410:0:0:0:0:
213,192,133493,1,2,0:0:0:0:
384,192,133493,1,0,0:0:0:0:
469,192,133493,1,0,0:0:0:0:
42,192,133660,1,8,0:0:0:0:
128,192,133660,1,0,0:0:0:0:
298,192,133660,1,0,0:0:0:0:
384,192,133743,1,0,0:0:0:0:
128,192,133826,128,0,133910:0:0:0:0:
213,192,133826,128,0,133910:0:0:0:0:
298,192,133826,128,0,133910:0:0:0:0:
213,192,133993,1,0,0:0:0:0:
384,192,133993,1,0,0:0:0:0:
469,192,133993,1,0,0:0:0:0:
128,192,134076,1,0,0:0:0:0:
42,192,134160,1,2,0:0:0:0:
298,192,134160,1,0,0:0:0:0:
469,192,134160,1,0,0:0:0:0:
128,192,134326,128,8,134410:0:0:0:0:
384,192,134326,128,0,134410:0:0:0:0:
469,192,134326,128,0,134410:0:0:0:0:
213,192,134410,1,0,0:0:0:0:
42,192,134493,1,0,0:0:0:0:
298,192,134493,1,0,0:0:0:0:
128,192,134576,1,2,0:0:0:0:
384,192,134576,1,0,0:0:0:0:
469,192,134576,1,0,0:0:0:0:
42,192,134660,128,2,134743:0:0:0:0:
213,192,134660,128,0,134743:0:0:0:0:
298,192,134660,128,0,134743:0:0:0:0:
42,192,134826,1,2,0:0:0:0:
213,192,134826,1,0,0:0:0:0:
298,192,134826,1,0,0:0:0:0:
128,192,134993,1,8,0:0:0:0:
384,192,134993,1,0,0:0:0:0:
469,192,134993,1,0,0:0:0:0:
298,192,135076,1,0,0:0:0:0:
42,192,135160,128,0,135243:0:0:0:0:
213,192,135160,128,0,135243:0:0:0:0:
384,192,135160,128,0,135243:0:0:0:0:
469,192,135243,1,0,0:0:0:0:
128,192,135326,1,0,0:0:0:0:
298,192,135326,1,0,0:0:0:0:
213,192,135410,1,0,0:0:0:0:
384,192,135410,1,0,0:0:0:0:
42,192,135493,1,2,0:0:0:0:
298,192,135493,1,0,0:0:0:0:
469,192,135493,1,0,0:0:0:0:
128,192,135660,128,8,135743:0:0:0:0:
213,192,135660,128,0,135826:0:0:0:0:
384,192,135660,128,0,135743:0:0:0:0:
298,192,135743,128,0,135910:0:0:0:0:
42,192,135826,1,0,0:0:0:0:
384,192,135826,128,0,135993:0:0:0:0:
128,192,135910,1,2,0:0:0:0:
469,192,135910,128,0,136076:0:0:0:0:
213,192,135993,128,2,136076:0:0:0:0:
298,192,135993,128,0,136160:0:0:0:0:
42,192,136076,128,0,136160:0:0:0:0:
128,192,136160,128,2,136243:0:0:0:0:
213,192,136160,128,0,136326:0:0:0:0:
384,192,136160,1,0,0:0:0:0:
42,192,136243,128,0,136326:0:0:0:0:
298,192,136326,128,8,136410:0:0:0:0:
384,192,136326,128,0,136493:0:0:0:0:
128,192,136410,128,0,136493:0:0:0:0:
213,192,136493,128,0,136576:0:0:0:0:
298,192,136493,128,0,136660:0:0:0:0:
469,192,136493,1,0,0:0:0:0:
128,192,136576,128,0,136660:0:0:0:0:
384,192,136660,128,0,136743:0:0:0:0:
469,192,136660,128,0,136826:0:0:0:0:
213,192,136743,128,0,136826:0:0:0:0:
42,192,136826,1,2,0:0:0:0:
298,192,136826,128,0,136910:0:0:0:0:
384,192,136826,128,0,136993:0:0:0:0:
213,192,136910,128,0,136993:0:0:0:0:
42,192,136993,1,0,0:0:0:0:
298,192,136993,128,0,137160:0:0:0:0:
469,192,136993,1,0,0:0:0:0:
213,192,137076,128,0,137243:0:0:0:0:
128,192,137160,128,8,137326:0:0:0:0:
384,192,137160,1,0,0:0:0:0:
42,192,137243,128,0,137410:0:0:0:0:
213,192,137326,128,2,137410:0:0:0:0:
384,192,137326,128,0,137410:0:0:0:0:
469,192,137326,128,0,137410:0:0:0:0:
213,192,137493,1,2,0:0:0:0:
384,192,137493,1,0,0:0:0:0:
469,192,137493,1,0,0:0:0:0:
42,192,137660,1,8,0:0:0:0:
128,192,137660,1,0,0:0:0:0:
298,192,137660,1,0,0:0:0:0:
213,192,137826,1,0,0:0:0:0:
384,192,137826,128,0,137910:0:0:0:0:
128,192,137910,1,0,0:0:0:0:
298,192,137910,128,0,137993:0:0:0:0:
42,192,137993,1,0,0:0:0:0:
213,192,137993,128,0,138160:0:0:0:0:
469,192,137993,1,0,0:0:0:0:
298,192,138076,128,0,138243:0:0:0:0:
128,192,138160,1,2,0:0:0:0:
384,192,138160,128,0,138326:0:0:0:0:
469,192,138243,128,0,138410:0:0:0:0:
42,192,138326,1,8,0:0:0:0:
213,192,138326,128,0,138493:0:0:0:0:
298,192,138410,128,0,138576:0:0:0:0:
128,192,138493,1,0,0:0:0:0:
384,192,138493,128,0,138660:0:0:0:0:
213,192,138576,1,2,0:0:0:0:
469,192,138576,128,0,138743:0:0:0:0:
42,192,138660,128,2,138743:0:0:0:0:
128,192,138660,128,0,138743:0:0:0:0:
298,192,138660,128,0,138743:0:0:0:0:
42,192,138826,1,2,0:0:0:0:
128,192,138826,1,0,0:0:0:0:
298,192,138826,1,0,0:0:0:0:
42,192,138993,1,8,0:0:0:0:
298,192,138993,1,0,0:0:0:0:
469,192,138993,1,0,0:0:0:0:
213,192,139076,1,0,0:0:0:0:
128,192,139160,128,0,139243:0:0:0:0:
384,192,139160,128,0,139243:0:0:0:0:
469,192,139160,128,0,139243:0:0:0:0:
42,192,139326,1,0,0:0:0:0:
213,192,139326,1,0,0:0:0:0:
298,192,139326,1,0,0:0:0:0:
469,192,139410,1,0,0:0:0:0:
128,192,139493,1,2,0:0:0:0:
213,192,139493,1,0,0:0:0:0:
384,192,139493,1,0,0:0:0:0:
42,192,139660,128,8,139743:0:0:0:0:
298,192,139660,128,0,139743:0:0:0:0:
469,192,139660,128,0,139743:0:0:0:0:
128,192,139743,1,0,0:0:0:0:
213,192,139826,1,0,0:0:0:0:
384,192,139826,1,0,0:0:0:0:
42,192,139910,1,2,0:0:0:0:
128,192,139910,1,0,0:0:0:0:
298,192,139910,1,0,0:0:0:0:
213,192,139993,128,2,140076:0:0:0:0:
384,192,139993,128,0,140076:0:0:0:0:
469,192,139993,128,0,140076:0:0:0:0:
213,192,140160,1,2,0:0:0:0:
384,192,140160,1,0,0:0:0:0:
469,192,140160,1,0,0:0:0:0:
42,192,140326,1,8,0:0:0:0:
128,192,140326,1,0,0:0:0:0:
469,192,140326,1,0,0:0:0:0:
298,192,140410,1,0,0:0:0:0:
128,192,140493,128,0,140576:0:0:0:0:
213,192,140493,128,0,140576:0:0:0:0:
384,192,140493,128,0,140576:0:0:0:0:
42,192,140576,1,0,0:0:0:0:
213,192,140660,1,0,0:0:0:0:
298,192,140660,1,0,0:0:0:0:
469,192,140660,1,0,0:0:0:0:
128,192,140743,1,0,0:0:0:0:
42,192,140826,1,2,0:0:0:0:
298,192,140826,1,0,0:0:0:0:
384,192,140826,1,0,0:0:0:0:
213,192,140993,128,8,141160:0:0:0:0:
384,192,140993,128,0,141076:0:0:0:0:
469,192,140993,128,0,141076:0:0:0:0:
298,192,141076,128,0,141243:0:0:0:0:
42,192,141160,1,0,0:0:0:0:
384,192,141160,128,0,141326:0:0:0:0:
128,192,141243,1,2,0:0:0:0:
469,192,141243,128,0,141410:0:0:0:0:
42,192,141326,1,2,0:0:0:0:
213,192,141326,128,0,141549:0:0:0:0:
298,192,141326,1,0,0:0:0:0:
128,192,141438,128,0,141660:0:0:0:0:
384,192,141493,1,2,0:0:0:0:
469,192,141493,1,0,0:0:0:0:
42,192,141549,128,0,141660:0:0:0:0:
213,192,141660,1,8,0:0:0:0:
298,192,141660,128,0,141882:0:0:0:0:
469,192,141660,1,0,0:0:0:0:
384,192,141771,128,0,141993:0:0:0:0:
42,192,141826,1,2,0:0:0:0:
128,192,141826,1,0,0:0:0:0:
469,192,141882,128,0,141993:0:0:0:0:
42,192,141993,128,8,142215:0:0:0:0:
213,192,141993,1,0,0:0:0:0:
298,192,141993,1,0,0:0:0:0:
128,192,142104,128,0,142326:0:0:0:0:
298,192,142160,1,2,0:0:0:0:
384,192,142160,1,0,0:0:0:0:
213,192,142215,128,0,142326:0:0:0:0:
42,192,142326,1,8,0:0:0:0:
384,192,142326,128,0,142493:0:0:0:0:
469,192,142326,1,0,0:0:0:0:
128,192,142410,1,0,0:0:0:0:
298,192,142410,128,0,142576:0:0:0:0:
42,192,142493,1,2,0:0:0:0:
213,192,142493,128,0,142660:0:0:0:0:
469,192,142493,1,0,0:0:0:0:
128,192,142576,128,0,142743:0:0:0:0:
384,192,142576,1,0,0:0:0:0:
42,192,142660,128,4,142743:0:0:0:0:
298,192,142660,128,2,142743:0:0:0:0:
469,192,142660,128,0,142743:0:0:0:0:
42,192,142826,1,2,0:0:0:0:
128,192,142826,1,0,0:0:0:0:
298,192,142826,1,0,0:0:0:0:
213,192,142993,1,8,0:0:0:0:
384,192,142993,1,0,0:0:0:0:
469,192,142993,1,0,0:0:0:0:
128,192,143160,1,0,0:0:0:0:
298,192,143160,1,0,0:0:0:0:
128,192,143326,128,0,143410:0:0:0:0:
298,192,143326,128,0,143410:0:0:0:0:
384,192,143326,128,0,143410:0:0:0:0:
469,192,143326,128,0,143410:0:0:0:0:
42,192,143493,1,2,0:0:0:0:
213,192,143493,1,0,0:0:0:0:
469,192,143493,1,0,0:0:0:0:
384,192,143576,1,0,0:0:0:0:
128,192,143660,1,8,0:0:0:0:
298,192,143660,1,0,0:0:0:0:
469,192,143660,1,0,0:0:0:0:
42,192,143743,1,0,0:0:0:0:
213,192,143826,1,0,0:0:0:0:
384,192,143826,1,0,0:0:0:0:
42,192,143910,1,2,0:0:0:0:
128,192,143910,1,0,0:0:0:0:
298,192,143910,1,0,0:0:0:0:
213,192,143993,128,2,144076:0:0:0:0:
384,192,143993,128,0,144076:0:0:0:0:
469,192,143993,128,0,144076:0:0:0:0:
128,192,144160,1,2,0:0:0:0:
384,192,144160,1,0,0:0:0:0:
469,192,144160,1,0,0:0:0:0:
42,192,144326,1,8,0:0:0:0:
213,192,144326,1,0,0:0:0:0:
469,192,144326,1,0,0:0:0:0:
298,192,144410,1,0,0:0:0:0:
42,192,144493,128,0,144576:0:0:0:0:
128,192,144493,128,0,144576:0:0:0:0:
384,192,144493,128,0,144576:0:0:0:0:
213,192,144576,1,0,0:0:0:0:
42,192,144660,1,0,0:0:0:0:
298,192,144660,1,0,0:0:0:0:
469,192,144660,1,0,0:0:0:0:
128,192,144743,1,0,0:0:0:0:
213,192,144826,1,2,0:0:0:0:
298,192,144826,1,0,0:0:0:0:
384,192,144826,1,0,0:0:0:0:
42,192,144993,128,8,145076:0:0:0:0:
128,192,144993,128,0,145076:0:0:0:0:
384,192,144993,128,0,145076:0:0:0:0:
213,192,145076,1,0,0:0:0:0:
298,192,145160,1,0,0:0:0:0:
469,192,145160,1,0,0:0:0:0:
42,192,145243,1,2,0:0:0:0:
128,192,145243,1,0,0:0:0:0:
213,192,145243,1,0,0:0:0:0:
298,192,145326,1,2,0:0:0:0:
384,192,145326,1,0,0:0:0:0:
469,192,145326,1,0,0:0:0:0:
213,192,145493,1,2,0:0:0:0:
384,192,145493,1,0,0:0:0:0:
469,192,145493,1,0,0:0:0:0:
42,192,145660,1,8,0:0:0:0:
128,192,145660,1,0,0:0:0:0:
298,192,145660,1,0,0:0:0:0:
469,192,145743,1,0,0:0:0:0:
128,192,145826,1,0,0:0:0:0:
298,192,145826,1,0,0:0:0:0:
384,192,145826,1,0,0:0:0:0:
42,192,145910,1,0,0:0:0:0:
213,192,145993,128,0,146076:0:0:0:0:
384,192,145993,128,0,146076:0:0:0:0:
469,192,145993,128,0,146076:0:0:0:0:
42,192,146076,1,0,0:0:0:0:
128,192,146160,1,2,0:0:0:0:
213,192,146160,1,0,0:0:0:0:
298,192,146160,1,0,0:0:0:0:
42,192,146326,1,8,0:0:0:0:
128,192,146326,1,0,0:0:0:0:
298,192,146326,1,0,0:0:0:0:
384,192,146410,1,0,0:0:0:0:
42,192,146493,1,0,0:0:0:0:
213,192,146493,1,0,0:0:0:0:
298,192,146576,1,2,0:0:0:0:
384,192,146576,1,0,0:0:0:0:
469,192,146576,1,0,0:0:0:0:
42,192,146660,128,2,146743:0:0:0:0:
128,192,146660,128,0,146743:0:0:0:0:
213,192,146660,128,0,146743:0:0:0:0:
384,192,146743,1,0,0:0:0:0:
128,192,146826,1,2,0:0:0:0:
213,192,146826,1,0,0:0:0:0:
298,192,146826,1,0,0:0:0:0:
42,192,146910,1,0,0:0:0:0:
213,192,146993,1,8,0:0:0:0:
384,192,146993,1,0,0:0:0:0:
469,192,146993,1,0,0:0:0:0:
128,192,147076,1,0,0:0:0:0:
42,192,147160,128,0,147243:0:0:0:0:
298,192,147160,128,0,147243:0:0:0:0:
384,192,147160,128,0,147243:0:0:0:0:
128,192,147326,1,0,0:0:0:0:
213,192,147326,1,0,0:0:0:0:
469,192,147326,1,0,0:0:0:0:
384,192,147410,1,0,0:0:0:0:
42,192,147493,1,2,0:0:0:0:
128,192,147493,1,0,0:0:0:0:
298,192,147493,1,0,0:0:0:0:
42,192,147660,128,0,147743:0:0:0:0:
213,192,147660,128,0,147743:0:0:0:0:
384,192,147660,128,0,147743:0:0:0:0:
469,192,147660,128,0,147743:0:0:0:0:
128,192,147826,1,8,0:0:0:0:
298,192,147826,1,0,0:0:0:0:
42,192,147993,128,2,148076:0:0:0:0:
128,192,147993,128,0,148076:0:0:0:0:
384,192,147993,128,0,148076:0:0:0:0:
469,192,147993,128,0,148076:0:0:0:0:
213,192,148160,1,2,0:0:0:0:
384,192,148160,1,0,0:0:0:0:
469,192,148160,1,0,0:0:0:0:
42,192,148326,1,8,0:0:0:0:
128,192,148326,1,0,0:0:0:0:
298,192,148326,1,0,0:0:0:0:
384,192,148410,1,0,0:0:0:0:
128,192,148493,1,0,0:0:0:0:
213,192,148493,1,0,0:0:0:0:
469,192,148493,1,0,0:0:0:0:
298,192,148576,1,0,0:0:0:0:
42,192,148660,128,0,148743:0:0:0:0:
128,192,148660,128,0,148743:0:0:0:0:
384,192,148660,128,0,148743:0:0:0:0:
213,192,148743,1,0,0:0:0:0:
298,192,148826,1,2,0:0:0:0:
384,192,148826,1,0,0:0:0:0:
469,192,148826,1,0,0:0:0:0:
42,192,148993,1,8,0:0:0:0:
128,192,148993,1,0,0:0:0:0:
298,192,148993,1,0,0:0:0:0:
469,192,149076,1,0,0:0:0:0:
42,192,149160,1,0,0:0:0:0:
213,192,149160,1,0,0:0:0:0:
298,192,149160,1,0,0:0:0:0:
128,192,149243,1,2,0:0:0:0:
384,192,149243,1,0,0:0:0:0:
469,192,149243,1,0,0:0:0:0:
42,192,149326,128,2,149410:0:0:0:0:
213,192,149326,128,0,149410:0:0:0:0:
298,192,149326,128,0,149410:0:0:0:0:
42,192,149493,1,2,0:0:0:0:
213,192,149493,1,0,0:0:0:0:
384,192,149493,1,0,0:0:0:0:
128,192,149660,1,8,0:0:0:0:
298,192,149660,1,0,0:0:0:0:
469,192,149660,1,0,0:0:0:0:
42,192,149743,1,0,0:0:0:0:
128,192,149826,128,0,149910:0:0:0:0:
298,192,149826,128,0,149910:0:0:0:0:
384,192,149826,128,0,149910:0:0:0:0:
213,192,149910,1,0,0:0:0:0:
42,192,149993,1,0,0:0:0:0:
298,192,149993,1,0,0:0:0:0:
469,192,149993,1,0,0:0:0:0:
128,192,150076,1,0,0:0:0:0:
213,192,150160,1,2,0:0:0:0:
384,192,150160,1,0,0:0:0:0:
469,192,150160,1,0,0:0:0:0:
42,192,150243,1,0,0:0:0:0:
128,192,150326,128,8,150410:0:0:0:0:
298,192,150326,128,0,150410:0:0:0:0:
384,192,150326,128,0,150410:0:0:0:0:
469,192,150410,1,0,0:0:0:0:
42,192,150493,1,0,0:0:0:0:
213,192,150493,1,0,0:0:0:0:
298,192,150576,1,2,0:0:0:0:
384,192,150576,1,0,0:0:0:0:
469,192,150576,1,0,0:0:0:0:
42,192,150660,128,2,150743:0:0:0:0:
128,192,150660,128,0,150743:0:0:0:0:
213,192,150660,128,0,150743:0:0:0:0:
42,192,150826,1,2,0:0:0:0:
128,192,150826,1,0,0:0:0:0:
298,192,150826,1,0,0:0:0:0:
213,192,150993,1,8,0:0:0:0:
384,192,150993,1,0,0:0:0:0:
469,192,151076,1,0,0:0:0:0:
42,192,151160,128,0,151243:0:0:0:0:
128,192,151160,128,0,151243:0:0:0:0:
298,192,151160,128,0,151243:0:0:0:0:
384,192,151243,1,0,0:0:0:0:
128,192,151326,1,0,0:0:0:0:
213,192,151326,1,0,0:0:0:0:
469,192,151326,1,0,0:0:0:0:
298,192,151410,1,0,0:0:0:0:
384,192,151410,1,0,0:0:0:0:
42,192,151493,1,2,0:0:0:0:
128,192,151493,1,0,0:0:0:0:
469,192,151493,1,0,0:0:0:0:
213,192,151576,1,0,0:0:0:0:
384,192,151576,1,0,0:0:0:0:
42,192,151660,1,8,0:0:0:0:
298,192,151660,128,0,151826:0:0:0:0:
469,192,151660,1,0,0:0:0:0:
213,192,151743,128,0,151910:0:0:0:0:
128,192,151826,128,0,151993:0:0:0:0:
384,192,151826,1,0,0:0:0:0:
42,192,151910,128,2,152076:0:0:0:0:
298,192,151910,1,0,0:0:0:0:
213,192,151993,128,2,152160:0:0:0:0:
384,192,151993,1,0,0:0:0:0:
469,192,151993,1,0,0:0:0:0:
298,192,152076,128,0,152243:0:0:0:0:
42,192,152160,1,2,0:0:0:0:
384,192,152160,128,0,152326:0:0:0:0:
469,192,152243,128,0,152410:0:0:0:0:
42,192,152326,1,8,0:0:0:0:
128,192,152326,1,0,0:0:0:0:
298,192,152326,128,0,152493:0:0:0:0:
213,192,152410,128,0,152576:0:0:0:0:
128,192,152493,128,2,152660:0:0:0:0:
384,192,152493,1,0,0:0:0:0:
42,192,152576,128,0,152743:0:0:0:0:
213,192,152660,1,8,0:0:0:0:
384,192,152660,128,0,152826:0:0:0:0:
469,192,152660,128,0,152743:0:0:0:0:
298,192,152743,128,0,152910:0:0:0:0:
42,192,152826,1,2,0:0:0:0:
213,192,152826,128,0,152993:0:0:0:0:
469,192,152826,1,0,0:0:0:0:
128,192,152910,128,0,153160:0:0:0:0:
42,192,152993,128,8,153076:0:0:0:0:
298,192,152993,1,0,0:0:0:0:
384,192,152993,1,0,0:0:0:0:
213,192,153076,128,0,153243:0:0:0:0:
42,192,153160,1,2,0:0:0:0:
298,192,153160,128,0,153326:0:0:0:0:
469,192,153160,1,0,0:0:0:0:
384,192,153243,128,0,153410:0:0:0:0:
42,192,153326,1,4,0:0:0:0:
128,192,153326,1,2,0:0:0:0:
469,192,153326,128,0,153410:0:0:0:0:
298,192,153493,1,0,0:0:0:0:
213,192,153660,1,0,0:0:0:0:
384,192,153826,1,0,0:0:0:0:
298,192,153993,1,0,0:0:0:0:
128,192,154160,1,0,0:0:0:0:
469,192,154326,1,0,0:0:0:0:
384,192,154493,1,0,0:0:0:0:
213,192,154660,1,0,0:0:0:0:
384,192,154826,1,0,0:0:0:0:
298,192,154993,1,0,0:0:0:0:
128,192,155160,1,0,0:0:0:0:
213,192,155326,1,0,0:0:0:0:
42,192,155493,1,0,0:0:0:0:
384,192,155660,1,0,0:0:0:0:
298,192,155743,1,0,0:0:0:0:
128,192,155826,1,0,0:0:0:0:
469,192,155993,1,0,0:0:0:0:
384,192,156160,1,0,0:0:0:0:
213,192,156326,1,0,0:0:0:0:
384,192,156493,1,0,0:0:0:0:
298,192,156660,1,0,0:0:0:0:
128,192,156826,1,0,0:0:0:0:
469,192,156993,1,0,0:0:0:0:
384,192,157160,1,0,0:0:0:0:
213,192,157326,1,0,0:0:0:0:
384,192,157493,1,0,0:0:0:0:
298,192,157660,1,0,0:0:0:0:
128,192,157826,1,0,0:0:0:0:
213,192,157993,1,0,0:0:0:0:
298,192,158160,1,0,0:0:0:0:
469,192,158160,1,0,0:0:0:0:
384,192,158326,1,0,0:0:0:0:
298,192,158410,1,0,0:0:0:0:
128,192,158493,1,0,0:0:0:0:
469,192,158660,1,0,0:0:0:0:
384,192,158826,1,0,0:0:0:0:
213,192,158993,1,0,0:0:0:0:
384,192,159160,1,0,0:0:0:0:
298,192,159326,1,0,0:0:0:0:
128,192,159493,1,0,0:0:0:0:
469,192,159660,1,0,0:0:0:0:
384,192,159826,1,0,0:0:0:0:
213,192,159993,1,0,0:0:0:0:
384,192,160160,1,0,0:0:0:0:
298,192,160326,1,0,0:0:0:0:
128,192,160493,1,0,0:0:0:0:
213,192,160660,1,0,0:0:0:0:
42,192,160826,1,0,0:0:0:0:
384,192,160993,1,0,0:0:0:0:
298,192,161076,1,0,0:0:0:0:
128,192,161160,1,0,0:0:0:0:
469,192,161326,1,0,0:0:0:0:
384,192,161493,1,0,0:0:0:0:
213,192,161660,1,0,0:0:0:0:
384,192,161826,1,0,0:0:0:0:
298,192,161993,1,0,0:0:0:0:
128,192,162160,1,0,0:0:0:0:
42,192,162326,1,0,0:0:0:0:
128,192,162493,1,0,0:0:0:0:
213,192,162535,1,0,0:0:0:0:
298,192,162576,1,0,0:0:0:0:
384,192,162618,1,0,0:0:0:0:
42,192,162660,128,0,167410:0:0:0:0:
128,192,162660,128,0,167410:0:0:0:0:
469,192,162660,128,0,167410:0:0:0:0:
