osu file format v14

[General]
AudioFilename: audio.mp3
AudioLeadIn: 0
PreviewTime: 88660
Countdown: 0
SampleSet: Soft
StackLeniency: 0.7
Mode: 3
LetterboxInBreaks: 0
SpecialStyle: 0
WidescreenStoryboard: 1

[Editor]
Bookmarks: 20660,31327,31332,41993,63327,76660,88660,110660,131326,153326,162660
DistanceSpacing: 1
BeatDivisor: 4
GridSize: 4
TimelineZoom: 1.9

[Metadata]
Title:felys final remix
TitleUnicode:felys final remix
Artist:onoken
ArtistUnicode:onoken
Creator:shizehao
Version:BK's 6K BASIC
Source:CHUNITHM CRYSTAL PLUS
Tags:maimai でらっくす Splash チュウニズム パラダイス instrumental electronic artcore melodic orchestral strings BKwind xixi2333 famoss オンゲキ ongeki O.N.G.E.K.I SUMMER PLUS EZ2ON REBOOT : R -final remix-
BeatmapID:3915278
BeatmapSetID:1899428

[Difficulty]
HPDrainRate:7
CircleSize:6
OverallDifficulty:7
ApproachRate:5
SliderMultiplier:1.4
SliderTickRate:1

[Events]
//Background and Video events
0,0,"bg.jpg",0,0
//Break Periods
//Storyboard Layer 0 (Background)
//Storyboard Layer 1 (Fail)
//Storyboard Layer 2 (Pass)
//Storyboard Layer 3 (Foreground)
//Storyboard Layer 4 (Overlay)
//Storyboard Sound Samples
Sample,128326,0,"LR_Snare Wet Echoing Hollow.wav",70
Sample,130493,0,"LR_Snare Hollow.wav",70

[TimingPoints]
9994,333.333333333333,4,2,1,60,1,0
89327,333.333333333333,4,2,1,60,1,1
110660,-100.0,4,2,1,60,0,0
131993,-100.0,4,2,1,60,0,1
153326,-100.0,4,2,1,60,0,0

[HitObjects]
469,192,9994,1,0,0:0:0:0:
213,192,10494,1,0,0:0:0:0:
384,192,10994,1,0,0:0:0:0:
128,192,11494,1,0,0:0:0:0:
298,192,11994,1,0,0:0:0:0:
469,192,12327,1,0,0:0:0:0:
213,192,12494,1,0,0:0:0:0:
42,192,12660,1,0,0:0:0:0:
298,192,13160,1,0,0:0:0:0:
128,192,13660,1,0,0:0:0:0:
384,192,14160,1,0,0:0:0:0:
213,192,14660,1,0,0:0:0:0:
42,192,14993,1,0,0:0:0:0:
298,192,15160,1,0,0:0:0:0:
469,192,15327,1,0,0:0:0:0:
213,192,15827,1,0,0:0:0:0:
384,192,16327,1,0,0:0:0:0:
128,192,16827,1,0,0:0:0:0:
298,192,17327,1,0,0:0:0:0:
469,192,17660,1,0,0:0:0:0:
213,192,17827,1,0,0:0:0:0:
42,192,17993,1,0,0:0:0:0:
298,192,18493,1,0,0:0:0:0:
128,192,18993,1,0,0:0:0:0:
384,192,19493,1,0,0:0:0:0:
42,192,19660,1,0,0:0:0:0:
469,192,19993,1,0,0:0:0:0:
128,192,20327,1,0,0:0:0:70:Kick 4.wav
384,192,20493,1,0,0:0:0:0:
213,192,20660,1,0,0:0:0:0:
384,192,20993,1,0,0:0:0:0:
128,192,21160,1,0,0:0:0:0:
213,192,21660,1,0,0:0:0:0:
469,192,21993,1,0,0:0:0:0:
298,192,22160,1,0,0:0:0:0:
128,192,22327,1,0,0:0:0:0:
42,192,22493,1,0,0:0:0:0:
213,192,22660,1,0,0:0:0:0:
384,192,22827,1,0,0:0:0:0:
213,192,22993,1,0,0:0:0:0:
469,192,23160,1,0,0:0:0:0:
298,192,23327,1,0,0:0:0:0:
384,192,23660,1,0,0:0:0:0:
128,192,23827,1,0,0:0:0:0:
213,192,24160,1,0,0:0:0:0:
42,192,24327,1,0,0:0:0:0:
213,192,24493,1,0,0:0:0:0:
384,192,24660,1,0,0:0:0:0:
128,192,24827,1,0,0:0:0:0:
298,192,24993,1,0,0:0:0:0:
469,192,25160,1,0,0:0:0:0:
298,192,25327,1,0,0:0:0:0:
128,192,25493,1,0,0:0:0:0:
469,192,25660,1,0,0:0:0:0:
298,192,25827,1,0,0:0:0:0:
42,192,25993,1,2,0:0:0:0:
213,192,25993,1,0,0:0:0:0:
384,192,26160,1,0,0:0:0:0:
128,192,26243,1,2,0:0:0:0:
298,192,26660,1,2,0:0:0:0:
469,192,26660,1,0,0:0:0:0:
128,192,26827,1,0,0:0:0:0:
384,192,26910,1,2,0:0:0:0:
128,192,27327,1,0,0:0:0:0:
298,192,27493,1,0,0:0:0:0:
42,192,27660,1,2,0:0:0:0:
469,192,27827,1,0,0:0:0:0:
42,192,27993,1,2,0:0:0:0:
213,192,27993,1,0,0:0:0:0:
384,192,28160,1,0,0:0:0:0:
128,192,28243,1,2,0:0:0:0:
42,192,28660,1,2,0:0:0:0:
469,192,28660,1,0,0:0:0:0:
298,192,28827,1,2,0:0:0:0:
128,192,28993,1,8,0:0:0:0:
213,192,28993,1,0,0:0:0:0:
384,192,29160,1,0,0:0:0:0:
213,192,29327,1,0,0:0:0:0:
298,192,29493,1,2,0:0:0:0:
469,192,29493,1,0,0:0:0:0:
128,192,29660,1,8,0:0:0:0:
298,192,29827,1,2,0:0:0:0:
42,192,29993,1,2,0:0:0:0:
469,192,29993,1,0,0:0:0:0:
213,192,30160,1,2,0:0:0:0:
298,192,30327,1,8,0:0:0:0:
384,192,30327,1,0,0:0:0:0:
128,192,30493,1,2,0:0:0:0:
298,192,30660,1,8,0:0:0:0:
384,192,30660,1,0,0:0:0:0:
128,192,30827,1,2,0:0:0:0:
384,192,30993,1,10,0:0:0:0:
213,192,31160,1,2,0:0:0:0:
42,192,31327,1,2,0:0:0:0:
469,192,31327,1,4,0:0:0:0:
384,192,31660,1,8,0:0:0:0:
128,192,31827,1,0,0:0:0:0:
213,192,32327,1,8,0:0:0:0:
469,192,32660,1,2,0:0:0:0:
298,192,32827,1,2,0:0:0:0:
213,192,32993,1,8,0:0:0:0:
42,192,33160,1,0,0:0:0:0:
213,192,33327,1,0,0:0:0:0:
384,192,33493,1,2,0:0:0:0:
128,192,33660,1,8,0:0:0:0:
469,192,33827,1,0,0:0:0:0:
298,192,33993,1,2,0:0:0:0:
384,192,34327,1,8,0:0:0:0:
213,192,34493,1,0,0:0:0:0:
128,192,34827,1,2,0:0:0:0:
42,192,34993,1,8,0:0:0:0:
213,192,35160,1,0,0:0:0:0:
384,192,35327,1,2,0:0:0:0:
469,192,35493,1,2,0:0:0:0:
128,192,35660,1,8,0:0:0:0:
298,192,35827,1,0,0:0:0:0:
469,192,35993,1,0,0:0:0:0:
298,192,36160,1,2,0:0:0:0:
213,192,36493,1,8,0:0:0:0:
42,192,36660,1,2,0:0:0:0:
469,192,36660,1,0,0:0:0:0:
384,192,36993,1,8,0:0:0:0:
128,192,37160,1,0,0:0:0:0:
213,192,37660,1,8,0:0:0:0:
469,192,37993,1,2,0:0:0:0:
298,192,38160,1,2,0:0:0:0:
213,192,38327,1,8,0:0:0:0:
42,192,38493,1,0,0:0:0:0:
213,192,38660,1,0,0:0:0:0:
384,192,38827,1,2,0:0:0:0:
128,192,38993,1,8,0:0:0:0:
469,192,39160,1,0,0:0:0:0:
298,192,39327,1,2,0:0:0:0:
384,192,39660,1,8,0:0:0:0:
213,192,39827,1,0,0:0:0:0:
128,192,40160,1,2,0:0:0:0:
42,192,40327,1,8,0:0:0:0:
213,192,40493,1,0,0:0:0:0:
384,192,40660,1,2,0:0:0:0:
469,192,40827,1,2,0:0:0:0:
128,192,40993,1,8,0:0:0:0:
298,192,41160,1,2,0:0:0:0:
469,192,41327,1,8,0:0:0:0:
298,192,41493,1,2,0:0:0:0:
213,192,41827,1,0,0:0:0:0:
128,192,41993,1,2,0:0:0:0:
384,192,41993,1,4,0:0:0:0:
128,192,42160,1,2,0:0:0:0:
298,192,42327,1,8,0:0:0:0:
469,192,42660,1,0,0:0:0:0:
298,192,42743,1,0,0:0:0:0:
128,192,42827,1,2,0:0:0:0:
298,192,42993,1,8,0:0:0:0:
128,192,43243,1,2,0:0:0:0:
213,192,43327,1,2,0:0:0:0:
384,192,43327,1,0,0:0:0:0:
384,192,43493,1,2,0:0:0:0:
213,192,43660,1,8,0:0:0:0:
42,192,43993,1,0,0:0:0:0:
213,192,44077,1,0,0:0:0:0:
384,192,44160,1,2,0:0:0:0:
213,192,44327,1,8,0:0:0:0:
384,192,44577,1,2,0:0:0:0:
42,192,44660,1,2,0:0:0:0:
213,192,44660,1,0,0:0:0:0:
213,192,44827,1,2,0:0:0:0:
384,192,44993,1,8,0:0:0:0:
42,192,45327,1,0,0:0:0:0:
384,192,45410,1,0,0:0:0:0:
213,192,45493,1,2,0:0:0:0:
384,192,45660,1,8,0:0:0:0:
128,192,45910,1,2,0:0:0:0:
298,192,45993,1,2,0:0:0:0:
469,192,45993,1,0,0:0:0:0:
298,192,46160,1,2,0:0:0:0:
128,192,46327,1,8,0:0:0:0:
469,192,46660,1,0,0:0:0:0:
128,192,46743,1,0,0:0:0:0:
298,192,46827,1,2,0:0:0:0:
128,192,47160,1,8,0:0:0:0:
213,192,47327,1,2,0:0:0:0:
469,192,47327,1,0,0:0:0:0:
213,192,47493,1,2,0:0:0:0:
469,192,47660,1,8,0:0:0:0:
42,192,47993,1,0,0:0:0:0:
384,192,48077,1,0,0:0:0:0:
213,192,48160,1,2,0:0:0:0:
469,192,48327,1,8,0:0:0:0:
128,192,48577,1,2,0:0:0:0:
298,192,48660,1,2,0:0:0:0:
469,192,48660,1,0,0:0:0:0:
298,192,48827,1,2,0:0:0:0:
42,192,48993,1,8,0:0:0:0:
469,192,49327,1,0,0:0:0:0:
128,192,49410,1,0,0:0:0:0:
298,192,49493,1,2,0:0:0:0:
42,192,49660,1,8,0:0:0:0:
469,192,49910,1,2,0:0:0:0:
128,192,49993,1,2,0:0:0:0:
298,192,49993,1,0,0:0:0:0:
128,192,50160,1,2,0:0:0:0:
384,192,50327,1,8,0:0:0:0:
469,192,50660,1,0,0:0:0:0:
298,192,50743,1,0,0:0:0:0:
128,192,50827,1,2,0:0:0:0:
384,192,50993,1,8,0:0:0:0:
42,192,51243,1,2,0:0:0:0:
213,192,51327,1,2,0:0:0:0:
384,192,51327,1,0,0:0:0:0:
384,192,51493,1,2,0:0:0:0:
128,192,51660,1,8,0:0:0:0:
213,192,51660,1,0,0:0:0:0:
384,192,51827,1,2,0:0:0:0:
128,192,51993,1,8,0:0:0:0:
213,192,51993,1,0,0:0:0:0:
384,192,52160,1,2,0:0:0:0:
128,192,52327,1,8,0:0:0:0:
213,192,52410,1,0,0:0:0:0:
298,192,52493,1,2,0:0:0:0:
128,192,52660,1,4,0:0:0:0:
384,192,52660,1,2,0:0:0:0:
384,192,52827,1,2,0:0:0:0:
213,192,52993,1,8,0:0:0:0:
42,192,53327,1,0,0:0:0:0:
213,192,53410,1,0,0:0:0:0:
384,192,53493,1,2,0:0:0:0:
213,192,53660,1,8,0:0:0:0:
384,192,53910,1,2,0:0:0:0:
128,192,53993,1,2,0:0:0:0:
298,192,53993,1,0,0:0:0:0:
128,192,54160,1,2,0:0:0:0:
298,192,54327,1,8,0:0:0:0:
469,192,54660,1,0,0:0:0:0:
298,192,54743,1,0,0:0:0:0:
128,192,54827,1,2,0:0:0:0:
298,192,54993,1,8,0:0:0:0:
128,192,55243,1,2,0:0:0:0:
298,192,55327,1,2,0:0:0:0:
469,192,55327,1,0,0:0:0:0:
298,192,55493,1,2,0:0:0:0:
128,192,55660,1,8,0:0:0:0:
469,192,55993,1,0,0:0:0:0:
128,192,56077,1,0,0:0:0:0:
298,192,56160,1,2,0:0:0:0:
128,192,56327,1,8,0:0:0:0:
384,192,56577,1,2,0:0:0:0:
42,192,56660,1,2,0:0:0:0:
213,192,56660,1,0,0:0:0:0:
213,192,56827,1,2,0:0:0:0:
384,192,56993,1,8,0:0:0:0:
42,192,57327,1,0,0:0:0:0:
384,192,57410,1,0,0:0:0:0:
213,192,57493,1,2,0:0:0:0:
384,192,57827,1,8,0:0:0:0:
42,192,57993,1,2,0:0:0:0:
298,192,57993,1,0,0:0:0:0:
298,192,58160,1,2,0:0:0:0:
42,192,58327,1,8,0:0:0:0:
469,192,58660,1,0,0:0:0:0:
128,192,58743,1,0,0:0:0:0:
298,192,58827,1,2,0:0:0:0:
42,192,58993,1,8,0:0:0:0:
384,192,59243,1,2,0:0:0:0:
42,192,59327,1,2,0:0:0:0:
213,192,59327,1,0,0:0:0:0:
213,192,59493,1,2,0:0:0:0:
469,192,59660,1,8,0:0:0:0:
42,192,59993,1,0,0:0:0:0:
384,192,60077,1,0,0:0:0:0:
213,192,60160,1,2,0:0:0:0:
469,192,60327,1,8,0:0:0:0:
42,192,60577,1,2,0:0:0:0:
213,192,60660,1,2,0:0:0:0:
384,192,60660,1,0,0:0:0:0:
384,192,60827,1,2,0:0:0:0:
128,192,60993,1,8,0:0:0:0:
42,192,61327,1,0,0:0:0:0:
213,192,61410,1,0,0:0:0:0:
384,192,61493,1,2,0:0:0:0:
128,192,61660,1,8,0:0:0:0:
469,192,61910,1,2,0:0:0:0:
128,192,61993,1,2,0:0:0:0:
298,192,61993,1,0,0:0:0:0:
128,192,62160,1,2,0:0:0:0:
298,192,62327,1,8,0:0:0:0:
384,192,62327,1,0,0:0:0:0:
128,192,62493,1,2,0:0:0:0:
298,192,62660,1,8,0:0:0:0:
384,192,62660,1,0,0:0:0:0:
128,192,62827,1,2,0:0:0:0:
384,192,62993,1,8,0:0:0:0:
298,192,63077,1,0,0:0:0:0:
213,192,63160,1,0,0:0:0:0:
298,192,65993,1,0,0:0:0:0:
469,192,66327,1,0,0:0:0:0:
213,192,66493,1,0,0:0:0:0:
298,192,66993,1,0,0:0:0:0:
384,192,67327,1,0,0:0:0:0:
213,192,67493,1,0,0:0:0:0:
42,192,67660,1,0,0:0:0:0:
298,192,67827,1,0,0:0:0:0:
128,192,67993,1,0,0:0:0:0:
298,192,68160,1,0,0:0:0:0:
213,192,68327,1,0,0:0:0:0:
384,192,68493,1,0,0:0:0:0:
298,192,68660,1,0,0:0:0:0:
469,192,68993,1,0,0:0:0:0:
213,192,69160,1,0,0:0:0:0:
298,192,69493,1,0,0:0:0:0:
42,192,69660,1,0,0:0:0:0:
213,192,69827,1,0,0:0:0:0:
384,192,69993,1,0,0:0:0:0:
128,192,70160,1,0,0:0:0:0:
298,192,70327,1,0,0:0:0:0:
384,192,70493,1,0,0:0:0:0:
469,192,70660,1,0,0:0:0:0:
298,192,70827,1,0,0:0:0:0:
128,192,71160,1,0,0:0:0:0:
298,192,71327,1,0,0:0:0:0:
469,192,71660,1,0,0:0:0:0:
213,192,71827,1,0,0:0:0:0:
298,192,72327,1,0,0:0:0:0:
384,192,72660,1,0,0:0:0:0:
213,192,72827,1,0,0:0:0:0:
42,192,72993,1,0,0:0:0:0:
298,192,73160,1,0,0:0:0:0:
128,192,73327,1,0,0:0:0:0:
298,192,73493,1,0,0:0:0:0:
213,192,73660,1,0,0:0:0:0:
384,192,73827,1,0,0:0:0:0:
298,192,73993,1,0,0:0:0:0:
469,192,74327,1,0,0:0:0:0:
213,192,74493,1,0,0:0:0:0:
298,192,74827,1,0,0:0:0:0:
42,192,74993,1,0,0:0:0:0:
213,192,75160,1,0,0:0:0:0:
384,192,75327,1,0,0:0:0:0:
128,192,75493,1,0,0:0:0:0:
298,192,75660,1,0,0:0:0:0:
384,192,75827,1,0,0:0:0:0:
469,192,75993,1,0,0:0:0:0:
298,192,76160,1,0,0:0:0:0:
128,192,76493,1,0,0:0:0:0:
298,192,76660,1,0,0:0:0:70:Kick 4.wav
469,192,76660,1,0,0:0:0:0:
128,192,77327,1,0,0:0:0:70:LR_Snare Hollow.wav
213,192,77327,1,0,0:0:0:0:
42,192,77993,1,0,0:0:0:70:Kick 4.wav
298,192,77993,1,0,0:0:0:0:
128,192,78327,1,0,0:0:0:70:Kick 4.wav
384,192,78327,1,0,0:0:0:70:LR_Snare Wet Echoing Hollow.wav
213,192,78660,1,0,0:0:0:70:LR_Snare Hollow.wav
469,192,78660,1,0,0:0:0:0:
42,192,79327,1,0,0:0:0:70:Kick 4.wav
213,192,79327,1,0,0:0:0:0:
384,192,79660,1,0,0:0:0:70:Kick 4.wav
469,192,79660,1,0,0:0:0:0:
128,192,79993,1,0,0:0:0:70:LR_Snare Hollow.wav
298,192,79993,1,0,0:0:0:0:
298,192,80493,1,0,0:0:0:70:LR_Snare Hollow.wav
469,192,80493,1,0,0:0:0:0:
384,192,80827,1,0,0:0:0:70:LR_Snare Hollow.wav
42,192,80993,1,0,0:0:0:70:Kick 4.wav
213,192,80993,1,0,0:0:0:0:
298,192,81327,1,0,0:0:0:70:LR_Snare Hollow.wav
469,192,81327,1,0,0:0:0:0:
42,192,81993,1,0,0:0:0:70:Kick 4.wav
213,192,81993,1,0,0:0:0:0:
298,192,82660,1,0,0:0:0:70:LR_Snare Hollow.wav
384,192,82660,1,0,0:0:0:0:
213,192,83327,1,0,0:0:0:70:Kick 4.wav
469,192,83327,1,0,0:0:0:0:
128,192,83660,1,0,0:0:0:70:Kick 4.wav
384,192,83660,1,0,0:0:0:70:LR_Snare Wet Echoing Hollow.wav
42,192,83993,1,0,0:0:0:70:LR_Snare Hollow.wav
298,192,83993,1,0,0:0:0:0:
384,192,84660,1,0,0:0:0:70:Kick 4.wav
469,192,84660,1,0,0:0:0:0:
42,192,84993,1,0,0:0:0:70:LR_Snare Hollow.wav
213,192,84993,1,0,0:0:0:0:
42,192,85327,1,0,0:0:0:70:LR_Snare Hollow.wav
213,192,85327,1,0,0:0:0:0:
298,192,85827,1,0,0:0:0:70:LR_Snare Hollow.wav
469,192,85827,1,0,0:0:0:0:
128,192,86160,1,0,0:0:0:70:Kick 4.wav
384,192,86327,1,0,0:0:0:70:Kick 4.wav
42,192,86660,1,0,0:0:0:70:Kick 4.wav
213,192,86660,1,0,0:0:0:70:LR_Snare Hollow.wav
128,192,88660,1,0,0:0:0:0:
384,192,88660,1,0,0:0:0:0:
42,192,89327,1,2,0:0:0:0:
298,192,89327,1,4,0:0:0:0:
469,192,89327,128,0,90660:0:0:0:0:
128,192,89493,1,2,0:0:0:0:
298,192,89660,1,8,0:0:0:0:
384,192,89827,1,0,0:0:0:0:
213,192,89993,1,0,0:0:0:0:
42,192,90160,1,2,0:0:0:0:
298,192,90327,1,8,0:0:0:0:
384,192,90493,1,0,0:0:0:0:
42,192,90660,1,2,0:0:0:0:
213,192,90660,128,0,91160:0:0:0:0:
298,192,90827,1,2,0:0:0:0:
469,192,90993,1,8,0:0:0:0:
384,192,91160,128,0,91660:0:0:0:0:
128,192,91327,1,0,0:0:0:0:
298,192,91493,1,2,0:0:0:0:
42,192,91660,1,8,0:0:0:0:
213,192,91660,1,0,0:0:0:0:
384,192,91827,1,0,0:0:0:0:
42,192,91993,128,2,92493:0:0:0:0:
213,192,91993,1,0,0:0:0:0:
469,192,92160,1,2,0:0:0:0:
298,192,92327,1,8,0:0:0:0:
469,192,92493,128,0,92993:0:0:0:0:
213,192,92660,1,0,0:0:0:0:
42,192,92827,1,2,0:0:0:0:
128,192,92993,1,8,0:0:0:0:
298,192,92993,128,0,93993:0:0:0:0:
213,192,93160,1,0,0:0:0:0:
469,192,93327,1,2,0:0:0:0:
213,192,93493,1,2,0:0:0:0:
42,192,93660,1,8,0:0:0:0:
469,192,93827,1,0,0:0:0:0:
42,192,93993,128,0,94660:0:0:0:0:
469,192,94160,1,2,0:0:0:0:
298,192,94327,1,0,0:0:0:0:
128,192,94493,1,8,0:0:0:0:
213,192,94660,1,2,0:0:0:0:
469,192,94660,128,0,95993:0:0:0:0:
384,192,94827,1,2,0:0:0:0:
128,192,94993,1,8,0:0:0:0:
298,192,95160,1,0,0:0:0:0:
42,192,95327,1,0,0:0:0:0:
213,192,95493,1,2,0:0:0:0:
384,192,95660,1,8,0:0:0:0:
213,192,95827,1,0,0:0:0:0:
42,192,95993,128,2,96493:0:0:0:0:
298,192,95993,1,0,0:0:0:0:
469,192,96160,1,2,0:0:0:0:
213,192,96326,1,0,0:0:0:0:
298,192,96493,128,0,96993:0:0:0:0:
384,192,96660,1,0,0:0:0:0:
469,192,96826,1,2,0:0:0:0:
42,192,96993,1,8,0:0:0:0:
213,192,96993,1,0,0:0:0:0:
128,192,97160,1,0,0:0:0:0:
298,192,97326,1,2,0:0:0:0:
469,192,97326,128,0,97826:0:0:0:0:
213,192,97493,1,2,0:0:0:0:
42,192,97660,1,8,0:0:0:0:
213,192,97826,128,0,98326:0:0:0:0:
384,192,97993,1,0,0:0:0:0:
128,192,98160,1,2,0:0:0:0:
42,192,98326,1,8,0:0:0:0:
384,192,98326,128,0,99326:0:0:0:0:
298,192,98493,1,0,0:0:0:0:
128,192,98660,1,2,0:0:0:0:
213,192,98826,1,2,0:0:0:0:
469,192,98993,1,8,0:0:0:0:
128,192,99160,1,2,0:0:0:0:
42,192,99326,1,8,0:0:0:0:
213,192,99326,128,0,99993:0:0:0:0:
469,192,99493,1,2,0:0:0:0:
298,192,99660,1,8,0:0:0:0:
128,192,99826,1,2,0:0:0:0:
42,192,99993,1,2,0:0:0:0:
469,192,99993,128,4,101326:0:0:0:0:
298,192,100160,1,2,0:0:0:0:
128,192,100326,1,8,0:0:0:0:
384,192,100493,1,0,0:0:0:0:
213,192,100660,1,0,0:0:0:0:
42,192,100826,1,2,0:0:0:0:
298,192,100993,1,8,0:0:0:0:
128,192,101160,1,0,0:0:0:0:
42,192,101326,1,2,0:0:0:0:
213,192,101326,128,0,101826:0:0:0:0:
298,192,101493,1,2,0:0:0:0:
469,192,101660,1,8,0:0:0:0:
384,192,101826,128,0,102326:0:0:0:0:
128,192,101993,1,0,0:0:0:0:
298,192,102160,1,2,0:0:0:0:
42,192,102326,1,8,0:0:0:0:
213,192,102326,1,0,0:0:0:0:
384,192,102493,1,0,0:0:0:0:
42,192,102660,128,2,103160:0:0:0:0:
213,192,102660,1,0,0:0:0:0:
469,192,102826,1,2,0:0:0:0:
298,192,102993,1,8,0:0:0:0:
469,192,103160,128,0,103660:0:0:0:0:
213,192,103326,1,0,0:0:0:0:
42,192,103493,1,2,0:0:0:0:
128,192,103660,1,8,0:0:0:0:
298,192,103660,128,0,104660:0:0:0:0:
213,192,103826,1,0,0:0:0:0:
469,192,103993,1,2,0:0:0:0:
213,192,104160,1,2,0:0:0:0:
42,192,104326,1,8,0:0:0:0:
469,192,104493,1,0,0:0:0:0:
42,192,104660,128,0,105326:0:0:0:0:
384,192,104826,1,2,0:0:0:0:
213,192,104993,1,0,0:0:0:0:
128,192,105160,1,8,0:0:0:0:
298,192,105326,1,2,0:0:0:0:
469,192,105326,128,0,106660:0:0:0:0:
213,192,105493,1,2,0:0:0:0:
128,192,105660,1,8,0:0:0:0:
298,192,105826,1,0,0:0:0:0:
42,192,105993,1,0,0:0:0:0:
213,192,106160,1,2,0:0:0:0:
384,192,106326,1,8,0:0:0:0:
128,192,106493,1,0,0:0:0:0:
42,192,106660,128,2,107160:0:0:0:0:
298,192,106660,1,0,0:0:0:0:
384,192,106826,1,2,0:0:0:0:
213,192,106993,1,8,0:0:0:0:
298,192,107160,128,0,107660:0:0:0:0:
469,192,107326,1,0,0:0:0:0:
42,192,107493,1,2,0:0:0:0:
128,192,107660,1,8,0:0:0:0:
469,192,107660,1,0,0:0:0:0:
213,192,107826,1,0,0:0:0:0:
298,192,107993,1,2,0:0:0:0:
469,192,107993,128,0,108493:0:0:0:0:
128,192,108160,1,2,0:0:0:0:
42,192,108326,1,8,0:0:0:0:
213,192,108493,128,0,109326:0:0:0:0:
384,192,108660,1,0,0:0:0:0:
128,192,108826,1,2,0:0:0:0:
384,192,108993,1,8,0:0:0:0:
298,192,109160,1,0,0:0:0:0:
42,192,109326,1,2,0:0:0:0:
469,192,109326,1,0,0:0:0:0:
384,192,109493,1,2,0:0:0:0:
128,192,109660,1,8,0:0:0:0:
298,192,109660,1,0,0:0:0:0:
42,192,109826,1,2,0:0:0:0:
213,192,109993,1,8,0:0:0:0:
384,192,109993,1,0,0:0:0:0:
128,192,110160,1,2,0:0:0:0:
298,192,110326,1,8,0:0:0:0:
469,192,110326,1,0,0:0:0:0:
213,192,110493,1,2,0:0:0:0:
42,192,110660,1,4,0:0:0:0:
469,192,110660,1,2,0:0:0:0:
384,192,110993,1,0,0:0:0:0:
128,192,111160,128,0,111660:0:0:0:0:
298,192,111660,128,0,111993:0:0:0:0:
469,192,111993,1,0,0:0:0:0:
384,192,112160,1,0,0:0:0:0:
213,192,112326,1,0,0:0:0:0:
42,192,112493,1,0,0:0:0:0:
213,192,112660,1,0,0:0:0:0:
384,192,112826,1,0,0:0:0:0:
128,192,112993,1,0,0:0:0:0:
384,192,113160,1,0,0:0:0:0:
298,192,113326,128,0,113660:0:0:0:0:
469,192,113660,1,0,0:0:0:0:
128,192,113826,128,0,114326:0:0:0:0:
298,192,114326,128,0,114660:0:0:0:0:
469,192,114660,1,0,0:0:0:0:
384,192,114826,1,0,0:0:0:0:
213,192,114993,1,0,0:0:0:0:
42,192,115160,1,0,0:0:0:0:
213,192,115326,1,0,0:0:0:0:
298,192,115493,1,0,0:0:0:0:
128,192,115660,1,0,0:0:0:0:
384,192,115826,1,0,0:0:0:0:
298,192,115993,128,0,116326:0:0:0:0:
469,192,116326,1,0,0:0:0:0:
128,192,116493,128,0,116993:0:0:0:0:
298,192,116993,128,0,117326:0:0:0:0:
469,192,117326,1,0,0:0:0:0:
384,192,117493,1,0,0:0:0:0:
213,192,117660,1,0,0:0:0:0:
42,192,117826,1,0,0:0:0:0:
213,192,117993,1,0,0:0:0:0:
298,192,118160,1,0,0:0:0:0:
128,192,118326,1,0,0:0:0:0:
384,192,118493,1,0,0:0:0:0:
298,192,118660,128,0,118993:0:0:0:0:
469,192,118993,1,0,0:0:0:0:
128,192,119160,128,0,119493:0:0:0:0:
384,192,119493,1,0,0:0:0:0:
42,192,119660,1,0,0:0:0:0:
213,192,119826,1,0,0:0:0:0:
298,192,119993,1,0,0:0:0:0:
384,192,120160,1,0,0:0:0:0:
469,192,120326,1,0,0:0:0:0:
128,192,120493,1,0,0:0:0:0:
384,192,120660,1,0,0:0:0:0:
298,192,120826,128,0,121160:0:0:0:0:
128,192,121160,1,0,0:0:0:0:
298,192,121326,1,0,0:0:0:70:Kick 4.wav
469,192,121326,1,0,0:0:0:0:
128,192,121993,1,0,0:0:0:70:LR_Snare Hollow.wav
213,192,121993,1,0,0:0:0:0:
42,192,122660,1,0,0:0:0:70:Kick 4.wav
298,192,122660,1,0,0:0:0:0:
128,192,122993,1,0,0:0:0:70:Kick 4.wav
384,192,122993,1,0,0:0:0:70:LR_Snare Wet Echoing Hollow.wav
213,192,123326,1,0,0:0:0:70:LR_Snare Hollow.wav
469,192,123326,1,0,0:0:0:0:
42,192,123993,1,0,0:0:0:70:Kick 4.wav
213,192,123993,1,0,0:0:0:0:
384,192,124326,1,0,0:0:0:70:Kick 4.wav
469,192,124326,1,0,0:0:0:0:
128,192,124660,1,0,0:0:0:70:LR_Snare Hollow.wav
298,192,124660,1,0,0:0:0:0:
298,192,125160,1,0,0:0:0:70:LR_Snare Hollow.wav
469,192,125160,1,0,0:0:0:0:
384,192,125493,1,0,0:0:0:70:LR_Snare Hollow.wav
42,192,125660,1,0,0:0:0:70:Kick 4.wav
213,192,125660,1,0,0:0:0:0:
298,192,125993,1,0,0:0:0:70:LR_Snare Hollow.wav
469,192,125993,1,0,0:0:0:0:
42,192,126660,1,2,0:0:0:0:
213,192,126660,1,0,0:0:0:0:
384,192,126826,1,0,0:0:0:0:
128,192,126910,1,2,0:0:0:0:
298,192,127326,1,2,0:0:0:0:
469,192,127326,1,0,0:0:0:70:LR_Snare Hollow.wav
128,192,127493,1,0,0:0:0:0:
384,192,127576,1,2,0:0:0:0:
128,192,127993,1,2,0:0:0:0:
298,192,128160,1,2,0:0:0:0:
42,192,128326,1,2,0:0:0:0:
469,192,128493,1,0,0:0:0:0:
42,192,128660,1,2,0:0:0:0:
213,192,128660,1,0,0:0:0:70:LR_Snare Hollow.wav
384,192,128826,1,0,0:0:0:0:
128,192,128910,1,2,0:0:0:0:
42,192,129326,1,2,0:0:0:0:
469,192,129326,1,0,0:0:0:0:
298,192,129493,1,2,0:0:0:0:
128,192,129660,1,0,0:0:0:70:LR_Snare Hollow.wav
213,192,129660,1,0,0:0:0:0:
384,192,129826,1,0,0:0:0:0:
213,192,129993,1,0,0:0:0:70:LR_Snare Hollow.wav
298,192,130160,1,2,0:0:0:0:
469,192,130160,1,0,0:0:0:0:
128,192,130326,1,0,0:0:0:0:
298,192,130493,1,2,0:0:0:0:
42,192,130660,1,2,0:0:0:0:
469,192,130660,1,0,0:0:0:0:
213,192,130826,1,2,0:0:0:0:
298,192,130993,1,0,0:0:0:70:Kick 4.wav
384,192,130993,1,0,0:0:0:0:
128,192,131160,1,2,0:0:0:0:
298,192,131326,1,0,0:0:0:70:LR_Snare Hollow.wav
384,192,131326,1,0,0:0:0:0:
128,192,131493,1,2,0:0:0:0:
384,192,131660,1,0,0:0:0:0:
213,192,131826,1,2,0:0:0:0:
42,192,131993,1,4,0:0:0:0:
469,192,131993,128,2,132660:0:0:0:0:
213,192,132326,1,8,0:0:0:0:
42,192,132660,1,0,0:0:0:0:
298,192,132660,1,0,0:0:0:0:
128,192,132826,1,2,0:0:0:0:
213,192,132993,1,8,0:0:0:0:
469,192,132993,1,0,0:0:0:0:
298,192,133160,1,0,0:0:0:0:
42,192,133326,128,2,133826:0:0:0:0:
384,192,133326,1,0,0:0:0:0:
213,192,133660,1,8,0:0:0:0:
384,192,133826,128,0,134326:0:0:0:0:
42,192,134160,1,2,0:0:0:0:
213,192,134326,1,8,0:0:0:0:
42,192,134660,1,2,0:0:0:0:
213,192,134660,128,0,135160:0:0:0:0:
469,192,134993,1,8,0:0:0:0:
384,192,135160,128,0,135660:0:0:0:0:
42,192,135493,1,2,0:0:0:0:
213,192,135660,1,8,0:0:0:0:
298,192,135826,1,0,0:0:0:0:
128,192,135993,1,2,0:0:0:0:
384,192,135993,1,0,0:0:0:0:
213,192,136160,1,2,0:0:0:0:
42,192,136326,1,8,0:0:0:0:
298,192,136326,1,0,0:0:0:0:
128,192,136493,1,0,0:0:0:0:
213,192,136660,1,0,0:0:0:0:
384,192,136660,1,0,0:0:0:0:
469,192,136826,1,2,0:0:0:0:
128,192,136993,1,0,0:0:0:0:
298,192,136993,1,0,0:0:0:0:
384,192,137160,1,8,0:0:0:0:
128,192,137326,128,2,137993:0:0:0:0:
469,192,137326,1,0,0:0:0:0:
298,192,137660,1,8,0:0:0:0:
213,192,137993,1,0,0:0:0:0:
469,192,137993,1,0,0:0:0:0:
384,192,138160,1,2,0:0:0:0:
42,192,138326,1,8,0:0:0:0:
298,192,138326,1,0,0:0:0:0:
213,192,138493,1,0,0:0:0:0:
128,192,138660,1,2,0:0:0:0:
384,192,138660,128,0,139160:0:0:0:0:
42,192,138993,1,8,0:0:0:0:
213,192,139160,128,0,139660:0:0:0:0:
298,192,139493,1,2,0:0:0:0:
42,192,139660,1,8,0:0:0:0:
469,192,139660,1,0,0:0:0:0:
42,192,139993,128,2,140493:0:0:0:0:
213,192,139993,1,0,0:0:0:0:
298,192,140326,1,8,0:0:0:0:
469,192,140493,128,0,140993:0:0:0:0:
128,192,140826,1,2,0:0:0:0:
298,192,140993,128,8,141326:0:0:0:0:
42,192,141326,1,2,0:0:0:0:
213,192,141438,1,0,0:0:0:0:
384,192,141549,1,0,0:0:0:0:
128,192,141660,1,8,0:0:0:0:
298,192,141771,1,0,0:0:0:0:
469,192,141882,1,0,0:0:0:0:
42,192,141993,1,8,0:0:0:0:
213,192,141993,128,0,142660:0:0:0:0:
384,192,142326,1,8,0:0:0:0:
42,192,142660,1,4,0:0:0:0:
469,192,142660,128,2,143326:0:0:0:0:
298,192,142993,1,8,0:0:0:0:
42,192,143326,1,0,0:0:0:0:
213,192,143326,128,0,143993:0:0:0:0:
384,192,143660,1,8,0:0:0:0:
42,192,143993,128,2,144493:0:0:0:0:
469,192,143993,1,0,0:0:0:0:
213,192,144326,1,8,0:0:0:0:
384,192,144493,128,0,144993:0:0:0:0:
213,192,144660,1,0,0:0:0:0:
128,192,144993,128,8,145326:0:0:0:0:
298,192,144993,1,0,0:0:0:0:
42,192,145326,1,2,0:0:0:0:
469,192,145326,1,0,0:0:0:0:
384,192,145493,1,2,0:0:0:0:
128,192,145660,1,8,0:0:0:0:
298,192,145660,1,0,0:0:0:0:
42,192,145826,1,0,0:0:0:0:
298,192,145993,128,0,146660:0:0:0:0:
469,192,145993,1,0,0:0:0:0:
128,192,146326,1,8,0:0:0:0:
42,192,146660,128,2,147160:0:0:0:0:
469,192,146660,1,0,0:0:0:0:
469,192,146993,1,8,0:0:0:0:
298,192,147160,128,0,147660:0:0:0:0:
128,192,147326,1,0,0:0:0:0:
128,192,147660,1,0,0:0:0:0:
469,192,147660,128,0,147993:0:0:0:0:
42,192,147993,1,2,0:0:0:0:
213,192,147993,128,0,148660:0:0:0:0:
384,192,148326,1,8,0:0:0:0:
42,192,148660,1,0,0:0:0:0:
469,192,148660,128,0,149326:0:0:0:0:
298,192,148993,1,8,0:0:0:0:
42,192,149326,1,2,0:0:0:0:
213,192,149326,128,0,149826:0:0:0:0:
469,192,149660,1,8,0:0:0:0:
384,192,149826,128,0,150326:0:0:0:0:
42,192,149993,1,0,0:0:0:0:
42,192,150326,128,8,150660:0:0:0:0:
213,192,150326,1,0,0:0:0:0:
298,192,150660,128,2,151160:0:0:0:0:
469,192,150660,1,0,0:0:0:0:
42,192,150993,1,8,0:0:0:0:
469,192,151160,128,0,151660:0:0:0:0:
128,192,151326,1,0,0:0:0:0:
42,192,151660,1,8,0:0:0:0:
213,192,151660,128,0,151993:0:0:0:0:
42,192,151993,1,2,0:0:0:0:
469,192,151993,1,0,0:0:0:0:
384,192,152160,1,2,0:0:0:0:
128,192,152326,1,8,0:0:0:0:
298,192,152326,1,0,0:0:0:0:
213,192,152493,1,2,0:0:0:0:
42,192,152660,1,8,0:0:0:0:
384,192,152660,1,0,0:0:0:0:
298,192,152826,1,2,0:0:0:0:
213,192,152993,1,8,0:0:0:0:
469,192,152993,1,0,0:0:0:0:
128,192,153160,1,2,0:0:0:0:
42,192,153326,1,4,0:0:0:0:
298,192,153326,1,2,0:0:0:0:
469,192,153326,1,0,0:0:0:0:
213,192,153826,1,0,0:0:0:0:
384,192,154326,1,0,0:0:0:0:
128,192,154826,1,0,0:0:0:0:
298,192,155326,1,0,0:0:0:0:
469,192,155660,1,0,0:0:0:0:
213,192,155826,1,0,0:0:0:0:
42,192,155993,1,0,0:0:0:0:
298,192,156493,1,0,0:0:0:0:
128,192,156993,1,0,0:0:0:0:
384,192,157493,1,0,0:0:0:0:
213,192,157993,1,0,0:0:0:0:
42,192,158326,1,0,0:0:0:0:
298,192,158493,1,0,0:0:0:0:
469,192,158660,1,0,0:0:0:0:
213,192,159160,1,0,0:0:0:0:
384,192,159660,1,0,0:0:0:0:
128,192,160160,1,0,0:0:0:0:
298,192,160660,1,0,0:0:0:0:
469,192,160993,1,0,0:0:0:0:
213,192,161160,1,0,0:0:0:0:
42,192,161326,1,0,0:0:0:0:
298,192,161826,1,0,0:0:0:0:
213,192,162326,1,0,0:0:0:0:
128,192,162660,128,0,167410:0:0:0:0:
384,192,162660,128,0,167410:0:0:0:0:
