osu file format v14

[General]
AudioFilename: audio.mp3
AudioLeadIn: 0
PreviewTime: 88660
Countdown: 0
SampleSet: Soft
StackLeniency: 0.7
Mode: 3
LetterboxInBreaks: 0
SpecialStyle: 0
WidescreenStoryboard: 1

[Editor]
Bookmarks: 20660,31327,31332,41993,63327,76660,88660,110660,131326,153326,162660
DistanceSpacing: 1
BeatDivisor: 12
GridSize: 4
TimelineZoom: 1.699999

[Metadata]
Title:felys final remix
TitleUnicode:felys final remix
Artist:onoken
ArtistUnicode:onoken
Creator:shizehao
Version:4K MASTER
Source:CHUNITHM CRYSTAL PLUS
Tags:maimai でらっくす Splash チュウニズム パラダイス instrumental electronic artcore melodic orchestral strings BKwind xixi2333 famoss オンゲキ ongeki O.N.G.E.K.I SUMMER PLUS EZ2ON REBOOT : R -final remix-
BeatmapID:3931540
BeatmapSetID:1899428

[Difficulty]
HPDrainRate:8.5
CircleSize:4
OverallDifficulty:8
ApproachRate:5
SliderMultiplier:1.4
SliderTickRate:1

[Events]
//Background and Video events
0,0,"bg.jpg",0,0
//Break Periods
//Storyboard Layer 0 (Background)
//Storyboard Layer 1 (Fail)
//Storyboard Layer 2 (Pass)
//Storyboard Layer 3 (Foreground)
//Storyboard Layer 4 (Overlay)
//Storyboard Sound Samples

[TimingPoints]
9994,333.333333333333,4,2,1,60,1,0
89327,333.333333333333,4,2,1,60,1,1
110660,-100.0,4,2,1,60,0,0
131993,-100.0,4,2,1,60,0,1
153326,-100.0,4,2,1,60,0,0

[HitObjects]
448,192,9994,1,0,0:0:0:0:
320,192,10160,1,0,0:0:0:0:
192,192,10327,1,0,0:0:0:0:
320,192,10494,1,0,0:0:0:0:
192,192,10660,1,0,0:0:0:0:
64,192,10827,1,0,0:0:0:0:
448,192,10994,1,0,0:0:0:0:
320,192,11160,1,0,0:0:0:0:
192,192,11327,1,0,0:0:0:0:
320,192,11494,1,0,0:0:0:0:
192,192,11660,1,0,0:0:0:0:
64,192,11827,1,0,0:0:0:0:
320,192,11994,1,0,0:0:0:0:
192,192,12160,1,0,0:0:0:0:
320,192,12327,1,0,0:0:0:0:
192,192,12410,1,0,0:0:0:0:
64,192,12494,1,0,0:0:0:0:
448,192,12660,1,0,0:0:0:0:
320,192,12827,1,0,0:0:0:0:
192,192,12994,1,0,0:0:0:0:
320,192,13160,1,0,0:0:0:0:
192,192,13327,1,0,0:0:0:0:
64,192,13494,1,0,0:0:0:0:
448,192,13660,1,0,0:0:0:0:
320,192,13827,1,0,0:0:0:0:
192,192,13993,1,0,0:0:0:0:
320,192,14160,1,0,0:0:0:0:
192,192,14327,1,0,0:0:0:0:
64,192,14493,1,0,0:0:0:0:
320,192,14660,1,0,0:0:0:0:
448,192,14827,1,0,0:0:0:0:
320,192,14993,1,0,0:0:0:0:
192,192,15077,1,0,0:0:0:0:
64,192,15160,1,0,0:0:0:0:
448,192,15327,1,0,0:0:0:0:
320,192,15493,1,0,0:0:0:0:
192,192,15660,1,0,0:0:0:0:
320,192,15827,1,0,0:0:0:0:
192,192,15993,1,0,0:0:0:0:
64,192,16160,1,0,0:0:0:0:
448,192,16327,1,0,0:0:0:0:
320,192,16493,1,0,0:0:0:0:
192,192,16660,1,0,0:0:0:0:
320,192,16827,1,0,0:0:0:0:
192,192,16993,1,0,0:0:0:0:
64,192,17160,1,0,0:0:0:0:
320,192,17327,1,0,0:0:0:0:
192,192,17493,1,0,0:0:0:0:
320,192,17660,1,0,0:0:0:0:
192,192,17743,1,0,0:0:0:0:
64,192,17827,1,0,0:0:0:0:
448,192,17993,1,0,0:0:0:0:
320,192,18160,1,0,0:0:0:0:
192,192,18327,1,0,0:0:0:0:
320,192,18493,1,0,0:0:0:0:
192,192,18660,1,0,0:0:0:0:
64,192,18827,1,0,0:0:0:0:
448,192,18993,1,0,0:0:0:0:
320,192,19160,1,0,0:0:0:0:
192,192,19327,1,0,0:0:0:0:
320,192,19493,1,0,0:0:0:0:
64,192,19660,1,0,0:0:0:0:
448,192,19660,1,0,0:0:0:0:
320,192,19827,1,0,0:0:0:0:
64,192,19993,1,0,0:0:0:0:
192,192,19993,1,0,0:0:0:0:
192,192,20160,1,0,0:0:0:0:
320,192,20160,1,0,0:0:0:0:
64,192,20327,1,0,0:0:0:70:Kick 4.wav
448,192,20327,1,0,0:0:0:0:
192,192,20368,1,0,0:0:0:0:
320,192,20410,1,0,0:0:0:0:
448,192,20452,1,0,0:0:0:0:
64,192,20493,1,0,0:0:0:0:
192,192,20535,1,0,0:0:0:0:
320,192,20577,1,0,0:0:0:0:
64,192,20660,1,0,0:0:0:0:
448,192,20660,1,0,0:0:0:0:
320,192,20827,1,0,0:0:0:0:
192,192,20993,1,0,0:0:0:0:
448,192,20993,1,0,0:0:0:0:
64,192,21160,1,0,0:0:0:0:
320,192,21160,1,0,0:0:0:0:
448,192,21327,1,0,0:0:0:0:
192,192,21493,1,0,0:0:0:0:
320,192,21660,1,0,0:0:0:0:
448,192,21660,1,0,0:0:0:0:
64,192,21827,1,0,0:0:0:0:
320,192,21993,1,0,0:0:0:0:
448,192,21993,1,0,0:0:0:0:
64,192,22160,1,0,0:0:0:0:
320,192,22160,1,0,0:0:0:0:
64,192,22327,1,0,0:0:0:0:
192,192,22327,1,0,0:0:0:0:
320,192,22493,1,0,0:0:0:0:
448,192,22493,1,0,0:0:0:0:
64,192,22660,1,0,0:0:0:0:
448,192,22660,1,0,0:0:0:0:
64,192,22827,1,0,0:0:0:0:
192,192,22827,1,0,0:0:0:0:
320,192,22993,1,0,0:0:0:0:
448,192,22993,1,0,0:0:0:0:
192,192,23160,1,0,0:0:0:0:
448,192,23160,1,0,0:0:0:0:
64,192,23327,1,0,0:0:0:0:
320,192,23327,1,0,0:0:0:0:
192,192,23493,1,0,0:0:0:0:
320,192,23660,1,0,0:0:0:0:
448,192,23660,1,0,0:0:0:0:
64,192,23827,1,0,0:0:0:0:
192,192,23827,1,0,0:0:0:0:
320,192,23993,1,0,0:0:0:0:
192,192,24160,1,0,0:0:0:0:
448,192,24160,1,0,0:0:0:0:
64,192,24327,1,0,0:0:0:0:
320,192,24327,1,0,0:0:0:0:
192,192,24493,1,0,0:0:0:0:
448,192,24493,1,0,0:0:0:0:
64,192,24660,1,0,0:0:0:0:
192,192,24660,1,0,0:0:0:0:
320,192,24827,1,0,0:0:0:0:
448,192,24827,1,0,0:0:0:0:
192,192,24993,1,0,0:0:0:0:
448,192,24993,1,0,0:0:0:0:
64,192,25160,1,0,0:0:0:0:
320,192,25160,1,0,0:0:0:0:
320,192,25327,1,0,0:0:0:0:
448,192,25327,1,0,0:0:0:0:
64,192,25493,1,0,0:0:0:0:
192,192,25493,1,0,0:0:0:0:
320,192,25660,1,0,0:0:0:0:
192,192,25702,1,0,0:0:0:0:
64,192,25743,1,0,0:0:0:0:
448,192,25785,1,0,0:0:0:0:
320,192,25827,1,0,0:0:0:0:
192,192,25868,1,0,0:0:0:0:
64,192,25910,1,0,0:0:0:0:
320,192,25993,1,2,0:0:0:0:
448,192,25993,1,0,0:0:0:0:
192,192,26077,1,0,0:0:0:0:
64,192,26160,1,0,0:0:0:0:
192,192,26243,1,2,0:0:0:0:
448,192,26243,1,0,0:0:0:0:
64,192,26660,1,2,0:0:0:0:
448,192,26660,1,0,0:0:0:0:
320,192,26743,1,0,0:0:0:0:
192,192,26827,1,0,0:0:0:0:
64,192,26910,1,2,0:0:0:0:
320,192,26910,1,0,0:0:0:0:
448,192,27327,1,0,0:0:0:0:
192,192,27410,1,0,0:0:0:0:
448,192,27493,1,0,0:0:0:0:
192,192,27577,1,0,0:0:0:0:
64,192,27660,1,2,0:0:0:0:
320,192,27660,1,0,0:0:0:0:
192,192,27827,1,0,0:0:0:0:
64,192,27993,1,2,0:0:0:0:
448,192,27993,1,0,0:0:0:0:
320,192,28077,1,0,0:0:0:0:
192,192,28160,1,0,0:0:0:0:
320,192,28243,1,2,0:0:0:0:
448,192,28243,1,0,0:0:0:0:
64,192,28660,1,2,0:0:0:0:
320,192,28660,1,0,0:0:0:0:
64,192,28827,1,2,0:0:0:0:
320,192,28827,1,0,0:0:0:0:
192,192,28993,1,8,0:0:0:0:
320,192,28993,1,0,0:0:0:0:
448,192,28993,1,0,0:0:0:0:
64,192,29160,1,0,0:0:0:0:
320,192,29243,1,0,0:0:0:0:
64,192,29327,1,0,0:0:0:0:
320,192,29410,1,0,0:0:0:0:
192,192,29493,1,2,0:0:0:0:
448,192,29493,1,0,0:0:0:0:
192,192,29660,1,8,0:0:0:0:
320,192,29660,1,0,0:0:0:0:
448,192,29660,1,0,0:0:0:0:
64,192,29743,1,0,0:0:0:0:
192,192,29827,1,2,0:0:0:0:
448,192,29827,1,0,0:0:0:0:
320,192,29910,1,0,0:0:0:0:
64,192,29993,1,2,0:0:0:0:
192,192,29993,1,0,0:0:0:0:
192,192,30160,1,2,0:0:0:0:
320,192,30160,1,0,0:0:0:0:
64,192,30327,1,8,0:0:0:0:
320,192,30327,1,0,0:0:0:0:
448,192,30327,1,0,0:0:0:0:
192,192,30493,1,2,0:0:0:0:
448,192,30493,1,0,0:0:0:0:
320,192,30577,1,0,0:0:0:0:
64,192,30660,1,8,0:0:0:0:
192,192,30660,1,0,0:0:0:0:
448,192,30660,1,0,0:0:0:0:
192,192,30827,1,2,0:0:0:0:
320,192,30827,1,0,0:0:0:0:
64,192,30993,1,10,0:0:0:0:
320,192,31077,1,2,0:0:0:0:
448,192,31077,1,0,0:0:0:0:
64,192,31160,1,2,0:0:0:0:
192,192,31160,1,0,0:0:0:0:
448,192,31243,1,2,0:0:0:0:
64,192,31327,1,2,0:0:0:0:
192,192,31327,1,4,0:0:0:0:
320,192,31327,1,0,0:0:0:0:
192,192,31493,1,2,0:0:0:0:
320,192,31493,1,0,0:0:0:0:
64,192,31660,1,8,0:0:0:0:
320,192,31660,1,0,0:0:0:0:
448,192,31660,1,0,0:0:0:0:
192,192,31827,1,0,0:0:0:0:
448,192,31827,1,0,0:0:0:0:
320,192,31910,1,0,0:0:0:0:
64,192,31993,1,0,0:0:0:0:
192,192,31993,1,0,0:0:0:0:
448,192,32077,1,0,0:0:0:0:
192,192,32160,1,2,0:0:0:0:
320,192,32160,1,0,0:0:0:0:
64,192,32327,1,8,0:0:0:0:
192,192,32327,1,0,0:0:0:0:
448,192,32327,1,0,0:0:0:0:
320,192,32410,1,0,0:0:0:0:
448,192,32493,1,0,0:0:0:0:
64,192,32577,1,2,0:0:0:0:
192,192,32577,1,0,0:0:0:0:
320,192,32660,1,2,0:0:0:0:
448,192,32660,1,0,0:0:0:0:
192,192,32827,1,2,0:0:0:0:
320,192,32827,1,0,0:0:0:0:
64,192,32993,1,8,0:0:0:0:
192,192,32993,1,0,0:0:0:0:
448,192,32993,1,0,0:0:0:0:
64,192,33160,1,0,0:0:0:0:
320,192,33160,1,0,0:0:0:0:
192,192,33243,1,0,0:0:0:0:
320,192,33327,1,0,0:0:0:0:
448,192,33327,1,0,0:0:0:0:
64,192,33410,1,0,0:0:0:0:
192,192,33493,1,2,0:0:0:0:
320,192,33493,1,0,0:0:0:0:
64,192,33660,1,8,0:0:0:0:
192,192,33660,1,0,0:0:0:0:
448,192,33660,1,0,0:0:0:0:
320,192,33743,1,0,0:0:0:0:
64,192,33827,1,0,0:0:0:0:
320,192,33910,1,2,0:0:0:0:
448,192,33910,1,0,0:0:0:0:
64,192,33993,1,2,0:0:0:0:
192,192,33993,1,0,0:0:0:0:
192,192,34160,1,2,0:0:0:0:
448,192,34160,1,0,0:0:0:0:
64,192,34327,1,8,0:0:0:0:
320,192,34327,1,0,0:0:0:0:
448,192,34327,1,0,0:0:0:0:
192,192,34493,1,0,0:0:0:0:
320,192,34493,1,0,0:0:0:0:
448,192,34577,1,0,0:0:0:0:
64,192,34660,1,0,0:0:0:0:
192,192,34660,1,0,0:0:0:0:
320,192,34743,1,0,0:0:0:0:
64,192,34827,1,2,0:0:0:0:
448,192,34827,1,0,0:0:0:0:
192,192,34993,1,8,0:0:0:0:
320,192,34993,1,0,0:0:0:0:
448,192,34993,1,0,0:0:0:0:
64,192,35077,1,0,0:0:0:0:
320,192,35160,1,0,0:0:0:0:
64,192,35243,1,2,0:0:0:0:
192,192,35243,1,0,0:0:0:0:
320,192,35327,1,2,0:0:0:0:
448,192,35327,1,0,0:0:0:0:
192,192,35493,1,2,0:0:0:0:
448,192,35493,1,0,0:0:0:0:
64,192,35660,1,8,0:0:0:0:
192,192,35660,1,0,0:0:0:0:
320,192,35660,1,0,0:0:0:0:
64,192,35827,1,0,0:0:0:0:
448,192,35827,1,0,0:0:0:0:
192,192,35910,1,0,0:0:0:0:
320,192,35993,1,0,0:0:0:0:
448,192,35993,1,0,0:0:0:0:
64,192,36077,1,0,0:0:0:0:
192,192,36160,1,2,0:0:0:0:
320,192,36160,1,0,0:0:0:0:
64,192,36327,1,0,0:0:0:0:
448,192,36327,1,0,0:0:0:0:
192,192,36410,1,0,0:0:0:0:
64,192,36493,1,8,0:0:0:0:
320,192,36493,1,0,0:0:0:0:
448,192,36577,1,0,0:0:0:0:
64,192,36660,1,2,0:0:0:0:
192,192,36660,1,0,0:0:0:0:
192,192,36827,1,2,0:0:0:0:
320,192,36827,1,0,0:0:0:0:
64,192,36993,1,8,0:0:0:0:
320,192,36993,1,0,0:0:0:0:
448,192,36993,1,0,0:0:0:0:
192,192,37160,1,0,0:0:0:0:
448,192,37160,1,0,0:0:0:0:
320,192,37243,1,0,0:0:0:0:
64,192,37327,1,0,0:0:0:0:
192,192,37327,1,0,0:0:0:0:
448,192,37410,1,0,0:0:0:0:
64,192,37493,1,2,0:0:0:0:
320,192,37493,1,0,0:0:0:0:
192,192,37660,1,8,0:0:0:0:
320,192,37660,1,0,0:0:0:0:
448,192,37660,1,0,0:0:0:0:
64,192,37743,1,0,0:0:0:0:
192,192,37827,1,0,0:0:0:0:
320,192,37910,1,2,0:0:0:0:
448,192,37910,1,0,0:0:0:0:
64,192,37993,1,2,0:0:0:0:
192,192,37993,1,0,0:0:0:0:
320,192,38160,1,2,0:0:0:0:
448,192,38160,1,0,0:0:0:0:
64,192,38327,1,8,0:0:0:0:
192,192,38327,1,0,0:0:0:0:
320,192,38327,1,0,0:0:0:0:
64,192,38493,1,0,0:0:0:0:
448,192,38493,1,0,0:0:0:0:
192,192,38577,1,0,0:0:0:0:
320,192,38660,1,0,0:0:0:0:
448,192,38660,1,0,0:0:0:0:
64,192,38743,1,0,0:0:0:0:
192,192,38827,1,2,0:0:0:0:
320,192,38827,1,0,0:0:0:0:
64,192,38993,1,8,0:0:0:0:
320,192,38993,1,0,0:0:0:0:
448,192,38993,1,0,0:0:0:0:
192,192,39077,1,0,0:0:0:0:
64,192,39160,1,0,0:0:0:0:
320,192,39243,1,2,0:0:0:0:
448,192,39243,1,0,0:0:0:0:
64,192,39327,1,2,0:0:0:0:
192,192,39327,1,0,0:0:0:0:
192,192,39493,1,2,0:0:0:0:
448,192,39493,1,0,0:0:0:0:
64,192,39660,1,8,0:0:0:0:
320,192,39660,1,0,0:0:0:0:
448,192,39660,1,0,0:0:0:0:
192,192,39827,1,0,0:0:0:0:
448,192,39827,1,0,0:0:0:0:
320,192,39910,1,0,0:0:0:0:
64,192,39993,1,0,0:0:0:0:
192,192,39993,128,0,40077:0:0:0:0:
320,192,40077,1,0,0:0:0:0:
64,192,40160,128,2,40243:0:0:0:0:
448,192,40160,1,0,0:0:0:0:
192,192,40243,1,0,0:0:0:0:
320,192,40327,128,8,40410:0:0:0:0:
448,192,40327,1,0,0:0:0:0:
64,192,40410,1,0,0:0:0:0:
192,192,40493,1,0,0:0:0:0:
448,192,40493,128,0,40577:0:0:0:0:
320,192,40577,1,2,0:0:0:0:
64,192,40660,1,2,0:0:0:0:
192,192,40660,128,0,40827:0:0:0:0:
448,192,40743,128,0,40910:0:0:0:0:
64,192,40827,1,2,0:0:0:0:
320,192,40827,128,0,40993:0:0:0:0:
192,192,40910,1,0,0:0:0:0:
64,192,40993,128,8,41160:0:0:0:0:
448,192,40993,1,0,0:0:0:0:
192,192,41077,128,0,41243:0:0:0:0:
320,192,41160,128,2,41327:0:0:0:0:
448,192,41160,128,0,41243:0:0:0:0:
64,192,41243,128,0,41410:0:0:0:0:
192,192,41327,128,8,41410:0:0:0:0:
448,192,41327,128,0,41410:0:0:0:0:
320,192,41410,128,0,41577:0:0:0:0:
192,192,41493,128,2,41577:0:0:0:0:
448,192,41493,128,0,41660:0:0:0:0:
64,192,41577,128,0,41743:0:0:0:0:
192,192,41660,128,8,41827:0:0:0:0:
320,192,41660,128,0,41743:0:0:0:0:
448,192,41743,128,0,41827:0:0:0:0:
64,192,41827,128,0,41910:0:0:0:0:
320,192,41827,128,0,41910:0:0:0:0:
192,192,41910,128,0,41993:0:0:0:0:
64,192,41993,1,2,0:0:0:0:
320,192,41993,1,4,0:0:0:0:
448,192,41993,1,0,0:0:0:0:
192,192,42160,128,2,42243:0:0:0:0:
448,192,42160,128,0,42327:0:0:0:0:
64,192,42327,128,8,42410:0:0:0:0:
192,192,42327,1,0,0:0:0:0:
320,192,42327,128,0,42493:0:0:0:0:
192,192,42493,128,0,42743:0:0:0:0:
448,192,42493,128,0,42577:0:0:0:0:
64,192,42577,1,0,0:0:0:0:
320,192,42660,1,0,0:0:0:0:
64,192,42743,1,0,0:0:0:0:
320,192,42827,128,2,42910:0:0:0:0:
448,192,42827,1,0,0:0:0:0:
192,192,42910,128,0,42993:0:0:0:0:
64,192,42993,1,8,0:0:0:0:
320,192,42993,1,0,0:0:0:0:
448,192,42993,128,0,43077:0:0:0:0:
192,192,43077,128,0,43160:0:0:0:0:
320,192,43160,128,0,43243:0:0:0:0:
64,192,43243,128,2,43327:0:0:0:0:
320,192,43327,128,2,43410:0:0:0:0:
448,192,43327,128,0,43410:0:0:0:0:
192,192,43410,128,0,43493:0:0:0:0:
64,192,43493,128,2,43577:0:0:0:0:
448,192,43493,128,0,43577:0:0:0:0:
320,192,43577,128,0,43660:0:0:0:0:
192,192,43660,128,8,43743:0:0:0:0:
448,192,43660,128,0,43743:0:0:0:0:
64,192,43743,128,0,43827:0:0:0:0:
192,192,43827,128,0,43910:0:0:0:0:
320,192,43827,128,0,43910:0:0:0:0:
448,192,43910,128,0,43993:0:0:0:0:
64,192,43993,128,0,44077:0:0:0:0:
192,192,43993,128,0,44077:0:0:0:0:
448,192,44077,128,0,44160:0:0:0:0:
64,192,44160,128,2,44243:0:0:0:0:
320,192,44160,128,0,44243:0:0:0:0:
192,192,44243,128,0,44327:0:0:0:0:
64,192,44327,128,8,44410:0:0:0:0:
448,192,44327,128,0,44410:0:0:0:0:
320,192,44410,128,0,44493:0:0:0:0:
192,192,44493,128,0,44577:0:0:0:0:
448,192,44493,128,0,44577:0:0:0:0:
64,192,44577,128,2,44660:0:0:0:0:
320,192,44577,128,0,44660:0:0:0:0:
192,192,44660,1,2,0:0:0:0:
448,192,44660,1,0,0:0:0:0:
192,192,44827,1,2,0:0:0:0:
320,192,44827,128,0,44910:0:0:0:0:
64,192,44993,1,8,0:0:0:0:
192,192,44993,1,0,0:0:0:0:
448,192,44993,1,0,0:0:0:0:
192,192,45160,128,0,45243:0:0:0:0:
320,192,45160,128,0,45410:0:0:0:0:
448,192,45243,1,0,0:0:0:0:
64,192,45327,1,0,0:0:0:0:
448,192,45410,1,0,0:0:0:0:
64,192,45493,1,2,0:0:0:0:
192,192,45493,128,0,45577:0:0:0:0:
320,192,45577,128,0,45660:0:0:0:0:
64,192,45660,128,8,45743:0:0:0:0:
192,192,45660,1,0,0:0:0:0:
448,192,45660,1,0,0:0:0:0:
320,192,45743,128,0,45827:0:0:0:0:
192,192,45827,128,0,45910:0:0:0:0:
448,192,45910,128,2,45993:0:0:0:0:
64,192,45993,128,2,46077:0:0:0:0:
320,192,45993,128,0,46077:0:0:0:0:
192,192,46077,128,0,46160:0:0:0:0:
64,192,46160,128,2,46243:0:0:0:0:
448,192,46160,128,0,46243:0:0:0:0:
320,192,46243,128,0,46327:0:0:0:0:
192,192,46327,128,8,46410:0:0:0:0:
448,192,46327,128,0,46410:0:0:0:0:
64,192,46410,128,0,46493:0:0:0:0:
320,192,46493,128,0,46577:0:0:0:0:
448,192,46493,128,0,46577:0:0:0:0:
192,192,46577,128,0,46660:0:0:0:0:
64,192,46660,128,0,46743:0:0:0:0:
320,192,46660,128,0,46743:0:0:0:0:
448,192,46743,128,0,46827:0:0:0:0:
64,192,46827,128,2,46910:0:0:0:0:
192,192,46827,128,0,46910:0:0:0:0:
320,192,46910,128,0,46993:0:0:0:0:
192,192,46993,128,0,47077:0:0:0:0:
448,192,46993,128,0,47077:0:0:0:0:
64,192,47077,128,0,47160:0:0:0:0:
320,192,47160,128,8,47243:0:0:0:0:
448,192,47160,128,0,47243:0:0:0:0:
192,192,47243,128,0,47327:0:0:0:0:
64,192,47327,1,2,0:0:0:0:
320,192,47327,1,0,0:0:0:0:
192,192,47493,128,2,47577:0:0:0:0:
448,192,47493,128,0,47660:0:0:0:0:
64,192,47660,128,8,47743:0:0:0:0:
192,192,47660,1,0,0:0:0:0:
320,192,47660,128,0,47827:0:0:0:0:
192,192,47827,128,0,48077:0:0:0:0:
448,192,47827,128,0,47910:0:0:0:0:
64,192,47910,1,0,0:0:0:0:
320,192,47993,1,0,0:0:0:0:
64,192,48077,1,0,0:0:0:0:
320,192,48160,128,2,48243:0:0:0:0:
448,192,48160,1,0,0:0:0:0:
192,192,48243,128,0,48327:0:0:0:0:
64,192,48327,1,8,0:0:0:0:
320,192,48327,1,0,0:0:0:0:
448,192,48327,128,0,48410:0:0:0:0:
192,192,48410,128,0,48493:0:0:0:0:
320,192,48493,128,0,48577:0:0:0:0:
64,192,48577,128,2,48660:0:0:0:0:
320,192,48660,128,2,48743:0:0:0:0:
448,192,48660,128,0,48743:0:0:0:0:
192,192,48743,128,0,48827:0:0:0:0:
64,192,48827,128,2,48910:0:0:0:0:
320,192,48827,128,0,48910:0:0:0:0:
448,192,48910,128,0,48993:0:0:0:0:
64,192,48993,128,8,49077:0:0:0:0:
192,192,48993,128,0,49077:0:0:0:0:
320,192,49077,128,0,49160:0:0:0:0:
64,192,49160,128,0,49243:0:0:0:0:
448,192,49160,128,0,49243:0:0:0:0:
192,192,49243,128,0,49327:0:0:0:0:
320,192,49327,128,0,49410:0:0:0:0:
448,192,49327,128,0,49410:0:0:0:0:
192,192,49410,128,0,49493:0:0:0:0:
64,192,49493,128,2,49577:0:0:0:0:
320,192,49493,128,0,49577:0:0:0:0:
448,192,49577,128,0,49660:0:0:0:0:
64,192,49660,128,8,49743:0:0:0:0:
192,192,49660,128,0,49743:0:0:0:0:
320,192,49743,128,0,49827:0:0:0:0:
192,192,49827,128,0,49910:0:0:0:0:
448,192,49827,128,0,49910:0:0:0:0:
64,192,49910,128,2,49993:0:0:0:0:
320,192,49910,128,0,49993:0:0:0:0:
192,192,49993,1,2,0:0:0:0:
448,192,49993,1,0,0:0:0:0:
192,192,50160,128,2,50243:0:0:0:0:
320,192,50160,1,0,0:0:0:0:
64,192,50327,1,8,0:0:0:0:
320,192,50327,1,0,0:0:0:0:
448,192,50327,1,0,0:0:0:0:
192,192,50493,128,0,50743:0:0:0:0:
320,192,50493,128,0,50577:0:0:0:0:
64,192,50577,1,0,0:0:0:0:
448,192,50660,1,0,0:0:0:0:
64,192,50743,1,0,0:0:0:0:
320,192,50827,128,2,50910:0:0:0:0:
448,192,50827,1,0,0:0:0:0:
192,192,50910,128,0,50993:0:0:0:0:
64,192,50993,1,8,0:0:0:0:
320,192,50993,1,0,0:0:0:0:
448,192,50993,128,0,51077:0:0:0:0:
192,192,51077,128,0,51160:0:0:0:0:
64,192,51160,128,0,51243:0:0:0:0:
448,192,51243,128,2,51327:0:0:0:0:
192,192,51327,128,2,51410:0:0:0:0:
320,192,51327,128,0,51410:0:0:0:0:
448,192,51410,128,0,51493:0:0:0:0:
64,192,51493,128,2,51577:0:0:0:0:
192,192,51493,128,0,51577:0:0:0:0:
320,192,51577,128,0,51660:0:0:0:0:
64,192,51660,128,8,51743:0:0:0:0:
448,192,51660,128,0,51743:0:0:0:0:
192,192,51743,128,0,51827:0:0:0:0:
320,192,51827,128,2,51910:0:0:0:0:
448,192,51827,128,0,51910:0:0:0:0:
64,192,51910,128,0,51993:0:0:0:0:
192,192,51993,128,8,52077:0:0:0:0:
320,192,51993,128,0,52077:0:0:0:0:
448,192,52077,128,0,52160:0:0:0:0:
64,192,52160,128,2,52243:0:0:0:0:
192,192,52160,128,0,52243:0:0:0:0:
320,192,52243,128,0,52327:0:0:0:0:
64,192,52327,128,8,52410:0:0:0:0:
448,192,52327,128,0,52410:0:0:0:0:
192,192,52410,128,0,52493:0:0:0:0:
320,192,52493,128,2,52577:0:0:0:0:
448,192,52493,128,0,52577:0:0:0:0:
192,192,52577,128,0,52660:0:0:0:0:
64,192,52660,1,4,0:0:0:0:
320,192,52660,1,2,0:0:0:0:
448,192,52660,1,0,0:0:0:0:
192,192,52827,128,2,52910:0:0:0:0:
448,192,52827,128,0,52993:0:0:0:0:
64,192,52993,128,8,53077:0:0:0:0:
192,192,52993,1,0,0:0:0:0:
320,192,52993,128,0,53160:0:0:0:0:
192,192,53160,128,0,53410:0:0:0:0:
448,192,53160,128,0,53243:0:0:0:0:
64,192,53243,1,0,0:0:0:0:
320,192,53327,1,0,0:0:0:0:
64,192,53410,1,0,0:0:0:0:
320,192,53493,128,2,53577:0:0:0:0:
448,192,53493,1,0,0:0:0:0:
192,192,53577,128,0,53660:0:0:0:0:
64,192,53660,1,8,0:0:0:0:
320,192,53660,1,0,0:0:0:0:
448,192,53660,128,0,53743:0:0:0:0:
192,192,53743,128,0,53827:0:0:0:0:
320,192,53827,128,0,53910:0:0:0:0:
64,192,53910,128,2,53993:0:0:0:0:
192,192,53993,128,2,54077:0:0:0:0:
448,192,53993,128,0,54077:0:0:0:0:
320,192,54077,128,0,54160:0:0:0:0:
64,192,54160,128,2,54243:0:0:0:0:
448,192,54160,128,0,54243:0:0:0:0:
192,192,54243,128,0,54327:0:0:0:0:
320,192,54327,128,8,54410:0:0:0:0:
448,192,54327,128,0,54410:0:0:0:0:
64,192,54410,128,0,54493:0:0:0:0:
192,192,54493,128,0,54577:0:0:0:0:
320,192,54493,128,0,54577:0:0:0:0:
448,192,54577,128,0,54660:0:0:0:0:
64,192,54660,128,0,54743:0:0:0:0:
192,192,54660,128,0,54743:0:0:0:0:
448,192,54743,128,0,54827:0:0:0:0:
64,192,54827,128,2,54910:0:0:0:0:
320,192,54827,128,0,54910:0:0:0:0:
192,192,54910,128,0,54993:0:0:0:0:
64,192,54993,128,8,55077:0:0:0:0:
448,192,54993,128,0,55077:0:0:0:0:
320,192,55077,128,0,55160:0:0:0:0:
192,192,55160,128,0,55243:0:0:0:0:
448,192,55160,128,0,55243:0:0:0:0:
64,192,55243,128,2,55327:0:0:0:0:
320,192,55243,128,0,55327:0:0:0:0:
192,192,55327,1,2,0:0:0:0:
448,192,55327,1,0,0:0:0:0:
192,192,55493,1,2,0:0:0:0:
320,192,55493,128,0,55577:0:0:0:0:
64,192,55660,1,8,0:0:0:0:
192,192,55660,1,0,0:0:0:0:
448,192,55660,1,0,0:0:0:0:
192,192,55827,128,0,55910:0:0:0:0:
320,192,55827,128,0,56077:0:0:0:0:
448,192,55910,1,0,0:0:0:0:
64,192,55993,1,0,0:0:0:0:
448,192,56077,1,0,0:0:0:0:
64,192,56160,128,2,56243:0:0:0:0:
192,192,56160,1,0,0:0:0:0:
448,192,56243,128,0,56327:0:0:0:0:
64,192,56327,1,8,0:0:0:0:
192,192,56327,128,0,56410:0:0:0:0:
320,192,56327,1,0,0:0:0:0:
448,192,56410,128,0,56493:0:0:0:0:
320,192,56493,128,0,56577:0:0:0:0:
64,192,56577,128,2,56660:0:0:0:0:
192,192,56660,128,2,56743:0:0:0:0:
448,192,56660,128,0,56743:0:0:0:0:
320,192,56743,128,0,56827:0:0:0:0:
64,192,56827,128,2,56910:0:0:0:0:
192,192,56827,128,0,56910:0:0:0:0:
448,192,56910,128,0,56993:0:0:0:0:
64,192,56993,128,8,57077:0:0:0:0:
320,192,56993,128,0,57077:0:0:0:0:
192,192,57077,128,0,57160:0:0:0:0:
320,192,57160,128,0,57243:0:0:0:0:
448,192,57160,128,0,57243:0:0:0:0:
64,192,57243,128,0,57327:0:0:0:0:
192,192,57327,128,0,57410:0:0:0:0:
320,192,57327,128,0,57410:0:0:0:0:
448,192,57410,128,0,57493:0:0:0:0:
64,192,57493,128,2,57577:0:0:0:0:
192,192,57493,128,0,57577:0:0:0:0:
320,192,57577,128,0,57660:0:0:0:0:
64,192,57660,128,0,57743:0:0:0:0:
448,192,57660,128,0,57743:0:0:0:0:
192,192,57743,128,0,57827:0:0:0:0:
320,192,57827,128,8,57910:0:0:0:0:
448,192,57827,128,0,57910:0:0:0:0:
64,192,57910,128,0,57993:0:0:0:0:
192,192,57993,1,2,0:0:0:0:
320,192,57993,1,0,0:0:0:0:
192,192,58160,128,2,58243:0:0:0:0:
448,192,58160,128,0,58327:0:0:0:0:
64,192,58327,128,8,58410:0:0:0:0:
192,192,58327,1,0,0:0:0:0:
320,192,58327,128,0,58493:0:0:0:0:
192,192,58493,128,0,58743:0:0:0:0:
448,192,58493,128,0,58577:0:0:0:0:
64,192,58577,1,0,0:0:0:0:
320,192,58660,1,0,0:0:0:0:
448,192,58743,1,0,0:0:0:0:
64,192,58827,1,2,0:0:0:0:
320,192,58827,128,0,58910:0:0:0:0:
192,192,58910,128,0,58993:0:0:0:0:
64,192,58993,1,8,0:0:0:0:
320,192,58993,1,0,0:0:0:0:
448,192,58993,128,0,59077:0:0:0:0:
192,192,59077,128,0,59160:0:0:0:0:
320,192,59160,128,0,59243:0:0:0:0:
448,192,59243,128,2,59327:0:0:0:0:
64,192,59327,128,2,59410:0:0:0:0:
192,192,59327,128,0,59410:0:0:0:0:
320,192,59410,128,0,59493:0:0:0:0:
192,192,59493,128,2,59577:0:0:0:0:
448,192,59493,128,0,59577:0:0:0:0:
64,192,59577,128,0,59660:0:0:0:0:
320,192,59660,128,8,59743:0:0:0:0:
448,192,59660,128,0,59743:0:0:0:0:
192,192,59743,128,0,59827:0:0:0:0:
64,192,59827,128,0,59910:0:0:0:0:
320,192,59827,128,0,59910:0:0:0:0:
448,192,59910,128,0,59993:0:0:0:0:
192,192,59993,128,0,60077:0:0:0:0:
320,192,59993,128,0,60077:0:0:0:0:
64,192,60077,128,0,60160:0:0:0:0:
192,192,60160,128,2,60243:0:0:0:0:
448,192,60160,128,0,60243:0:0:0:0:
320,192,60243,128,0,60327:0:0:0:0:
64,192,60327,128,8,60410:0:0:0:0:
448,192,60327,128,0,60410:0:0:0:0:
192,192,60410,128,0,60493:0:0:0:0:
64,192,60493,128,0,60577:0:0:0:0:
320,192,60493,128,0,60577:0:0:0:0:
192,192,60577,128,2,60660:0:0:0:0:
448,192,60577,128,0,60660:0:0:0:0:
64,192,60660,1,2,0:0:0:0:
320,192,60660,1,0,0:0:0:0:
192,192,60827,128,2,60910:0:0:0:0:
320,192,60827,1,0,0:0:0:0:
64,192,60993,1,8,0:0:0:0:
320,192,60993,1,0,0:0:0:0:
448,192,60993,1,0,0:0:0:0:
192,192,61160,128,0,61410:0:0:0:0:
320,192,61160,128,0,61243:0:0:0:0:
64,192,61243,1,0,0:0:0:0:
448,192,61327,1,0,0:0:0:0:
64,192,61410,1,0,0:0:0:0:
320,192,61493,128,2,61577:0:0:0:0:
448,192,61493,1,0,0:0:0:0:
192,192,61577,128,0,61660:0:0:0:0:
64,192,61660,1,8,0:0:0:0:
320,192,61660,1,0,0:0:0:0:
448,192,61660,128,0,61743:0:0:0:0:
192,192,61743,128,0,61827:0:0:0:0:
320,192,61827,128,0,61910:0:0:0:0:
64,192,61910,128,2,61993:0:0:0:0:
192,192,61993,128,2,62077:0:0:0:0:
448,192,61993,128,0,62077:0:0:0:0:
320,192,62077,128,0,62160:0:0:0:0:
64,192,62160,128,2,62243:0:0:0:0:
192,192,62160,128,0,62243:0:0:0:0:
320,192,62243,128,0,62327:0:0:0:0:
64,192,62327,128,8,62410:0:0:0:0:
448,192,62327,128,0,62410:0:0:0:0:
192,192,62410,128,0,62493:0:0:0:0:
320,192,62493,128,2,62577:0:0:0:0:
448,192,62493,128,0,62577:0:0:0:0:
64,192,62577,128,0,62660:0:0:0:0:
192,192,62660,128,8,62743:0:0:0:0:
320,192,62660,128,0,62743:0:0:0:0:
448,192,62743,128,0,62827:0:0:0:0:
64,192,62827,128,2,62910:0:0:0:0:
192,192,62827,128,0,62910:0:0:0:0:
320,192,62910,128,0,62993:0:0:0:0:
64,192,62993,128,8,63077:0:0:0:0:
448,192,62993,128,0,63077:0:0:0:0:
320,192,63077,128,0,63160:0:0:0:0:
192,192,63160,128,0,63243:0:0:0:0:
64,192,63243,128,0,63327:0:0:0:0:
64,192,65993,1,0,0:0:0:0:
448,192,65993,128,0,66077:0:0:0:0:
192,192,66160,1,0,0:0:0:0:
192,192,66327,1,0,0:0:0:0:
448,192,66327,1,0,0:0:0:0:
64,192,66493,1,0,0:0:0:0:
320,192,66493,128,0,66577:0:0:0:0:
192,192,66660,1,0,0:0:0:0:
192,192,66827,1,0,0:0:0:0:
64,192,66993,1,0,0:0:0:0:
448,192,66993,128,0,67077:0:0:0:0:
320,192,67160,1,0,0:0:0:0:
320,192,67327,1,0,0:0:0:0:
448,192,67327,1,0,0:0:0:0:
64,192,67493,1,0,0:0:0:0:
192,192,67493,128,0,67577:0:0:0:0:
64,192,67660,1,0,0:0:0:0:
448,192,67660,1,0,0:0:0:0:
192,192,67827,1,0,0:0:0:0:
448,192,67827,1,0,0:0:0:0:
64,192,67993,128,0,68077:0:0:0:0:
320,192,67993,1,0,0:0:0:0:
192,192,68160,1,0,0:0:0:0:
448,192,68160,1,0,0:0:0:0:
64,192,68327,1,0,0:0:0:0:
192,192,68327,128,0,68410:0:0:0:0:
320,192,68493,1,0,0:0:0:0:
448,192,68493,1,0,0:0:0:0:
64,192,68660,1,0,0:0:0:0:
448,192,68660,128,0,68743:0:0:0:0:
192,192,68827,1,0,0:0:0:0:
192,192,68993,1,0,0:0:0:0:
448,192,68993,1,0,0:0:0:0:
64,192,69160,1,0,0:0:0:0:
320,192,69160,128,0,69243:0:0:0:0:
192,192,69327,1,0,0:0:0:0:
192,192,69493,1,0,0:0:0:0:
448,192,69493,1,0,0:0:0:0:
64,192,69660,128,0,69743:0:0:0:0:
320,192,69660,1,0,0:0:0:0:
192,192,69827,1,0,0:0:0:0:
448,192,69827,1,0,0:0:0:0:
64,192,69993,1,0,0:0:0:0:
320,192,69993,1,0,0:0:0:0:
320,192,70160,128,0,70243:0:0:0:0:
448,192,70160,1,0,0:0:0:0:
192,192,70327,1,0,0:0:0:0:
448,192,70327,1,0,0:0:0:0:
64,192,70493,1,0,0:0:0:0:
320,192,70493,1,0,0:0:0:0:
64,192,70660,128,0,70743:0:0:0:0:
448,192,70660,1,0,0:0:0:0:
192,192,70827,1,0,0:0:0:0:
448,192,70827,1,0,0:0:0:0:
192,192,70993,128,0,71077:0:0:0:0:
320,192,71035,1,0,0:0:0:0:
448,192,71077,1,0,0:0:0:0:
64,192,71118,1,0,0:0:0:0:
320,192,71160,1,0,0:0:0:0:
192,192,71202,1,0,0:0:0:0:
64,192,71243,1,0,0:0:0:0:
320,192,71327,1,0,0:0:0:0:
448,192,71327,128,0,71410:0:0:0:0:
192,192,71493,1,0,0:0:0:0:
192,192,71660,1,0,0:0:0:0:
448,192,71660,1,0,0:0:0:0:
64,192,71827,1,0,0:0:0:0:
320,192,71827,128,0,71910:0:0:0:0:
192,192,71993,1,0,0:0:0:0:
192,192,72160,1,0,0:0:0:0:
64,192,72327,128,0,72410:0:0:0:0:
320,192,72327,1,0,0:0:0:0:
448,192,72493,1,0,0:0:0:0:
192,192,72660,1,0,0:0:0:0:
448,192,72660,1,0,0:0:0:0:
64,192,72827,1,0,0:0:0:0:
320,192,72827,128,0,72910:0:0:0:0:
64,192,72993,1,0,0:0:0:0:
448,192,72993,1,0,0:0:0:0:
192,192,73160,1,0,0:0:0:0:
448,192,73160,1,0,0:0:0:0:
64,192,73327,128,0,73410:0:0:0:0:
320,192,73327,1,0,0:0:0:0:
192,192,73493,1,0,0:0:0:0:
448,192,73493,1,0,0:0:0:0:
64,192,73660,1,0,0:0:0:0:
192,192,73660,128,0,73743:0:0:0:0:
320,192,73827,1,0,0:0:0:0:
448,192,73827,1,0,0:0:0:0:
64,192,73993,1,0,0:0:0:0:
448,192,73993,128,0,74077:0:0:0:0:
192,192,74160,1,0,0:0:0:0:
192,192,74327,1,0,0:0:0:0:
448,192,74327,1,0,0:0:0:0:
64,192,74493,1,0,0:0:0:0:
320,192,74493,128,0,74577:0:0:0:0:
192,192,74660,1,0,0:0:0:0:
192,192,74827,1,0,0:0:0:0:
448,192,74827,1,0,0:0:0:0:
64,192,74993,128,0,75077:0:0:0:0:
320,192,74993,1,0,0:0:0:0:
192,192,75160,1,0,0:0:0:0:
448,192,75160,1,0,0:0:0:0:
64,192,75327,1,0,0:0:0:0:
320,192,75327,1,0,0:0:0:0:
320,192,75493,128,0,75577:0:0:0:0:
448,192,75493,1,0,0:0:0:0:
192,192,75660,1,0,0:0:0:0:
448,192,75660,1,0,0:0:0:0:
64,192,75827,1,0,0:0:0:0:
320,192,75827,1,0,0:0:0:0:
192,192,75993,128,0,76077:0:0:0:0:
448,192,75993,1,0,0:0:0:0:
64,192,76160,1,0,0:0:0:0:
448,192,76160,1,0,0:0:0:0:
320,192,76327,128,0,76410:0:0:0:0:
192,192,76368,1,0,0:0:0:0:
448,192,76410,1,0,0:0:0:0:
64,192,76452,1,0,0:0:0:0:
192,192,76493,1,0,0:0:0:0:
320,192,76535,1,0,0:0:0:0:
448,192,76577,1,0,0:0:0:0:
64,192,76660,1,0,0:0:0:70:Kick 4.wav
192,192,76660,1,0,0:0:0:0:
320,192,76660,1,0,0:0:0:0:
192,192,76827,1,0,0:0:0:0:
192,192,76993,1,0,0:0:0:0:
64,192,77160,1,0,0:0:0:70:LR_Snare Wet Echoing Hollow.wav
320,192,77160,1,0,0:0:0:0:
64,192,77327,1,0,0:0:0:70:LR_Snare Hollow.wav
192,192,77327,1,0,0:0:0:0:
448,192,77327,1,0,0:0:0:0:
448,192,77493,1,0,0:0:0:0:
64,192,77660,1,0,0:0:0:0:
320,192,77660,1,0,0:0:0:0:
64,192,77827,1,0,0:0:0:70:Kick 4.wav
448,192,77827,1,0,0:0:0:0:
192,192,77993,1,0,0:0:0:70:Kick 4.wav
320,192,77993,1,0,0:0:0:0:
448,192,77993,1,0,0:0:0:0:
64,192,78160,1,0,0:0:0:0:
192,192,78160,1,0,0:0:0:0:
64,192,78327,1,0,0:0:0:70:Kick 4.wav
320,192,78327,1,0,0:0:0:70:LR_Snare Wet Echoing Hollow.wav
448,192,78327,1,0,0:0:0:0:
192,192,78493,1,0,0:0:0:0:
64,192,78660,1,0,0:0:0:70:LR_Snare Hollow.wav
192,192,78660,1,0,0:0:0:0:
448,192,78660,1,0,0:0:0:0:
448,192,78827,1,0,0:0:0:0:
64,192,78993,1,0,0:0:0:0:
320,192,78993,1,0,0:0:0:0:
192,192,79160,1,0,0:0:0:0:
448,192,79160,1,0,0:0:0:0:
64,192,79327,1,0,0:0:0:70:Kick 4.wav
192,192,79327,1,0,0:0:0:0:
320,192,79327,1,0,0:0:0:0:
320,192,79493,1,0,0:0:0:0:
64,192,79660,1,0,0:0:0:70:Kick 4.wav
192,192,79660,1,0,0:0:0:0:
448,192,79660,1,0,0:0:0:0:
192,192,79827,1,0,0:0:0:70:LR_Snare Wet Echoing Hollow.wav
64,192,79993,1,0,0:0:0:70:LR_Snare Hollow.wav
320,192,79993,1,0,0:0:0:0:
448,192,79993,1,0,0:0:0:0:
448,192,80160,1,0,0:0:0:0:
64,192,80327,1,0,0:0:0:0:
192,192,80327,1,0,0:0:0:0:
64,192,80493,1,0,0:0:0:70:LR_Snare Hollow.wav
320,192,80493,1,0,0:0:0:0:
448,192,80493,1,0,0:0:0:0:
192,192,80660,1,0,0:0:0:0:
64,192,80827,1,0,0:0:0:70:LR_Snare Hollow.wav
320,192,80827,1,0,0:0:0:0:
448,192,80827,1,0,0:0:0:0:
64,192,80993,1,0,0:0:0:70:Kick 4.wav
192,192,80993,1,0,0:0:0:0:
192,192,81160,1,0,0:0:0:70:Kick 4.wav
320,192,81160,1,0,0:0:0:0:
64,192,81327,1,0,0:0:0:70:LR_Snare Hollow.wav
320,192,81327,1,0,0:0:0:0:
448,192,81327,1,0,0:0:0:0:
448,192,81493,1,0,0:0:0:0:
192,192,81660,1,0,0:0:0:0:
320,192,81702,1,0,0:0:0:0:
448,192,81743,1,0,0:0:0:0:
64,192,81785,1,0,0:0:0:0:
192,192,81827,1,0,0:0:0:0:
320,192,81868,1,0,0:0:0:0:
448,192,81910,1,0,0:0:0:0:
64,192,81993,1,0,0:0:0:70:Kick 4.wav
192,192,81993,1,0,0:0:0:0:
320,192,81993,1,0,0:0:0:0:
64,192,82160,1,0,0:0:0:0:
64,192,82327,1,0,0:0:0:0:
192,192,82493,1,0,0:0:0:70:LR_Snare Wet Echoing Hollow.wav
448,192,82493,1,0,0:0:0:0:
64,192,82660,1,0,0:0:0:70:LR_Snare Hollow.wav
192,192,82660,1,0,0:0:0:0:
320,192,82660,1,0,0:0:0:0:
448,192,82827,1,0,0:0:0:0:
64,192,82993,1,0,0:0:0:0:
320,192,82993,1,0,0:0:0:0:
192,192,83160,1,0,0:0:0:70:Kick 4.wav
448,192,83160,1,0,0:0:0:0:
64,192,83327,1,0,0:0:0:70:Kick 4.wav
192,192,83327,1,0,0:0:0:0:
448,192,83327,1,0,0:0:0:0:
192,192,83493,1,0,0:0:0:0:
320,192,83493,1,0,0:0:0:0:
64,192,83660,1,0,0:0:0:70:Kick 4.wav
320,192,83660,1,0,0:0:0:70:LR_Snare Wet Echoing Hollow.wav
448,192,83660,1,0,0:0:0:0:
192,192,83827,1,0,0:0:0:0:
64,192,83993,1,0,0:0:0:70:LR_Snare Hollow.wav
192,192,83993,1,0,0:0:0:0:
448,192,83993,1,0,0:0:0:0:
64,192,84160,1,0,0:0:0:0:
320,192,84327,1,0,0:0:0:0:
448,192,84327,1,0,0:0:0:0:
192,192,84493,1,0,0:0:0:0:
320,192,84493,1,0,0:0:0:0:
64,192,84660,1,0,0:0:0:70:Kick 4.wav
192,192,84660,1,0,0:0:0:0:
448,192,84660,1,0,0:0:0:0:
64,192,84827,1,0,0:0:0:0:
320,192,84827,1,0,0:0:0:0:
192,192,84993,1,0,0:0:0:70:LR_Snare Hollow.wav
320,192,84993,1,0,0:0:0:0:
448,192,84993,1,0,0:0:0:0:
64,192,85160,1,0,0:0:0:0:
192,192,85327,1,0,0:0:0:70:LR_Snare Hollow.wav
320,192,85327,1,0,0:0:0:0:
448,192,85327,1,0,0:0:0:0:
320,192,85493,1,0,0:0:0:0:
192,192,85660,1,0,0:0:0:70:Kick 4.wav
448,192,85660,1,0,0:0:0:0:
64,192,85827,1,0,0:0:0:70:LR_Snare Hollow.wav
192,192,85827,1,0,0:0:0:0:
320,192,85827,1,0,0:0:0:0:
64,192,85993,1,0,0:0:0:0:
192,192,86160,1,0,0:0:0:70:Kick 4.wav
448,192,86160,1,0,0:0:0:0:
192,192,86327,1,0,0:0:0:70:Kick 4.wav
320,192,86327,1,0,0:0:0:0:
448,192,86327,1,0,0:0:0:0:
64,192,86493,1,0,0:0:0:0:
320,192,86514,1,0,0:0:0:0:
64,192,86660,1,0,0:0:0:70:Kick 4.wav
448,192,86660,1,0,0:0:0:70:LR_Snare Hollow.wav
192,192,86681,1,0,0:0:0:0:
320,192,86688,1,0,0:0:0:0:
64,192,86827,1,0,0:0:0:0:
192,192,86882,1,0,0:0:0:0:
320,192,86938,1,0,0:0:0:0:
448,192,86993,1,0,0:0:0:0:
64,192,87077,1,0,0:0:0:0:
192,192,87105,1,0,0:0:0:0:
320,192,87132,1,0,0:0:0:0:
448,192,87160,1,0,0:0:0:0:
64,192,87243,1,0,0:0:0:0:
192,192,87271,1,0,0:0:0:0:
320,192,87299,1,0,0:0:0:0:
64,192,88660,128,0,89160:0:0:0:0:
448,192,88660,1,0,0:0:0:0:
192,192,89327,1,2,0:0:0:0:
320,192,89327,128,4,89493:0:0:0:0:
448,192,89327,128,0,90660:0:0:0:0:
64,192,89493,1,2,0:0:0:0:
192,192,89493,128,0,89660:0:0:0:0:
64,192,89660,1,8,0:0:0:0:
320,192,89660,1,0,0:0:0:0:
64,192,89827,128,0,89910:0:0:0:0:
320,192,89910,1,0,0:0:0:0:
192,192,89993,128,0,90077:0:0:0:0:
320,192,90077,1,0,0:0:0:0:
64,192,90160,128,2,90327:0:0:0:0:
192,192,90160,1,0,0:0:0:0:
192,192,90327,1,8,0:0:0:0:
320,192,90327,1,0,0:0:0:0:
64,192,90410,1,0,0:0:0:0:
192,192,90493,1,0,0:0:0:0:
320,192,90577,1,2,0:0:0:0:
64,192,90660,128,2,90827:0:0:0:0:
192,192,90660,128,0,90993:0:0:0:0:
320,192,90827,128,2,90993:0:0:0:0:
448,192,90827,1,0,0:0:0:0:
64,192,90993,1,8,0:0:0:0:
448,192,90993,1,0,0:0:0:0:
192,192,91160,128,0,91243:0:0:0:0:
320,192,91160,128,0,91493:0:0:0:0:
64,192,91243,1,0,0:0:0:0:
448,192,91327,128,0,91410:0:0:0:0:
192,192,91410,1,0,0:0:0:0:
64,192,91493,1,2,0:0:0:0:
448,192,91493,1,0,0:0:0:0:
64,192,91660,128,8,91827:0:0:0:0:
192,192,91660,1,0,0:0:0:0:
448,192,91743,1,0,0:0:0:0:
320,192,91827,1,0,0:0:0:0:
192,192,91910,1,2,0:0:0:0:
64,192,91993,128,2,92327:0:0:0:0:
448,192,91993,128,0,92160:0:0:0:0:
192,192,92160,1,2,0:0:0:0:
320,192,92160,1,0,0:0:0:0:
192,192,92327,128,8,92493:0:0:0:0:
320,192,92327,1,0,0:0:0:0:
64,192,92493,128,0,92577:0:0:0:0:
448,192,92493,128,0,92827:0:0:0:0:
320,192,92577,1,0,0:0:0:0:
192,192,92660,128,0,92743:0:0:0:0:
320,192,92743,1,0,0:0:0:0:
64,192,92827,1,2,0:0:0:0:
192,192,92827,1,0,0:0:0:0:
64,192,92993,1,8,0:0:0:0:
320,192,92993,128,0,93993:0:0:0:0:
192,192,93077,1,0,0:0:0:0:
448,192,93160,1,0,0:0:0:0:
192,192,93243,1,2,0:0:0:0:
64,192,93327,1,2,0:0:0:0:
448,192,93327,128,0,93493:0:0:0:0:
64,192,93493,128,2,93660:0:0:0:0:
192,192,93493,1,0,0:0:0:0:
192,192,93660,1,8,0:0:0:0:
448,192,93660,1,0,0:0:0:0:
448,192,93827,128,0,93910:0:0:0:0:
192,192,93910,1,0,0:0:0:0:
64,192,93993,128,0,94493:0:0:0:0:
448,192,93993,128,0,94077:0:0:0:0:
192,192,94077,1,0,0:0:0:0:
320,192,94160,1,2,0:0:0:0:
448,192,94160,1,0,0:0:0:0:
448,192,94327,1,0,0:0:0:0:
320,192,94410,1,0,0:0:0:0:
192,192,94493,1,8,0:0:0:0:
64,192,94577,1,0,0:0:0:0:
320,192,94660,128,2,94827:0:0:0:0:
448,192,94660,128,0,95993:0:0:0:0:
64,192,94827,128,2,94993:0:0:0:0:
192,192,94827,1,0,0:0:0:0:
192,192,94993,1,8,0:0:0:0:
320,192,94993,1,0,0:0:0:0:
64,192,95160,128,0,95243:0:0:0:0:
320,192,95243,1,0,0:0:0:0:
192,192,95327,128,0,95410:0:0:0:0:
320,192,95410,1,0,0:0:0:0:
64,192,95493,1,2,0:0:0:0:
192,192,95493,1,0,0:0:0:0:
192,192,95660,1,8,0:0:0:0:
320,192,95660,1,0,0:0:0:0:
64,192,95743,1,0,0:0:0:0:
320,192,95827,1,0,0:0:0:0:
192,192,95910,1,2,0:0:0:0:
64,192,95993,128,2,96327:0:0:0:0:
320,192,95993,128,0,96160:0:0:0:0:
192,192,96160,1,2,0:0:0:0:
448,192,96160,128,0,96327:0:0:0:0:
192,192,96326,1,0,0:0:0:0:
320,192,96326,1,0,0:0:0:0:
192,192,96493,128,0,96826:0:0:0:0:
448,192,96493,128,0,96576:0:0:0:0:
64,192,96576,1,0,0:0:0:0:
320,192,96660,128,0,96743:0:0:0:0:
64,192,96743,1,0,0:0:0:0:
320,192,96826,1,2,0:0:0:0:
448,192,96826,1,0,0:0:0:0:
64,192,96993,1,8,0:0:0:0:
448,192,96993,128,0,97160:0:0:0:0:
320,192,97076,1,0,0:0:0:0:
192,192,97160,1,0,0:0:0:0:
64,192,97243,1,2,0:0:0:0:
320,192,97326,128,2,97493:0:0:0:0:
448,192,97326,128,0,97826:0:0:0:0:
64,192,97493,1,2,0:0:0:0:
192,192,97493,128,0,97660:0:0:0:0:
64,192,97660,1,8,0:0:0:0:
320,192,97660,1,0,0:0:0:0:
64,192,97826,128,0,98326:0:0:0:0:
192,192,97826,128,0,97910:0:0:0:0:
320,192,97910,1,0,0:0:0:0:
448,192,97993,128,0,98076:0:0:0:0:
320,192,98076,1,0,0:0:0:0:
192,192,98160,1,2,0:0:0:0:
448,192,98160,1,0,0:0:0:0:
192,192,98326,1,8,0:0:0:0:
320,192,98326,128,0,99326:0:0:0:0:
448,192,98410,1,0,0:0:0:0:
64,192,98493,1,0,0:0:0:0:
192,192,98576,1,2,0:0:0:0:
64,192,98660,128,2,98826:0:0:0:0:
448,192,98660,1,0,0:0:0:0:
192,192,98826,1,2,0:0:0:0:
448,192,98826,128,0,98993:0:0:0:0:
64,192,98993,1,8,0:0:0:0:
192,192,98993,1,0,0:0:0:0:
448,192,99160,128,2,99243:0:0:0:0:
192,192,99243,1,0,0:0:0:0:
64,192,99326,128,8,99826:0:0:0:0:
448,192,99326,128,0,99410:0:0:0:0:
192,192,99410,1,0,0:0:0:0:
320,192,99493,1,2,0:0:0:0:
448,192,99493,1,0,0:0:0:0:
320,192,99660,1,8,0:0:0:0:
192,192,99743,1,0,0:0:0:0:
320,192,99826,1,2,0:0:0:0:
448,192,99826,1,0,0:0:0:0:
64,192,99910,1,0,0:0:0:0:
192,192,99993,1,2,0:0:0:0:
320,192,99993,128,4,100160:0:0:0:0:
448,192,99993,128,0,101326:0:0:0:0:
64,192,100160,128,2,100326:0:0:0:0:
192,192,100160,1,0,0:0:0:0:
192,192,100326,1,8,0:0:0:0:
320,192,100326,1,0,0:0:0:0:
64,192,100493,128,0,100576:0:0:0:0:
320,192,100576,1,0,0:0:0:0:
192,192,100660,128,0,100743:0:0:0:0:
320,192,100743,1,0,0:0:0:0:
64,192,100826,128,2,100993:0:0:0:0:
192,192,100826,1,0,0:0:0:0:
192,192,100993,1,8,0:0:0:0:
320,192,100993,1,0,0:0:0:0:
64,192,101076,1,0,0:0:0:0:
192,192,101160,1,0,0:0:0:0:
320,192,101243,1,2,0:0:0:0:
64,192,101326,128,2,101493:0:0:0:0:
192,192,101326,128,0,101660:0:0:0:0:
320,192,101493,128,2,101660:0:0:0:0:
448,192,101493,1,0,0:0:0:0:
64,192,101660,1,8,0:0:0:0:
448,192,101660,1,0,0:0:0:0:
192,192,101826,128,0,101910:0:0:0:0:
320,192,101826,128,0,102160:0:0:0:0:
64,192,101910,1,0,0:0:0:0:
448,192,101993,128,0,102076:0:0:0:0:
192,192,102076,1,0,0:0:0:0:
64,192,102160,1,2,0:0:0:0:
448,192,102160,1,0,0:0:0:0:
64,192,102326,128,8,102493:0:0:0:0:
192,192,102326,1,0,0:0:0:0:
448,192,102410,1,0,0:0:0:0:
320,192,102493,1,0,0:0:0:0:
192,192,102576,1,2,0:0:0:0:
64,192,102660,128,2,102993:0:0:0:0:
448,192,102660,128,0,102826:0:0:0:0:
192,192,102826,1,2,0:0:0:0:
320,192,102826,1,0,0:0:0:0:
192,192,102993,128,8,103160:0:0:0:0:
320,192,102993,1,0,0:0:0:0:
320,192,103160,128,0,103243:0:0:0:0:
448,192,103160,128,0,103493:0:0:0:0:
64,192,103243,1,0,0:0:0:0:
192,192,103326,128,0,103410:0:0:0:0:
320,192,103410,1,0,0:0:0:0:
64,192,103493,1,2,0:0:0:0:
192,192,103493,1,0,0:0:0:0:
64,192,103660,1,8,0:0:0:0:
320,192,103660,128,0,104660:0:0:0:0:
192,192,103743,1,0,0:0:0:0:
448,192,103826,1,0,0:0:0:0:
192,192,103910,1,2,0:0:0:0:
64,192,103993,1,2,0:0:0:0:
448,192,103993,128,0,104160:0:0:0:0:
64,192,104160,128,2,104326:0:0:0:0:
192,192,104160,1,0,0:0:0:0:
192,192,104326,1,8,0:0:0:0:
448,192,104326,1,0,0:0:0:0:
448,192,104493,128,0,104576:0:0:0:0:
192,192,104576,1,0,0:0:0:0:
64,192,104660,128,0,105160:0:0:0:0:
448,192,104660,128,0,104743:0:0:0:0:
192,192,104743,1,0,0:0:0:0:
320,192,104826,1,2,0:0:0:0:
448,192,104826,1,0,0:0:0:0:
448,192,104993,1,0,0:0:0:0:
320,192,105076,1,0,0:0:0:0:
192,192,105160,1,8,0:0:0:0:
64,192,105243,1,0,0:0:0:0:
320,192,105326,128,2,105493:0:0:0:0:
448,192,105326,128,0,106660:0:0:0:0:
64,192,105493,128,2,105660:0:0:0:0:
192,192,105493,1,0,0:0:0:0:
192,192,105660,1,8,0:0:0:0:
320,192,105660,1,0,0:0:0:0:
64,192,105826,128,0,105910:0:0:0:0:
320,192,105910,1,0,0:0:0:0:
192,192,105993,128,0,106076:0:0:0:0:
320,192,106076,1,0,0:0:0:0:
64,192,106160,1,2,0:0:0:0:
192,192,106160,1,0,0:0:0:0:
320,192,106326,1,8,0:0:0:0:
64,192,106410,1,0,0:0:0:0:
320,192,106493,1,0,0:0:0:0:
192,192,106576,1,2,0:0:0:0:
64,192,106660,128,2,106993:0:0:0:0:
320,192,106660,128,0,106826:0:0:0:0:
192,192,106826,1,2,0:0:0:0:
448,192,106826,128,0,106993:0:0:0:0:
192,192,106993,1,8,0:0:0:0:
320,192,106993,1,0,0:0:0:0:
192,192,107160,128,0,107493:0:0:0:0:
448,192,107160,128,0,107243:0:0:0:0:
64,192,107243,1,0,0:0:0:0:
320,192,107326,128,0,107410:0:0:0:0:
64,192,107410,1,0,0:0:0:0:
320,192,107493,1,2,0:0:0:0:
448,192,107493,1,0,0:0:0:0:
64,192,107660,1,8,0:0:0:0:
448,192,107660,128,0,107826:0:0:0:0:
320,192,107743,1,0,0:0:0:0:
192,192,107826,1,0,0:0:0:0:
64,192,107910,1,2,0:0:0:0:
320,192,107993,128,2,108160:0:0:0:0:
448,192,107993,128,0,108493:0:0:0:0:
64,192,108160,1,2,0:0:0:0:
192,192,108160,128,0,108326:0:0:0:0:
64,192,108326,1,8,0:0:0:0:
320,192,108326,1,0,0:0:0:0:
64,192,108493,128,0,108993:0:0:0:0:
192,192,108493,1,0,0:0:0:0:
320,192,108576,1,0,0:0:0:0:
448,192,108660,1,0,0:0:0:0:
192,192,108743,1,0,0:0:0:0:
448,192,108826,1,2,0:0:0:0:
320,192,108910,1,0,0:0:0:0:
192,192,108993,128,8,109076:0:0:0:0:
320,192,109076,128,0,109160:0:0:0:0:
64,192,109160,128,0,109243:0:0:0:0:
192,192,109243,128,2,109326:0:0:0:0:
320,192,109326,128,2,109410:0:0:0:0:
448,192,109326,128,0,109493:0:0:0:0:
64,192,109410,128,0,109493:0:0:0:0:
192,192,109493,128,2,109576:0:0:0:0:
320,192,109493,128,0,109660:0:0:0:0:
448,192,109576,128,0,109660:0:0:0:0:
64,192,109660,128,8,109743:0:0:0:0:
192,192,109743,128,0,109826:0:0:0:0:
64,192,109826,128,2,109993:0:0:0:0:
320,192,109826,128,0,109910:0:0:0:0:
448,192,109910,128,0,109993:0:0:0:0:
192,192,109993,128,8,110160:0:0:0:0:
320,192,109993,128,0,110076:0:0:0:0:
448,192,110076,128,0,110243:0:0:0:0:
64,192,110160,128,2,110243:0:0:0:0:
320,192,110160,128,0,110326:0:0:0:0:
192,192,110243,128,0,110410:0:0:0:0:
64,192,110326,128,8,110410:0:0:0:0:
448,192,110326,128,0,110493:0:0:0:0:
320,192,110410,128,0,110576:0:0:0:0:
64,192,110493,128,2,110576:0:0:0:0:
192,192,110493,128,0,110576:0:0:0:0:
448,192,110576,128,0,110660:0:0:0:0:
64,192,110660,1,4,0:0:0:0:
192,192,110660,1,2,0:0:0:0:
320,192,110660,128,0,110826:0:0:0:0:
448,192,110993,128,0,111160:0:0:0:0:
64,192,111160,128,0,111660:0:0:0:0:
320,192,111660,128,0,111993:0:0:0:0:
448,192,111993,128,0,112160:0:0:0:0:
192,192,112160,128,0,112326:0:0:0:0:
320,192,112326,128,0,112493:0:0:0:0:
64,192,112493,128,0,112660:0:0:0:0:
192,192,112660,128,0,112826:0:0:0:0:
320,192,112826,128,0,112993:0:0:0:0:
64,192,112993,128,0,113160:0:0:0:0:
448,192,113160,128,0,113326:0:0:0:0:
192,192,113326,128,0,113660:0:0:0:0:
448,192,113660,128,0,113826:0:0:0:0:
64,192,113826,128,0,114326:0:0:0:0:
320,192,114326,128,0,114660:0:0:0:0:
448,192,114660,128,0,114826:0:0:0:0:
192,192,114826,128,0,114993:0:0:0:0:
320,192,114993,128,0,115160:0:0:0:0:
64,192,115160,128,0,115326:0:0:0:0:
192,192,115326,128,0,115493:0:0:0:0:
320,192,115493,128,0,115660:0:0:0:0:
64,192,115660,128,0,115826:0:0:0:0:
448,192,115826,128,0,115993:0:0:0:0:
192,192,115993,128,0,116326:0:0:0:0:
448,192,116326,128,0,116493:0:0:0:0:
64,192,116493,128,0,116993:0:0:0:0:
320,192,116993,128,0,117326:0:0:0:0:
448,192,117326,128,0,117493:0:0:0:0:
192,192,117493,128,0,117660:0:0:0:0:
320,192,117660,128,0,117826:0:0:0:0:
64,192,117826,128,0,117993:0:0:0:0:
192,192,117993,128,0,118160:0:0:0:0:
320,192,118160,128,0,118326:0:0:0:0:
64,192,118326,128,0,118493:0:0:0:0:
448,192,118493,128,0,118660:0:0:0:0:
192,192,118660,128,0,118993:0:0:0:0:
448,192,118993,128,0,119160:0:0:0:0:
320,192,119160,128,0,119493:0:0:0:0:
448,192,119326,128,0,121160:0:0:0:0:
192,192,119493,128,0,119660:0:0:0:0:
64,192,119660,128,0,119826:0:0:0:0:
192,192,119826,128,0,119993:0:0:0:0:
320,192,119993,128,0,120160:0:0:0:0:
64,192,120160,128,0,120326:0:0:0:0:
320,192,120326,128,0,120493:0:0:0:0:
64,192,120493,128,0,120660:0:0:0:0:
192,192,120660,128,0,120826:0:0:0:0:
320,192,120826,128,0,121160:0:0:0:0:
192,192,121160,128,0,121326:0:0:0:0:
64,192,121326,1,0,0:0:0:70:Kick 4.wav
320,192,121326,1,0,0:0:0:0:
448,192,121326,1,0,0:0:0:0:
192,192,121493,1,0,0:0:0:0:
192,192,121660,1,0,0:0:0:0:
64,192,121826,1,0,0:0:0:70:LR_Snare Wet Echoing Hollow.wav
320,192,121826,1,0,0:0:0:0:
64,192,121993,1,0,0:0:0:70:LR_Snare Hollow.wav
192,192,121993,1,0,0:0:0:0:
448,192,121993,1,0,0:0:0:0:
448,192,122160,1,0,0:0:0:0:
64,192,122326,1,0,0:0:0:0:
320,192,122326,1,0,0:0:0:0:
192,192,122493,1,0,0:0:0:70:Kick 4.wav
64,192,122660,1,0,0:0:0:70:Kick 4.wav
320,192,122660,1,0,0:0:0:0:
448,192,122660,1,0,0:0:0:0:
64,192,122826,1,0,0:0:0:0:
192,192,122826,1,0,0:0:0:0:
192,192,122993,1,0,0:0:0:70:Kick 4.wav
320,192,122993,1,0,0:0:0:70:LR_Snare Wet Echoing Hollow.wav
448,192,122993,1,0,0:0:0:0:
64,192,123160,1,0,0:0:0:0:
64,192,123326,1,0,0:0:0:70:LR_Snare Hollow.wav
320,192,123326,1,0,0:0:0:0:
448,192,123326,1,0,0:0:0:0:
448,192,123493,1,0,0:0:0:0:
64,192,123660,1,0,0:0:0:0:
320,192,123660,1,0,0:0:0:0:
192,192,123826,1,0,0:0:0:0:
448,192,123826,1,0,0:0:0:0:
64,192,123993,1,0,0:0:0:70:Kick 4.wav
320,192,123993,1,0,0:0:0:0:
448,192,123993,1,0,0:0:0:0:
64,192,124160,1,0,0:0:0:0:
192,192,124160,1,0,0:0:0:0:
192,192,124326,1,0,0:0:0:70:Kick 4.wav
320,192,124326,1,0,0:0:0:0:
448,192,124326,1,0,0:0:0:0:
64,192,124493,1,0,0:0:0:70:LR_Snare Wet Echoing Hollow.wav
64,192,124660,1,0,0:0:0:70:LR_Snare Hollow.wav
192,192,124660,1,0,0:0:0:0:
448,192,124660,1,0,0:0:0:0:
320,192,124826,1,0,0:0:0:0:
192,192,124993,1,0,0:0:0:0:
448,192,124993,1,0,0:0:0:0:
64,192,125160,1,0,0:0:0:70:LR_Snare Hollow.wav
320,192,125160,1,0,0:0:0:0:
448,192,125160,1,0,0:0:0:0:
192,192,125326,1,0,0:0:0:0:
320,192,125493,1,0,0:0:0:70:LR_Snare Hollow.wav
448,192,125493,1,0,0:0:0:0:
64,192,125660,1,0,0:0:0:70:Kick 4.wav
192,192,125660,1,0,0:0:0:0:
320,192,125660,1,0,0:0:0:0:
192,192,125826,1,0,0:0:0:70:Kick 4.wav
448,192,125826,1,0,0:0:0:0:
64,192,125993,1,0,0:0:0:70:LR_Snare Hollow.wav
320,192,125993,1,0,0:0:0:0:
448,192,125993,1,0,0:0:0:0:
320,192,126160,1,0,0:0:0:0:
64,192,126326,1,0,0:0:0:0:
192,192,126326,1,0,0:0:0:0:
320,192,126368,1,0,0:0:0:0:
448,192,126410,1,0,0:0:0:0:
64,192,126451,1,0,0:0:0:0:
192,192,126493,1,0,0:0:0:0:
320,192,126535,1,0,0:0:0:0:
448,192,126576,1,0,0:0:0:0:
64,192,126660,1,2,0:0:0:0:
192,192,126660,1,0,0:0:0:0:
320,192,126743,1,0,0:0:0:0:
192,192,126826,1,0,0:0:0:0:
64,192,126910,1,2,0:0:0:0:
448,192,126910,1,0,0:0:0:0:
64,192,127326,1,2,0:0:0:0:
320,192,127326,1,0,0:0:0:70:LR_Snare Hollow.wav
192,192,127410,1,0,0:0:0:0:
320,192,127493,1,0,0:0:0:0:
64,192,127576,1,2,0:0:0:0:
448,192,127576,1,0,0:0:0:0:
64,192,127993,1,2,0:0:0:0:
320,192,128076,1,0,0:0:0:0:
64,192,128160,1,2,0:0:0:0:
320,192,128243,1,0,0:0:0:0:
192,192,128326,1,2,0:0:0:0:
448,192,128326,1,0,0:0:0:70:LR_Snare Wet Echoing Hollow.wav
320,192,128493,1,0,0:0:0:0:
64,192,128660,1,2,0:0:0:0:
192,192,128660,1,0,0:0:0:70:LR_Snare Hollow.wav
448,192,128743,1,0,0:0:0:0:
192,192,128826,1,0,0:0:0:0:
64,192,128910,1,2,0:0:0:0:
320,192,128910,1,0,0:0:0:0:
64,192,129326,1,2,0:0:0:0:
320,192,129326,1,0,0:0:0:0:
64,192,129493,1,2,0:0:0:0:
192,192,129493,1,0,0:0:0:0:
192,192,129660,1,0,0:0:0:70:LR_Snare Hollow.wav
320,192,129660,1,0,0:0:0:0:
448,192,129660,1,0,0:0:0:0:
64,192,129826,1,0,0:0:0:0:
320,192,129910,1,0,0:0:0:0:
64,192,129993,1,0,0:0:0:70:LR_Snare Hollow.wav
320,192,130076,1,0,0:0:0:0:
192,192,130160,1,2,0:0:0:0:
448,192,130160,1,0,0:0:0:0:
64,192,130326,1,0,0:0:0:0:
320,192,130326,1,0,0:0:0:0:
448,192,130326,1,0,0:0:0:0:
192,192,130410,1,0,0:0:0:0:
320,192,130493,1,2,0:0:0:0:
448,192,130493,1,0,0:0:0:70:LR_Snare Hollow.wav
64,192,130660,1,2,0:0:0:0:
192,192,130660,1,0,0:0:0:0:
64,192,130826,1,2,0:0:0:0:
320,192,130826,1,0,0:0:0:0:
192,192,130993,1,0,0:0:0:70:Kick 4.wav
320,192,130993,1,0,0:0:0:0:
448,192,130993,1,0,0:0:0:0:
64,192,131160,1,2,0:0:0:0:
192,192,131160,1,0,0:0:0:0:
64,192,131326,128,0,131826:0:0:0:70:LR_Snare Hollow.wav
320,192,131326,1,0,0:0:0:0:
448,192,131326,1,0,0:0:0:0:
192,192,131493,1,2,0:0:0:0:
320,192,131493,1,0,0:0:0:0:
448,192,131660,1,0,0:0:0:0:
320,192,131743,1,2,0:0:0:0:
192,192,131826,1,2,0:0:0:0:
64,192,131910,1,2,0:0:0:0:
192,192,131993,1,4,0:0:0:0:
320,192,131993,128,2,132160:0:0:0:0:
448,192,131993,128,0,132660:0:0:0:0:
64,192,132160,1,2,0:0:0:0:
192,192,132160,128,0,132326:0:0:0:0:
64,192,132326,1,8,0:0:0:0:
320,192,132326,1,0,0:0:0:0:
64,192,132493,128,0,132576:0:0:0:0:
192,192,132576,128,0,132660:0:0:0:0:
320,192,132660,128,0,132743:0:0:0:0:
64,192,132743,128,0,132826:0:0:0:0:
192,192,132826,128,2,132910:0:0:0:0:
448,192,132826,128,0,132910:0:0:0:0:
320,192,132910,128,0,132993:0:0:0:0:
64,192,132993,128,8,133076:0:0:0:0:
192,192,132993,128,0,133076:0:0:0:0:
448,192,133076,128,0,133160:0:0:0:0:
192,192,133160,128,0,133243:0:0:0:0:
320,192,133160,128,0,133243:0:0:0:0:
64,192,133243,128,2,133326:0:0:0:0:
320,192,133326,128,2,133660:0:0:0:0:
448,192,133326,128,0,133410:0:0:0:0:
64,192,133493,1,2,0:0:0:0:
192,192,133493,1,0,0:0:0:0:
64,192,133660,1,8,0:0:0:0:
448,192,133660,1,0,0:0:0:0:
64,192,133826,128,0,133910:0:0:0:0:
320,192,133826,128,0,134160:0:0:0:0:
448,192,133910,1,0,0:0:0:0:
192,192,133993,128,0,134076:0:0:0:0:
448,192,134076,1,0,0:0:0:0:
64,192,134160,1,2,0:0:0:0:
192,192,134160,1,0,0:0:0:0:
192,192,134326,1,8,0:0:0:0:
448,192,134326,128,0,134493:0:0:0:0:
320,192,134410,1,0,0:0:0:0:
64,192,134493,1,0,0:0:0:0:
192,192,134576,1,2,0:0:0:0:
320,192,134660,128,2,134826:0:0:0:0:
448,192,134660,128,0,135160:0:0:0:0:
64,192,134826,128,2,134993:0:0:0:0:
192,192,134826,1,0,0:0:0:0:
192,192,134993,1,8,0:0:0:0:
320,192,134993,1,0,0:0:0:0:
192,192,135160,128,0,135493:0:0:0:0:
320,192,135160,128,0,135243:0:0:0:0:
64,192,135243,1,0,0:0:0:0:
448,192,135326,128,0,135410:0:0:0:0:
320,192,135410,1,0,0:0:0:0:
64,192,135493,1,2,0:0:0:0:
448,192,135493,1,0,0:0:0:0:
64,192,135660,1,8,0:0:0:0:
320,192,135660,128,0,135743:0:0:0:0:
448,192,135660,128,0,135743:0:0:0:0:
192,192,135743,128,0,135826:0:0:0:0:
64,192,135826,128,0,135910:0:0:0:0:
320,192,135910,128,2,135993:0:0:0:0:
448,192,135910,128,0,135993:0:0:0:0:
64,192,135993,128,2,136076:0:0:0:0:
192,192,135993,128,0,136076:0:0:0:0:
448,192,136076,128,0,136160:0:0:0:0:
64,192,136160,128,2,136243:0:0:0:0:
192,192,136160,128,0,136243:0:0:0:0:
320,192,136243,128,0,136326:0:0:0:0:
192,192,136326,128,8,136410:0:0:0:0:
448,192,136326,128,0,136410:0:0:0:0:
320,192,136410,128,0,136493:0:0:0:0:
64,192,136493,128,0,136576:0:0:0:0:
448,192,136493,128,0,136576:0:0:0:0:
192,192,136576,128,0,136660:0:0:0:0:
64,192,136660,128,0,136743:0:0:0:0:
320,192,136660,128,0,136743:0:0:0:0:
448,192,136743,128,0,136826:0:0:0:0:
192,192,136826,128,2,136910:0:0:0:0:
320,192,136826,128,0,136910:0:0:0:0:
64,192,136910,128,0,136993:0:0:0:0:
192,192,136993,128,0,137076:0:0:0:0:
448,192,136993,128,0,137076:0:0:0:0:
320,192,137076,128,0,137160:0:0:0:0:
64,192,137160,128,8,137243:0:0:0:0:
448,192,137160,128,0,137243:0:0:0:0:
192,192,137243,128,0,137326:0:0:0:0:
320,192,137326,128,2,137493:0:0:0:0:
448,192,137326,128,0,137993:0:0:0:0:
64,192,137493,1,2,0:0:0:0:
192,192,137493,128,0,137660:0:0:0:0:
64,192,137660,1,8,0:0:0:0:
320,192,137660,1,0,0:0:0:0:
192,192,137826,1,0,0:0:0:0:
320,192,137910,1,0,0:0:0:0:
64,192,137993,128,0,138076:0:0:0:0:
192,192,137993,128,0,138076:0:0:0:0:
448,192,138076,128,0,138160:0:0:0:0:
320,192,138160,128,2,138243:0:0:0:0:
64,192,138243,128,0,138326:0:0:0:0:
192,192,138326,128,8,138410:0:0:0:0:
448,192,138326,128,0,138410:0:0:0:0:
320,192,138410,128,0,138493:0:0:0:0:
64,192,138493,128,0,138576:0:0:0:0:
320,192,138576,128,2,138660:0:0:0:0:
64,192,138660,128,2,138993:0:0:0:0:
448,192,138660,128,0,138826:0:0:0:0:
192,192,138826,1,2,0:0:0:0:
320,192,138826,128,0,138993:0:0:0:0:
192,192,138993,1,8,0:0:0:0:
448,192,138993,1,0,0:0:0:0:
192,192,139160,128,0,139493:0:0:0:0:
320,192,139160,128,0,139243:0:0:0:0:
64,192,139243,1,0,0:0:0:0:
448,192,139326,128,0,139410:0:0:0:0:
64,192,139410,1,0,0:0:0:0:
320,192,139493,1,2,0:0:0:0:
448,192,139493,1,0,0:0:0:0:
64,192,139660,1,8,0:0:0:0:
448,192,139660,128,0,139826:0:0:0:0:
320,192,139743,1,0,0:0:0:0:
192,192,139826,1,0,0:0:0:0:
64,192,139910,1,2,0:0:0:0:
320,192,139993,128,2,140160:0:0:0:0:
448,192,139993,128,0,140493:0:0:0:0:
64,192,140160,1,2,0:0:0:0:
192,192,140160,128,0,140326:0:0:0:0:
64,192,140326,1,8,0:0:0:0:
320,192,140326,1,0,0:0:0:0:
64,192,140493,128,0,140826:0:0:0:0:
320,192,140493,128,0,140576:0:0:0:0:
192,192,140576,1,0,0:0:0:0:
448,192,140660,128,0,140743:0:0:0:0:
192,192,140743,1,0,0:0:0:0:
320,192,140826,1,2,0:0:0:0:
448,192,140826,1,0,0:0:0:0:
64,192,140993,1,8,0:0:0:0:
192,192,140993,1,0,0:0:0:0:
448,192,141076,1,0,0:0:0:0:
192,192,141160,1,0,0:0:0:0:
320,192,141243,1,2,0:0:0:0:
448,192,141243,1,0,0:0:0:0:
64,192,141326,128,2,141576:0:0:0:0:
192,192,141326,128,0,141438:0:0:0:0:
448,192,141438,128,0,141549:0:0:0:0:
320,192,141549,128,0,141771:0:0:0:0:
192,192,141660,128,8,141882:0:0:0:0:
448,192,141660,128,0,141771:0:0:0:0:
64,192,141771,128,0,141993:0:0:0:0:
320,192,141882,128,0,142104:0:0:0:0:
192,192,141993,128,8,142215:0:0:0:0:
448,192,141993,128,0,142660:0:0:0:0:
64,192,142104,128,0,142326:0:0:0:0:
320,192,142215,128,0,142410:0:0:0:0:
192,192,142326,128,8,142410:0:0:0:0:
64,192,142410,128,0,142493:0:0:0:0:
192,192,142493,128,2,142576:0:0:0:0:
320,192,142576,128,0,142660:0:0:0:0:
64,192,142660,128,4,143326:0:0:0:0:
192,192,142660,128,2,142826:0:0:0:0:
320,192,142826,128,2,142993:0:0:0:0:
448,192,142826,1,0,0:0:0:0:
192,192,142993,1,8,0:0:0:0:
448,192,142993,1,0,0:0:0:0:
192,192,143160,128,0,143243:0:0:0:0:
320,192,143243,1,0,0:0:0:0:
192,192,143326,128,0,143410:0:0:0:0:
448,192,143326,128,0,143993:0:0:0:0:
320,192,143410,1,0,0:0:0:0:
64,192,143493,1,2,0:0:0:0:
192,192,143493,1,0,0:0:0:0:
192,192,143660,1,8,0:0:0:0:
320,192,143660,1,0,0:0:0:0:
64,192,143826,1,0,0:0:0:0:
192,192,143910,1,2,0:0:0:0:
64,192,143993,128,2,144160:0:0:0:0:
320,192,143993,128,0,144326:0:0:0:0:
192,192,144160,1,2,0:0:0:0:
448,192,144160,128,0,144326:0:0:0:0:
64,192,144326,1,8,0:0:0:0:
192,192,144326,1,0,0:0:0:0:
192,192,144493,128,0,144826:0:0:0:0:
320,192,144493,128,0,144576:0:0:0:0:
448,192,144576,1,0,0:0:0:0:
64,192,144660,128,0,144743:0:0:0:0:
320,192,144743,1,0,0:0:0:0:
64,192,144826,1,2,0:0:0:0:
448,192,144826,1,0,0:0:0:0:
64,192,144993,128,8,145993:0:0:0:0:
192,192,144993,1,0,0:0:0:0:
320,192,145076,1,0,0:0:0:0:
448,192,145160,1,0,0:0:0:0:
192,192,145243,1,2,0:0:0:0:
320,192,145326,128,2,145493:0:0:0:0:
448,192,145326,1,0,0:0:0:0:
192,192,145493,1,2,0:0:0:0:
448,192,145493,128,0,145660:0:0:0:0:
192,192,145660,1,8,0:0:0:0:
320,192,145660,1,0,0:0:0:0:
320,192,145826,128,0,145910:0:0:0:0:
192,192,145910,1,0,0:0:0:0:
320,192,145993,128,0,146076:0:0:0:0:
448,192,145993,128,0,146660:0:0:0:0:
192,192,146076,1,0,0:0:0:0:
64,192,146160,1,2,0:0:0:0:
320,192,146160,1,0,0:0:0:0:
64,192,146326,1,8,0:0:0:0:
192,192,146326,1,0,0:0:0:0:
320,192,146493,1,0,0:0:0:0:
192,192,146576,1,2,0:0:0:0:
64,192,146660,128,2,146993:0:0:0:0:
320,192,146660,128,0,146826:0:0:0:0:
192,192,146826,1,2,0:0:0:0:
448,192,146826,128,0,146993:0:0:0:0:
192,192,146993,1,8,0:0:0:0:
320,192,146993,1,0,0:0:0:0:
192,192,147160,128,0,147493:0:0:0:0:
320,192,147160,128,0,147243:0:0:0:0:
64,192,147243,1,0,0:0:0:0:
448,192,147326,128,0,147410:0:0:0:0:
320,192,147410,1,0,0:0:0:0:
64,192,147493,1,2,0:0:0:0:
448,192,147493,1,0,0:0:0:0:
64,192,147660,1,0,0:0:0:0:
320,192,147660,128,0,147993:0:0:0:0:
192,192,147743,1,0,0:0:0:0:
448,192,147826,1,8,0:0:0:0:
64,192,147910,1,0,0:0:0:0:
192,192,147993,128,2,148160:0:0:0:0:
448,192,147993,128,0,148660:0:0:0:0:
64,192,148160,1,2,0:0:0:0:
320,192,148160,128,0,148326:0:0:0:0:
64,192,148326,1,8,0:0:0:0:
192,192,148326,1,0,0:0:0:0:
320,192,148493,128,0,148576:0:0:0:0:
192,192,148576,1,0,0:0:0:0:
64,192,148660,128,0,149326:0:0:0:0:
320,192,148660,128,0,148743:0:0:0:0:
192,192,148743,1,0,0:0:0:0:
320,192,148826,1,2,0:0:0:0:
448,192,148826,1,0,0:0:0:0:
192,192,148993,1,8,0:0:0:0:
320,192,148993,1,0,0:0:0:0:
448,192,149160,1,0,0:0:0:0:
320,192,149243,1,2,0:0:0:0:
192,192,149326,128,2,149493:0:0:0:0:
448,192,149326,128,0,149660:0:0:0:0:
64,192,149493,128,2,149660:0:0:0:0:
320,192,149493,1,0,0:0:0:0:
192,192,149660,1,8,0:0:0:0:
320,192,149660,1,0,0:0:0:0:
192,192,149826,128,0,149910:0:0:0:0:
320,192,149826,128,0,150160:0:0:0:0:
64,192,149910,1,0,0:0:0:0:
448,192,149993,128,0,150076:0:0:0:0:
64,192,150076,1,0,0:0:0:0:
192,192,150160,1,2,0:0:0:0:
448,192,150160,1,0,0:0:0:0:
192,192,150326,128,8,150660:0:0:0:0:
448,192,150326,1,0,0:0:0:0:
64,192,150410,1,0,0:0:0:0:
320,192,150493,1,0,0:0:0:0:
448,192,150576,1,2,0:0:0:0:
64,192,150660,128,2,151160:0:0:0:0:
320,192,150660,128,0,150826:0:0:0:0:
192,192,150826,128,2,150993:0:0:0:0:
448,192,150826,1,0,0:0:0:0:
320,192,150993,1,8,0:0:0:0:
448,192,150993,1,0,0:0:0:0:
192,192,151160,128,0,151660:0:0:0:0:
320,192,151160,128,0,151243:0:0:0:0:
448,192,151243,1,0,0:0:0:0:
64,192,151326,128,0,151410:0:0:0:0:
448,192,151410,1,0,0:0:0:0:
64,192,151493,1,2,0:0:0:0:
320,192,151493,1,0,0:0:0:0:
320,192,151660,128,8,151743:0:0:0:0:
448,192,151660,128,0,151743:0:0:0:0:
192,192,151743,128,0,151826:0:0:0:0:
64,192,151826,128,0,151910:0:0:0:0:
320,192,151910,128,2,151993:0:0:0:0:
448,192,151910,128,0,151993:0:0:0:0:
64,192,151993,128,2,152076:0:0:0:0:
192,192,151993,128,0,152076:0:0:0:0:
448,192,152076,128,0,152160:0:0:0:0:
64,192,152160,128,2,152243:0:0:0:0:
192,192,152160,128,0,152243:0:0:0:0:
320,192,152243,128,0,152326:0:0:0:0:
192,192,152326,128,8,152410:0:0:0:0:
448,192,152326,128,0,152410:0:0:0:0:
320,192,152410,128,0,152493:0:0:0:0:
64,192,152493,128,2,152576:0:0:0:0:
448,192,152493,128,0,152576:0:0:0:0:
192,192,152576,128,0,152660:0:0:0:0:
64,192,152660,128,8,152743:0:0:0:0:
320,192,152660,128,0,152743:0:0:0:0:
448,192,152743,128,0,152826:0:0:0:0:
192,192,152826,128,2,152910:0:0:0:0:
320,192,152826,128,0,152910:0:0:0:0:
64,192,152910,128,0,152993:0:0:0:0:
192,192,152993,128,8,153076:0:0:0:0:
448,192,152993,128,0,153076:0:0:0:0:
320,192,153076,128,0,153160:0:0:0:0:
64,192,153160,128,2,153243:0:0:0:0:
448,192,153160,128,0,153243:0:0:0:0:
192,192,153243,128,0,153326:0:0:0:0:
64,192,153326,1,4,0:0:0:0:
320,192,153326,1,2,0:0:0:0:
448,192,153326,1,0,0:0:0:0:
192,192,153493,1,0,0:0:0:0:
64,192,153660,1,0,0:0:0:0:
448,192,153826,1,0,0:0:0:0:
320,192,153993,1,0,0:0:0:0:
64,192,154160,1,0,0:0:0:0:
320,192,154326,1,0,0:0:0:0:
192,192,154493,1,0,0:0:0:0:
64,192,154660,1,0,0:0:0:0:
448,192,154826,1,0,0:0:0:0:
320,192,154993,1,0,0:0:0:0:
64,192,155160,1,0,0:0:0:0:
448,192,155326,1,0,0:0:0:0:
192,192,155493,1,0,0:0:0:0:
448,192,155660,1,0,0:0:0:0:
320,192,155743,1,0,0:0:0:0:
64,192,155826,1,0,0:0:0:0:
320,192,155993,1,0,0:0:0:0:
448,192,155993,1,0,0:0:0:0:
192,192,156160,1,0,0:0:0:0:
64,192,156326,1,0,0:0:0:0:
448,192,156493,1,0,0:0:0:0:
320,192,156660,1,0,0:0:0:0:
64,192,156826,1,0,0:0:0:0:
320,192,156993,1,0,0:0:0:0:
192,192,157160,1,0,0:0:0:0:
64,192,157326,1,0,0:0:0:0:
320,192,157326,1,0,0:0:0:0:
448,192,157493,1,0,0:0:0:0:
64,192,157660,1,0,0:0:0:0:
192,192,157826,1,0,0:0:0:0:
320,192,157993,1,0,0:0:0:0:
64,192,158160,1,0,0:0:0:0:
448,192,158160,1,0,0:0:0:0:
320,192,158326,1,0,0:0:0:0:
192,192,158410,1,0,0:0:0:0:
64,192,158493,1,0,0:0:0:0:
320,192,158660,1,0,0:0:0:0:
448,192,158660,1,0,0:0:0:0:
192,192,158826,1,0,0:0:0:0:
64,192,158993,1,0,0:0:0:0:
320,192,158993,1,0,0:0:0:0:
448,192,159160,1,0,0:0:0:0:
192,192,159326,1,0,0:0:0:0:
320,192,159326,1,0,0:0:0:0:
64,192,159493,1,0,0:0:0:0:
192,192,159660,1,0,0:0:0:0:
448,192,159660,1,0,0:0:0:0:
320,192,159826,1,0,0:0:0:0:
64,192,159993,1,0,0:0:0:0:
192,192,159993,1,0,0:0:0:0:
448,192,160160,1,0,0:0:0:0:
192,192,160326,1,0,0:0:0:0:
64,192,160493,1,0,0:0:0:0:
320,192,160660,1,0,0:0:0:0:
64,192,160826,1,0,0:0:0:0:
448,192,160993,1,0,0:0:0:0:
320,192,161076,1,0,0:0:0:0:
192,192,161160,1,0,0:0:0:0:
448,192,161326,1,0,0:0:0:0:
320,192,161493,1,0,0:0:0:0:
64,192,161660,1,0,0:0:0:0:
448,192,161826,1,0,0:0:0:0:
320,192,161993,1,0,0:0:0:0:
192,192,162160,1,0,0:0:0:0:
64,192,162326,1,0,0:0:0:0:
192,192,162493,1,0,0:0:0:0:
320,192,162535,1,0,0:0:0:0:
448,192,162576,128,0,167410:0:0:0:0:
64,192,162660,128,0,167410:0:0:0:0:
