osu file format v14

[General]
AudioFilename: audio.mp3
AudioLeadIn: 0
PreviewTime: 88649
Countdown: 1
SampleSet: Soft
StackLeniency: 0.7
Mode: 0
LetterboxInBreaks: 0
WidescreenStoryboard: 0

[Editor]
Bookmarks: 11316,31316,41982,52649,63316,65982,76649,110649,121315,131982
DistanceSpacing: 0.6
BeatDivisor: 4
GridSize: 32
TimelineZoom: 2

[Metadata]
Title:felys final remix
TitleUnicode:felys final remix
Artist:onoken
ArtistUnicode:onoken
Creator:Elayue
Version:Extra
Source:CHUNITHM CRYSTAL PLUS
Tags:pdc pending cup 2020 pdc2020 mapping contest xahlt acyl acylica shizuku- kazato asa shikibe mayu -[shady]- maimai でらっくす Splash オンゲキ チュウニズム パラダイス instrumental electronic
BeatmapID:2733463
BeatmapSetID:1319560

[Difficulty]
HPDrainRate:5
CircleSize:4.2
OverallDifficulty:8.8
ApproachRate:9.4
SliderMultiplier:1.7
SliderTickRate:1

[Events]
//Background and Video events
0,0,"bg.jpg",0,0
//Break Periods
2,110849,118775
//Storyboard Layer 0 (Background)
//Storyboard Layer 1 (Fail)
//Storyboard Layer 2 (Pass)
//Storyboard Layer 3 (Foreground)
//Storyboard Layer 4 (Overlay)
//Storyboard Sound Samples

[TimingPoints]
9983,333.333333333333,4,2,3,30,1,0
9983,-111.111111111111,4,2,3,30,0,0
25982,-111.111111111111,4,2,3,45,0,0
26899,-100,4,2,3,45,0,0
27316,-111.111111111111,4,2,3,45,0,0
30316,-100,4,2,3,45,0,0
31316,-111.111111111111,4,2,3,45,0,0
41982,-99.9999999999999,4,2,3,55,0,0
65982,-125,4,2,3,35,0,0
76649,-111.111111111111,4,2,3,45,0,0
88649,-500,4,2,3,45,0,0
89316,333.333333333333,4,2,3,75,1,0
89316,-71.4285714285714,4,2,3,75,0,0
89816,-76.9230769230769,4,2,3,75,0,0
96982,-66.6666666666667,4,2,3,75,0,0
97315,-76.9230769230769,4,2,3,75,0,0
99982,-66.6666666666667,4,2,3,75,0,0
101315,-76.9230769230769,4,2,3,75,0,0
107649,-66.6666666666667,4,2,3,75,0,0
107899,-76.9230769230769,4,2,3,75,0,0
107982,-62.5,4,2,3,75,0,0
108149,-66.6666666666667,4,2,3,75,0,0
108482,-76.9230769230769,4,2,3,75,0,0
108982,-66.6666666666667,4,2,3,75,0,0
109315,-76.9230769230769,4,2,3,75,0,0
121315,-111.111111111111,4,2,3,55,0,0
131982,-71.4285714285714,4,2,3,75,0,0
132482,-76.9230769230769,4,2,3,75,0,0
139648,-66.6666666666667,4,2,3,75,0,0
139981,-76.9230769230769,4,2,3,75,0,0
142648,-66.6666666666667,4,2,3,75,0,0
143149,-76.9230769230769,4,2,3,75,0,0
143649,-71.4285714285714,4,2,3,75,0,0
143981,-76.9230769230769,4,2,3,75,0,0
149232,-66.6666666666667,4,2,3,75,0,0
149815,-76.9230769230769,4,2,3,75,0,0
150315,-66.6666666666667,4,2,3,75,0,0
150565,-76.9230769230769,4,2,3,75,0,0
150648,-62.5,4,2,3,75,0,0
150815,-66.6666666666667,4,2,3,75,0,0
151148,-76.9230769230769,4,2,3,75,0,0
151648,-66.6666666666667,4,2,3,75,0,0
151981,-76.9230769230769,4,2,3,75,0,0

[Colours]
Combo1 : 174,94,255
Combo2 : 164,164,255
Combo3 : 255,128,192

[HitObjects]
159,309,9983,6,0,B|165:263|124:226|114:272|72:236|78:190,1,152.999995330811,2|0,0:0|0:0,0:0:0:0:
84,115,10483,2,0,B|64:110|49:94|49:94|45:118|30:132,2,76.4999976654053,2|2|2,0:0|0:0|0:0,0:0:0:0:
198,205,10983,6,0,B|301:178|301:178|317:202|352:220,1,152.999995330811,2|2,0:0|0:0,0:0:0:0:
410,167,11483,2,0,B|415:185|436:197|436:197|421:207|404:257,2,76.4999976654053,2|2|2,0:0|0:0|0:0,0:0:0:0:
324,33,11983,6,0,B|333:66|333:66|329:78|329:78|340:113,1,76.4999976654053,2|2,0:0|0:0,0:0:0:0:
415,226,12316,1,2,0:0:0:0:
417,214,12399,1,2,0:0:0:0:
419,202,12483,1,2,0:0:0:0:
495,347,12649,6,0,P|421:353|335:297,1,152.999995330811,2|0,0:0|0:0,0:0:0:0:
275,298,13149,2,0,P|288:258|339:255,2,76.4999976654053,2|2|2,0:0|0:0|0:0,0:0:0:0:
199,364,13649,6,0,B|105:379|105:379|76:365|74:325,1,152.999995330811,2|0,0:0|0:0,0:0:0:0:
83,235,14149,2,0,B|116:242|116:242|123:252|123:252|153:258,2,76.4999976654053,2|2|2,0:0|0:0|0:0,0:0:0:0:
38,68,14649,6,0,P|13:96|11:133,1,76.4999976654053,2|2,0:0|0:0,0:0:0:0:
145,80,14982,1,2,0:0:0:0:
133,82,15065,1,2,0:0:0:0:
121,84,15149,1,2,0:0:0:0:
83,235,15316,6,0,B|129:241|166:200|120:190|156:148|202:154,1,152.999995330811,2|0,0:0|0:0,0:0:0:0:
260,96,15816,2,0,B|291:86|291:86|300:90|300:90|333:80,2,76.4999976654053,2|2|2,0:0|0:0|0:0,0:0:0:0:
280,174,16316,6,0,P|335:244|334:326,1,152.999995330811,2|2,0:0|0:0,0:0:0:0:
344,384,16816,2,0,P|391:373|402:327,2,76.4999976654053,2|2|2,0:0|0:0|0:0,0:0:0:0:
250,384,17316,6,0,P|216:348|171:362,1,76.4999976654053,2|2,0:0|0:0,0:0:0:0:
105,384,17649,1,2,0:0:0:0:
107,372,17732,1,2,0:0:0:0:
109,360,17816,1,2,0:0:0:0:
87,190,17982,6,0,B|46:183|23:149|23:149|30:191|-4:225,1,152.999995330811,2|0,0:0|0:0,0:0:0:0:
69,270,18482,2,0,B|106:273|106:273|112:282|112:282|154:286,2,76.4999976654053,2|2|2,0:0|0:0|0:0,0:0:0:0:
182,221,18982,6,0,B|156:120|156:120|129:119|83:96,1,152.999995330811,2|0,0:0|0:0,0:0:0:0:
62,42,19482,2,0,P|30:73|40:126,2,76.4999976654053,2|2|2,0:0|0:3|0:0,0:0:0:0:
249,99,19982,6,0,B|286:90|286:90|291:92|291:92|323:83,1,76.4999976654053,2|2,0:0|0:0,0:0:0:0:
395,215,20315,1,2,0:0:0:0:
383,213,20399,1,2,0:0:0:0:
371,211,20482,1,2,0:0:0:0:
512,5,20649,6,0,B|512:48|477:88|467:42|425:78|431:124,1,152.999995330811,2|0,0:0|0:0,0:0:0:0:
491,240,21149,2,0,B|390:255|390:255|365:236|372:192,1,152.999995330811,2|0,0:0|0:0,0:0:0:0:
430,119,21649,2,0,B|382:108|382:108|370:95|370:95|305:82,1,114.749996498108,2|0,0:0|0:0,0:0:0:0:
313,99,21982,1,2,0:0:0:0:
196,153,22149,2,0,B|155:150|133:112|133:112|135:156|88:192,1,152.999995330811,2|0,0:0|0:0,0:0:0:0:
167,231,22649,5,2,0:0:0:0:
279,174,22816,2,0,B|275:221|314:257|324:211|361:248|360:293,1,152.999995330811,2|0,0:0|0:0,0:0:0:0:
252,384,23316,6,0,B|228:336|190:341|190:341|170:375|112:379,1,152.999995330811,2|2,0:0|0:0,0:0:0:0:
36,297,23816,2,0,B|49:198|49:198|82:196|108:167,1,152.999995330811,2|0,0:0|0:0,0:0:0:0:
55,65,24316,6,0,P|27:85|32:138,1,76.4999976654053,2|0,0:0|0:0,0:0:0:0:
156,238,24649,2,0,B|189:246|189:246|199:244|199:244|250:259,1,76.4999976654053,2|0,0:0|0:0,0:0:0:0:
361,165,24982,2,0,L|344:90,1,76.4999976654053,2|0,0:0|0:0,0:0:0:0:
225,163,25316,5,2,0:0:0:0:
353,82,25482,1,2,0:0:0:0:
345,244,25649,5,2,0:0:0:0:
329,240,25732,1,2,0:0:0:0:
315,236,25816,1,2,0:0:0:0:
276,324,25982,6,0,L|284:361,1,38.2499988327027,8|0,2:0|0:0,0:0:0:0:
209,276,26149,1,8,0:0:0:0:
209,276,26232,2,0,B|227:202|227:202|203:189|180:160,1,114.749996498108,8|0,0:0|0:0,0:0:0:0:
7,107,26649,6,0,B|-6:120|-6:120|13:81,1,38.2499988327027,8|0,0:0|0:0,0:0:0:0:
56,45,26816,1,8,0:0:0:0:
56,45,26899,2,0,B|93:44|106:66|106:66|107:109|153:122,1,127.5,8|0,0:0|0:0,0:0:0:0:
229,46,27316,5,8,0:0:0:0:
248,40,27399,1,8,0:1:0:0:
268,34,27482,1,8,0:0:0:0:
288,29,27565,1,8,0:1:0:0:
308,23,27649,5,8,0:0:0:0:
144,119,27816,1,8,0:0:0:0:
374,174,27982,5,8,0:0:0:0:
388,178,28066,1,8,0:0:0:0:
404,182,28149,1,8,0:1:0:0:
416,185,28232,2,0,B|405:134|405:134|398:125|398:125|382:53,1,114.749996498108,8|0,0:0|0:0,0:0:0:0:
497,260,28649,6,0,L|489:297,1,38.2499988327027,8|0,0:0|0:0,0:0:0:0:
491,251,28816,2,0,L|483:288,1,38.2499988327027,8|0,0:0|0:0,0:0:0:0:
387,358,28982,2,0,B|341:362|303:320|349:310|312:273|267:274,1,152.999995330811,8|0,0:1|0:0,0:0:0:0:
205,317,29482,1,8,0:0:0:0:
97,217,29649,5,8,0:1:0:0:
104,225,29732,1,8,0:1:0:0:
104,225,29816,2,0,B|64:235|64:235|63:239|63:239|6:254,1,76.4999976654053,8|8,0:1|0:0,0:0:0:0:
0,142,30149,2,0,L|59:159,1,38.2499988327027,8|0,0:0|0:0,0:0:0:0:
193,221,30316,2,0,P|211:197|277:203,1,85,8|8,0:1|0:0,0:0:0:0:
347,243,30649,5,8,0:1:0:0:
205,317,30816,1,8,0:0:0:0:
331,134,30982,5,8,0:0:0:0:
350,138,31065,1,8,0:0:0:0:
369,141,31148,1,8,0:0:0:0:
388,144,31231,1,8,0:0:0:0:
408,147,31316,6,0,B|444:151|444:151|450:158|450:158|484:164,1,76.4999976654053,14|8,0:0|0:0,0:0:0:0:
347,243,31649,1,10,0:1:0:0:
433,354,31816,2,0,B|434:309|392:271|382:317|345:280|346:235,1,152.999995330811,10|8,0:0|0:0,0:0:0:0:
457,99,32316,2,0,P|439:136|407:147,1,76.4999976654053,10|0,0:1|0:0,0:0:0:0:
335,101,32566,1,10,0:0:0:0:
335,101,32649,5,10,0:0:0:0:
246,177,32816,1,10,0:0:0:0:
94,65,32982,6,0,P|127:32|168:38,1,76.4999976654053,10|2,0:1|0:0,0:0:0:0:
274,68,33316,2,0,P|307:101|348:94,1,76.4999976654053,2|10,0:0|0:0,0:0:0:0:
233,0,33649,1,10,0:1:0:0:
162,115,33816,1,8,0:0:0:0:
162,115,33899,1,8,0:1:0:0:
162,115,33982,6,0,B|156:151|156:151|158:158|158:158|151:198,1,76.4999976654053,10|10,0:0|0:0,0:0:0:0:
83,236,34315,1,8,0:1:0:0:
172,367,34482,2,0,B|262:350|262:350|286:323|271:286,1,152.999995330811,2|10,0:0|0:0,0:0:0:0:
233,190,34982,2,0,B|269:199|269:199|274:208|274:208|323:220,1,76.4999976654053,10|8,0:1|0:0,0:0:0:0:
369,269,35232,1,10,0:0:0:0:
369,269,35315,5,10,0:0:0:0:
299,126,35482,1,10,0:0:0:0:
458,78,35649,2,0,L|384:100,1,76.4999976654053,10|2,0:1|0:0,0:0:0:0:
171,160,35982,2,0,P|195:188|247:181,1,76.4999976654053,2|10,0:0|0:0,0:0:0:0:
320,40,36315,1,2,0:0:0:0:
484,157,36482,5,8,0:0:0:0:
484,157,36566,1,8,0:1:0:0:
484,157,36649,2,0,P|502:195|482:243,1,76.4999976654053,10|8,0:0|0:0,0:0:0:0:
429,272,36982,1,10,0:1:0:0:
511,383,37149,6,0,B|414:349|414:349|400:371|375:384,1,152.999995330811,2|8,0:0|0:0,0:0:0:0:
288,351,37649,2,0,P|248:350|223:319,1,76.4999976654053,10|0,0:1|0:0,0:0:0:0:
219,240,37899,1,10,0:0:0:0:
219,240,37982,5,10,0:0:0:0:
354,298,38149,1,10,0:0:0:0:
361,171,38315,2,0,L|271:188,1,76.4999976654053,10|0,0:1|0:0,0:0:0:0:
131,93,38649,2,0,L|221:76,1,76.4999976654053,2|8,0:0|0:0,0:0:0:0:
219,240,38982,5,10,0:1:0:0:
285,43,39149,1,2,0:0:0:0:
285,43,39232,1,2,0:0:0:0:
285,43,39316,6,0,P|323:59|331:95,1,76.4999976654053,2|8,0:0|0:0,0:0:0:0:
285,185,39649,1,10,0:1:0:0:
489,274,39816,6,0,B|421:263|421:263|412:266|412:266|330:254,1,152.999995330811,2|8,0:0|0:0,0:0:0:0:
163,349,40316,2,0,L|238:362,1,76.4999976654053,10|0,0:1|0:0,0:0:0:0:
315,333,40566,1,10,0:0:0:0:
315,333,40649,5,10,0:0:0:0:
205,214,40816,1,10,0:1:0:0:
29,275,40982,2,0,P|57:301|101:296,1,76.4999976654053,10|10,0:1|0:1,0:0:0:0:
205,214,41316,2,0,P|233:188|277:193,1,76.4999976654053,2|10,0:0|0:0,0:0:0:0:
315,333,41649,5,2,0:0:0:0:
119,217,41816,1,2,0:0:0:0:
309,18,41982,5,14,0:0:0:0:
371,76,42149,1,10,0:0:0:0:
290,103,42316,1,10,0:1:0:0:
450,19,42482,6,0,B|461:76|461:76|470:85|470:85|482:158,1,127.5,2|0,0:0|0:0,0:0:0:0:
466,151,42816,1,10,0:0:0:0:
512,243,42982,6,0,L|501:296,3,42.5,2|2|2|10,0:0|0:0|0:0|0:0,0:0:0:0:
416,245,43316,1,10,0:0:0:0:
375,218,43400,1,10,0:0:0:0:
325,227,43483,1,10,0:0:0:0:
300,268,43566,1,10,0:0:0:0:
333,340,43649,6,0,L|344:398,3,42.5,10|2|2|2,0:1|0:0|0:0|0:0,0:0:0:0:
245,349,43982,1,10,0:0:0:0:
211,343,44065,1,10,0:0:0:0:
177,337,44148,1,10,0:0:0:0:
144,332,44232,1,10,0:0:0:0:
67,323,44316,6,0,L|59:281,3,42.5,10|2|2|2,0:1|0:0|0:0|0:0,0:0:0:0:
117,218,44649,5,10,0:0:0:0:
56,159,44816,1,10,0:0:0:0:
98,84,44982,1,10,0:1:0:0:
227,125,45149,6,0,B|265:85|311:111|311:111|328:156|366:158,1,170,2|8,0:0|0:0,0:0:0:0:
424,100,45649,2,0,B|416:62|416:62|410:59|410:59|399:4,1,85,10|0,0:1|0:0,0:0:0:0:
317,227,45899,5,2,0:0:0:0:
317,227,45982,2,0,L|307:284,3,42.5,10|2|10|2,0:0|0:0|0:0|0:0,0:0:0:0:
398,251,46316,6,0,L|450:234,3,42.5,10|2|2|2,0:1|0:0|0:0|0:0,0:0:0:0:
258,329,46649,6,0,L|206:312,3,42.5,2|2|10|2,0:0|0:0|0:0|0:0,0:0:0:0:
186,231,46982,1,2,0:0:0:0:
151,216,47065,1,2,0:0:0:0:
114,223,47149,1,10,0:1:0:0:
89,250,47232,1,2,0:0:0:0:
83,285,47315,5,10,0:0:0:0:
138,354,47482,1,10,0:0:0:0:
217,315,47649,1,10,0:1:0:0:
168,136,47816,6,0,B|174:96|141:83|141:83|108:68|115:15,1,127.5,2|0,0:0|0:0,0:0:0:0:
125,16,48149,1,10,0:0:0:0:
243,86,48316,2,0,L|283:74,3,42.5,2|2|2|10,0:0|0:0|0:0|0:0,0:0:0:0:
379,9,48649,5,10,0:0:0:0:
373,47,48733,1,10,0:0:0:0:
367,85,48816,1,10,0:0:0:0:
361,123,48899,1,10,0:0:0:0:
408,191,48982,6,0,L|421:236,3,42.5,10|2|2|2,0:1|0:0|0:0|0:0,0:0:0:0:
373,294,49316,1,10,0:0:0:0:
345,308,49400,1,10,0:0:0:0:
316,301,49483,1,10,0:0:0:0:
296,276,49566,1,10,0:0:0:0:
295,195,49649,6,0,L|235:182,3,42.5,10|2|2|2,0:1|0:0|0:0|0:0,0:0:0:0:
187,239,49982,5,10,0:0:0:0:
112,205,50149,1,10,0:0:0:0:
66,273,50316,1,10,0:1:0:0:
5,128,50482,6,0,B|109:103|109:103|117:76|137:43,1,170,2|8,0:0|0:0,0:0:0:0:
229,30,50982,1,10,0:1:0:0:
267,16,51066,1,2,0:0:0:0:
304,35,51149,1,2,0:0:0:0:
316,75,51232,1,2,0:0:0:0:
253,137,51316,6,0,L|189:123,3,42.5,10|2|10|2,0:0|0:0|0:0|0:0,0:0:0:0:
295,203,51649,1,10,0:1:0:0:
299,233,51732,1,2,0:0:0:0:
304,264,51815,1,2,0:0:0:0:
309,294,51899,1,2,0:0:0:0:
380,336,51982,6,0,L|366:376,3,42.5,2|2|10|2,0:0|0:0|0:0|0:0,0:0:0:0:
447,279,52316,1,2,0:0:0:0:
471,245,52399,1,2,0:0:0:0:
468,203,52482,1,10,0:1:0:0:
434,174,52566,1,2,0:0:0:0:
350,149,52649,5,14,0:0:0:0:
333,69,52816,1,10,0:0:0:0:
411,94,52983,1,10,0:1:0:0:
190,9,53149,6,0,B|151:-2|131:28|131:28|134:69|91:98,1,127.5,2|0,0:0|0:0,0:0:0:0:
32,73,53483,1,10,0:0:0:0:
128,162,53649,2,0,L|114:209,3,42.5,10|2|2|10,0:1|0:0|0:0|0:0,0:0:0:0:
17,309,53983,5,10,0:0:0:0:
44,350,54066,1,10,0:0:0:0:
94,359,54149,1,10,0:0:0:0:
135,332,54233,1,10,0:0:0:0:
172,256,54316,5,10,0:1:0:0:
189,233,54399,1,2,0:0:0:0:
219,227,54483,1,2,0:0:0:0:
244,240,54566,1,2,0:0:0:0:
283,312,54650,6,0,L|270:352,3,42.5,10|0|10|10,0:0|0:0|0:0|0:0,0:0:0:0:
351,251,54983,2,0,L|338:211,3,42.5,10|2|2|2,0:1|0:0|0:0|0:0,0:0:0:0:
427,307,55316,5,10,0:0:0:0:
505,254,55483,1,10,0:0:0:0:
512,344,55649,1,10,0:1:0:0:
337,210,55816,6,0,B|334:163|380:122|390:172|430:132|427:78,1,170,2|8,0:0|0:0,0:0:0:0:
302,22,56316,2,0,B|264:30|264:30|261:36|261:36|206:47,1,85,10|0,0:1|0:0,0:0:0:0:
158,99,56566,5,2,0:0:0:0:
158,99,56649,2,0,L|101:89,3,42.5,10|2|10|2,0:0|0:0|0:0|0:0,0:0:0:0:
51,41,56983,6,0,L|34:-11,3,42.5,10|2|2|2,0:1|0:0|0:0|0:0,0:0:0:0:
108,176,57316,6,0,L|94:216,3,42.5,2|2|10|2,0:0|0:0|0:0|0:0,0:0:0:0:
40,277,57649,1,2,0:0:0:0:
51,313,57732,1,2,0:0:0:0:
81,337,57815,1,10,0:1:0:0:
119,340,57899,1,2,0:0:0:0:
153,321,57982,5,10,0:0:0:0:
234,347,58149,1,10,0:0:0:0:
279,268,58316,1,10,0:1:0:0:
452,340,58483,6,0,B|397:351|397:351|391:356|391:356|328:370,1,127.5,2|0,0:0|0:0,0:0:0:0:
321,360,58816,1,10,0:0:0:0:
482,260,58982,2,0,L|495:219,3,42.5,10|2|2|10,0:1|0:0|0:0|0:0,0:0:0:0:
398,173,59316,1,10,0:0:0:0:
392,135,59399,1,10,0:0:0:0:
386,97,59482,1,10,0:0:0:0:
380,59,59566,1,10,0:0:0:0:
444,5,59649,6,0,L|490:15,3,42.5,10|2|2|2,0:1|0:0|0:0|0:0,0:0:0:0:
298,55,59983,1,10,0:0:0:0:
272,21,60066,1,10,0:0:0:0:
232,12,60149,1,10,0:0:0:0:
195,31,60233,1,10,0:0:0:0:
167,108,60316,6,0,L|180:168,3,42.5,10|2|2|2,0:1|0:0|0:0|0:0,0:0:0:0:
80,97,60649,5,10,0:0:0:0:
19,161,60816,1,10,0:0:0:0:
77,233,60983,1,10,0:1:0:0:
5,360,61149,6,0,L|197:315,1,170,2|8,0:0|0:0,0:0:0:0:
379,338,61649,1,10,0:1:0:0:
337,334,61732,1,2,0:0:0:0:
311,302,61815,1,2,0:0:0:0:
317,261,61899,1,2,0:0:0:0:
374,199,61983,6,0,L|360:135,3,42.5,10|2|10|2,0:0|0:0|0:0|0:0,0:0:0:0:
433,115,62316,1,10,0:1:0:0:
438,74,62400,1,2,0:0:0:0:
412,41,62483,1,2,0:0:0:0:
371,38,62566,1,2,0:0:0:0:
299,75,62649,5,2,0:0:0:0:
255,68,62732,1,2,0:0:0:0:
211,62,62815,1,10,0:0:0:0:
167,56,62899,1,2,0:0:0:0:
73,18,62983,5,2,0:0:0:0:
60,36,63066,1,2,0:0:0:0:
79,48,63149,1,2,0:0:0:0:
90,30,63233,1,2,0:0:0:0:
66,224,65982,5,2,0:0:0:0:
218,121,66316,5,2,0:0:0:0:
253,189,66482,1,2,0:0:0:0:
66,224,66982,1,2,0:0:0:0:
185,223,67316,5,2,0:0:0:0:
150,155,67482,1,2,0:0:0:0:
276,68,67649,5,2,0:0:0:0:
311,0,67815,1,2,0:0:0:0:
430,122,67982,6,0,L|499:98,2,68,2|2|2,0:0|0:0|0:0,0:0:0:0:
369,176,68482,1,2,0:0:0:0:
460,333,68649,5,2,0:0:0:0:
308,230,68983,5,2,0:0:0:0:
273,298,69149,1,2,0:0:0:0:
460,333,69649,1,2,0:0:0:0:
341,332,69983,5,2,0:0:0:0:
376,264,70149,1,2,0:0:0:0:
250,177,70316,5,2,0:0:0:0:
215,109,70482,1,2,0:0:0:0:
92,254,70649,6,0,P|56:252|29:221,2,68,2|2|2,0:0|0:0|0:0,0:0:0:0:
144,199,71149,1,2,0:0:0:0:
69,46,71316,5,2,0:0:0:0:
215,109,71650,5,2,0:0:0:0:
283,74,71816,1,2,0:0:0:0:
69,46,72316,1,2,0:0:0:0:
250,177,72650,5,2,0:0:0:0:
215,109,72816,1,2,0:0:0:0:
383,51,72982,5,2,0:0:0:0:
348,119,73148,1,2,0:0:0:0:
431,206,73316,6,0,L|454:275,2,68,2|2|2,0:0|0:0|0:0,0:0:0:0:
464,134,73816,1,2,0:0:0:0:
384,319,73983,5,2,0:0:0:0:
214,286,74317,5,2,0:0:0:0:
233,362,74483,1,2,0:0:0:0:
384,319,74983,1,2,0:0:0:0:
233,362,75316,5,2,0:0:0:0:
160,342,75482,1,2,0:0:0:0:
33,283,75649,5,2,0:0:0:0:
106,263,75815,1,2,0:0:0:0:
200,154,75983,6,0,P|218:124|212:83,2,68,2|2|2,0:0|0:0|0:0,0:0:0:0:
125,182,76483,1,2,0:0:0:0:
217,272,76649,6,0,B|264:281|303:253|267:234|301:208|362:219,1,152.999995330811,8|0,0:0|0:0,0:0:0:0:
400,272,77149,1,8,0:0:0:0:
487,170,77316,2,0,B|497:115|497:115|493:109|493:109|506:33,1,114.749996498108,8|0,0:1|0:0,0:0:0:0:
512,47,77649,1,8,0:0:0:0:
346,0,77816,6,0,B|369:13|369:13|389:110,1,114.749996498108,8|0,0:0|0:0,0:0:0:0:
316,140,78149,2,0,B|224:109|224:109|209:128|173:150,1,152.999995330811,8|8,0:0|0:0,0:0:0:0:
90,45,78649,2,0,B|98:81|98:81|96:87|96:87|105:129,1,76.4999976654053,8|0,0:1|0:0,0:0:0:0:
65,247,78982,2,0,P|35:213|45:174,1,76.4999976654053,8|0,0:0|0:0,0:0:0:0:
219,216,79316,6,0,L|191:393,1,152.999995330811,8|0,0:0|0:0,0:0:0:0:
232,207,79816,1,8,0:0:0:0:
410,241,79982,2,0,P|376:284|320:281,1,114.749996498108,8|0,0:1|0:0,0:0:0:0:
313,266,80316,1,8,0:0:0:0:
170,138,80483,6,0,B|221:124|221:124|227:126|227:126|286:110,1,114.749996498108,8|0,0:1|0:0,0:0:0:0:
387,16,80816,2,0,B|370:29|370:29|357:129,1,114.749996498108,8|0,0:1|0:0,0:0:0:0:
370,132,81149,1,8,0:0:0:0:
484,253,81316,2,0,B|451:246|451:246|445:248|445:248|409:240,1,76.4999976654053,8|0,0:1|0:0,0:0:0:0:
255,334,81649,2,0,B|222:340|222:340|216:338|216:338|180:346,1,76.4999976654053,8|0,0:0|0:0,0:0:0:0:
78,285,81982,6,0,B|101:190|101:190|93:158|46:144,1,152.999995330811,8|0,0:0|0:0,0:0:0:0:
15,213,82482,1,8,0:0:0:0:
164,148,82649,2,0,B|154:93|154:93|160:86|160:86|149:10,1,114.749996498108,8|0,0:1|0:0,0:0:0:0:
140,24,82982,1,8,0:0:0:0:
253,106,83149,2,0,P|305:104|336:36,1,114.749996498108,8|0,0:0|0:0,0:0:0:0:
330,40,83482,2,0,B|438:18|438:18|477:43,1,152.999995330811,8|8,0:0|0:0,0:0:0:0:
429,205,83982,2,0,P|397:162|409:128,1,76.4999976654053,8|0,0:1|0:0,0:0:0:0:
470,117,84316,2,0,P|502:160|490:194,1,76.4999976654053,8|0,0:1|0:0,0:0:0:0:
360,299,84649,5,8,0:0:0:0:
256,192,84732,12,0,87316,0:0:0:0:
456,360,88649,6,0,L|445:300,1,59.5,0|0,0:0|0:0,0:0:0:0:
490,159,89316,6,0,B|461:149|461:149|457:151|457:151|416:136,1,59.4999981842042,14|0,0:0|0:0,0:0:0:0:
317,267,89482,2,0,B|346:257|346:257|350:259|350:259|391:244,1,59.4999981842042,8|0,0:0|0:0,0:0:0:0:
392,72,89649,1,8,0:1:0:0:
267,191,89816,6,0,B|163:178|163:178|159:146|136:119,1,165.749992412568,8|0,0:0|0:0,0:0:0:0:
53,98,90149,1,8,0:0:0:0:
156,266,90316,2,0,B|104:277|104:277|99:273|99:273|49:283,1,110.499994941712,8|0,0:1|0:0,0:0:0:0:
193,371,90566,1,8,0:0:0:0:
203,374,90649,6,0,P|225:358|233:332,1,55.2499974708558,8|0,0:0|0:0,0:0:0:0:
49,282,90816,2,0,L|62:336,1,55.2499974708558,8|0,0:0|0:0,0:0:0:0:
156,266,90982,5,8,0:1:0:0:
322,381,91149,2,0,B|301:282|301:282|297:242|334:219,1,165.749992412568,10|0,0:0|0:0,0:0:0:0:
395,280,91482,1,10,0:0:0:0:
250,134,91649,2,0,B|257:85|257:85|262:81|262:81|271:27,1,110.499994941712,10|0,0:1|0:0,0:0:0:0:
394,101,91899,1,8,0:0:0:0:
394,101,91982,6,0,L|319:112,1,55.2499974708558,10|0,0:0|0:0,0:0:0:0:
172,196,92149,2,0,L|237:219,1,55.2499974708558,8|0,0:0|0:0,0:0:0:0:
106,115,92316,5,8,0:1:0:0:
145,318,92482,2,0,B|154:267|107:236|103:273|54:241|58:188,1,165.749992412568,10|0,0:0|0:0,0:0:0:0:
106,115,92816,1,8,0:0:0:0:
279,183,92982,2,0,B|231:191|231:191|222:186|222:186|152:199,1,110.499994941712,10|0,0:1|0:0,0:0:0:0:
309,308,93232,1,8,0:0:0:0:
309,308,93316,6,0,L|324:241,1,55.2499974708558,8|0,0:0|0:0,0:0:0:0:
215,106,93482,2,0,L|202:52,1,55.2499974708558,8|0,0:0|0:0,0:0:0:0:
171,195,93649,1,8,0:1:0:0:
302,67,93816,6,0,B|326:71|326:71|330:74|330:74|368:84,1,55.2499974708558,8|0,0:0|0:0,0:0:0:0:
454,0,93982,1,10,0:0:0:0:
440,3,94066,1,8,0:0:0:0:
424,7,94149,1,8,0:0:0:0:
215,106,94316,5,8,0:1:0:0:
221,139,94399,1,8,0:0:0:0:
227,172,94482,1,8,0:0:0:0:
233,204,94566,1,8,0:0:0:0:
242,232,94649,6,0,B|257:296,1,55.2499974708558,10|0,0:0|0:0,0:0:0:0:
336,374,94816,2,0,B|315:366|315:366|311:368|311:368|284:358,1,55.2499974708558,8|0,0:0|0:0,0:0:0:0:
372,213,94982,1,8,0:1:0:0:
209,384,95149,6,0,B|158:393|127:346|164:342|132:293|79:297,1,165.749992412568,8|0,0:0|0:0,0:0:0:0:
18,351,95482,1,8,0:0:0:0:
139,226,95649,2,0,B|128:174|128:174|132:169|132:169|122:119,1,110.499994941712,8|0,0:1|0:0,0:0:0:0:
64,8,95899,1,8,0:0:0:0:
74,5,95982,6,0,L|65:68,1,55.2499974708558,10|0,0:0|0:0,0:0:0:0:
41,140,96149,2,0,B|16:150|16:150|37:130,1,55.2499974708558,8|0,0:0|0:0,0:0:0:0:
150,47,96316,5,8,0:1:0:0:
260,213,96482,2,0,B|281:113|281:113|252:95|230:66,1,165.749992412568,10|0,0:0|0:0,0:0:0:0:
348,63,96815,1,8,0:0:0:0:
436,9,96982,2,0,B|354:20|354:20|338:41|352:74,1,127.500004863739,10|0,0:1|0:0,0:0:0:0:
405,145,97232,1,8,0:0:0:0:
405,145,97315,6,0,L|325:163,1,55.2499974708558,10|0,0:0|0:0,0:0:0:0:
410,155,97482,2,0,L|330:173,1,55.2499974708558,8|0,0:0|0:0,0:0:0:0:
271,214,97649,5,8,0:1:0:0:
393,325,97815,2,0,B|384:274|431:243|435:280|484:248|480:195,1,165.749992412568,10|0,0:0|0:0,0:0:0:0:
347,62,98149,1,8,0:0:0:0:
178,181,98315,6,0,B|208:166|237:180|237:180|249:210|286:219,1,110.499994941712,10|0,0:1|0:0,0:0:0:0:
318,284,98565,1,8,0:0:0:0:
318,284,98649,6,0,L|303:351,1,55.2499974708558,8|0,0:0|0:0,0:0:0:0:
178,181,98815,2,0,L|165:127,1,55.2499974708558,8|0,0:0|0:0,0:0:0:0:
215,284,98982,1,8,0:1:0:0:
99,370,99149,6,0,B|73:363|73:363|69:360|69:360|45:356,1,55.2499974708558,8|0,0:0|0:0,0:0:0:0:
91,238,99315,1,10,0:0:0:0:
96,254,99399,1,8,0:0:0:0:
99,269,99482,1,8,0:0:0:0:
41,38,99649,5,8,0:1:0:0:
74,44,99732,1,8,0:0:0:0:
107,50,99815,1,8,0:0:0:0:
139,56,99899,1,8,0:0:0:0:
170,61,99982,6,0,B|177:40|177:40|175:36|175:36|185:-8,1,63.7500024318696,14|0,0:0|0:0,0:0:0:0:
289,87,100149,2,0,B|263:98|263:98|259:96|259:96|216:116,1,63.7500024318696,8|0,0:0|0:0,0:0:0:0:
309,0,100315,1,8,0:1:0:0:
477,170,100482,6,0,B|461:208|461:208|413:223|345:178|378:98,1,191.250007295609,8|0,0:0|0:0,0:0:0:0:
371,123,100815,1,8,0:0:0:0:
268,195,100982,2,0,B|195:210|195:210|193:243|172:266,1,127.500004863739,8|0,0:1|0:0,0:0:0:0:
91,285,101232,1,8,0:0:0:0:
82,283,101315,6,0,L|14:267,1,55.2499974708558,10|0,0:0|0:0,0:0:0:0:
205,381,101482,2,0,L|265:371,1,55.2499974708558,8|0,0:0|0:0,0:0:0:0:
178,260,101649,5,8,0:1:0:0:
348,328,101815,2,0,B|356:282|302:249|298:286|250:256|260:204,1,165.749992412568,10|0,0:0|0:0,0:0:0:0:
268,195,102149,1,8,0:0:0:0:
395,61,102315,2,0,B|428:69|439:105|439:105|420:80|394:77,1,110.499994941712,10|0,0:1|0:0,0:0:0:0:
320,103,102565,1,8,0:0:0:0:
320,103,102649,6,0,B|293:108|293:108|291:111|291:111|248:122,1,55.2499974708558,10|0,0:0|0:0,0:0:0:0:
123,251,102815,2,0,L|177:259,1,55.2499974708558,8|0,0:0|0:0,0:0:0:0:
172,129,102982,5,8,0:1:0:0:
0,193,103149,2,0,B|35:159|81:185|81:185|88:235|151:246,1,165.749992412568,10|0,0:0|0:0,0:0:0:0:
135,226,103482,1,8,0:0:0:0:
352,278,103649,6,0,B|306:288|306:288|302:295|302:295|243:307,1,110.499994941712,10|0,0:1|0:0,0:0:0:0:
194,372,103899,1,8,0:0:0:0:
186,373,103982,6,0,P|165:356|160:323,1,55.2499974708558,8|0,0:0|0:0,0:0:0:0:
265,213,104149,2,0,L|278:159,1,55.2499974708558,8|0,0:0|0:0,0:0:0:0:
247,306,104315,1,8,0:1:0:0:
359,181,104482,6,0,B|383:185|383:185|387:188|387:188|425:198,1,55.2499974708558,8|0,0:0|0:0,0:0:0:0:
228,102,104649,1,10,0:0:0:0:
212,105,104732,1,8,0:0:0:0:
193,109,104815,1,8,0:0:0:0:
2,0,104982,5,8,0:1:0:0:
8,33,105065,1,8,0:0:0:0:
14,66,105149,1,8,0:0:0:0:
20,98,105232,1,8,0:0:0:0:
28,127,105315,6,0,B|47:201,1,55.2499974708558,10|0,0:0|0:0,0:0:0:0:
142,265,105482,2,0,B|115:255|115:255|111:257|111:257|70:242,1,55.2499974708558,8|0,0:0|0:0,0:0:0:0:
25,309,105649,1,8,0:1:0:0:
193,370,105815,6,0,B|295:351|295:351|319:319|305:282,1,165.749992412568,8|0,0:0|0:0,0:0:0:0:
228,282,106149,1,8,0:0:0:0:
368,384,106315,2,0,B|418:374|418:374|430:379|430:379|476:370,1,110.499994941712,8|0,0:1|0:0,0:0:0:0:
499,295,106565,1,8,0:0:0:0:
500,284,106649,6,0,L|512:226,1,55.2499974708558,10|0,0:0|0:0,0:0:0:0:
395,147,106815,2,0,L|407:205,1,55.2499974708558,8|0,0:0|0:0,0:0:0:0:
454,82,106982,5,8,0:1:0:0:
316,167,107149,2,0,B|268:170|234:125|274:117|238:72|189:83,1,165.749992412568,10|0,0:0|0:0,0:0:0:0:
130,153,107482,1,8,0:0:0:0:
9,7,107649,2,0,B|37:26|37:26|54:136,1,127.500004863739,10|0,0:1|0:0,0:0:0:0:
31,197,107899,1,8,0:0:0:0:
31,197,107982,6,0,B|14:227|14:227|19:191,1,68,10|0,0:0|0:0,0:0:0:0:
129,67,108149,2,0,B|159:75|159:75|165:74|165:74|198:84,1,63.7500024318696,8|0,0:0|0:0,0:0:0:0:
308,165,108315,5,8,0:1:0:0:
253,30,108482,2,0,B|295:33|324:71|324:71|321:25|354:-1,1,165.749992412568,10|0,0:0|0:0,0:0:0:0:
368,10,108815,1,8,0:0:0:0:
502,160,108982,6,0,B|470:163|435:132|469:118|438:83|393:93,1,127.500004863739,8|0,0:1|0:0,0:0:0:0:
308,165,109232,1,8,0:0:0:0:
308,165,109315,2,0,L|322:235,1,55.2499974708558,8|0,0:0|0:0,0:0:0:0:
456,295,109482,2,0,L|401:284,1,55.2499974708558,8|0,0:0|0:0,0:0:0:0:
330,371,109649,1,8,0:1:0:0:
172,238,109815,6,0,B|202:247|202:247|205:254|205:254|242:265,1,55.2499974708558,8|0,0:0|0:0,0:0:0:0:
322,118,109982,1,8,0:0:0:0:
315,143,110065,1,8,0:0:0:0:
308,165,110149,1,8,0:0:0:0:
90,342,110315,5,8,0:1:0:0:
82,300,110399,1,8,0:0:0:0:
75,259,110482,1,8,0:0:0:0:
67,219,110565,1,8,0:0:0:0:
60,178,110649,1,4,0:0:0:0:
256,192,119315,12,0,121232,0:0:0:0:
94,310,121315,6,0,B|84:258|122:228|136:266|174:234|161:173,1,152.999995330811,8|0,0:0|0:0,0:0:0:0:
114,134,121815,1,8,0:0:0:0:
204,25,121982,2,0,B|277:35|277:35|307:73,1,114.749996498108,8|0,0:1|0:0,0:0:0:0:
292,79,122315,1,8,0:0:0:0:
480,57,122482,2,0,P|444:18|385:41,1,114.749996498108,8|0,0:0|0:0,0:0:0:0:
381,50,122815,2,0,B|395:115|395:115|390:124|390:124|410:213,1,152.999995330811,8|8,0:0|0:0,0:0:0:0:
511,298,123315,2,0,L|422:272,1,76.4999976654053,8|0,0:1|0:0,0:0:0:0:
364,326,123649,2,0,L|275:352,1,76.4999976654053,8|0,0:0|0:0,0:0:0:0:
166,384,123982,6,0,B|191:279|191:279|167:265|147:236,1,152.999995330811,8|0,0:0|0:0,0:0:0:0:
89,284,124482,1,8,0:0:0:0:
166,100,124648,2,0,P|219:127|210:188,1,114.749996498108,8|0,0:1|0:0,0:0:0:0:
201,180,124982,1,8,0:0:0:0:
101,6,125149,6,0,B|91:62|91:62|84:65|84:65|72:133,1,114.749996498108,8|0,0:1|0:0,0:0:0:0:
39,193,125482,2,0,B|52:265|52:265|68:283|103:285,1,114.749996498108,8|0,0:1|0:0,0:0:0:0:
157,249,125815,1,8,0:0:0:0:
264,339,125982,2,0,B|339:357,1,76.4999976654053,8|0,0:1|0:0,0:0:0:0:
371,227,126315,2,0,P|331:230|305:265,1,76.4999976654053,8|0,0:0|0:0,0:0:0:0:
423,337,126649,6,0,L|412:299,1,38.2499988327027,8|0,2:0|0:0,0:0:0:0:
483,197,126816,1,8,0:0:0:0:
483,197,126899,2,0,B|500:144|500:144|497:138|497:138|514:79,1,114.749996498108,8|0,0:0|0:0,0:0:0:0:
303,0,127316,6,0,B|314:36,1,38.2499988327027,8|0,0:0|0:0,0:0:0:0:
385,138,127483,1,8,0:0:0:0:
385,138,127565,2,0,B|368:117|368:117|280:103,1,114.749996498108,8|0,0:0|0:0,0:0:0:0:
190,193,127982,5,8,0:0:0:0:
169,197,128066,1,8,0:1:0:0:
150,202,128149,1,8,0:0:0:0:
130,207,128232,1,8,0:1:0:0:
109,211,128315,1,8,0:0:0:0:
250,262,128483,5,8,0:0:0:0:
129,359,128649,5,8,0:0:0:0:
115,363,128733,1,8,0:0:0:0:
99,367,128816,1,8,0:1:0:0:
85,371,128899,2,0,B|94:333|71:307|61:330|37:305|48:266,1,114.749996498108,8|0,0:0|0:0,0:0:0:0:
98,111,129316,6,0,L|90:74,1,38.2499988327027,8|0,0:0|0:0,0:0:0:0:
108,114,129482,2,0,L|100:77,1,38.2499988327027,8|0,0:0|0:0,0:0:0:0:
190,193,129649,2,0,B|282:165|282:165|296:186|338:215,1,152.999995330811,8|0,0:1|0:0,0:0:0:0:
447,170,130149,1,8,0:0:0:0:
405,42,130316,5,8,0:1:0:0:
405,42,130399,1,8,0:1:0:0:
405,42,130483,2,0,B|395:82|395:82|391:83|391:83|376:140,1,76.4999976654053,8|8,0:1|0:0,0:0:0:0:
511,259,130816,2,0,L|474:248,1,38.2499988327027,8|0,0:0|0:0,0:0:0:0:
280,281,130983,2,0,P|306:309|364:299,1,76.4999976654053,8|0,0:1|0:0,0:0:0:0:
447,170,131316,5,8,0:0:0:0:
393,237,131483,1,8,0:0:0:0:
229,132,131649,5,8,0:1:0:0:
226,113,131732,1,8,0:0:0:0:
223,94,131815,1,8,0:0:0:0:
219,75,131898,1,8,0:0:0:0:
216,58,131982,6,0,L|151:74,1,59.4999981842042,14|0,0:0|0:0,0:0:0:0:
43,0,132149,2,0,L|104:18,1,59.4999981842042,8|0,0:0|0:0,0:0:0:0:
111,134,132315,1,8,0:1:0:0:
59,246,132482,6,0,B|84:347|84:347|105:370|141:366,1,165.749992412568,8|0,0:0|0:0,0:0:0:0:
155,280,132815,1,8,0:0:0:0:
300,335,132982,2,0,B|352:346|352:346|357:342|357:342|407:352,1,110.499994941712,8|0,0:1|0:0,0:0:0:0:
485,384,133232,1,8,0:0:0:0:
493,377,133315,6,0,L|476:318,1,55.2499974708558,8|0,0:0|0:0,0:0:0:0:
352,207,133482,2,0,L|337:261,1,55.2499974708558,8|0,0:0|0:0,0:0:0:0:
431,176,133648,5,8,0:1:0:0:
281,172,133815,2,0,B|265:97|265:97|268:90|268:90|248:0,1,165.749992412568,10|0,0:0|0:0,0:0:0:0:
266,4,134148,1,10,0:0:0:0:
432,46,134315,2,0,P|415:82|342:78,1,110.499994941712,10|0,0:1|0:0,0:0:0:0:
174,36,134565,1,8,0:0:0:0:
166,40,134648,6,0,L|97:66,1,55.2499974708558,10|0,0:0|0:0,0:0:0:0:
2,137,134815,2,0,L|71:163,1,55.2499974708558,8|0,0:0|0:0,0:0:0:0:
36,65,134982,5,8,0:1:0:0:
122,207,135149,2,0,B|135:254|90:288|83:251|32:289|44:334,1,165.749992412568,10|0,0:0|0:0,0:0:0:0:
55,342,135482,1,8,0:0:0:0:
196,274,135648,2,0,B|247:265|247:265|256:270|256:270|307:260,1,110.499994941712,10|0,0:1|0:0,0:0:0:0:
348,192,135898,1,8,0:0:0:0:
358,196,135982,6,0,L|425:211,1,55.2499974708558,8|0,0:0|0:0,0:0:0:0:
402,338,136148,2,0,L|389:284,1,55.2499974708558,8|0,0:0|0:0,0:0:0:0:
477,159,136315,1,8,0:1:0:0:
281,79,136482,6,0,B|287:106|287:106|291:111|291:111|299:147,1,55.2499974708558,8|0,0:0|0:0,0:0:0:0:
399,31,136648,1,10,0:0:0:0:
384,27,136732,1,8,0:0:0:0:
367,23,136815,1,8,0:0:0:0:
208,120,136982,5,8,0:1:0:0:
175,127,137065,1,8,0:0:0:0:
142,135,137148,1,8,0:0:0:0:
111,143,137232,1,8,0:0:0:0:
83,153,137315,6,0,B|53:157|53:157|51:160|51:160|17:168,1,55.2499974708558,10|0,0:0|0:0,0:0:0:0:
104,277,137482,2,0,B|112:256|112:256|110:252|110:252|120:225,1,55.2499974708558,8|0,0:0|0:0,0:0:0:0:
47,78,137648,1,8,0:1:0:0:
198,233,137815,6,0,B|234:234|254:182|254:182|297:161|331:199,1,165.749992412568,8|0,0:0|0:0,0:0:0:0:
327,213,138148,1,8,0:0:0:0:
425,72,138315,2,0,B|416:124|416:124|420:129|420:129|409:181,1,110.499994941712,8|0,0:1|0:0,0:0:0:0:
465,228,138565,1,8,0:0:0:0:
462,241,138648,6,0,P|438:259|399:250,1,55.2499974708558,10|0,0:0|0:0,0:0:0:0:
401,124,138815,2,0,L|409:179,1,55.2499974708558,8|0,0:0|0:0,0:0:0:0:
339,304,138982,5,8,0:1:0:0:
249,173,139148,2,0,B|264:64|264:64|242:53|219:26,1,165.749992412568,10|0,0:0|0:0,0:0:0:0:
235,20,139481,1,8,0:0:0:0:
110,130,139649,2,0,P|50:141|8:96,1,127.500004863739,10|0,0:1|0:0,0:0:0:0:
140,0,139898,1,8,0:0:0:0:
142,12,139981,6,0,L|155:70,1,55.2499974708558,10|0,0:0|0:0,0:0:0:0:
249,173,140149,2,0,L|236:231,1,55.2499974708558,8|0,0:0|0:0,0:0:0:0:
223,100,140315,5,8,0:1:0:0:
318,251,140481,2,0,B|364:254|396:205|359:201|390:154|441:163,1,165.749992412568,10|0,0:0|0:0,0:0:0:0:
446,175,140815,1,8,0:0:0:0:
268,324,140982,2,0,B|219:314|219:314|213:309|213:309|127:291,1,110.499994941712,10|0,0:1|0:0,0:0:0:0:
77,284,141231,1,8,0:0:0:0:
72,295,141315,6,0,L|87:362,1,55.2499974708558,8|0,0:0|0:0,0:0:0:0:
212,223,141482,2,0,L|224:169,1,55.2499974708558,8|0,0:0|0:0,0:0:0:0:
162,299,141648,1,8,0:1:0:0:
97,197,141815,2,0,P|128:173|162:177,1,55.2499974708558,8|0,0:0|0:0,0:0:0:0:
292,245,141981,1,10,0:0:0:0:
308,240,142065,1,8,0:0:0:0:
323,237,142148,1,8,0:0:0:0:
188,67,142315,5,8,0:1:0:0:
221,73,142398,1,8,0:0:0:0:
254,79,142481,1,8,0:0:0:0:
286,85,142565,1,8,0:0:0:0:
313,89,142649,6,0,L|379:103,1,63.7500024318696,14|0,0:0|0:0,0:0:0:0:
489,83,142815,2,0,P|457:53|416:58,1,63.7500024318696,8|0,0:0|0:0,0:0:0:0:
429,169,142981,1,8,0:1:0:0:
313,89,143149,6,0,B|298:196|298:196|328:213|344:245,1,165.749992412568,8|0,0:0|0:0,0:0:0:0:
330,253,143481,1,8,0:0:0:0:
495,347,143649,2,0,B|474:323|474:323|388:310,1,118.999996368408,8|0,0:1|0:0,0:0:0:0:
298,355,143898,1,8,0:0:0:0:
289,357,143981,6,0,L|221:373,1,55.2499974708558,10|0,0:0|0:0,0:0:0:0:
388,310,144149,2,0,L|375:363,1,55.2499974708558,8|0,0:0|0:0,0:0:0:0:
225,291,144315,5,8,0:1:0:0:
76,384,144482,2,0,B|62:339|103:297|115:333|155:293|135:245,1,165.749992412568,10|0,0:0|0:0,0:0:0:0:
118,237,144815,1,8,0:0:0:0:
5,90,144982,2,0,B|32:98|38:126|38:126|52:187,1,110.499994941712,10|0,0:1|0:0,0:0:0:0:
122,124,145231,1,8,0:0:0:0:
132,127,145315,6,0,B|204:146,1,55.2499974708558,10|0,0:0|0:0,0:0:0:0:
287,232,145482,2,0,B|340:217,1,55.2499974708558,8|0,0:0|0:0,0:0:0:0:
201,327,145649,2,0,B|210:271|210:271|206:266|206:266|217:202,1,110.499994941712,8|10,0:1|0:0,0:0:0:0:
268,152,145899,1,8,0:0:0:0:
268,152,145982,1,0,0:0:0:0:
236,77,146148,1,8,0:0:0:0:
391,0,146315,2,0,P|449:29|440:93,1,110.499994941712,10|0,0:1|0:0,0:0:0:0:
411,139,146565,1,8,0:0:0:0:
413,154,146648,6,0,L|422:208,1,55.2499974708558,8|0,0:0|0:0,0:0:0:0:
501,298,146815,2,0,L|491:352,1,55.2499974708558,8|0,0:0|0:0,0:0:0:0:
507,217,146981,1,8,0:1:0:0:
371,271,147148,6,0,P|340:270|319:249,1,55.2499974708558,8|0,0:0|0:0,0:0:0:0:
413,154,147315,1,10,0:0:0:0:
429,157,147398,1,8,0:0:0:0:
448,161,147481,1,8,0:0:0:0:
371,271,147648,5,8,0:1:0:0:
338,277,147731,1,8,0:0:0:0:
305,283,147815,1,8,0:0:0:0:
273,289,147898,1,8,0:0:0:0:
243,297,147981,6,0,B|167:313,1,55.2499974708558,10|0,0:0|0:0,0:0:0:0:
92,357,148149,2,0,P|111:373|149:369,1,55.2499974708558,8|0,0:0|0:0,0:0:0:0:
155,240,148315,2,0,B|145:189|145:189|141:184|141:184|127:111,1,110.499994941712,8|8,0:1|0:0,0:0:0:0:
177,67,148565,1,8,0:0:0:0:
177,67,148649,1,0,0:0:0:0:
54,154,148815,1,8,0:0:0:0:
0,0,148982,2,0,L|119:23,1,110.499994941712,8|0,0:1|0:0,0:0:0:0:
177,67,149231,1,8,0:0:0:0:
188,66,149315,6,0,P|211:46|250:45,1,63.7500024318696,10|0,0:0|0:0,0:0:0:0:
345,122,149482,2,0,P|368:142|407:143,1,63.7500024318696,8|0,0:0|0:0,0:0:0:0:
323,43,149648,1,8,0:1:0:0:
214,137,149815,6,0,B|240:155|240:155|262:312,1,165.749992412568,10|0,0:0|0:0,0:0:0:0:
251,292,150148,1,8,0:0:0:0:
429,371,150315,2,0,P|359:314|328:327,1,127.500004863739,10|0,0:1|0:0,0:0:0:0:
263,377,150565,1,8,0:0:0:0:
254,374,150649,2,0,L|168:354,1,68,10|0,0:0|0:0,0:0:0:0:
114,384,150815,2,0,L|94:298,1,63.7500024318696,8|0,0:0|0:0,0:0:0:0:
128,245,150981,5,8,0:1:0:0:
73,66,151149,2,0,B|36:77|30:114|30:114|18:226,1,165.749992412568,10|0,0:0|0:0,0:0:0:0:
30,221,151481,1,8,0:0:0:0:
173,168,151649,2,0,B|251:150|251:150|278:159|291:184,1,127.500004863739,8|0,0:1|0:0,0:0:0:0:
246,247,151898,1,8,0:0:0:0:
246,247,151981,6,0,L|232:317,1,55.2499974708558,8|0,0:0|0:0,0:0:0:0:
350,139,152149,2,0,L|339:84,1,55.2499974708558,8|0,0:0|0:0,0:0:0:0:
287,178,152315,1,8,0:1:0:0:
405,294,152482,2,0,P|433:287|452:259,1,55.2499974708558,8|0,0:0|0:0,0:0:0:0:
441,90,152648,1,8,0:0:0:0:
438,113,152731,1,8,0:0:0:0:
433,136,152815,2,0,L|417:222,1,55.2499974708558,8|0,0:0|0:0,0:0:0:0:
281,342,152982,5,8,0:0:0:0:
252,330,153065,1,8,0:0:0:0:
233,305,153148,1,8,0:0:0:0:
230,273,153232,1,8,0:0:0:0:
246,247,153315,1,4,0:0:0:0:
