osu file format v14

[General]
AudioFilename: felys.mp3
AudioLeadIn: 0
PreviewTime:88161
Countdown: 0
SampleSet: Soft
StackLeniency: 0.7
Mode: 0
LetterboxInBreaks: 0
WidescreenStoryboard: 1

[Editor]
Bookmarks: 10686,42686,72163
DistanceSpacing: 1
BeatDivisor: 2
GridSize: 32
TimelineZoom: 1.8

[Metadata]
Title:felys
TitleUnicode:felys
Artist:onoken
ArtistUnicode:onoken
Creator:Kloyd
Version:Beginner
Source:
Tags:fser Some Hero Down semaphore Instrumental Electronic bms heroine
BeatmapID:2921751
BeatmapSetID:235496

[Difficulty]
HPDrainRate:4
CircleSize:3.3
OverallDifficulty:5
ApproachRate:6
SliderMultiplier:1.1
SliderTickRate:1

[Events]
//Background and Video events
0,0,"roa_felys-xga.jpg",0,0
//Break Periods
//Storyboard Layer 0 (Background)
//Storyboard Layer 1 (Fail)
//Storyboard Layer 2 (Pass)
//Storyboard Layer 3 (Foreground)
//Storyboard Layer 4 (Overlay)
//Storyboard Sound Samples

[TimingPoints]
8010,333.333333333333,4,2,1,30,1,0
8343,-100,4,2,1,40,0,0
8676,-100,4,2,1,45,0,0
9009,-100,4,2,1,50,0,0
9343,-100,4,2,1,60,0,0
10009,-100,4,2,1,65,0,0
10676,-100,4,2,3,60,0,0
15509,-100,4,2,0,60,0,0
15676,-100,4,2,3,60,0,0
20343,-100,4,2,2,40,0,0
20843,-100,4,2,0,60,0,0
21009,-100,4,2,2,40,0,0
21343,-100,4,2,2,50,0,0
26676,-100,4,2,2,60,0,0
32009,-100,4,3,1,60,0,0
32843,-100,4,3,2,40,0,0
32927,-100,4,3,1,60,0,0
33259,-100,4,3,2,40,0,0
33343,-100,4,3,1,60,0,0
34176,-100,4,3,2,40,0,0
34260,-100,4,3,1,60,0,0
34593,-100,4,3,2,40,0,0
34677,-100,4,3,1,60,0,0
35509,-100,4,3,2,40,0,0
35593,-100,4,3,1,60,0,0
35926,-100,4,3,2,40,0,0
36010,-100,4,3,1,60,0,0
36843,-100,4,3,2,40,0,0
36927,-100,4,3,1,60,0,0
37176,-100,4,3,2,40,0,0
37343,-100,4,3,1,60,0,0
38176,-100,4,3,2,40,0,0
38260,-100,4,3,1,60,0,0
38593,-100,4,3,2,40,0,0
38677,-100,4,3,1,60,0,0
39509,-100,4,3,2,40,0,0
39593,-100,4,3,1,60,0,0
39926,-100,4,3,2,40,0,0
40010,-100,4,3,1,60,0,0
40843,-100,4,3,2,40,0,0
40927,-100,4,3,1,60,0,0
41259,-100,4,3,2,40,0,0
41343,-100,4,3,1,60,0,0
42176,-100,4,3,2,40,0,0
42260,-100,4,3,1,60,0,0
42509,-100,4,3,2,40,0,0
42593,-100,4,3,1,60,0,0
42676,-100,4,3,1,70,0,0
43509,-100,4,3,2,40,0,0
43593,-100,4,3,1,70,0,0
43843,-100,4,3,2,40,0,0
44009,-100,4,3,1,70,0,0
44843,-100,4,3,2,40,0,0
44926,-100,4,3,1,70,0,0
45176,-100,4,3,2,40,0,0
45343,-100,4,3,1,70,0,0
46176,-100,4,3,2,40,0,0
46259,-100,4,3,1,70,0,0
46509,-100,4,3,2,40,0,0
46676,-100,4,3,1,70,0,0
47509,-100,4,3,2,40,0,0
47593,-100,4,3,1,70,0,0
47843,-100,4,3,2,40,0,0
48009,-100,4,3,1,70,0,0
48843,-100,4,3,2,40,0,0
48926,-100,4,3,1,70,0,0
49176,-100,4,3,2,40,0,0
49343,-100,4,3,1,70,0,0
50176,-100,4,3,2,40,0,0
50259,-100,4,3,1,70,0,0
50593,-100,4,3,2,40,0,0
50676,-100,4,3,1,70,0,0
51509,-100,4,3,2,40,0,0
51593,-100,4,3,1,70,0,0
51843,-100,4,3,2,40,0,0
52009,-100,4,3,1,70,0,0
52843,-100,4,3,2,40,0,0
52926,-100,4,3,1,70,0,0
53176,-100,4,3,2,40,0,0
53343,-100,4,3,1,70,0,0
54176,-100,4,3,2,40,0,0
54259,-100,4,3,1,70,0,0
54509,-100,4,3,2,40,0,0
54676,-100,4,3,1,70,0,0
55509,-100,4,3,2,40,0,0
55593,-100,4,3,1,70,0,0
55926,-100,4,3,2,40,0,0
56009,-100,4,3,1,70,0,0
56843,-100,4,3,2,40,0,0
56926,-100,4,3,1,70,0,0
57176,-100,4,3,2,40,0,0
57343,-100,4,3,1,70,0,0
58176,-100,4,3,2,40,0,0
58259,-100,4,3,1,70,0,0
58509,-100,4,3,2,40,0,0
58676,-100,4,3,1,70,0,0
59509,-100,4,3,2,40,0,0
59592,-100,4,3,1,70,0,0
59926,-100,4,3,2,40,0,0
60009,-100,4,3,1,70,0,0
60843,-100,4,3,2,40,0,0
60926,-100,4,3,1,70,0,0
61259,-100,4,3,2,40,0,0
61342,-100,4,3,1,70,0,0
62176,-100,4,3,2,40,0,0
62259,-100,4,3,1,70,0,0
62509,-100,4,3,2,40,0,0
62676,-100,4,3,1,70,0,0
63176,-100,4,2,2,70,0,0
63676,-100,4,3,1,70,0,0
63843,-100,4,3,2,60,0,0
64009,-100,4,3,1,60,0,0
66819,333.333333333333,4,2,0,50,1,0
71819,-100,4,2,2,40,0,0
72152,-100,4,2,2,50,0,0
77152,-100,4,2,2,40,0,0
77485,-100,4,2,2,50,0,0
88152,-100,4,2,2,60,0,0
88485,-100,4,2,2,65,0,0
88652,-100,4,2,2,70,0,0
88818,-100,4,2,2,75,0,0
89152,-100,4,2,2,80,0,0
89318,-100,4,2,2,5,0,0
89485,-100,4,3,1,75,0,0
110818,-100,4,2,4,90,0,0
111152,-100,4,2,2,50,0,0
121485,-100,4,2,4,90,0,0

[Colours]
Combo1 : 0,0,255
Combo2 : 130,130,220
Combo3 : 255,255,255
Combo4 : 128,255,255

[HitObjects]
116,301,10677,6,0,B|41:322|41:322|22:347,2,110,2|2|2,0:1|0:2|0:2,0:0:0:0:
160,200,11677,2,0,B|235:179|235:179|253:153,2,110,2|2|2,0:1|0:2|0:2,0:0:0:0:
54,168,12677,1,2,0:2:0:0:
11,66,13010,1,2,0:2:0:0:
107,13,13343,6,0,B|178:24|178:24|212:5,2,110,2|2|2,0:1|0:2|0:2,0:0:0:0:
87,121,14343,2,0,B|157:134|157:134|182:164,2,110,2|2|2,0:1|0:2|0:2,0:0:0:0:
3,49,15343,1,2,0:2:0:0:
3,49,15510,2,0,L|11:106,1,55,2|2,0:1|0:2,0:0:0:0:
32,211,16010,6,0,L|150:239,1,110,2|2,0:1|0:2,0:0:0:0:
139,236,16677,1,2,0:2:0:0:
186,335,17010,2,0,L|304:307,1,110,2|2,0:1|0:2,0:0:0:0:
293,310,17677,1,2,0:2:0:0:
395,348,18010,1,2,0:2:0:0:
482,281,18343,1,2,0:2:0:0:
457,173,18677,6,0,L|338:191,1,110,2|2,0:1|0:2,0:0:0:0:
348,189,19343,1,2,0:2:0:0:
284,99,19677,2,0,L|165:81,1,110,2|2,0:1|0:2,0:0:0:0:
175,83,20343,1,2,1:2:0:0:
90,153,20677,2,0,P|92:181|108:204,1,55,2|2,1:2|0:1,0:0:0:0:
149,238,21010,2,0,P|95:235|54:269,1,110,4|0,0:3|0:2,0:0:0:0:
137,351,21677,5,0,0:2:0:0:
137,351,21843,2,0,B|227:360|201:302|301:316,1,165,2|2,0:3|0:3,0:0:0:0:
401,295,22677,2,0,P|452:315|480:361,2,110,0|2|0,0:2|0:3|0:2,0:0:0:0:
363,335,23510,1,0,0:2:0:0:
321,175,24010,5,0,0:2:0:0:
434,146,24343,1,0,0:2:0:0:
433,146,24510,2,0,P|445:92|427:41,1,110,2|0,0:3|0:2,0:0:0:0:
382,9,25010,1,2,0:3:0:0:
298,80,25343,5,0,0:2:0:0:
199,34,25677,1,2,0:3:0:0:
90,51,26010,2,0,P|70:44|46:20,1,55,0|0,0:2|0:2,0:0:0:0:
159,129,26677,5,0,3:2:0:0:
145,238,27010,1,0,0:2:0:0:
145,237,27177,2,0,P|100:303|21:302,1,165,0|2,0:2|0:3,0:0:0:0:
10,192,28010,2,0,L|-4:124,2,55,0|0|2,0:2|0:2|3:3,0:0:0:0:
88,114,28677,2,0,P|116:129|156:130,1,55,8|0,3:2|0:2,0:0:0:0:
251,163,29177,1,0,0:2:0:0:
251,163,29343,6,0,L|267:291,1,110,0|8,3:2|0:2,0:0:0:0:
244,323,29843,2,0,P|288:294|361:359,1,165,8|8,0:2|0:2,0:0:0:0:
472,341,30677,5,0,3:2:0:0:
482,231,31010,1,8,0:2:0:0:
493,121,31343,1,8,0:2:0:0:
504,11,31677,2,0,L|439:26,1,55,0|0,3:2|3:2,0:0:0:0:
395,29,32010,6,0,B|367:44|367:44|351:128,1,110,6|10,1:1|0:2,0:0:0:0:
341,174,32510,2,0,B|295:178|295:178|272:248|272:248|227:257,1,165,2|10,0:2|0:2,0:0:0:0:
118,271,33343,2,0,B|100:295|100:295|105:384,2,110,0|10|10,1:2|0:2|0:2,0:0:0:0:
141,220,34177,1,2,0:2:0:0:
33,243,34510,6,0,L|27:175,1,55,2|2,0:2|1:2,0:0:0:0:
15,80,35010,1,10,0:2:0:0:
15,80,35177,2,0,B|67:69|67:69|98:14|98:14|160:11,1,165,2|10,0:2|0:2,0:0:0:0:
219,85,36010,6,0,B|216:114|216:114|226:137,1,55,2|2,1:2|1:2,0:0:0:0:
282,138,36343,2,0,B|292:114|292:114|289:85,1,55,10|2,0:2|0:2,0:0:0:0:
259,46,36677,1,10,0:2:0:0:
259,46,36843,1,2,0:2:0:0:
418,3,37343,6,0,B|489:15|489:15|508:47,1,110,2|10,1:2|0:2,0:0:0:0:
484,97,37843,2,0,B|525:169|525:169|469:246,1,165,2|10,0:2|0:2,0:0:0:0:
410,324,38677,2,0,B|483:312|483:312|513:357,2,110,0|10|10,1:2|0:2|0:2,0:0:0:0:
356,344,39510,1,2,0:2:0:0:
244,222,40010,5,2,1:2:0:0:
144,264,40343,1,10,0:2:0:0:
144,264,40510,2,0,B|62:248|62:248|47:225,1,110,2|2,0:2|0:2,0:0:0:0:
16,180,41010,2,0,L|25:118,2,55,10|2|2,0:2|0:2|1:2,0:0:0:0:
109,122,41677,5,10,0:2:0:0:
217,140,42010,1,10,0:2:0:0:
326,156,42343,1,10,0:2:0:0:
435,151,42677,6,0,P|459:198|450:252,2,110,4|10|10,1:1|0:2|0:2,0:0:0:0:
402,48,43677,1,10,0:2:0:0:
300,90,44010,2,0,P|252:114|228:163,1,110,2|10,1:2|0:2,0:0:0:0:
245,272,44677,2,0,L|259:334,2,55,10|2|10,0:2|0:2|0:2,0:0:0:0:
135,257,45343,6,0,L|64:359,2,110,2|10|10,1:2|0:2|0:2,0:0:0:0:
196,165,46343,1,10,0:2:0:0:
119,86,46677,2,0,L|25:20,1,110,2|10,1:2|0:2,0:0:0:0:
9,131,47343,2,0,L|23:193,2,55,10|2|10,0:2|0:2|0:2,0:0:0:0:
102,188,48010,6,0,L|128:305,2,110,2|10|10,1:2|0:2|0:2,0:0:0:0:
101,79,49010,1,10,0:2:0:0:
209,100,49343,2,0,L|326:126,1,110,2|10,1:2|0:2,0:0:0:0:
417,80,50010,2,0,B|419:53|419:53|406:27,2,55,10|2|10,0:2|0:2|0:2,0:0:0:0:
411,184,50677,6,0,B|483:200|483:200|503:242,2,110,2|10|10,1:2|0:2|0:2,0:0:0:0:
315,239,51677,1,10,0:2:0:0:
377,329,52010,2,0,B|447:351|447:351|485:324,1,110,2|10,1:2|0:2,0:0:0:0:
494,221,52677,2,0,L|421:230,1,55,10|2,0:2|0:2,0:0:0:0:
384,233,53010,2,0,P|363:214|338:204,1,55,10|2,0:2|0:2,0:0:0:0:
283,198,53343,5,4,1:1:0:0:
283,198,53510,1,0,1:2:0:0:
211,281,53843,2,0,L|88:315,1,110,0|0,0:0|0:2,0:0:0:0:
51,321,54343,2,0,P|30:340|20:365,2,55,10|2|2,0:2|0:2|1:2,0:0:0:0:
110,229,55010,1,10,0:2:0:0:
44,140,55343,2,0,P|25:120|16:94,1,55,10|2,0:2|0:2,0:0:0:0:
5,40,55677,2,0,P|19:16|42:1,1,55,10|2,0:2|0:2,0:0:0:0:
96,7,56010,5,2,1:2:0:0:
96,7,56177,1,0,1:2:0:0:
179,78,56510,2,0,B|201:135|164:131|198:200,1,110,0|0,0:0|0:2,0:0:0:0:
178,238,57010,2,0,P|177:266|187:291,1,55,10|2,0:2|0:2,0:0:0:0:
224,332,57343,5,2,1:2:0:0:
333,335,57677,2,0,P|362:342|386:365,2,55,10|2|10,0:2|0:2|0:2,0:0:0:0:
331,224,58343,2,0,P|363:223|388:203,1,55,10|2,0:2|0:2,0:0:0:0:
434,188,58677,5,2,1:2:0:0:
434,188,58843,1,0,1:2:0:0:
495,97,59177,2,0,P|445:74|392:84,1,110,0|0,0:0|0:2,0:0:0:0:
338,98,59677,2,0,L|349:37,2,55,10|2|2,0:2|0:2|1:2,0:0:0:0:
255,170,60343,1,10,0:2:0:0:
174,98,60677,2,0,L|163:37,2,55,10|2|10,0:2|0:2|0:2,0:0:0:0:
87,165,61343,6,0,L|25:150,1,55,2|0,1:2|1:2,0:0:0:0:
2,257,61843,2,0,P|62:275|79:320,1,110,0|0,0:0|0:2,0:0:0:0:
99,366,62343,2,0,L|163:380,1,55,10|2,0:2|0:2,0:0:0:0:
207,384,62677,5,2,1:2:0:0:
190,275,63010,1,10,0:2:0:0:
297,252,63343,2,0,L|365:242,2,55,2|2|10,0:3|3:2|0:2,0:0:0:0:
305,306,63843,1,2,0:2:0:0:
313,360,64010,6,0,B|375:367|375:367|406:343|406:343|468:354,1,165,2|0,1:2|3:2,0:0:0:0:
70,47,66819,5,2,0:2:0:0:
14,140,67153,2,0,P|9:168|16:194,1,55,2|2,0:2|0:2,0:0:0:0:
125,212,67653,2,0,P|129:239|122:265,1,55,2|2,0:2|0:2,0:0:0:0:
56,354,68153,2,0,L|-1:341,2,55,2|2|2,0:2|0:2|0:2,0:0:0:0:
163,378,68819,1,2,0:2:0:0:
269,351,69153,1,2,0:2:0:0:
376,373,69486,5,2,0:2:0:0:
474,325,69819,2,0,P|489:302|490:275,1,55,2|2,0:2|0:2,0:0:0:0:
429,183,70319,2,0,P|429:155|444:133,2,55,2|2|2,0:2|0:2|0:2,0:0:0:0:
399,229,70819,1,2,0:2:0:0:
289,242,71153,1,2,0:2:0:0:
180,257,71486,1,2,0:2:0:0:
70,272,71819,2,0,B|41:244|41:244|47:156,1,110,2|0,0:3|0:2,0:0:0:0:
52,64,72486,5,0,0:2:0:0:
52,64,72653,2,0,L|119:46,1,55,2|0,0:3|0:2,0:0:0:0:
211,21,73153,1,2,0:3:0:0:
249,123,73486,1,0,0:2:0:0:
301,26,73819,1,2,0:3:0:0:
340,128,74152,2,0,L|401:145,1,55,0|0,0:2|0:2,0:0:0:0:
445,158,74486,1,2,0:3:0:0:
510,69,74819,5,0,0:2:0:0:
409,23,75152,1,0,0:2:0:0:
409,23,75319,2,0,L|336:33,1,55,2|0,0:3|0:2,0:0:0:0:
245,43,75819,1,2,0:3:0:0:
136,62,76152,1,0,0:2:0:0:
154,170,76486,1,2,0:3:0:0:
263,166,76818,2,0,L|274:229,1,55
177,362,77486,6,0,B|113:346|113:346|95:250|95:250|23:235,1,220,0|8,3:2|0:1,0:0:0:0:
13,126,78486,1,2,0:3:0:0:
54,24,78819,2,0,B|78:11|78:11|105:13,2,55,2|2|4,3:0|0:3|1:3,0:0:0:0:
103,122,79486,2,0,L|222:143,1,110,8|2,0:1|0:3,0:0:0:0:
261,117,79986,1,0,1:0:0:0:
314,131,80152,6,0,P|345:86|343:32,2,110,0|0|8,3:2|0:2|0:1,0:0:0:0:
261,229,81152,1,2,0:3:0:0:
261,229,81319,1,8,1:1:0:0:
279,342,81652,1,2,3:3:0:0:
279,342,81819,1,4,1:3:0:0:
388,351,82152,1,8,0:1:0:0:
483,152,82819,6,0,B|331:188|331:188|379:134,1,220,0|8,3:2|0:1,0:0:0:0:
444,55,83819,1,2,0:3:0:0:
336,32,84152,2,0,L|274:22,2,55,0|2|4,3:2|0:3|1:3,0:0:0:0:
286,129,84819,1,8,0:1:0:0:
257,291,85319,1,0,1:2:0:0:
257,291,85486,6,0,P|209:249|145:248,2,110,0|8|8,3:2|0:1|0:1,0:0:0:0:
343,359,86486,2,0,L|411:345,1,55,6|8,0:3|1:1,0:0:0:0:
420,240,86986,2,0,L|368:187,1,55,2|4,3:3|1:3,0:0:0:0:
329,181,87319,1,2,3:3:0:0:
273,183,87486,2,0,L|280:257,2,55,8|0|0,0:1|0:2|0:2,0:0:0:0:
108,42,89486,6,0,B|50:18|54:51|0:25,2,110,6|8|0,1:1|0:2|0:0,0:0:0:0:
181,124,90486,2,0,P|183:151|174:177,1,55,8|0,0:2|0:0,0:0:0:0:
130,212,90819,6,0,P|52:204|34:287,2,165,2|2|10,1:1|0:1|0:1,0:0:0:0:
204,287,92152,2,0,P|114:313|68:383,2,165,2|2|10,1:1|0:1|0:1,0:0:0:0:
298,343,93486,6,0,L|313:286,1,55,0|0,1:2|1:2,0:0:0:0:
321,235,93819,2,0,L|378:250,1,55,8|0,0:2|0:0,0:0:0:0:
401,297,94152,2,0,L|470:281,1,55,0|2,0:0|0:1,0:0:0:0:
472,167,94652,1,0,0:0:0:0:
472,167,94819,6,0,P|463:113|488:65,2,110,2|8|0,1:1|0:2|0:0,0:0:0:0:
386,97,95819,2,0,P|358:100|335:114,1,55,8|0,0:2|0:0,0:0:0:0:
284,126,96152,6,0,B|297:63|259:25|259:25|236:44|193:52,2,165,2|2|10,1:1|0:1|0:1,0:0:0:0:
233,223,97486,2,0,P|187:140|102:125,2,165,2|2|10,1:1|0:1|0:1,0:0:0:0:
208,330,98819,6,0,L|258:361,2,55,0|0|8,1:2|1:2|0:2,0:0:0:0:
158,305,99319,1,0,0:0:0:0:
111,334,99486,2,0,L|56:374,1,55
27,261,99986,1,0,0:0:0:0:
27,261,100152,5,6,1:1:0:0:
5,153,100486,1,8,0:2:0:0:
5,153,100652,2,0,P|70:187|184:185,1,165,0|10,0:0|0:2,0:0:0:0:
261,147,101486,2,0,P|285:127|311:119,2,55,2|2|10,1:2|1:2|0:2,0:0:0:0:
248,200,101986,1,2,0:2:0:0:
238,254,102152,2,0,L|354:230,1,110,2|10,0:2|0:2,0:0:0:0:
448,270,102819,5,2,1:2:0:0:
421,376,103152,2,0,P|394:369|371:354,1,55,10|2,0:2|0:2,0:0:0:0:
322,328,103486,2,0,L|253:343,2,55,2|2|10,0:2|0:2|0:2,0:0:0:0:
373,230,104152,2,0,L|491:202,2,110,2|10|2,1:2|0:2|0:2,0:0:0:0:
269,191,105152,1,10,0:2:0:0:
190,268,105486,5,2,1:2:0:0:
97,326,105819,2,0,P|82:302|78:275,1,55,10|2,0:2|0:2,0:0:0:0:
65,221,106152,2,0,L|2:247,2,55,2|2|10,0:2|0:2|0:2,0:0:0:0:
92,112,106819,2,0,P|39:105|19:57,2,110,2|10|2,1:2|0:2|0:2,0:0:0:0:
184,52,107819,1,10,0:2:0:0:
238,147,108152,5,2,1:2:0:0:
328,85,108486,2,0,L|321:25,2,55,10|2|2,0:2|0:2|0:2,0:0:0:0:
434,113,109152,1,10,0:2:0:0:
410,220,109486,6,0,L|417:280,2,55,2|2|10,1:2|1:2|0:2,0:0:0:0:
367,184,109986,1,2,0:2:0:0:
335,229,110152,2,0,B|216:194|247:301|100:260,1,220,0|4,0:0|1:1,0:0:0:0:
40,335,111152,5,0,0:2:0:0:
40,335,111319,2,0,L|16:166,1,165,0|2,0:2|0:3,0:0:0:0:
19,61,112152,2,0,L|7:-6,2,55,2|0|2,0:2|0:2|0:3,0:0:0:0:
93,140,112819,2,0,P|123:95|176:84,1,110,0|2,0:2|0:3,0:0:0:0:
285,99,113486,5,2,0:2:0:0:
375,36,113819,1,0,0:2:0:0:
476,79,114152,2,0,P|488:101|484:134,2,55,0|0|2,0:2|0:2|0:3,0:0:0:0:
384,139,114819,5,2,0:2:0:0:
293,201,115152,1,2,0:3:0:0:
202,263,115486,2,0,P|181:325|201:383,1,110,0|2,0:2|0:3,0:0:0:0:
294,322,116152,5,2,0:2:0:0:
399,291,116486,1,0,0:2:0:0:
503,257,116819,2,0,L|494:123,1,110,0|2,0:2|0:3,0:0:0:0:
391,184,117486,5,2,0:2:0:0:
287,220,117819,1,2,0:3:0:0:
183,259,118152,2,0,L|199:128,1,110,0|2,0:2|0:3,0:0:0:0:
213,41,118819,5,2,0:2:0:0:
322,27,119152,1,0,0:2:0:0:
336,136,119486,1,0,0:2:0:0:
227,150,119819,1,2,0:3:0:0:
213,41,120152,6,0,P|169:69|91:69,1,110,2|2,0:2|0:3,0:0:0:0:
10,31,120819,2,0,P|-5:138|46:235,1,220,0|4,0:2|0:3,0:0:0:0:
