osu file format v14

[General]
AudioFilename: audio.mp3
AudioLeadIn: 0
PreviewTime: 19230
Countdown: 0
SampleSet: Soft
StackLeniency: 0.7
Mode: 3
LetterboxInBreaks: 0
SpecialStyle: 0
WidescreenStoryboard: 0

[Editor]
DistanceSpacing: 1
BeatDivisor: 4
GridSize: 4
TimelineZoom: 1.6

[Metadata]
Title:children's domain
TitleUnicode:children's domain
Artist:onoken
ArtistUnicode:onoken
Creator:ExNeko
Version:7K HD
Source:アクセル・ワールド
Tags:Accel World Original Soundtrack instrumental Piano Bell
BeatmapID:1566364
BeatmapSetID:742639

[Difficulty]
HPDrainRate:7.6
CircleSize:7
OverallDifficulty:7.6
ApproachRate:5
SliderMultiplier:1.4
SliderTickRate:1

[Events]
//Background and Video events
0,0,"3600161.2272054.jpg",0,0
//Break Periods
//Storyboard Layer 0 (Background)
//Storyboard Layer 1 (Fail)
//Storyboard Layer 2 (Pass)
//Storyboard Layer 3 (Foreground)
//Storyboard Sound Samples

[TimingPoints]
30,600,4,2,1,30,1,0
28830,-100,4,2,1,30,0,1
48030,-100,4,2,1,30,0,0

[HitObjects]
256,192,30,5,0,0:0:0:30:Piano_F5.wav
182,192,330,1,0,0:0:0:30:Piano_F5.wav
64,192,330,1,0,0:0:0:0:
329,192,480,1,0,0:0:0:30:Piano_G5.wav
475,192,630,1,0,0:0:0:30:Piano_A6.wav
85,192,930,1,0,0:0:0:30:Piano_D6.wav
256,192,930,1,0,0:0:0:0:
329,192,1230,1,0,0:0:0:30:Piano_C6.wav
402,192,1530,1,0,0:0:0:30:Piano_A6.wav
182,192,1530,1,0,0:0:0:0:
109,192,1830,1,0,0:0:0:30:Piano_G5.wav
256,192,1930,1,0,0:0:0:30:Piano_A6.wav
402,192,2030,1,0,0:0:0:30:Piano_G5.wav
64,192,2130,1,0,0:0:0:30:Piano_F5.wav
182,192,2130,1,0,0:0:0:0:
329,192,2430,1,0,0:0:0:30:Piano_E5.wav
109,192,2730,1,0,0:0:0:30:Piano_E5.wav
448,192,2730,1,0,0:0:0:0:
256,192,2880,1,0,0:0:0:30:Piano_F5.wav
402,192,3030,1,0,0:0:0:30:Piano_G5.wav
320,192,3330,1,0,0:0:0:30:Piano_E5.wav
182,192,3330,1,0,0:0:0:0:
109,192,3630,1,0,0:0:0:30:Piano_A6.wav
36,192,3930,1,0,0:0:0:30:Piano_G5.wav
256,192,3930,1,0,0:0:0:0:
182,192,4230,1,0,0:0:0:30:Piano_A6.wav
402,192,4230,1,0,0:0:0:0:
109,192,4830,5,0,0:0:0:30:Piano_F5.wav
256,192,5130,1,0,0:0:0:30:Piano_F5.wav
402,192,5130,1,0,0:0:0:0:
36,192,5280,1,0,0:0:0:30:Piano_G5.wav
192,192,5430,1,0,0:0:0:30:Piano_A6.wav
85,192,5730,1,0,0:0:0:30:Piano_D6.wav
320,192,5730,1,0,0:0:0:0:
192,192,6030,1,0,0:0:0:30:Piano_C6.wav
256,192,6330,1,0,0:0:0:30:Piano_A6.wav
448,192,6330,1,0,0:0:0:0:
329,192,6630,1,0,0:0:0:30:Piano_G5.wav
192,192,6730,1,0,0:0:0:30:Piano_A6.wav
36,192,6830,1,0,0:0:0:30:Piano_G5.wav
256,192,6930,1,0,0:0:0:30:Piano_F5.wav
402,192,6930,1,0,0:0:0:0:
109,192,7230,1,0,0:0:0:30:Piano_E5.wav
329,192,7530,1,0,0:0:0:30:Piano_E5.wav
192,192,7530,1,0,0:0:0:0:
475,192,7680,1,0,0:0:0:30:Piano_F5.wav
36,192,7830,1,0,0:0:0:30:Piano_G5.wav
256,192,7980,1,0,0:0:0:30:Piano_F5.wav
109,192,8130,1,0,0:0:0:30:Piano_E5.wav
402,192,8130,1,0,0:0:0:0:
182,192,8430,1,0,0:0:0:30:Piano_E5.wav
329,192,8530,1,0,0:0:0:30:Piano_F5.wav
475,192,8630,1,0,0:0:0:30:Piano_E5.wav
256,192,8730,1,0,0:0:0:30:Piano_C5.wav
36,192,8730,1,0,0:0:0:0:
85,192,9030,1,0,0:0:0:30:Piano_D5.wav
329,192,9030,1,0,0:0:0:0:
256,192,9630,5,0,0:0:0:30:Piano_F5.wav
329,192,9930,1,0,0:0:0:30:Piano_F5.wav
475,192,9930,1,0,0:0:0:0:
182,192,10080,1,0,0:0:0:30:Piano_G5.wav
36,192,10230,1,0,0:0:0:30:Piano_A6.wav
402,192,10530,1,0,0:0:0:30:Piano_D6.wav
256,192,10530,1,0,0:0:0:0:
182,192,10830,1,0,0:0:0:30:Piano_C6.wav
109,192,11130,1,0,0:0:0:30:Piano_A6.wav
329,192,11130,1,0,0:0:0:0:
402,192,11430,1,0,0:0:0:30:Piano_G5.wav
256,192,11530,1,0,0:0:0:30:Piano_A6.wav
109,192,11630,1,0,0:0:0:30:Piano_G5.wav
475,192,11730,1,0,0:0:0:30:Piano_F5.wav
329,192,11730,1,0,0:0:0:0:
182,192,12030,1,0,0:0:0:30:Piano_E5.wav
256,192,12330,1,0,0:0:0:30:Piano_E5.wav
36,192,12330,1,0,0:0:0:0:
402,192,12480,1,0,0:0:0:30:Piano_F5.wav
109,192,12630,1,0,0:0:0:30:Piano_G5.wav
182,192,12930,1,0,0:0:0:30:Piano_E5.wav
329,192,12930,1,0,0:0:0:0:
402,192,13230,1,0,0:0:0:30:Piano_A6.wav
475,192,13530,1,0,0:0:0:30:Piano_G5.wav
256,192,13530,1,0,0:0:0:0:
329,192,13830,1,0,0:0:0:30:Piano_A6.wav
109,192,13830,1,0,0:0:0:0:
402,192,14430,5,0,0:0:0:30:Piano_F5.wav
256,192,14730,1,0,0:0:0:30:Piano_F5.wav
109,192,14730,1,0,0:0:0:0:
475,192,14880,1,0,0:0:0:30:Piano_G5.wav
329,192,15030,1,0,0:0:0:30:Piano_A6.wav
402,192,15330,1,0,0:0:0:30:Piano_D6.wav
182,192,15330,1,0,0:0:0:0:
329,192,15630,1,0,0:0:0:30:Piano_C6.wav
256,192,15930,1,0,0:0:0:30:Piano_A6.wav
36,192,15930,1,0,0:0:0:0:
182,192,16230,1,0,0:0:0:30:Piano_G5.wav
329,192,16330,1,0,0:0:0:30:Piano_A6.wav
475,192,16430,1,0,0:0:0:30:Piano_G5.wav
256,192,16530,1,0,0:0:0:30:Piano_F5.wav
109,192,16530,1,0,0:0:0:0:
36,192,16830,1,0,0:0:0:30:Piano_E5.wav
402,192,17130,1,0,0:0:0:30:Piano_A6.wav
182,192,17130,1,0,0:0:0:0:
329,192,17430,1,0,0:0:0:30:Piano_E5.wav
256,192,17730,1,0,0:0:0:30:Piano_C5.wav
36,192,17730,1,0,0:0:0:0:
182,192,18030,1,0,0:0:0:30:Piano_A5.wav
329,192,18330,1,0,0:0:0:30:Piano_C5.wav
109,192,18330,1,0,0:0:0:0:
475,192,18630,1,0,0:0:0:30:Piano_D5.wav
36,192,18630,1,0,0:0:0:0:
402,192,19230,1,0,0:0:0:30:Piano_D7.wav
256,192,19230,1,0,0:0:0:0:
329,192,19530,1,0,0:0:0:0:
109,192,19530,1,0,0:0:0:0:
256,192,19680,1,0,0:0:0:0:
36,192,19830,1,0,0:0:0:30:Piano_G6.wav
475,192,19830,1,0,0:0:0:0:
182,192,19830,1,0,0:0:0:0:
109,192,20130,1,0,0:0:0:0:
329,192,20130,1,0,0:0:0:0:
192,192,20280,1,0,0:0:0:0:
256,192,20430,1,0,0:0:0:30:Piano_C7.wav
448,192,20430,1,0,0:0:0:0:
402,192,20580,1,0,0:0:0:0:
329,192,20730,1,0,0:0:0:0:
109,192,20730,1,0,0:0:0:0:
256,192,21030,1,0,0:0:0:30:Piano_G6.wav
36,192,21030,1,0,0:0:0:0:
402,192,21030,1,0,0:0:0:0:
329,192,21330,1,0,0:0:0:0:
448,192,21330,1,0,0:0:0:0:
182,192,21480,1,0,0:0:0:0:
36,192,21630,1,0,0:0:0:30:Piano_F6.wav
402,192,21630,1,0,0:0:0:0:
256,192,21780,1,0,0:0:0:0:
109,192,21930,1,0,0:0:0:30:Piano_G6.wav
448,192,21930,1,0,0:0:0:0:
320,192,22080,1,0,0:0:0:0:
64,192,22230,1,0,0:0:0:30:Piano_E6.wav
448,192,22230,1,0,0:0:0:0:
192,192,22230,1,0,0:0:0:0:
256,192,22530,1,0,0:0:0:0:
109,192,22530,1,0,0:0:0:0:
329,192,22680,1,0,0:0:0:0:
182,192,22830,1,0,0:0:0:30:Piano_F6.wav
402,192,22830,1,0,0:0:0:0:
256,192,23130,1,0,0:0:0:30:Piano_E6.wav
36,192,23130,1,0,0:0:0:0:
182,192,23280,1,0,0:0:0:0:
85,192,23430,1,0,0:0:0:30:Piano_C6.wav
329,192,23430,1,0,0:0:0:0:
475,192,23430,1,0,0:0:0:0:
256,192,23730,1,0,0:0:0:0:
109,192,23880,1,0,0:0:0:0:
329,192,24030,1,0,0:0:0:30:Piano_D7.wav
448,192,24030,1,0,0:0:0:0:
182,192,24330,1,0,0:0:0:0:
36,192,24330,1,0,0:0:0:0:
256,192,24480,1,0,0:0:0:0:
85,192,24630,1,0,0:0:0:30:Piano_G6.wav
448,192,24630,1,0,0:0:0:0:
320,192,24630,1,0,0:0:0:0:
192,192,24930,1,0,0:0:0:0:
402,192,24930,1,0,0:0:0:0:
256,192,25080,1,0,0:0:0:0:
36,192,25230,1,0,0:0:0:30:Piano_C7.wav
329,192,25230,1,0,0:0:0:0:
109,192,25380,1,0,0:0:0:0:
182,192,25530,1,0,0:0:0:0:
475,192,25530,1,0,0:0:0:0:
64,192,25830,1,0,0:0:0:30:Piano_G6.wav
256,192,25830,1,0,0:0:0:0:
402,192,25830,1,0,0:0:0:0:
329,192,26130,1,0,0:0:0:0:
182,192,26130,1,0,0:0:0:0:
475,192,26280,1,0,0:0:0:0:
256,192,26430,1,0,0:0:0:30:Piano_G6.wav
109,192,26430,1,0,0:0:0:0:
402,192,26580,1,0,0:0:0:0:
192,192,26730,1,0,0:0:0:30:Piano_A7.wav
64,192,26730,1,0,0:0:0:0:
256,192,26880,1,0,0:0:0:0:
448,192,27030,1,0,0:0:0:30:Piano_C7.wav
329,192,27030,1,0,0:0:0:0:
109,192,27030,1,0,0:0:0:0:
256,192,27330,1,0,0:0:0:30:Piano_A7.wav
402,192,27330,1,0,0:0:0:0:
192,192,27480,1,0,0:0:0:0:
85,192,27630,1,0,0:0:0:30:Piano_C7.wav
329,192,27630,1,0,0:0:0:0:
36,192,27930,5,0,0:0:0:30:Piano_C7.wav
182,192,27930,1,0,0:0:0:0:
256,192,28080,1,0,0:0:0:0:
85,192,28230,1,0,0:0:0:30:Piano_D7.wav
329,192,28230,1,0,0:0:0:0:
448,192,28230,1,0,0:0:0:0:
192,192,28530,1,0,0:0:0:0:
256,192,28680,1,0,0:0:0:0:
64,192,28830,5,0,0:0:0:30:Piano_F5.wav
329,192,28830,5,0,0:0:0:30:Bell_F5.wav
182,192,29130,1,0,0:0:0:30:Piano_F5.wav
402,192,29130,1,0,0:0:0:30:Bell_F5.wav
109,192,29280,1,0,0:0:0:30:Piano_G5.wav
329,192,29280,1,0,0:0:0:30:Bell_G5.wav
256,192,29430,1,0,0:0:0:30:Piano_A6.wav
475,192,29430,1,0,0:0:0:30:Bell_A6.wav
36,192,29430,1,0,0:0:0:0:
109,192,29580,1,0,0:0:0:0:
182,192,29730,1,0,0:0:0:30:Piano_D6.wav
402,192,29730,1,0,0:0:0:30:Bell_D6.wav
329,192,30030,1,0,0:0:0:30:Piano_C6.wav
109,192,30030,1,0,0:0:0:30:Bell_C6.wav
402,192,30180,1,0,0:0:0:0:
64,192,30330,1,0,0:0:0:30:Piano_A6.wav
256,192,30330,1,0,0:0:0:30:Bell_A6.wav
109,192,30630,1,0,0:0:0:30:Piano_G5.wav
329,192,30630,1,0,0:0:0:30:Bell_G5.wav
182,192,30730,1,0,0:0:0:30:Piano_A6.wav
402,192,30730,1,0,0:0:0:30:Bell_A6.wav
475,192,30830,1,0,0:0:0:30:Piano_G5.wav
256,192,30830,1,0,0:0:0:30:Bell_G5.wav
36,192,30930,1,0,0:0:0:30:Piano_F5.wav
329,192,30930,1,0,0:0:0:30:Bell_F5.wav
192,192,31230,1,0,0:0:0:30:Piano_E5.wav
402,192,31230,1,0,0:0:0:30:Bell_E5.wav
85,192,31530,1,0,0:0:0:30:Piano_E5.wav
256,192,31530,1,0,0:0:0:30:Bell_E5.wav
483,192,31680,1,0,0:0:0:30:Bell_F5.wav
329,192,31680,1,0,0:0:0:30:Piano_F5.wav
36,192,31830,1,0,0:0:0:30:Piano_G5.wav
182,192,31830,1,0,0:0:0:30:Bell_G5.wav
402,192,31830,1,0,0:0:0:0:
256,192,31980,1,0,0:0:0:0:
329,192,32130,1,0,0:0:0:30:Piano_E5.wav
109,192,32130,1,0,0:0:0:30:Bell_E5.wav
402,192,32430,1,0,0:0:0:30:Piano_A6.wav
182,192,32430,1,0,0:0:0:30:Bell_A6.wav
329,192,32580,1,0,0:0:0:0:
109,192,32730,1,0,0:0:0:30:Piano_G5.wav
256,192,32730,1,0,0:0:0:30:Bell_G5.wav
329,192,32880,1,0,0:0:0:0:
36,192,33030,1,0,0:0:0:30:Piano_A6.wav
402,192,33030,1,0,0:0:0:30:Bell_A6.wav
182,192,33030,1,0,0:0:0:0:
329,192,33330,1,0,0:0:0:0:
182,192,33630,5,0,0:0:0:30:Piano_F5.wav
402,192,33630,1,0,0:0:0:30:Bell_F5.wav
36,192,33930,1,0,0:0:0:30:Piano_F5.wav
256,192,33930,1,0,0:0:0:30:Bell_F5.wav
109,192,34080,1,0,0:0:0:30:Piano_G5.wav
320,192,34080,1,0,0:0:0:30:Bell_G5.wav
182,192,34230,1,0,0:0:0:30:Piano_A6.wav
402,192,34230,1,0,0:0:0:30:Bell_A6.wav
475,192,34230,1,0,0:0:0:0:
256,192,34380,1,0,0:0:0:0:
85,192,34530,1,0,0:0:0:30:Piano_D6.wav
320,192,34530,1,0,0:0:0:30:Bell_D6.wav
36,192,34830,1,0,0:0:0:30:Piano_C6.wav
256,192,34830,1,0,0:0:0:30:Bell_C6.wav
402,192,34980,1,0,0:0:0:0:
109,192,35130,1,0,0:0:0:30:Piano_A6.wav
329,192,35130,1,0,0:0:0:30:Bell_A6.wav
182,192,35430,1,0,0:0:0:30:Piano_G5.wav
36,192,35430,1,0,0:0:0:30:Bell_G5.wav
475,192,35530,1,0,0:0:0:30:Piano_A6.wav
329,192,35530,1,0,0:0:0:30:Bell_A6.wav
256,192,35630,1,0,0:0:0:30:Piano_G5.wav
109,192,35630,1,0,0:0:0:30:Bell_G5.wav
402,192,35730,1,0,0:0:0:30:Piano_F5.wav
182,192,35730,1,0,0:0:0:30:Bell_F5.wav
256,192,36030,1,0,0:0:0:30:Piano_E5.wav
36,192,36030,1,0,0:0:0:30:Bell_E5.wav
109,192,36180,1,0,0:0:0:0:
402,192,36330,1,0,0:0:0:30:Piano_E5.wav
182,192,36330,1,0,0:0:0:30:Bell_E5.wav
329,192,36480,1,0,0:0:0:30:Bell_F5.wav
109,192,36480,1,0,0:0:0:30:Piano_F5.wav
36,192,36630,1,0,0:0:0:30:Piano_G5.wav
256,192,36630,1,0,0:0:0:30:Bell_G5.wav
475,192,36630,1,0,0:0:0:0:
402,192,36780,1,0,0:0:0:30:Piano_F5.wav
109,192,36780,1,0,0:0:0:30:Bell_F5.wav
329,192,36930,1,0,0:0:0:30:Piano_E5.wav
182,192,36930,1,0,0:0:0:30:Bell_E5.wav
402,192,37080,1,0,0:0:0:0:
182,192,37230,1,0,0:0:0:30:Piano_E5.wav
475,192,37230,1,0,0:0:0:30:Bell_E5.wav
109,192,37330,1,0,0:0:0:30:Piano_F5.wav
256,192,37330,1,0,0:0:0:30:Bell_F5.wav
329,192,37430,1,0,0:0:0:30:Piano_E5.wav
36,192,37430,1,0,0:0:0:30:Bell_E5.wav
182,192,37530,1,0,0:0:0:30:Piano_C5.wav
402,192,37530,1,0,0:0:0:30:Bell_C5.wav
475,192,37830,1,0,0:0:0:30:Piano_D5.wav
109,192,37830,1,0,0:0:0:30:Bell_D5.wav
329,192,37830,1,0,0:0:0:0:
256,192,38130,1,0,0:0:0:0:
475,192,38430,5,0,0:0:0:30:Piano_F5.wav
182,192,38430,5,0,0:0:0:30:Bell_F5.wav
329,192,38730,1,0,0:0:0:30:Piano_F5.wav
109,192,38730,1,0,0:0:0:30:Bell_F5.wav
402,192,38880,1,0,0:0:0:30:Piano_G5.wav
182,192,38880,1,0,0:0:0:30:Bell_G5.wav
256,192,39030,1,0,0:0:0:30:Piano_A6.wav
36,192,39030,1,0,0:0:0:30:Bell_A6.wav
475,192,39030,1,0,0:0:0:0:
329,192,39180,1,0,0:0:0:0:
402,192,39330,1,0,0:0:0:30:Piano_D6.wav
109,192,39330,1,0,0:0:0:30:Bell_D6.wav
182,192,39630,1,0,0:0:0:30:Piano_C6.wav
329,192,39630,1,0,0:0:0:30:Bell_C6.wav
109,192,39780,1,0,0:0:0:0:
475,192,39930,1,0,0:0:0:30:Piano_A6.wav
256,192,39930,1,0,0:0:0:30:Bell_A6.wav
402,192,40230,1,0,0:0:0:30:Piano_G5.wav
182,192,40230,1,0,0:0:0:30:Bell_G5.wav
329,192,40330,1,0,0:0:0:30:Piano_A6.wav
109,192,40330,1,0,0:0:0:30:Bell_A6.wav
36,192,40430,1,0,0:0:0:30:Piano_G5.wav
256,192,40430,1,0,0:0:0:30:Bell_G5.wav
475,192,40530,1,0,0:0:0:30:Piano_F5.wav
182,192,40530,1,0,0:0:0:30:Bell_F5.wav
329,192,40830,1,0,0:0:0:30:Piano_E5.wav
109,192,40830,1,0,0:0:0:30:Bell_E5.wav
402,192,41130,1,0,0:0:0:30:Piano_E5.wav
256,192,41130,1,0,0:0:0:30:Bell_E5.wav
36,192,41280,1,0,0:0:0:30:Bell_F5.wav
182,192,41280,1,0,0:0:0:30:Piano_F5.wav
475,192,41430,1,0,0:0:0:30:Piano_G5.wav
329,192,41430,1,0,0:0:0:30:Bell_G5.wav
109,192,41430,1,0,0:0:0:0:
256,192,41580,1,0,0:0:0:0:
182,192,41730,1,0,0:0:0:30:Piano_E5.wav
402,192,41730,1,0,0:0:0:30:Bell_E5.wav
109,192,42030,1,0,0:0:0:30:Piano_A6.wav
329,192,42030,1,0,0:0:0:30:Bell_A6.wav
36,192,42180,1,0,0:0:0:0:
402,192,42330,1,0,0:0:0:30:Piano_G5.wav
256,192,42330,1,0,0:0:0:30:Bell_G5.wav
182,192,42480,1,0,0:0:0:0:
475,192,42630,1,0,0:0:0:30:Piano_A6.wav
109,192,42630,1,0,0:0:0:30:Bell_A6.wav
329,192,42630,1,0,0:0:0:0:
182,192,42930,1,0,0:0:0:0:
329,192,43230,5,0,0:0:0:30:Piano_F5.wav
109,192,43230,1,0,0:0:0:30:Bell_F5.wav
475,192,43530,1,0,0:0:0:30:Piano_F5.wav
256,192,43530,1,0,0:0:0:30:Bell_F5.wav
402,192,43680,1,0,0:0:0:30:Piano_G5.wav
182,192,43680,1,0,0:0:0:30:Bell_G5.wav
329,192,43830,1,0,0:0:0:30:Piano_A6.wav
109,192,43830,1,0,0:0:0:30:Bell_A6.wav
36,192,43830,1,0,0:0:0:0:
256,192,43980,1,0,0:0:0:0:
402,192,44130,1,0,0:0:0:30:Piano_D6.wav
182,192,44130,1,0,0:0:0:30:Bell_D6.wav
475,192,44430,1,0,0:0:0:30:Piano_C6.wav
256,192,44430,1,0,0:0:0:30:Bell_C6.wav
109,192,44580,1,0,0:0:0:0:
402,192,44730,1,0,0:0:0:30:Piano_A6.wav
182,192,44730,1,0,0:0:0:30:Bell_A6.wav
329,192,45030,1,0,0:0:0:30:Piano_G5.wav
475,192,45030,1,0,0:0:0:30:Bell_G5.wav
36,192,45130,1,0,0:0:0:30:Piano_A6.wav
182,192,45130,1,0,0:0:0:30:Bell_A6.wav
256,192,45230,1,0,0:0:0:30:Piano_G5.wav
402,192,45230,1,0,0:0:0:30:Bell_G5.wav
109,192,45330,1,0,0:0:0:30:Piano_F5.wav
329,192,45330,1,0,0:0:0:30:Bell_F5.wav
256,192,45630,1,0,0:0:0:30:Piano_E5.wav
475,192,45630,1,0,0:0:0:30:Bell_E5.wav
402,192,45780,1,0,0:0:0:0:
109,192,45930,1,0,0:0:0:30:Piano_E5.wav
329,192,45930,1,0,0:0:0:30:Bell_E5.wav
182,192,46080,1,0,0:0:0:30:Bell_F5.wav
402,192,46080,1,0,0:0:0:30:Piano_F5.wav
475,192,46230,1,0,0:0:0:30:Piano_G5.wav
256,192,46230,1,0,0:0:0:30:Bell_G5.wav
36,192,46230,1,0,0:0:0:0:
109,192,46380,1,0,0:0:0:30:Piano_F5.wav
402,192,46380,1,0,0:0:0:30:Bell_F5.wav
182,192,46530,1,0,0:0:0:30:Piano_E5.wav
329,192,46530,1,0,0:0:0:30:Bell_E5.wav
109,192,46680,1,0,0:0:0:0:
329,192,46830,1,0,0:0:0:30:Piano_E5.wav
36,192,46830,1,0,0:0:0:30:Bell_E5.wav
402,192,46930,1,0,0:0:0:30:Piano_F5.wav
256,192,46930,1,0,0:0:0:30:Bell_F5.wav
182,192,47030,1,0,0:0:0:30:Piano_E5.wav
475,192,47030,1,0,0:0:0:30:Bell_E5.wav
329,192,47130,1,0,0:0:0:30:Piano_C5.wav
109,192,47130,1,0,0:0:0:30:Bell_C5.wav
36,192,47430,1,0,0:0:0:30:Piano_D5.wav
402,192,47430,1,0,0:0:0:30:Bell_D5.wav
182,192,47430,1,0,0:0:0:0:
329,192,47730,1,0,0:0:0:0:
36,192,48030,5,0,0:0:0:30:Piano_E6.wav
475,192,48030,1,0,0:0:0:30:Bell_E6.wav
256,192,48180,1,0,0:0:0:0:
402,192,48330,1,0,0:0:0:30:Piano_E6.wav
109,192,48330,1,0,0:0:0:30:Bell_E6.wav
192,192,48480,1,0,0:0:0:30:Piano_F6.wav
320,192,48480,1,0,0:0:0:30:Bell_F6.wav
64,192,48630,1,0,0:0:0:30:Piano_G6.wav
448,192,48630,1,0,0:0:0:30:Bell_G6.wav
256,192,48630,1,0,0:0:0:0:
109,192,48780,1,0,0:0:0:30:Piano_F6.wav
320,192,48780,1,0,0:0:0:30:Bell_F6.wav
182,192,48930,1,0,0:0:0:30:Piano_E6.wav
402,192,48930,1,0,0:0:0:30:Bell_E6.wav
475,192,49080,1,0,0:0:0:0:
36,192,49230,1,0,0:0:0:30:Piano_E6.wav
256,192,49230,1,0,0:0:0:30:Bell_E6.wav
109,192,49330,1,0,0:0:0:30:Piano_F6.wav
329,192,49330,1,0,0:0:0:30:Bell_F6.wav
402,192,49430,1,0,0:0:0:30:Piano_E6.wav
192,192,49430,1,0,0:0:0:30:Bell_E6.wav
256,192,49530,1,0,0:0:0:30:Piano_C6.wav
483,192,49530,1,0,0:0:0:30:Bell_C6.wav
36,192,49830,1,0,0:0:0:30:Piano_D6.wav
182,192,49830,1,0,0:0:0:30:Bell_D6.wav
329,192,49830,1,0,0:0:0:0:
