osu file format v14

[General]
AudioFilename: ZADAMGA.mp3
AudioLeadIn: 0
PreviewTime: 11551
Countdown: 0
SampleSet: Normal
StackLeniency: 0.7
Mode: 1
LetterboxInBreaks: 0
WidescreenStoryboard: 0

[Editor]
Bookmarks: 112967
DistanceSpacing: 1.1
BeatDivisor: 4
GridSize: 4
TimelineZoom: 1

[Metadata]
Title:ZADAMGA
TitleUnicode:ZADAMGA
Artist:onoken
ArtistUnicode:onoken
Creator:agu
Version:Muzukashii
Source:pop'n music
Tags:Lapistoria ラピストリア bemani konami Kennosuke Ono おの けんのすけ
BeatmapID:994501
BeatmapSetID:458476

[Difficulty]
HPDrainRate:5
CircleSize:5
OverallDifficulty:5
ApproachRate:5
SliderMultiplier:1.4
SliderTickRate:1

[Events]
//Background and Video events
0,0,"gas-mask-anime-1920x1080-wallpaper31300.jpg",0,0
//Break Periods
//Storyboard Layer 0 (Background)
//Storyboard Layer 1 (Fail)
//Storyboard Layer 2 (Pass)
//Storyboard Layer 3 (Foreground)
//Storyboard Sound Samples

[TimingPoints]
968,333.333333333333,4,1,0,50,1,0
10967,-100,4,1,0,85,0,0
54301,-100,4,1,0,70,0,0
75634,-100,4,1,0,85,0,1
85634,-100,4,1,0,85,0,0
91634,-100,4,1,0,85,0,1
112967,-100,4,1,0,85,0,0

[HitObjects]
192,224,967,5,8,0:0:0:0:
224,264,1301,1,0,0:0:0:0:
224,264,1634,1,8,0:0:0:0:
224,264,2301,1,0,0:0:0:0:
224,264,2634,1,8,0:0:0:0:
224,264,2967,1,0,0:0:0:0:
224,264,3634,1,8,0:0:0:0:
224,264,3967,1,0,0:0:0:0:
224,264,4301,1,8,0:0:0:0:
224,264,4634,1,8,0:0:0:0:
224,264,4967,1,0,0:0:0:0:
224,264,5301,1,0,0:0:0:0:
224,264,5634,1,8,0:0:0:0:
224,264,6301,1,0,0:0:0:0:
224,264,6634,1,8,0:0:0:0:
224,264,6967,1,0,0:0:0:0:
224,264,7634,1,8,0:0:0:0:
224,264,7967,1,8,0:0:0:0:
224,264,8301,1,0,0:0:0:0:
224,264,8967,1,0,0:0:0:0:
224,264,9301,1,0,0:0:0:0:
224,264,9634,1,8,0:0:0:0:
224,264,9967,1,8,0:0:0:0:
224,264,10301,1,0,0:0:0:0:
224,264,10634,1,8,0:0:0:0:
224,264,10967,1,0,0:0:0:0:
320,368,11301,1,8,0:0:0:0:
256,296,11384,1,8,0:0:0:0:
280,324,11467,1,8,0:0:0:0:
224,264,11634,1,0,0:0:0:0:
224,264,11967,1,8,0:0:0:0:
224,264,12134,1,0,0:0:0:0:
224,264,12217,1,0,0:0:0:0:
224,264,12301,1,8,0:0:0:0:
216,284,12634,1,8,0:0:0:0:
216,284,12967,1,8,0:0:0:0:
224,264,13134,1,0,0:0:0:0:
224,264,13301,1,8,0:0:0:0:
224,264,13634,1,0,0:0:0:0:
224,264,13801,1,6,0:0:0:0:
224,264,13967,1,0,0:0:0:0:
224,264,14134,1,6,0:0:0:0:
224,264,14301,1,0,0:0:0:0:
224,264,14634,1,8,0:0:0:0:
224,264,14801,1,0,0:0:0:0:
224,264,14884,1,0,0:0:0:0:
224,264,14967,1,8,0:0:0:0:
212,288,15301,1,8,0:0:0:0:
224,264,15634,1,8,0:0:0:0:
224,264,15856,1,0,0:0:0:0:
224,264,15967,1,8,0:0:0:0:
224,264,16190,1,0,0:0:0:0:
224,264,16301,1,8,0:0:0:0:
224,264,16467,1,8,0:0:0:0:
224,264,16967,1,0,0:0:0:0:
224,264,17301,1,8,0:0:0:0:
224,264,17467,1,0,0:0:0:0:
224,264,17551,1,0,0:0:0:0:
224,264,17634,1,8,0:0:0:0:
224,264,17967,1,8,0:0:0:0:
224,264,18301,1,8,0:0:0:0:
224,264,18467,1,0,0:0:0:0:
224,264,18634,1,8,0:0:0:0:
264,292,18967,1,0,0:0:0:0:
264,292,19134,1,6,0:0:0:0:
232,224,19301,1,0,0:0:0:0:
260,296,19467,1,6,0:0:0:0:
232,220,19634,1,0,0:0:0:0:
284,360,19967,1,8,0:0:0:0:
260,292,20134,1,0,0:0:0:0:
248,260,20217,1,0,0:0:0:0:
248,260,20301,1,8,0:0:0:0:
248,260,20634,1,8,0:0:0:0:
274,323,20801,1,0,0:0:0:0:
248,260,20967,1,8,0:0:0:0:
248,260,21301,1,8,0:0:0:0:
248,260,21467,1,0,0:0:0:0:
248,260,21551,1,0,0:0:0:0:
248,260,21634,1,8,0:0:0:0:
248,260,21801,1,0,0:0:0:0:
248,260,21967,1,8,0:0:0:0:
248,260,22301,1,0,0:0:0:0:
248,260,22467,1,8,0:0:0:0:
248,260,22634,1,0,0:0:0:0:
248,260,22801,1,8,0:0:0:0:
248,260,22967,1,0,0:0:0:0:
248,260,23134,1,0,0:0:0:0:
248,260,23301,1,8,0:0:0:0:
248,260,23467,1,8,0:0:0:0:
248,260,23634,1,0,0:0:0:0:
248,260,23801,1,8,0:0:0:0:
248,260,23967,1,0,0:0:0:0:
248,260,24301,1,8,0:0:0:0:
248,260,24634,1,0,0:0:0:0:
248,260,24967,1,8,0:0:0:0:
248,260,25301,1,0,0:0:0:0:
248,260,25467,1,8,0:0:0:0:
248,260,25801,1,0,0:0:0:0:
248,260,25967,1,8,0:0:0:0:
248,260,26301,1,0,0:0:0:0:
248,260,26634,1,8,0:0:0:0:
248,260,26967,1,8,0:0:0:0:
248,260,27134,1,0,0:0:0:0:
248,260,27301,1,8,0:0:0:0:
248,260,27634,1,0,0:0:0:0:
248,260,27801,1,8,0:0:0:0:
248,260,27967,1,0,0:0:0:0:
248,260,28134,1,0,0:0:0:0:
248,260,28301,1,8,0:0:0:0:
248,260,28467,1,8,0:0:0:0:
248,260,28634,1,0,0:0:0:0:
248,260,28801,1,0,0:0:0:0:
248,260,28967,1,8,0:0:0:0:
248,260,29134,1,0,0:0:0:0:
248,260,29301,1,8,0:0:0:0:
248,260,29634,1,0,0:0:0:0:
248,260,29967,1,8,0:0:0:0:
248,260,30301,1,0,0:0:0:0:
248,260,30634,1,0,0:0:0:0:
248,260,30967,1,0,0:0:0:0:
248,260,31467,1,0,0:0:0:0:
248,260,31634,1,8,0:0:0:0:
248,260,31967,1,8,0:0:0:0:
248,260,32301,1,0,0:0:0:0:
248,260,32467,1,0,0:0:0:0:
248,260,32634,1,8,0:0:0:0:
248,260,32967,1,0,0:0:0:0:
248,260,33134,1,8,0:0:0:0:
248,260,33301,1,8,0:0:0:0:
248,260,33467,1,0,0:0:0:0:
248,260,33634,1,8,0:0:0:0:
248,260,33801,1,0,0:0:0:0:
248,260,33967,1,8,0:0:0:0:
248,260,34301,1,0,0:0:0:0:
248,260,34467,1,8,0:0:0:0:
248,260,34634,1,8,0:0:0:0:
248,260,34801,1,8,0:0:0:0:
248,260,34967,1,0,0:0:0:0:
248,260,35134,1,0,0:0:0:0:
248,260,35301,1,8,0:0:0:0:
248,260,35634,1,0,0:0:0:0:
248,260,35801,1,8,0:0:0:0:
248,260,35967,1,8,0:0:0:0:
248,260,36467,1,0,0:0:0:0:
248,260,36634,1,8,0:0:0:0:
248,260,36967,1,0,0:0:0:0:
248,260,37134,1,0,0:0:0:0:
248,260,37301,1,8,0:0:0:0:
248,260,37467,1,0,0:0:0:0:
248,260,37634,1,8,0:0:0:0:
248,260,37801,1,0,0:0:0:0:
248,260,37967,1,8,0:0:0:0:
248,260,38301,1,0,0:0:0:0:
248,260,38467,1,0,0:0:0:0:
248,260,38634,1,8,0:0:0:0:
248,260,38801,1,0,0:0:0:0:
248,260,38967,1,0,0:0:0:0:
248,260,39134,1,0,0:0:0:0:
248,260,39301,1,8,0:0:0:0:
248,260,39634,1,0,0:0:0:0:
248,260,39801,1,0,0:0:0:0:
248,260,39967,1,8,0:0:0:0:
248,260,40301,1,8,0:0:0:0:
248,260,40467,1,0,0:0:0:0:
248,260,40634,1,8,0:0:0:0:
248,260,40967,1,8,0:0:0:0:
248,260,41134,1,0,0:0:0:0:
248,260,41301,1,8,0:0:0:0:
248,260,41467,1,0,0:0:0:0:
248,260,41634,1,8,0:0:0:0:
248,260,41967,1,8,0:0:0:0:
248,260,42190,1,0,0:0:0:0:
248,260,42301,1,8,0:0:0:0:
248,260,42523,1,0,0:0:0:0:
248,260,42634,1,8,0:0:0:0:
248,260,42856,1,0,0:0:0:0:
248,260,42967,1,8,0:0:0:0:
248,260,43634,1,8,0:0:0:0:
248,260,43801,1,0,0:0:0:0:
248,260,43967,1,8,0:0:0:0:
248,260,44134,1,0,0:0:0:0:
248,260,44217,1,0,0:0:0:0:
248,260,44301,1,8,0:0:0:0:
248,260,44634,1,8,0:0:0:0:
248,260,44967,1,8,0:0:0:0:
248,260,45134,1,0,0:0:0:0:
248,260,45301,1,8,0:0:0:0:
248,260,45634,1,0,0:0:0:0:
312,292,45801,1,6,0:0:0:0:
252,260,45967,1,0,0:0:0:0:
316,292,46134,1,6,0:0:0:0:
252,264,46301,1,0,0:0:0:0:
336,384,46634,1,8,0:0:0:0:
316,324,46801,1,0,0:0:0:0:
316,324,46884,1,0,0:0:0:0:
316,324,46967,1,8,0:0:0:0:
316,324,47301,1,8,0:0:0:0:
316,324,47634,1,8,0:0:0:0:
316,324,47856,1,0,0:0:0:0:
316,324,47967,1,8,0:0:0:0:
316,324,48190,1,0,0:0:0:0:
268,340,48301,1,8,0:0:0:0:
316,324,48467,1,0,0:0:0:0:
316,324,48967,1,0,0:0:0:0:
316,324,49301,1,8,0:0:0:0:
316,324,49467,1,0,0:0:0:0:
316,324,49551,1,0,0:0:0:0:
316,324,49634,1,8,0:0:0:0:
316,324,49967,1,8,0:0:0:0:
316,324,50301,1,8,0:0:0:0:
316,324,50467,1,0,0:0:0:0:
316,324,50634,1,8,0:0:0:0:
316,324,50967,1,0,0:0:0:0:
316,324,51134,1,6,0:0:0:0:
316,324,51301,1,0,0:0:0:0:
316,324,51467,1,6,0:0:0:0:
316,324,51634,1,0,0:0:0:0:
316,324,51967,1,8,0:0:0:0:
316,324,52134,1,0,0:0:0:0:
316,324,52217,1,0,0:0:0:0:
316,324,52301,1,8,0:0:0:0:
316,324,52634,1,8,0:0:0:0:
316,324,52967,1,0,0:0:0:0:
272,316,53190,1,0,0:0:0:0:
272,316,53301,1,8,0:0:0:0:
340,348,53467,1,0,0:0:0:0:
312,336,53551,1,0,0:0:0:0:
312,336,53634,1,8,0:0:0:0:
312,336,53801,1,0,0:0:0:0:
312,336,53967,1,8,0:0:0:0:
312,336,54301,1,0,0:0:0:0:
312,336,54801,1,0,0:0:0:0:
312,336,55301,1,8,0:0:0:0:
312,336,55634,1,8,0:0:0:0:
312,336,55801,1,0,0:0:0:0:
312,336,56301,1,8,0:0:0:0:
96,260,56801,1,0,0:0:0:0:
312,336,56967,1,0,0:0:0:0:
312,336,57301,1,8,0:0:0:0:
312,336,57801,1,0,0:0:0:0:
312,336,57967,1,8,0:0:0:0:
312,336,58301,1,0,0:0:0:0:
312,336,58801,1,0,0:0:0:0:
312,336,58967,1,8,0:0:0:0:
312,336,59301,1,8,0:0:0:0:
340,348,59634,1,8,0:0:0:0:
368,376,59801,1,0,0:0:0:0:
340,348,60301,1,0,0:0:0:0:
340,348,60634,1,8,0:0:0:0:
340,348,60801,1,0,0:0:0:0:
340,348,60967,1,8,0:0:0:0:
340,348,61301,1,0,0:0:0:0:
340,348,61634,1,8,0:0:0:0:
340,348,61801,1,0,0:0:0:0:
340,348,61967,1,8,0:0:0:0:
340,348,62301,1,0,0:0:0:0:
340,348,62634,1,8,0:0:0:0:
340,348,62801,1,0,0:0:0:0:
340,348,62967,1,8,0:0:0:0:
340,348,63301,1,8,0:0:0:0:
208,304,63634,1,8,0:0:0:0:
284,328,63801,1,0,0:0:0:0:
304,340,64301,1,8,0:0:0:0:
304,340,64634,1,8,0:0:0:0:
304,340,64967,1,8,0:0:0:0:
304,340,65301,1,8,0:0:0:0:
304,340,65467,1,0,0:0:0:0:
304,340,65634,1,8,0:0:0:0:
304,340,65967,1,8,0:0:0:0:
304,340,66301,1,8,0:0:0:0:
304,340,66467,1,0,0:0:0:0:
304,340,66634,1,8,0:0:0:0:
304,340,66967,1,8,0:0:0:0:
304,340,67301,1,8,0:0:0:0:
304,340,67467,1,0,0:0:0:0:
304,340,67634,1,8,0:0:0:0:
304,340,67967,1,8,0:0:0:0:
304,340,68301,1,8,0:0:0:0:
304,340,68467,1,0,0:0:0:0:
304,340,68634,1,8,0:0:0:0:
304,340,68967,1,8,0:0:0:0:
304,340,69301,1,8,0:0:0:0:
304,340,69467,1,0,0:0:0:0:
304,340,69634,1,8,0:0:0:0:
304,340,70301,1,8,0:0:0:0:
304,340,70467,1,0,0:0:0:0:
304,340,70634,1,8,0:0:0:0:
332,268,70801,1,8,0:0:0:0:
304,340,70967,1,0,0:0:0:0:
324,284,71134,1,0,0:0:0:0:
304,340,71301,1,8,0:0:0:0:
304,340,71634,1,8,0:0:0:0:
324,284,71801,1,0,0:0:0:0:
304,340,71967,1,0,0:0:0:0:
368,304,72134,1,0,0:0:0:0:
304,340,72301,1,8,0:0:0:0:
304,340,72634,1,8,0:0:0:0:
344,272,72801,1,8,0:0:0:0:
304,340,72967,1,0,0:0:0:0:
340,280,73134,1,0,0:0:0:0:
304,340,73301,1,8,0:0:0:0:
340,276,73467,1,0,0:0:0:0:
304,340,73634,1,8,0:0:0:0:
332,288,73801,1,0,0:0:0:0:
304,340,73967,1,8,0:0:0:0:
304,340,74301,1,0,0:0:0:0:
304,340,74967,1,8,0:0:0:0:
304,340,75134,1,0,0:0:0:0:
304,340,75301,1,8,0:0:0:0:
304,340,75634,1,0,0:0:0:0:
304,340,75717,1,0,0:0:0:0:
304,340,75801,1,0,0:0:0:0:
304,340,75884,1,0,0:0:0:0:
304,340,75967,1,0,0:0:0:0:
304,340,76301,1,8,0:0:0:0:
304,340,76634,1,0,0:0:0:0:
304,340,76967,1,0,0:0:0:0:
304,340,77051,1,0,0:0:0:0:
304,340,77134,1,0,0:0:0:0:
304,340,77217,1,0,0:0:0:0:
304,340,77301,1,0,0:0:0:0:
304,340,77634,1,8,0:0:0:0:
304,340,77967,1,0,0:0:0:0:
304,340,78301,1,0,0:0:0:0:
304,340,78384,1,0,0:0:0:0:
304,340,78467,1,0,0:0:0:0:
304,320,78634,1,8,0:0:0:0:
304,340,78967,1,8,0:0:0:0:
304,340,79301,1,0,0:0:0:0:
304,340,79634,1,0,0:0:0:0:
304,340,79717,1,0,0:0:0:0:
304,340,79801,1,0,0:0:0:0:
304,340,79884,1,0,0:0:0:0:
304,340,79967,1,0,0:0:0:0:
304,340,80301,1,8,0:0:0:0:
236,300,80467,1,0,0:0:0:0:
304,340,80634,1,0,0:0:0:0:
304,340,80967,1,0,0:0:0:0:
304,340,81051,1,0,0:0:0:0:
304,340,81134,1,0,0:0:0:0:
304,340,81217,1,0,0:0:0:0:
304,340,81301,1,0,0:0:0:0:
304,340,81634,1,8,0:0:0:0:
304,340,81967,1,0,0:0:0:0:
304,340,82301,1,0,0:0:0:0:
304,340,82384,1,0,0:0:0:0:
304,340,82467,1,0,0:0:0:0:
308,348,82634,1,8,0:0:0:0:
304,340,82967,1,8,0:0:0:0:
304,340,83301,1,0,0:0:0:0:
304,340,83634,1,0,0:0:0:0:
304,340,83967,1,8,0:0:0:0:
304,340,84134,1,0,0:0:0:0:
304,340,84301,1,8,0:0:0:0:
304,340,84467,1,8,0:0:0:0:
304,340,84634,1,0,0:0:0:0:
304,340,84801,1,0,0:0:0:0:
304,340,84967,1,8,0:0:0:0:
304,340,85301,1,0,0:0:0:0:
304,340,85634,1,8,0:0:0:0:
304,340,86301,1,8,0:0:0:0:
304,340,86967,1,8,0:0:0:0:
304,340,87634,1,8,0:0:0:0:
304,340,88301,1,8,0:0:0:0:
304,340,88967,1,8,0:0:0:0:
304,340,89301,1,8,0:0:0:0:
304,340,89634,1,8,0:0:0:0:
304,340,89967,1,8,0:0:0:0:
304,340,90301,1,8,0:0:0:0:
304,340,90467,1,8,0:0:0:0:
304,340,90634,1,8,0:0:0:0:
304,340,90801,1,8,0:0:0:0:
304,340,90967,1,8,0:0:0:0:
304,340,91301,1,0,0:0:0:0:
304,340,91634,1,0,0:0:0:0:
304,340,91801,1,8,0:0:0:0:
304,340,91967,1,8,0:0:0:0:
304,340,92134,1,0,0:0:0:0:
304,340,92301,1,8,0:0:0:0:
304,340,92467,1,0,0:0:0:0:
304,340,92634,1,8,0:0:0:0:
304,340,92967,1,0,0:0:0:0:
304,340,93134,1,0,0:0:0:0:
304,340,93301,1,8,0:0:0:0:
304,340,93467,1,0,0:0:0:0:
304,340,93634,1,0,0:0:0:0:
304,340,93801,1,0,0:0:0:0:
304,340,93967,1,8,0:0:0:0:
304,340,94301,1,0,0:0:0:0:
304,340,94467,1,0,0:0:0:0:
304,340,94634,1,8,0:0:0:0:
304,340,94801,1,0,0:0:0:0:
304,340,94967,1,8,0:0:0:0:
304,340,95134,1,0,0:0:0:0:
304,340,95301,1,8,0:0:0:0:
304,340,95634,1,0,0:0:0:0:
304,340,95801,1,0,0:0:0:0:
304,340,95967,1,8,0:0:0:0:
304,340,96134,1,0,0:0:0:0:
304,340,96301,1,8,0:0:0:0:
304,340,96467,1,4,0:0:0:0:
304,340,96967,1,0,0:0:0:0:
304,340,97134,1,8,0:0:0:0:
304,340,97301,1,0,0:0:0:0:
304,340,97467,1,8,0:0:0:0:
304,340,97634,1,0,0:0:0:0:
304,340,97801,1,8,0:0:0:0:
304,340,97967,1,8,0:0:0:0:
304,340,98134,1,0,0:0:0:0:
304,340,98301,1,8,0:0:0:0:
304,340,98467,1,8,0:0:0:0:
304,340,98634,1,0,0:0:0:0:
304,340,98801,1,8,0:0:0:0:
304,340,98967,1,8,0:0:0:0:
304,340,99134,1,0,0:0:0:0:
304,340,99301,1,8,0:0:0:0:
304,340,99467,1,8,0:0:0:0:
304,340,99634,1,0,0:0:0:0:
304,340,99967,1,8,0:0:0:0:
304,340,100190,1,0,0:0:0:0:
304,340,100301,1,8,0:0:0:0:
304,340,100523,1,0,0:0:0:0:
304,340,100634,1,8,0:0:0:0:
304,340,100856,1,0,0:0:0:0:
304,340,100967,1,8,0:0:0:0:
304,340,101134,1,0,0:0:0:0:
304,340,101301,1,8,0:0:0:0:
304,340,101467,1,0,0:0:0:0:
304,340,101634,1,8,0:0:0:0:
304,340,101801,1,0,0:0:0:0:
304,340,101967,1,8,0:0:0:0:
304,340,102301,1,8,0:0:0:0:
304,340,102467,1,0,0:0:0:0:
304,340,102634,1,8,0:0:0:0:
304,340,102801,1,0,0:0:0:0:
304,340,102884,1,0,0:0:0:0:
304,340,102967,1,8,0:0:0:0:
304,340,103301,1,0,0:0:0:0:
304,340,103467,1,8,0:0:0:0:
304,340,103551,1,8,0:0:0:0:
304,340,103634,1,0,0:0:0:0:
304,340,103801,1,8,0:0:0:0:
304,340,103967,1,0,0:0:0:0:
304,340,104301,1,0,0:0:0:0:
304,340,104467,1,8,0:0:0:0:
304,340,104634,1,0,0:0:0:0:
304,340,104801,1,8,0:0:0:0:
304,340,104967,1,0,0:0:0:0:
304,340,105134,1,0,0:0:0:0:
304,340,105301,1,8,0:0:0:0:
304,340,105467,1,0,0:0:0:0:
304,340,105551,1,0,0:0:0:0:
304,340,105634,1,8,0:0:0:0:
304,340,105967,1,8,0:0:0:0:
304,340,106134,1,0,0:0:0:0:
304,340,106301,1,8,0:0:0:0:
304,340,106467,1,0,0:0:0:0:
304,340,106634,1,8,0:0:0:0:
304,340,106967,1,0,0:0:0:0:
304,340,107134,1,8,0:0:0:0:
304,340,107634,1,0,0:0:0:0:
304,340,107967,1,0,0:0:0:0:
304,340,108134,1,0,0:0:0:0:
304,340,108301,1,8,0:0:0:0:
304,340,108634,1,0,0:0:0:0:
304,340,108801,1,8,0:0:0:0:
320,352,108967,1,0,0:0:0:0:
320,352,109134,1,0,0:0:0:0:
320,352,109301,1,8,0:0:0:0:
320,352,109634,1,0,0:0:0:0:
304,340,109801,1,8,0:0:0:0:
320,352,109967,1,0,0:0:0:0:
320,352,110134,1,8,0:0:0:0:
320,352,110301,1,0,0:0:0:0:
320,352,110467,1,8,0:0:0:0:
320,352,110634,1,0,0:0:0:0:
320,352,110801,1,0,0:0:0:0:
320,352,110967,1,8,0:0:0:0:
320,352,111301,1,0,0:0:0:0:
320,352,111634,1,0,0:0:0:0:
320,352,111856,1,0,0:0:0:0:
320,352,111967,1,8,0:0:0:0:
320,352,112134,1,0,0:0:0:0:
320,352,112217,1,0,0:0:0:0:
320,352,112301,1,8,0:0:0:0:
320,352,112467,1,0,0:0:0:0:
320,352,112634,1,8,0:0:0:0:
320,352,112967,1,4,0:0:0:0:
