osu file format v14

[General]
AudioFilename: ZADAMGA.mp3
AudioLeadIn: 0
PreviewTime: 11551
Countdown: 0
SampleSet: Normal
StackLeniency: 0.7
Mode: 1
LetterboxInBreaks: 0
WidescreenStoryboard: 0

[Editor]
DistanceSpacing: 1.1
BeatDivisor: 4
GridSize: 4
TimelineZoom: 1

[Metadata]
Title:ZADAMGA
TitleUnicode:ZADAMGA
Artist:onoken
ArtistUnicode:onoken
Creator:agu
Version:Futsuu
Source:pop'n music
Tags:Lapistoria ラピストリア bemani konami Kennosuke Ono おの けんのすけ
BeatmapID:1006607
BeatmapSetID:458476

[Difficulty]
HPDrainRate:6
CircleSize:5
OverallDifficulty:4
ApproachRate:5
SliderMultiplier:1.4
SliderTickRate:1

[Events]
//Background and Video events
0,0,"gas-mask-anime-1920x1080-wallpaper31300.jpg",0,0
//Break Periods
//Storyboard Layer 0 (Background)
//Storyboard Layer 1 (Fail)
//Storyboard Layer 2 (Pass)
//Storyboard Layer 3 (Foreground)
//Storyboard Sound Samples

[TimingPoints]
968,333.333333333333,4,1,0,50,1,0
10967,-100,4,1,0,85,0,0
54301,-100,4,1,0,70,0,0
75634,-100,4,1,0,85,0,1
85634,-100,4,1,0,85,0,0
91634,-100,4,1,0,85,0,1
112967,-100,4,1,0,85,0,0

[HitObjects]
236,216,967,5,0,0:0:0:0:
236,216,1301,1,8,0:0:0:0:
236,216,1634,1,0,0:0:0:0:
236,216,2301,1,0,0:0:0:0:
236,216,2634,1,0,0:0:0:0:
236,216,2967,1,0,0:0:0:0:
236,216,3634,1,8,0:0:0:0:
236,216,3967,1,0,0:0:0:0:
236,216,4301,1,8,0:0:0:0:
236,216,4967,1,8,0:0:0:0:
280,376,5301,1,8,0:0:0:0:
240,248,5634,1,0,0:0:0:0:
240,248,6301,1,0,0:0:0:0:
240,248,6634,1,8,0:0:0:0:
240,248,6967,1,0,0:0:0:0:
240,248,7634,1,0,0:0:0:0:
240,248,7967,1,0,0:0:0:0:
240,248,8301,1,0,0:0:0:0:
240,248,8967,1,8,0:0:0:0:
240,248,9634,1,0,0:0:0:0:
240,248,10301,1,8,0:0:0:0:
240,248,10634,1,8,0:0:0:0:
240,248,10967,1,0,0:0:0:0:
240,248,11301,1,8,0:0:0:0:
240,248,11467,1,8,0:0:0:0:
240,248,11634,1,4,0:0:0:0:
240,248,11967,1,0,0:0:0:0:
240,248,12134,1,0,0:0:0:0:
240,248,12301,1,8,0:0:0:0:
240,248,12634,1,0,0:0:0:0:
240,248,12967,1,0,0:0:0:0:
240,248,13134,1,0,0:0:0:0:
240,248,13301,1,8,0:0:0:0:
240,248,13634,1,0,0:0:0:0:
240,248,14301,1,4,0:0:0:0:
240,248,14634,1,0,0:0:0:0:
240,248,14801,1,0,0:0:0:0:
240,248,14967,1,8,0:0:0:0:
240,248,15301,1,8,0:0:0:0:
240,248,15634,1,8,0:0:0:0:
240,248,15967,1,8,0:0:0:0:
240,248,16301,1,0,0:0:0:0:
240,248,16967,1,4,0:0:0:0:
240,248,17301,1,0,0:0:0:0:
240,248,17467,1,0,0:0:0:0:
240,248,17634,1,8,0:0:0:0:
240,248,17967,1,0,0:0:0:0:
240,248,18301,1,0,0:0:0:0:
240,248,18467,1,0,0:0:0:0:
240,248,18634,1,8,0:0:0:0:
240,248,18967,1,0,0:0:0:0:
240,248,19634,1,4,0:0:0:0:
240,248,19967,1,0,0:0:0:0:
240,248,20134,1,0,0:0:0:0:
240,248,20301,1,8,0:0:0:0:
240,248,20634,1,0,0:0:0:0:
240,248,20967,1,8,0:0:0:0:
240,248,21634,1,8,0:0:0:0:
240,248,21801,1,0,0:0:0:0:
240,248,21967,1,8,0:0:0:0:
240,248,22301,1,0,0:0:0:0:
240,248,22967,1,8,0:0:0:0:
240,248,23301,1,8,0:0:0:0:
112,213,23634,1,0,0:0:0:0:
240,248,23967,1,8,0:0:0:0:
240,248,24134,1,0,0:0:0:0:
240,248,24301,1,8,0:0:0:0:
240,248,24634,1,8,0:0:0:0:
240,248,24801,1,0,0:0:0:0:
240,248,24967,1,8,0:0:0:0:
240,248,25634,1,8,0:0:0:0:
240,248,25801,1,0,0:0:0:0:
240,248,25967,1,8,0:0:0:0:
240,248,26634,1,8,0:0:0:0:
240,248,26967,1,8,0:0:0:0:
240,248,27134,1,0,0:0:0:0:
240,248,27301,1,8,0:0:0:0:
240,248,27967,1,8,0:0:0:0:
240,248,28301,1,8,0:0:0:0:
240,248,28634,1,8,0:0:0:0:
240,248,28801,1,0,0:0:0:0:
240,248,28967,1,8,0:0:0:0:
240,248,29301,1,8,0:0:0:0:
240,248,29634,1,8,0:0:0:0:
240,248,29967,1,8,0:0:0:0:
240,248,30301,1,0,0:0:0:0:
240,248,30967,1,8,0:0:0:0:
240,248,31301,1,0,0:0:0:0:
240,248,31634,1,8,0:0:0:0:
240,248,31967,1,8,0:0:0:0:
240,248,32301,1,0,0:0:0:0:
240,248,32467,1,0,0:0:0:0:
240,248,32634,1,8,0:0:0:0:
240,248,32967,1,0,0:0:0:0:
240,248,33301,1,8,0:0:0:0:
240,248,33801,1,0,0:0:0:0:
240,248,33967,1,8,0:0:0:0:
240,248,34301,1,0,0:0:0:0:
240,248,34634,1,8,0:0:0:0:
240,248,34967,1,0,0:0:0:0:
240,248,35134,1,0,0:0:0:0:
240,248,35301,1,8,0:0:0:0:
240,248,35634,1,0,0:0:0:0:
240,248,35967,1,8,0:0:0:0:
240,248,36467,1,0,0:0:0:0:
240,248,36634,1,8,0:0:0:0:
240,248,36967,1,0,0:0:0:0:
240,248,37301,1,8,0:0:0:0:
240,248,37467,1,0,0:0:0:0:
240,248,37634,1,8,0:0:0:0:
240,248,37967,1,8,0:0:0:0:
240,248,38301,1,0,0:0:0:0:
240,248,38634,1,8,0:0:0:0:
240,248,39134,1,0,0:0:0:0:
240,248,39301,1,8,0:0:0:0:
240,248,39634,1,0,0:0:0:0:
240,248,39967,1,8,0:0:0:0:
240,248,40301,1,0,0:0:0:0:
240,248,40467,1,0,0:0:0:0:
240,248,40634,1,8,0:0:0:0:
240,248,40801,1,0,0:0:0:0:
240,248,40967,1,8,0:0:0:0:
240,248,41301,1,8,0:0:0:0:
240,248,41634,1,8,0:0:0:0:
240,248,41967,1,8,0:0:0:0:
240,248,42301,1,0,0:0:0:0:
240,248,42634,1,8,0:0:0:0:
197,123,42967,1,8,0:0:0:0:
240,248,43634,1,4,0:0:0:0:
240,248,43967,1,0,0:0:0:0:
240,248,44134,1,0,0:0:0:0:
240,248,44301,1,8,0:0:0:0:
240,248,44634,1,0,0:0:0:0:
240,248,44967,1,8,0:0:0:0:
240,248,45134,1,0,0:0:0:0:
188,296,45301,1,0,0:0:0:0:
336,284,45634,1,0,0:0:0:0:
188,296,46301,1,4,0:0:0:0:
336,284,46634,1,8,0:0:0:0:
260,288,46801,1,0,0:0:0:0:
188,296,46967,1,8,0:0:0:0:
340,280,47301,1,0,0:0:0:0:
192,296,47634,1,8,0:0:0:0:
192,296,47967,1,8,0:0:0:0:
192,296,48301,1,8,0:0:0:0:
192,296,48967,1,4,0:0:0:0:
192,296,49301,1,8,0:0:0:0:
192,296,49467,1,0,0:0:0:0:
192,296,49634,1,8,0:0:0:0:
192,296,49967,1,8,0:0:0:0:
192,317,50301,1,0,0:0:0:0:
192,296,50967,1,0,0:0:0:0:
277,195,51301,1,0,0:0:0:0:
192,296,51634,1,4,0:0:0:0:
160,144,51967,1,0,0:0:0:0:
176,212,52134,1,0,0:0:0:0:
188,276,52301,1,8,0:0:0:0:
188,276,52634,1,8,0:0:0:0:
188,276,53301,1,0,0:0:0:0:
188,276,53467,1,0,0:0:0:0:
188,276,53634,1,8,0:0:0:0:
188,276,53801,1,0,0:0:0:0:
188,276,53967,1,8,0:0:0:0:
188,276,54301,1,0,0:0:0:0:
188,276,54801,1,0,0:0:0:0:
188,276,55301,1,8,0:0:0:0:
272,56,55801,1,0,0:0:0:0:
196,276,56301,1,8,0:0:0:0:
184,296,56801,1,0,0:0:0:0:
184,296,57301,1,8,0:0:0:0:
184,296,57801,1,0,0:0:0:0:
184,296,58301,1,0,0:0:0:0:
184,296,58801,1,0,0:0:0:0:
184,296,59301,1,8,0:0:0:0:
184,296,59801,1,0,0:0:0:0:
184,296,60301,1,0,0:0:0:0:
184,296,60801,1,0,0:0:0:0:
184,296,61301,1,0,0:0:0:0:
184,296,61634,1,8,0:0:0:0:
184,296,61801,1,0,0:0:0:0:
184,296,61967,1,8,0:0:0:0:
184,296,62301,1,0,0:0:0:0:
184,296,62634,1,8,0:0:0:0:
184,296,62967,1,8,0:0:0:0:
184,296,63301,1,8,0:0:0:0:
184,296,63634,1,0,0:0:0:0:
240,228,64301,1,0,0:0:0:0:
212,376,64634,1,8,0:0:0:0:
172,232,64967,1,0,0:0:0:0:
212,380,65301,1,8,0:0:0:0:
196,316,65467,1,0,0:0:0:0:
196,316,65634,1,8,0:0:0:0:
196,316,66301,1,8,0:0:0:0:
196,316,66467,1,0,0:0:0:0:
196,316,66634,1,8,0:0:0:0:
196,316,67301,1,8,0:0:0:0:
196,316,67467,1,0,0:0:0:0:
196,316,67634,1,8,0:0:0:0:
196,316,68301,1,8,0:0:0:0:
196,316,68467,1,0,0:0:0:0:
196,316,68634,1,8,0:0:0:0:
196,316,69301,1,8,0:0:0:0:
196,316,69467,1,0,0:0:0:0:
196,316,69634,1,8,0:0:0:0:
196,316,70301,1,8,0:0:0:0:
196,316,70467,1,8,0:0:0:0:
196,316,70634,1,8,0:0:0:0:
196,316,70967,1,8,0:0:0:0:
196,316,71301,1,8,0:0:0:0:
196,316,71634,1,8,0:0:0:0:
196,316,71801,1,8,0:0:0:0:
196,316,71967,1,0,0:0:0:0:
196,316,72301,1,8,0:0:0:0:
196,316,72634,1,8,0:0:0:0:
196,316,72967,1,0,0:0:0:0:
196,316,73134,1,0,0:0:0:0:
196,316,73301,1,0,0:0:0:0:
196,316,73634,1,0,0:0:0:0:
196,316,73801,1,0,0:0:0:0:
196,316,73967,1,0,0:0:0:0:
196,316,74301,1,0,0:0:0:0:
196,316,74967,1,8,0:0:0:0:
196,316,75634,1,0,0:0:0:0:
196,316,75801,1,0,0:0:0:0:
196,316,75967,1,8,0:0:0:0:
196,316,76301,1,8,0:0:0:0:
196,316,76467,1,8,0:0:0:0:
196,316,76634,1,0,0:0:0:0:
196,316,76967,1,0,0:0:0:0:
196,316,77134,1,0,0:0:0:0:
196,316,77301,1,8,0:0:0:0:
196,316,77634,1,8,0:0:0:0:
196,316,77801,1,8,0:0:0:0:
196,316,77967,1,0,0:0:0:0:
196,316,78301,1,0,0:0:0:0:
196,316,78634,1,8,0:0:0:0:
196,316,78967,1,8,0:0:0:0:
196,316,79301,1,0,0:0:0:0:
196,316,79634,1,0,0:0:0:0:
196,316,79967,1,8,0:0:0:0:
196,316,80301,1,8,0:0:0:0:
196,316,80967,1,0,0:0:0:0:
196,316,81134,1,0,0:0:0:0:
196,316,81301,1,8,0:0:0:0:
196,316,81634,1,8,0:0:0:0:
196,316,81801,1,8,0:0:0:0:
196,316,81967,1,0,0:0:0:0:
196,316,82301,1,0,0:0:0:0:
196,316,82467,1,0,0:0:0:0:
196,316,82634,1,8,0:0:0:0:
196,316,82967,1,8,0:0:0:0:
196,316,83134,1,8,0:0:0:0:
196,316,83301,1,0,0:0:0:0:
196,316,83634,1,8,0:0:0:0:
196,316,83967,1,0,0:0:0:0:
196,316,84301,1,8,0:0:0:0:
196,316,84634,1,0,0:0:0:0:
196,316,84967,1,8,0:0:0:0:
215,185,85301,1,0,0:0:0:0:
196,316,85634,1,8,0:0:0:0:
196,316,86301,1,8,0:0:0:0:
196,316,86967,1,8,0:0:0:0:
196,316,87634,1,8,0:0:0:0:
196,316,88301,1,8,0:0:0:0:
196,316,88967,1,8,0:0:0:0:
196,316,89301,1,8,0:0:0:0:
196,316,89634,1,8,0:0:0:0:
196,316,89967,1,8,0:0:0:0:
196,316,90301,1,8,0:0:0:0:
196,316,90467,1,8,0:0:0:0:
196,316,90634,1,8,0:0:0:0:
196,316,90967,1,8,0:0:0:0:
196,316,91634,1,0,0:0:0:0:
196,316,91967,1,8,0:0:0:0:
196,316,92301,1,0,0:0:0:0:
196,316,92634,1,8,0:0:0:0:
196,316,92967,1,0,0:0:0:0:
196,316,93301,1,8,0:0:0:0:
196,316,93634,1,0,0:0:0:0:
256,296,93801,1,0,0:0:0:0:
196,316,93967,1,8,0:0:0:0:
196,316,94634,1,8,0:0:0:0:
196,316,94967,1,8,0:0:0:0:
196,316,95301,1,8,0:0:0:0:
196,316,95634,1,0,0:0:0:0:
196,316,95967,1,8,0:0:0:0:
196,316,96467,1,4,0:0:0:0:
383,345,96967,1,0,0:0:0:0:
196,316,97301,1,8,0:0:0:0:
196,316,97634,1,0,0:0:0:0:
196,316,97967,1,8,0:0:0:0:
196,316,98301,1,0,0:0:0:0:
196,316,98634,1,8,0:0:0:0:
196,316,98967,1,0,0:0:0:0:
196,316,99301,1,8,0:0:0:0:
196,316,99634,1,0,0:0:0:0:
196,316,99801,1,0,0:0:0:0:
196,316,99967,1,8,0:0:0:0:
196,316,100634,1,8,0:0:0:0:
196,316,100967,1,0,0:0:0:0:
196,316,101134,1,0,0:0:0:0:
196,316,101301,1,8,0:0:0:0:
196,316,101467,1,0,0:0:0:0:
196,316,101634,1,8,0:0:0:0:
196,316,102301,1,0,0:0:0:0:
196,316,102634,1,0,0:0:0:0:
196,316,102801,1,0,0:0:0:0:
196,316,102967,1,8,0:0:0:0:
196,316,103301,1,8,0:0:0:0:
196,316,103467,1,8,0:0:0:0:
196,316,103634,1,0,0:0:0:0:
196,316,103967,1,0,0:0:0:0:
196,316,104301,1,8,0:0:0:0:
196,316,104967,1,8,0:0:0:0:
196,316,105301,1,8,0:0:0:0:
196,316,105467,1,0,0:0:0:0:
196,316,105634,1,8,0:0:0:0:
144,212,105967,1,8,0:0:0:0:
196,316,106301,1,0,0:0:0:0:
196,316,106634,1,0,0:0:0:0:
196,316,106967,1,0,0:0:0:0:
196,316,107634,1,0,0:0:0:0:
196,316,107967,1,0,0:0:0:0:
196,316,108134,1,0,0:0:0:0:
196,316,108301,1,8,0:0:0:0:
196,316,108634,1,8,0:0:0:0:
196,316,108967,1,0,0:0:0:0:
196,316,109301,1,8,0:0:0:0:
196,316,109634,1,0,0:0:0:0:
196,316,110301,1,0,0:0:0:0:
196,316,110634,1,0,0:0:0:0:
196,316,110801,1,0,0:0:0:0:
196,316,110967,1,8,0:0:0:0:
196,316,111301,1,8,0:0:0:0:
196,316,111467,1,8,0:0:0:0:
196,316,111634,1,0,0:0:0:0:
196,316,111967,1,0,0:0:0:0:
196,316,112134,1,0,0:0:0:0:
196,316,112301,1,8,0:0:0:0:
196,316,112634,1,8,0:0:0:0:
196,316,112967,1,4,0:0:0:0:
