osu file format v14

[General]
AudioFilename: ZADAMGA.mp3
AudioLeadIn: 0
PreviewTime: 11551
Countdown: 0
SampleSet: Normal
StackLeniency: 0.7
Mode: 1
LetterboxInBreaks: 0
WidescreenStoryboard: 0

[Editor]
DistanceSpacing: 1.1
BeatDivisor: 4
GridSize: 4
TimelineZoom: 1

[Metadata]
Title:ZADAMGA
TitleUnicode:ZADAMGA
Artist:onoken
ArtistUnicode:onoken
Creator:agu
Version:Oni
Source:pop'n music
Tags:Lapistoria ラピストリア bemani konami Kennosuke Ono おの けんのすけ
BeatmapID:991780
BeatmapSetID:458476

[Difficulty]
HPDrainRate:5
CircleSize:5
OverallDifficulty:6
ApproachRate:5
SliderMultiplier:1.4
SliderTickRate:1

[Events]
//Background and Video events
0,0,"gas-mask-anime-1920x1080-wallpaper31300.jpg",0,0
//Break Periods
//Storyboard Layer 0 (Background)
//Storyboard Layer 1 (Fail)
//Storyboard Layer 2 (Pass)
//Storyboard Layer 3 (Foreground)
//Storyboard Sound Samples

[TimingPoints]
968,333.333333333333,4,1,0,50,1,0
10967,-100,4,1,0,85,0,0
54301,-100,4,1,0,70,0,0
75634,-100,4,1,0,85,0,1
85634,-100,4,1,0,85,0,0
91634,-100,4,1,0,85,0,1
112967,-100,4,1,0,85,0,0

[HitObjects]
232,280,967,5,8,0:0:0:0:
232,280,1301,1,0,0:0:0:0:
232,280,1634,1,8,0:0:0:0:
232,280,1967,1,0,0:0:0:0:
232,280,2301,1,8,0:0:0:0:
232,280,2634,1,0,0:0:0:0:
232,280,2967,1,8,0:0:0:0:
232,280,3301,1,0,0:0:0:0:
232,280,3634,1,8,0:0:0:0:
232,280,3967,1,8,0:0:0:0:
232,280,4301,1,8,0:0:0:0:
232,280,4634,1,0,0:0:0:0:
232,280,4967,1,8,0:0:0:0:
232,280,5301,1,0,0:0:0:0:
232,280,5634,1,8,0:0:0:0:
232,280,5967,1,0,0:0:0:0:
232,280,6301,1,8,0:0:0:0:
232,280,6634,1,0,0:0:0:0:
232,280,6967,1,8,0:0:0:0:
232,280,7301,1,0,0:0:0:0:
232,280,7634,1,8,0:0:0:0:
232,280,7967,1,8,0:0:0:0:
232,280,8301,1,0,0:0:0:0:
232,280,8634,1,0,0:0:0:0:
232,280,8967,1,8,0:0:0:0:
232,280,9301,1,0,0:0:0:0:
232,280,9634,1,8,0:0:0:0:
232,280,9967,1,8,0:0:0:0:
232,280,10301,1,8,0:0:0:0:
232,280,10634,1,8,0:0:0:0:
232,280,10967,1,0,0:0:0:0:
252,300,11051,1,0,0:0:0:0:
232,280,11134,1,8,0:0:0:0:
232,280,11217,1,8,0:0:0:0:
252,300,11301,1,0,0:0:0:0:
232,280,11384,1,0,0:0:0:0:
252,280,11467,1,0,0:0:0:0:
252,280,11634,1,6,0:0:0:0:
252,280,11967,1,8,0:0:0:0:
252,280,12051,1,8,0:0:0:0:
252,280,12134,1,0,0:0:0:0:
252,280,12217,1,0,0:0:0:0:
252,280,12301,1,8,0:0:0:0:
252,280,12634,1,8,0:0:0:0:
252,280,12801,1,0,0:0:0:0:
252,280,12967,1,8,0:0:0:0:
252,280,13051,1,8,0:0:0:0:
252,280,13134,1,0,0:0:0:0:
252,280,13217,1,0,0:0:0:0:
252,280,13301,1,8,0:0:0:0:
252,280,13634,1,0,0:0:0:0:
252,280,13801,1,6,0:0:0:0:
252,280,13967,1,0,0:0:0:0:
252,280,14134,1,6,0:0:0:0:
252,280,14301,1,0,0:0:0:0:
104,328,14634,1,8,0:0:0:0:
140,316,14717,1,8,0:0:0:0:
252,280,14801,1,0,0:0:0:0:
252,280,14884,1,0,0:0:0:0:
252,280,14967,1,8,0:0:0:0:
252,280,15301,1,8,0:0:0:0:
252,280,15467,1,0,0:0:0:0:
252,280,15634,1,8,0:0:0:0:
252,280,15745,1,0,0:0:0:0:
252,280,15856,1,0,0:0:0:0:
252,280,15967,1,8,0:0:0:0:
252,280,16079,1,0,0:0:0:0:
252,280,16190,1,0,0:0:0:0:
252,280,16301,1,0,0:0:0:0:
252,280,16467,1,8,0:0:0:0:
252,280,16634,1,8,0:0:0:0:
252,280,16717,1,8,0:0:0:0:
252,280,16801,1,8,0:0:0:0:
252,280,16967,1,0,0:0:0:0:
252,280,17301,1,8,0:0:0:0:
252,280,17384,1,8,0:0:0:0:
252,280,17467,1,0,0:0:0:0:
252,280,17551,1,0,0:0:0:0:
252,280,17634,1,8,0:0:0:0:
252,280,17967,1,8,0:0:0:0:
252,280,18134,1,0,0:0:0:0:
252,280,18301,1,8,0:0:0:0:
252,280,18384,1,8,0:0:0:0:
252,280,18467,1,0,0:0:0:0:
252,280,18551,1,0,0:0:0:0:
252,280,18634,1,8,0:0:0:0:
252,280,18967,1,0,0:0:0:0:
252,280,19134,1,6,0:0:0:0:
252,280,19301,1,0,0:0:0:0:
252,280,19467,1,6,0:0:0:0:
252,280,19634,1,0,0:0:0:0:
252,280,19967,1,8,0:0:0:0:
252,280,20051,1,8,0:0:0:0:
252,280,20134,1,0,0:0:0:0:
252,280,20217,1,0,0:0:0:0:
252,280,20301,1,8,0:0:0:0:
252,280,20634,1,8,0:0:0:0:
252,280,20801,1,0,0:0:0:0:
252,280,20967,1,8,0:0:0:0:
252,280,21079,1,0,0:0:0:0:
252,280,21190,1,0,0:0:0:0:
252,280,21301,1,8,0:0:0:0:
228,300,21384,1,0,0:0:0:0:
228,300,21467,1,0,0:0:0:0:
228,300,21551,1,0,0:0:0:0:
228,300,21634,1,8,0:0:0:0:
228,300,21801,1,0,0:0:0:0:
228,300,21967,1,8,0:0:0:0:
228,300,22301,1,0,0:0:0:0:
228,300,22467,1,0,0:0:0:0:
228,300,22634,1,8,0:0:0:0:
228,300,22801,1,0,0:0:0:0:
228,300,22967,1,8,0:0:0:0:
228,300,23134,1,0,0:0:0:0:
228,300,23301,1,8,0:0:0:0:
228,300,23467,1,0,0:0:0:0:
228,300,23634,1,8,0:0:0:0:
228,300,23801,1,0,0:0:0:0:
228,300,23967,1,8,0:0:0:0:
312,304,24190,1,0,0:0:0:0:
268,300,24301,1,8,0:0:0:0:
268,300,24523,1,0,0:0:0:0:
268,300,24634,1,8,0:0:0:0:
268,300,24856,1,0,0:0:0:0:
228,300,24967,1,8,0:0:0:0:
228,300,25301,1,0,0:0:0:0:
228,300,25634,1,8,0:0:0:0:
228,300,25801,1,0,0:0:0:0:
228,300,25967,1,8,0:0:0:0:
228,300,26301,1,0,0:0:0:0:
216,320,26634,1,8,0:0:0:0:
228,300,26967,1,8,0:0:0:0:
216,320,27134,1,0,0:0:0:0:
216,320,27301,1,8,0:0:0:0:
216,320,27634,1,0,0:0:0:0:
216,320,27801,1,0,0:0:0:0:
216,320,27967,1,8,0:0:0:0:
216,320,28134,1,0,0:0:0:0:
216,320,28301,1,8,0:0:0:0:
216,320,28467,1,0,0:0:0:0:
216,320,28634,1,8,0:0:0:0:
216,320,28801,1,4,0:0:0:0:
216,320,28967,1,8,0:0:0:0:
216,320,29134,1,0,0:0:0:0:
216,320,29301,1,8,0:0:0:0:
216,320,29523,1,0,0:0:0:0:
216,320,29634,1,8,0:0:0:0:
216,320,29856,1,0,0:0:0:0:
216,320,29967,1,8,0:0:0:0:
216,320,30190,1,8,0:0:0:0:
216,320,30301,1,0,0:0:0:0:
216,320,30634,1,0,0:0:0:0:
216,320,30967,1,0,0:0:0:0:
216,320,31301,1,0,0:0:0:0:
216,320,31467,1,0,0:0:0:0:
216,320,31634,1,8,0:0:0:0:
216,320,31967,1,8,0:0:0:0:
216,320,32301,1,8,0:0:0:0:
216,320,32467,1,0,0:0:0:0:
216,320,32634,1,8,0:0:0:0:
216,320,32967,1,0,0:0:0:0:
216,320,33051,1,0,0:0:0:0:
216,320,33134,1,0,0:0:0:0:
216,320,33301,1,8,0:0:0:0:
216,320,33634,1,0,0:0:0:0:
216,320,33717,1,0,0:0:0:0:
216,320,33801,1,0,0:0:0:0:
216,320,33967,1,8,0:0:0:0:
216,320,34301,1,0,0:0:0:0:
216,320,34467,1,8,0:0:0:0:
216,320,34634,1,8,0:0:0:0:
225,342,34801,1,0,0:0:0:0:
216,320,34967,1,0,0:0:0:0:
216,320,35134,1,0,0:0:0:0:
216,320,35301,1,8,0:0:0:0:
216,320,35634,1,0,0:0:0:0:
216,320,35717,1,0,0:0:0:0:
216,320,35801,1,0,0:0:0:0:
216,320,35967,1,8,0:0:0:0:
216,320,36134,1,0,0:0:0:0:
216,320,36301,1,8,0:0:0:0:
216,320,36467,1,0,0:0:0:0:
216,320,36634,1,8,0:0:0:0:
216,320,36967,1,0,0:0:0:0:
216,320,37134,1,8,0:0:0:0:
216,320,37301,1,8,0:0:0:0:
216,320,37467,1,0,0:0:0:0:
216,320,37551,1,0,0:0:0:0:
216,320,37634,1,8,0:0:0:0:
216,320,37801,1,0,0:0:0:0:
216,320,37967,1,8,0:0:0:0:
216,320,38051,1,0,0:0:0:0:
216,320,38134,1,8,0:0:0:0:
216,320,38217,1,8,0:0:0:0:
216,320,38301,1,0,0:0:0:0:
216,320,38634,1,8,0:0:0:0:
216,320,38967,1,8,0:0:0:0:
216,320,39134,1,0,0:0:0:0:
216,320,39301,1,8,0:0:0:0:
216,320,39384,1,8,0:0:0:0:
216,320,39467,1,8,0:0:0:0:
216,320,39634,1,0,0:0:0:0:
248,308,39745,1,0,0:0:0:0:
248,308,39856,1,0,0:0:0:0:
248,308,39967,1,8,0:0:0:0:
248,308,40134,1,0,0:0:0:0:
248,308,40301,1,0,0:0:0:0:
248,308,40467,1,0,0:0:0:0:
248,308,40634,1,8,0:0:0:0:
248,308,40745,1,0,0:0:0:0:
248,308,40856,1,0,0:0:0:0:
248,308,40967,1,8,0:0:0:0:
248,308,41301,1,8,0:0:0:0:
248,308,41634,1,8,0:0:0:0:
248,308,41856,1,0,0:0:0:0:
248,308,41967,1,8,0:0:0:0:
248,308,42190,1,0,0:0:0:0:
248,308,42301,1,8,0:0:0:0:
248,308,42412,1,0,0:0:0:0:
248,308,42523,1,0,0:0:0:0:
248,308,42634,1,8,0:0:0:0:
248,308,42856,1,0,0:0:0:0:
248,308,42967,1,8,0:0:0:0:
248,308,43301,1,0,0:0:0:0:
248,296,43634,1,6,0:0:0:0:
248,296,43967,1,8,0:0:0:0:
248,296,44051,1,8,0:0:0:0:
248,296,44134,1,0,0:0:0:0:
248,296,44217,1,0,0:0:0:0:
248,296,44301,1,8,0:0:0:0:
248,296,44634,1,8,0:0:0:0:
248,296,44801,1,0,0:0:0:0:
248,296,44967,1,8,0:0:0:0:
248,296,45051,1,8,0:0:0:0:
248,296,45134,1,0,0:0:0:0:
248,296,45217,1,0,0:0:0:0:
248,296,45301,1,8,0:0:0:0:
248,296,45634,1,0,0:0:0:0:
248,296,45801,1,6,0:0:0:0:
248,296,45967,1,0,0:0:0:0:
248,296,46134,1,6,0:0:0:0:
248,296,46301,1,0,0:0:0:0:
248,296,46634,1,8,0:0:0:0:
248,296,46717,1,8,0:0:0:0:
248,296,46801,1,0,0:0:0:0:
248,296,46884,1,0,0:0:0:0:
248,296,46967,1,8,0:0:0:0:
248,296,47301,1,8,0:0:0:0:
248,296,47467,1,0,0:0:0:0:
248,296,47634,1,8,0:0:0:0:
248,296,47745,1,0,0:0:0:0:
248,296,47856,1,0,0:0:0:0:
248,296,47967,1,8,0:0:0:0:
248,296,48079,1,0,0:0:0:0:
248,296,48190,1,0,0:0:0:0:
248,296,48301,1,0,0:0:0:0:
248,296,48467,1,8,0:0:0:0:
248,296,48634,1,8,0:0:0:0:
248,296,48717,1,8,0:0:0:0:
248,296,48801,1,8,0:0:0:0:
248,296,48967,1,0,0:0:0:0:
248,296,49301,1,8,0:0:0:0:
248,296,49384,1,8,0:0:0:0:
248,296,49467,1,0,0:0:0:0:
248,296,49551,1,0,0:0:0:0:
248,296,49634,1,8,0:0:0:0:
248,296,49967,1,8,0:0:0:0:
248,296,50134,1,0,0:0:0:0:
248,296,50301,1,8,0:0:0:0:
248,296,50384,1,8,0:0:0:0:
248,296,50467,1,0,0:0:0:0:
248,296,50551,1,0,0:0:0:0:
248,296,50634,1,8,0:0:0:0:
248,296,50967,1,0,0:0:0:0:
248,296,51134,1,6,0:0:0:0:
248,296,51301,1,0,0:0:0:0:
248,296,51467,1,6,0:0:0:0:
248,296,51634,1,0,0:0:0:0:
248,296,51967,1,8,0:0:0:0:
248,296,52051,1,8,0:0:0:0:
248,296,52134,1,0,0:0:0:0:
248,296,52217,1,0,0:0:0:0:
248,296,52301,1,8,0:0:0:0:
248,296,52634,1,8,0:0:0:0:
248,296,52801,1,0,0:0:0:0:
248,296,52967,1,8,0:0:0:0:
248,296,53079,1,0,0:0:0:0:
248,296,53190,1,0,0:0:0:0:
248,296,53301,1,8,0:0:0:0:
248,296,53384,1,0,0:0:0:0:
248,296,53467,1,0,0:0:0:0:
248,296,53551,1,0,0:0:0:0:
248,296,53634,1,8,0:0:0:0:
248,296,53801,1,0,0:0:0:0:
248,296,53967,1,8,0:0:0:0:
248,296,54301,1,0,0:0:0:0:
248,296,54634,1,8,0:0:0:0:
248,296,54801,1,0,0:0:0:0:
248,296,55301,1,8,0:0:0:0:
248,296,55634,1,8,0:0:0:0:
248,296,55801,1,0,0:0:0:0:
248,296,56301,1,8,0:0:0:0:
248,296,56634,1,8,0:0:0:0:
248,296,56801,1,0,0:0:0:0:
248,296,56967,1,8,0:0:0:0:
248,296,57301,1,0,0:0:0:0:
248,296,57801,1,0,0:0:0:0:
248,296,57967,1,8,0:0:0:0:
248,296,58301,1,0,0:0:0:0:
248,296,58634,1,8,0:0:0:0:
248,296,58801,1,0,0:0:0:0:
248,296,58967,1,8,0:0:0:0:
248,296,59301,1,8,0:0:0:0:
248,336,59634,1,0,0:0:0:0:
248,296,59801,1,0,0:0:0:0:
248,296,59967,1,8,0:0:0:0:
248,296,60301,1,0,0:0:0:0:
248,296,60634,1,8,0:0:0:0:
248,296,60801,1,0,0:0:0:0:
248,296,60967,1,8,0:0:0:0:
248,296,61301,1,0,0:0:0:0:
248,296,61634,1,8,0:0:0:0:
248,296,61801,1,0,0:0:0:0:
248,296,61967,1,8,0:0:0:0:
248,296,62301,1,0,0:0:0:0:
248,296,62634,1,8,0:0:0:0:
248,296,62801,1,0,0:0:0:0:
248,296,62967,1,8,0:0:0:0:
248,296,63301,1,8,0:0:0:0:
248,296,63634,1,8,0:0:0:0:
248,296,63801,1,0,0:0:0:0:
248,296,63967,1,8,0:0:0:0:
248,296,64301,1,8,0:0:0:0:
248,296,64634,1,8,0:0:0:0:
248,296,64967,1,8,0:0:0:0:
248,296,65301,1,8,0:0:0:0:
248,296,65467,1,0,0:0:0:0:
248,296,65634,1,8,0:0:0:0:
248,296,65967,1,8,0:0:0:0:
248,296,66301,1,8,0:0:0:0:
248,296,66467,1,0,0:0:0:0:
248,296,66634,1,8,0:0:0:0:
248,296,66967,1,8,0:0:0:0:
248,296,67301,1,8,0:0:0:0:
248,296,67467,1,0,0:0:0:0:
248,296,67634,1,8,0:0:0:0:
248,296,67967,1,8,0:0:0:0:
248,296,68301,1,8,0:0:0:0:
248,296,68467,1,0,0:0:0:0:
248,296,68634,1,8,0:0:0:0:
248,296,68967,1,8,0:0:0:0:
248,296,69301,1,8,0:0:0:0:
248,296,69467,1,0,0:0:0:0:
248,296,69634,1,8,0:0:0:0:
248,296,69967,1,8,0:0:0:0:
248,296,70301,1,8,0:0:0:0:
248,296,70412,1,0,0:0:0:0:
248,296,70523,1,0,0:0:0:0:
248,296,70634,1,8,0:0:0:0:
248,296,70745,1,0,0:0:0:0:
248,296,70856,1,0,0:0:0:0:
248,296,70967,1,8,0:0:0:0:
248,296,71079,1,0,0:0:0:0:
248,296,71190,1,0,0:0:0:0:
248,296,71301,1,8,0:0:0:0:
248,296,71412,1,0,0:0:0:0:
248,296,71523,1,0,0:0:0:0:
248,296,71634,1,8,0:0:0:0:
248,296,71745,1,0,0:0:0:0:
248,296,71856,1,0,0:0:0:0:
248,296,71967,1,8,0:0:0:0:
248,296,72079,1,0,0:0:0:0:
248,296,72190,1,0,0:0:0:0:
248,296,72301,1,8,0:0:0:0:
248,296,72412,1,0,0:0:0:0:
248,296,72523,1,0,0:0:0:0:
248,296,72634,1,8,0:0:0:0:
248,296,72967,1,8,0:0:0:0:
248,296,73079,1,0,0:0:0:0:
248,296,73190,1,0,0:0:0:0:
248,296,73301,1,8,0:0:0:0:
248,296,73412,1,0,0:0:0:0:
248,296,73523,1,0,0:0:0:0:
248,296,73634,1,8,0:0:0:0:
248,296,73745,1,0,0:0:0:0:
248,296,73856,1,0,0:0:0:0:
248,296,73967,1,8,0:0:0:0:
248,296,74051,1,0,0:0:0:0:
248,296,74134,1,0,0:0:0:0:
248,296,74217,1,0,0:0:0:0:
248,296,74301,1,8,0:0:0:0:
248,296,74967,1,8,0:0:0:0:
248,296,75134,1,0,0:0:0:0:
248,296,75301,1,8,0:0:0:0:
248,296,75634,1,0,0:0:0:0:
248,296,75717,1,0,0:0:0:0:
248,296,75801,1,0,0:0:0:0:
248,296,75884,1,0,0:0:0:0:
248,296,75967,1,0,0:0:0:0:
248,296,76301,1,8,0:0:0:0:
248,296,76384,1,8,0:0:0:0:
248,296,76467,1,0,0:0:0:0:
248,296,76551,1,0,0:0:0:0:
248,296,76634,1,0,0:0:0:0:
248,296,76967,1,0,0:0:0:0:
248,296,77051,1,0,0:0:0:0:
248,296,77134,1,0,0:0:0:0:
248,296,77217,1,0,0:0:0:0:
248,296,77301,1,0,0:0:0:0:
248,296,77467,1,0,0:0:0:0:
248,296,77634,1,8,0:0:0:0:
248,296,77717,1,8,0:0:0:0:
248,296,77801,1,0,0:0:0:0:
248,296,77884,1,0,0:0:0:0:
248,296,77967,1,0,0:0:0:0:
248,296,78301,1,0,0:0:0:0:
248,296,78384,1,0,0:0:0:0:
248,296,78467,1,0,0:0:0:0:
248,296,78551,1,0,0:0:0:0:
248,296,78634,1,0,0:0:0:0:
268,152,78967,1,8,0:0:0:0:
248,296,79079,1,0,0:0:0:0:
248,296,79190,1,0,0:0:0:0:
248,296,79301,1,8,0:0:0:0:
248,296,79634,1,0,0:0:0:0:
248,296,79717,1,0,0:0:0:0:
248,296,79801,1,0,0:0:0:0:
248,296,79884,1,0,0:0:0:0:
248,296,79967,1,0,0:0:0:0:
248,296,80134,1,8,0:0:0:0:
248,296,80301,1,8,0:0:0:0:
248,296,80384,1,8,0:0:0:0:
248,296,80467,1,0,0:0:0:0:
248,296,80551,1,0,0:0:0:0:
248,296,80634,1,0,0:0:0:0:
240,340,80801,1,8,0:0:0:0:
248,296,80967,1,0,0:0:0:0:
248,296,81051,1,0,0:0:0:0:
248,296,81134,1,0,0:0:0:0:
248,296,81217,1,0,0:0:0:0:
248,296,81301,1,0,0:0:0:0:
248,320,81467,1,0,0:0:0:0:
248,320,81634,1,8,0:0:0:0:
248,320,81717,1,8,0:0:0:0:
248,320,81801,1,0,0:0:0:0:
248,320,81884,1,0,0:0:0:0:
248,320,81967,1,0,0:0:0:0:
248,320,82301,1,0,0:0:0:0:
248,320,82412,1,8,0:0:0:0:
248,320,82523,1,8,0:0:0:0:
248,320,82634,1,0,0:0:0:0:
248,320,82967,1,8,0:0:0:0:
248,320,83079,1,0,0:0:0:0:
248,320,83190,1,0,0:0:0:0:
248,320,83301,1,8,0:0:0:0:
248,320,83634,1,0,0:0:0:0:
248,320,83717,1,0,0:0:0:0:
248,320,83801,1,0,0:0:0:0:
248,320,83884,1,0,0:0:0:0:
248,320,83967,1,0,0:0:0:0:
248,320,84134,1,0,0:0:0:0:
248,320,84301,1,8,0:0:0:0:
248,320,84384,1,8,0:0:0:0:
248,320,84467,1,0,0:0:0:0:
248,320,84551,1,0,0:0:0:0:
248,320,84634,1,0,0:0:0:0:
248,320,84967,1,8,0:0:0:0:
248,320,85051,1,8,0:0:0:0:
248,320,85134,1,0,0:0:0:0:
248,320,85217,1,0,0:0:0:0:
248,320,85301,1,0,0:0:0:0:
248,320,85467,1,8,0:0:0:0:
248,320,85634,1,0,0:0:0:0:
248,320,85717,1,0,0:0:0:0:
248,320,85801,1,0,0:0:0:0:
248,320,85884,1,0,0:0:0:0:
248,320,85967,1,8,0:0:0:0:
248,320,86301,1,0,0:0:0:0:
248,320,86384,1,0,0:0:0:0:
248,320,86467,1,0,0:0:0:0:
248,320,86551,1,0,0:0:0:0:
248,320,86634,1,8,0:0:0:0:
248,320,86967,1,0,0:0:0:0:
248,320,87051,1,0,0:0:0:0:
248,320,87134,1,0,0:0:0:0:
248,320,87217,1,0,0:0:0:0:
248,320,87301,1,8,0:0:0:0:
248,320,87634,1,0,0:0:0:0:
248,320,87717,1,0,0:0:0:0:
248,320,87801,1,0,0:0:0:0:
248,320,87884,1,0,0:0:0:0:
248,320,87967,1,8,0:0:0:0:
248,320,88301,1,0,0:0:0:0:
248,320,88384,1,0,0:0:0:0:
248,320,88467,1,0,0:0:0:0:
248,320,88551,1,0,0:0:0:0:
248,320,88634,1,8,0:0:0:0:
248,320,88967,1,0,0:0:0:0:
248,320,89051,1,0,0:0:0:0:
248,320,89134,1,8,0:0:0:0:
248,320,89217,1,0,0:0:0:0:
248,320,89301,1,8,0:0:0:0:
248,320,89467,1,0,0:0:0:0:
248,320,89634,1,8,0:0:0:0:
248,320,89801,1,0,0:0:0:0:
248,320,89967,1,8,0:0:0:0:
248,320,90134,1,0,0:0:0:0:
248,320,90301,1,8,0:0:0:0:
248,320,90384,1,8,0:0:0:0:
248,320,90467,1,0,0:0:0:0:
248,320,90551,1,0,0:0:0:0:
248,320,90634,1,8,0:0:0:0:
248,320,90717,1,8,0:0:0:0:
248,320,90801,1,0,0:0:0:0:
248,320,90884,1,0,0:0:0:0:
248,320,90967,1,8,0:0:0:0:
248,320,91134,1,0,0:0:0:0:
248,320,91301,1,8,0:0:0:0:
248,320,91634,1,0,0:0:0:0:
248,320,91801,1,8,0:0:0:0:
248,320,91884,1,8,0:0:0:0:
248,320,91967,1,8,0:0:0:0:
248,320,92134,1,8,0:0:0:0:
248,320,92217,1,8,0:0:0:0:
260,292,92301,1,8,0:0:0:0:
248,320,92467,1,0,0:0:0:0:
248,320,92634,1,8,0:0:0:0:
248,320,92967,1,0,0:0:0:0:
248,320,93134,1,0,0:0:0:0:
248,320,93301,1,8,0:0:0:0:
248,320,93412,1,8,0:0:0:0:
248,320,93523,1,8,0:0:0:0:
248,320,93634,1,0,0:0:0:0:
248,320,93801,1,0,0:0:0:0:
248,320,93967,1,8,0:0:0:0:
248,320,94134,1,8,0:0:0:0:
248,320,94301,1,0,0:0:0:0:
248,320,94412,1,0,0:0:0:0:
248,320,94523,1,0,0:0:0:0:
248,320,94634,1,8,0:0:0:0:
248,320,94745,1,0,0:0:0:0:
248,320,94856,1,0,0:0:0:0:
248,320,94967,1,8,0:0:0:0:
248,320,95079,1,0,0:0:0:0:
248,320,95190,1,0,0:0:0:0:
248,320,95301,1,8,0:0:0:0:
248,320,95467,1,8,0:0:0:0:
248,320,95634,1,0,0:0:0:0:
248,320,95745,1,8,0:0:0:0:
248,320,95856,1,0,0:0:0:0:
248,320,95967,1,8,0:0:0:0:
328,288,96134,1,0,0:0:0:0:
248,320,96301,1,8,0:0:0:0:
248,320,96467,1,0,0:0:0:0:
248,320,96634,1,8,0:0:0:0:
248,320,96717,1,8,0:0:0:0:
248,320,96801,1,8,0:0:0:0:
248,320,96967,1,0,0:0:0:0:
248,320,97134,1,8,0:0:0:0:
248,320,97217,1,8,0:0:0:0:
248,320,97301,1,8,0:0:0:0:
248,320,97467,1,8,0:0:0:0:
248,320,97551,1,8,0:0:0:0:
248,320,97634,1,0,0:0:0:0:
248,320,97801,1,8,0:0:0:0:
248,320,97884,1,8,0:0:0:0:
248,320,97967,1,8,0:0:0:0:
248,320,98134,1,8,0:0:0:0:
248,320,98301,1,0,0:0:0:0:
248,320,98467,1,8,0:0:0:0:
248,320,98634,1,8,0:0:0:0:
248,320,98801,1,0,0:0:0:0:
248,320,98967,1,8,0:0:0:0:
248,320,99134,1,0,0:0:0:0:
248,320,99301,1,8,0:0:0:0:
248,320,99467,1,8,0:0:0:0:
248,320,99634,1,0,0:0:0:0:
248,320,99856,1,0,0:0:0:0:
248,320,99967,1,8,0:0:0:0:
248,320,100079,1,0,0:0:0:0:
248,320,100190,1,0,0:0:0:0:
248,320,100301,1,8,0:0:0:0:
332,324,100523,1,0,0:0:0:0:
248,320,100634,1,8,0:0:0:0:
368,228,100967,1,0,0:0:0:0:
248,320,101134,1,0,0:0:0:0:
248,320,101301,1,8,0:0:0:0:
248,320,101384,1,8,0:0:0:0:
248,320,101467,1,0,0:0:0:0:
248,320,101551,1,0,0:0:0:0:
248,320,101634,1,8,0:0:0:0:
248,320,101717,1,8,0:0:0:0:
248,320,101801,1,0,0:0:0:0:
248,320,101884,1,0,0:0:0:0:
248,320,101967,1,8,0:0:0:0:
248,320,102301,1,0,0:0:0:0:
248,320,102384,1,0,0:0:0:0:
248,320,102467,1,0,0:0:0:0:
248,320,102551,1,0,0:0:0:0:
248,320,102634,1,0,0:0:0:0:
248,320,102801,1,0,0:0:0:0:
248,320,102967,1,8,0:0:0:0:
248,320,103301,1,0,0:0:0:0:
248,320,103384,1,0,0:0:0:0:
248,320,103467,1,0,0:0:0:0:
248,320,103551,1,0,0:0:0:0:
248,320,103634,1,8,0:0:0:0:
248,320,103801,1,0,0:0:0:0:
248,320,103967,1,8,0:0:0:0:
248,320,104134,1,0,0:0:0:0:
248,320,104301,1,8,0:0:0:0:
248,320,104467,1,8,0:0:0:0:
248,320,104634,1,0,0:0:0:0:
248,320,104801,1,8,0:0:0:0:
248,320,104967,1,0,0:0:0:0:
248,320,105051,1,0,0:0:0:0:
248,320,105134,1,0,0:0:0:0:
248,320,105217,1,0,0:0:0:0:
248,312,105301,1,0,0:0:0:0:
248,320,105467,1,0,0:0:0:0:
248,320,105634,1,8,0:0:0:0:
248,320,105967,1,0,0:0:0:0:
248,320,106051,1,0,0:0:0:0:
248,320,106134,1,0,0:0:0:0:
248,320,106217,1,0,0:0:0:0:
248,320,106301,1,8,0:0:0:0:
264,360,106412,1,0,0:0:0:0:
264,360,106523,1,0,0:0:0:0:
264,360,106634,1,8,0:0:0:0:
264,360,106745,1,0,0:0:0:0:
264,360,106856,1,0,0:0:0:0:
248,320,106967,1,8,0:0:0:0:
184,352,107134,1,0,0:0:0:0:
248,320,107301,1,8,0:0:0:0:
248,320,107384,1,8,0:0:0:0:
248,320,107467,1,8,0:0:0:0:
248,320,107634,1,0,0:0:0:0:
248,320,107967,1,0,0:0:0:0:
248,320,108051,1,0,0:0:0:0:
248,320,108134,1,0,0:0:0:0:
248,320,108217,1,0,0:0:0:0:
248,320,108301,1,8,0:0:0:0:
248,320,108634,1,0,0:0:0:0:
248,320,108967,1,0,0:0:0:0:
248,320,109051,1,0,0:0:0:0:
248,320,109134,1,8,0:0:0:0:
248,320,109301,1,0,0:0:0:0:
248,320,109412,1,8,0:0:0:0:
248,320,109523,1,8,0:0:0:0:
248,320,109634,1,0,0:0:0:0:
248,320,109801,1,8,0:0:0:0:
248,320,109967,1,0,0:0:0:0:
248,320,110134,1,8,0:0:0:0:
248,320,110301,1,0,0:0:0:0:
248,320,110384,1,0,0:0:0:0:
248,320,110467,1,0,0:0:0:0:
248,320,110634,1,8,0:0:0:0:
296,320,110717,1,0,0:0:0:0:
336,324,110801,1,0,0:0:0:0:
376,328,110884,1,0,0:0:0:0:
276,344,110967,1,8,0:0:0:0:
252,320,111301,1,8,0:0:0:0:
284,328,111384,1,8,0:0:0:0:
284,328,111467,1,8,0:0:0:0:
284,328,111634,1,0,0:0:0:0:
284,328,111745,1,8,0:0:0:0:
284,328,111856,1,8,0:0:0:0:
284,328,111967,1,0,0:0:0:0:
300,360,112134,1,0,0:0:0:0:
300,360,112217,1,0,0:0:0:0:
300,360,112301,1,8,0:0:0:0:
300,360,112467,1,0,0:0:0:0:
300,360,112634,1,8,0:0:0:0:
300,360,112967,1,4,0:0:0:0:
