osu file format v14

[General]
AudioFilename: ZADAMGA.mp3
AudioLeadIn: 0
PreviewTime: 11551
Countdown: 0
SampleSet: Normal
StackLeniency: 0.7
Mode: 1
LetterboxInBreaks: 0
WidescreenStoryboard: 0

[Editor]
DistanceSpacing: 1.1
BeatDivisor: 4
GridSize: 4
TimelineZoom: 1

[Metadata]
Title:ZADAMGA
TitleUnicode:ZADAMGA
Artist:onoken
ArtistUnicode:onoken
Creator:agu
Version:Kantan
Source:pop'n music
Tags:Lapistoria ラピストリア bemani konami Kennosuke Ono おの けんのすけ
BeatmapID:1007283
BeatmapSetID:458476

[Difficulty]
HPDrainRate:6.5
CircleSize:5
OverallDifficulty:3
ApproachRate:5
SliderMultiplier:1.4
SliderTickRate:1

[Events]
//Background and Video events
0,0,"gas-mask-anime-1920x1080-wallpaper31300.jpg",0,0
//Break Periods
//Storyboard Layer 0 (Background)
//Storyboard Layer 1 (Fail)
//Storyboard Layer 2 (Pass)
//Storyboard Layer 3 (Foreground)
//Storyboard Sound Samples

[TimingPoints]
968,333.333333333333,4,1,0,50,1,0
10967,-100,4,1,0,85,0,0
54301,-100,4,1,0,70,0,0
75634,-100,4,1,0,85,0,1
85634,-100,4,1,0,85,0,0
91634,-100,4,1,0,85,0,1
112967,-100,4,1,0,85,0,0

[HitObjects]
248,300,967,5,0,0:0:0:0:
272,376,1634,1,8,0:0:0:0:
248,300,2301,1,0,0:0:0:0:
248,300,3634,1,8,0:0:0:0:
248,320,4301,1,0,0:0:0:0:
248,320,4967,1,8,0:0:0:0:
248,320,6301,1,0,0:0:0:0:
248,320,6967,1,8,0:0:0:0:
248,320,7634,1,0,0:0:0:0:
248,320,8967,1,8,0:0:0:0:
248,320,9634,1,0,0:0:0:0:
248,320,10301,1,8,0:0:0:0:
248,320,11301,1,0,0:0:0:0:
248,320,11634,1,6,0:0:0:0:
248,320,12301,1,8,0:0:0:0:
324,228,12634,1,0,0:0:0:0:
240,312,13634,1,0,0:0:0:0:
240,312,14301,1,8,0:0:0:0:
240,312,14967,1,8,0:0:0:0:
240,312,15301,1,0,0:0:0:0:
248,364,15634,1,8,0:0:0:0:
316,108,16301,1,0,0:0:0:0:
248,360,16967,1,6,0:0:0:0:
320,104,17634,1,8,0:0:0:0:
248,360,17967,1,0,0:0:0:0:
280,244,18301,1,8,0:0:0:0:
284,100,18967,1,0,0:0:0:0:
268,228,19301,1,0,0:0:0:0:
248,352,19634,1,8,0:0:0:0:
288,112,20301,1,8,0:0:0:0:
252,376,20634,1,0,0:0:0:0:
272,240,20967,1,8,0:0:0:0:
288,128,21634,1,8,0:0:0:0:
256,368,22301,1,4,0:0:0:0:
256,304,23301,1,8,0:0:0:0:
256,304,23634,1,8,0:0:0:0:
256,304,23967,1,0,0:0:0:0:
264,288,24301,1,0,0:0:0:0:
264,288,24967,1,0,0:0:0:0:
264,288,25301,1,8,0:0:0:0:
268,312,25967,1,8,0:0:0:0:
268,312,26634,1,8,0:0:0:0:
268,312,27301,1,8,0:0:0:0:
268,312,27634,1,0,0:0:0:0:
268,312,28301,1,0,0:0:0:0:
268,312,28801,1,0,0:0:0:0:
268,312,29301,1,8,0:0:0:0:
268,312,29634,1,8,0:0:0:0:
268,280,30301,1,0,0:0:0:0:
268,280,30967,1,8,0:0:0:0:
268,280,31634,1,8,0:0:0:0:
268,280,32967,1,0,0:0:0:0:
268,280,33634,1,8,0:0:0:0:
268,280,34301,1,0,0:0:0:0:
268,280,34634,1,0,0:0:0:0:
268,280,34967,1,0,0:0:0:0:
268,280,35634,1,0,0:0:0:0:
268,280,36301,1,8,0:0:0:0:
268,280,36967,1,0,0:0:0:0:
268,280,37301,1,0,0:0:0:0:
268,280,37634,1,8,0:0:0:0:
268,280,38301,1,0,0:0:0:0:
268,280,38967,1,8,0:0:0:0:
268,280,39634,1,0,0:0:0:0:
268,280,39967,1,0,0:0:0:0:
268,280,40301,1,0,0:0:0:0:
268,280,40967,1,0,0:0:0:0:
268,280,41634,1,8,0:0:0:0:
268,280,42301,1,0,0:0:0:0:
268,280,42634,1,0,0:0:0:0:
268,280,42967,1,8,0:0:0:0:
268,280,43634,1,6,0:0:0:0:
268,280,44301,1,8,0:0:0:0:
268,280,44634,1,8,0:0:0:0:
268,280,44967,1,0,0:0:0:0:
268,280,45634,1,0,0:0:0:0:
268,280,46301,1,8,0:0:0:0:
268,280,46967,1,8,0:0:0:0:
268,280,47634,1,0,0:0:0:0:
268,280,48301,1,0,0:0:0:0:
268,280,48634,1,0,0:0:0:0:
268,280,48967,1,6,0:0:0:0:
268,280,49634,1,8,0:0:0:0:
268,280,49967,1,8,0:0:0:0:
268,280,50301,1,0,0:0:0:0:
268,280,50967,1,0,0:0:0:0:
268,280,51634,1,6,0:0:0:0:
268,280,52301,1,8,0:0:0:0:
272,276,52634,1,0,0:0:0:0:
272,276,53634,1,8,0:0:0:0:
268,280,54301,1,0,0:0:0:0:
268,280,55634,1,0,0:0:0:0:
268,280,56967,1,0,0:0:0:0:
268,280,58301,1,0,0:0:0:0:
268,280,59634,1,8,0:0:0:0:
224,208,60967,1,0,0:0:0:0:
224,208,62301,1,0,0:0:0:0:
224,208,63634,1,0,0:0:0:0:
224,208,64967,1,8,0:0:0:0:
224,208,65634,1,8,0:0:0:0:
224,208,66301,1,8,0:0:0:0:
224,208,66967,1,8,0:0:0:0:
224,208,67634,1,8,0:0:0:0:
224,208,68301,1,8,0:0:0:0:
224,208,68967,1,8,0:0:0:0:
224,208,69634,1,8,0:0:0:0:
224,208,70301,1,8,0:0:0:0:
224,208,70634,1,8,0:0:0:0:
224,208,70967,1,8,0:0:0:0:
224,208,71301,1,8,0:0:0:0:
224,208,71634,1,8,0:0:0:0:
224,208,72301,1,8,0:0:0:0:
224,208,72967,1,8,0:0:0:0:
224,208,74301,1,0,0:0:0:0:
224,208,75634,1,4,0:0:0:0:
224,208,76301,1,8,0:0:0:0:
224,208,76967,1,0,0:0:0:0:
224,208,77301,1,0,0:0:0:0:
224,208,77634,1,8,0:0:0:0:
224,208,78301,1,0,0:0:0:0:
224,208,78967,1,8,0:0:0:0:
224,208,79634,1,0,0:0:0:0:
224,208,79967,1,0,0:0:0:0:
224,208,80301,1,8,0:0:0:0:
224,208,80967,1,4,0:0:0:0:
224,208,81634,1,8,0:0:0:0:
224,208,82301,1,0,0:0:0:0:
224,208,82634,1,0,0:0:0:0:
236,336,82967,1,8,0:0:0:0:
212,72,83634,1,0,0:0:0:0:
212,204,83967,1,0,0:0:0:0:
220,328,84301,1,8,0:0:0:0:
208,64,84967,1,8,0:0:0:0:
212,184,85301,1,0,0:0:0:0:
216,320,85634,1,8,0:0:0:0:
192,64,86301,1,8,0:0:0:0:
216,312,86967,1,8,0:0:0:0:
188,52,87634,1,8,0:0:0:0:
216,308,88301,1,8,0:0:0:0:
184,60,88967,1,8,0:0:0:0:
200,204,89301,1,8,0:0:0:0:
212,348,89634,1,8,0:0:0:0:
200,216,89967,1,8,0:0:0:0:
208,260,90301,1,0,0:0:0:0:
200,228,91634,1,0,0:0:0:0:
200,228,91967,1,0,0:0:0:0:
200,228,92301,1,0,0:0:0:0:
200,228,92967,1,8,0:0:0:0:
200,228,93634,1,8,0:0:0:0:
196,248,94301,1,0,0:0:0:0:
196,248,94967,1,0,0:0:0:0:
196,248,95634,1,8,0:0:0:0:
196,248,95967,1,8,0:0:0:0:
196,248,96301,1,8,0:0:0:0:
208,208,96967,1,8,0:0:0:0:
208,208,97634,1,8,0:0:0:0:
208,208,98301,1,8,0:0:0:0:
208,208,98967,1,8,0:0:0:0:
208,208,99634,1,0,0:0:0:0:
208,208,99967,1,0,0:0:0:0:
208,208,100301,1,8,0:0:0:0:
208,208,100967,1,0,0:0:0:0:
208,208,101634,1,8,0:0:0:0:
208,208,102301,1,8,0:0:0:0:
208,208,102967,1,8,0:0:0:0:
208,208,103634,1,0,0:0:0:0:
292,320,103967,1,0,0:0:0:0:
208,208,104301,1,8,0:0:0:0:
208,208,104967,1,0,0:0:0:0:
208,208,105634,1,8,0:0:0:0:
208,208,106301,1,0,0:0:0:0:
208,208,106967,1,8,0:0:0:0:
208,208,107634,1,0,0:0:0:0:
208,208,108301,1,8,0:0:0:0:
208,208,108967,1,0,0:0:0:0:
208,208,109634,1,8,0:0:0:0:
292,320,109967,1,0,0:0:0:0:
208,208,110301,1,0,0:0:0:0:
208,208,110967,1,8,0:0:0:0:
208,208,111634,1,0,0:0:0:0:
416,368,112301,1,8,0:0:0:0:
208,208,112967,1,4,0:0:0:0:
