osu file format v14

[General]
AudioFilename: ZADAMGA.mp3
AudioLeadIn: 0
PreviewTime: 11551
Countdown: 0
SampleSet: Normal
StackLeniency: 0.7
Mode: 1
LetterboxInBreaks: 0
WidescreenStoryboard: 0

[Editor]
DistanceSpacing: 1.1
BeatDivisor: 6
GridSize: 4
TimelineZoom: 3.699999

[Metadata]
Title:ZADAMGA
TitleUnicode:ZADAMGA
Artist:onoken
ArtistUnicode:onoken
Creator:agu
Version:Fatale Oni
Source:pop'n music
Tags:Lapistoria ラピストリア bemani konami Kennosuke Ono おの けんのすけ
BeatmapID:1026948
BeatmapSetID:458476

[Difficulty]
HPDrainRate:6
CircleSize:5
OverallDifficulty:7
ApproachRate:5
SliderMultiplier:1.4
SliderTickRate:1

[Events]
//Background and Video events
0,0,"gas-mask-anime-1920x1080-wallpaper31300.jpg",0,0
//Break Periods
//Storyboard Layer 0 (Background)
//Storyboard Layer 1 (Fail)
//Storyboard Layer 2 (Pass)
//Storyboard Layer 3 (Foreground)
//Storyboard Sound Samples

[TimingPoints]
968,333.333333333333,4,1,0,50,1,0
10967,-100,4,1,0,85,0,0
54301,-100,4,1,0,70,0,0
75634,-100,4,1,0,85,0,1
85634,-100,4,1,0,85,0,0
91634,-100,4,1,0,85,0,1
112967,-100,4,1,0,85,0,0

[HitObjects]
197,269,967,5,8,0:0:0:0:
201,276,1301,1,0,0:0:0:0:
201,275,1634,1,8,0:0:0:0:
201,275,1967,1,0,0:0:0:0:
201,276,2301,1,8,0:0:0:0:
194,289,2634,1,0,0:0:0:0:
201,275,2967,1,8,0:0:0:0:
201,276,3301,1,0,0:0:0:0:
201,275,3634,1,8,0:0:0:0:
200,295,3967,1,8,0:0:0:0:
200,295,4301,1,8,0:0:0:0:
200,295,4634,1,0,0:0:0:0:
200,295,4967,1,8,0:0:0:0:
200,295,5301,1,0,0:0:0:0:
200,295,5634,1,8,0:0:0:0:
200,295,5967,1,0,0:0:0:0:
206,302,6301,1,8,0:0:0:0:
206,302,6634,1,0,0:0:0:0:
204,300,6967,1,8,0:0:0:0:
206,302,7301,1,0,0:0:0:0:
206,302,7634,1,8,0:0:0:0:
210,295,7967,1,8,0:0:0:0:
206,302,8301,1,0,0:0:0:0:
206,302,8634,1,0,0:0:0:0:
206,302,8967,1,8,0:0:0:0:
206,302,9301,1,0,0:0:0:0:
206,302,9634,1,8,0:0:0:0:
212,312,9967,1,8,0:0:0:0:
206,302,10301,1,8,0:0:0:0:
206,302,10634,1,8,0:0:0:0:
206,302,10967,1,0,0:0:0:0:
225,300,11051,1,0,0:0:0:0:
221,300,11134,1,8,0:0:0:0:
221,300,11190,1,8,0:0:0:0:
221,300,11245,1,8,0:0:0:0:
221,300,11301,1,0,0:0:0:0:
223,322,11384,1,8,0:0:0:0:
223,322,11467,1,8,0:0:0:0:
223,322,11551,1,8,0:0:0:0:
224,293,11634,1,0,0:0:0:0:
224,293,11801,1,8,0:0:0:0:
224,293,11967,1,8,0:0:0:0:
224,293,12051,1,8,0:0:0:0:
230,322,12134,1,0,0:0:0:0:
230,322,12217,1,0,0:0:0:0:
230,322,12301,1,8,0:0:0:0:
226,315,12634,1,0,0:0:0:0:
226,315,12801,1,0,0:0:0:0:
226,315,12967,1,8,0:0:0:0:
226,315,13051,1,8,0:0:0:0:
237,326,13134,1,0,0:0:0:0:
237,326,13217,1,0,0:0:0:0:
237,326,13301,1,8,0:0:0:0:
234,316,13412,1,0,0:0:0:0:
234,316,13523,1,0,0:0:0:0:
234,316,13634,1,0,0:0:0:0:
232,336,13801,1,6,0:0:0:0:
216,328,13967,1,0,0:0:0:0:
232,336,14134,1,6,0:0:0:0:
232,336,14301,1,0,0:0:0:0:
232,332,14467,1,8,0:0:0:0:
232,332,14634,1,8,0:0:0:0:
232,336,14717,1,8,0:0:0:0:
232,336,14801,1,0,0:0:0:0:
232,332,14884,1,0,0:0:0:0:
232,332,14967,1,8,0:0:0:0:
236,336,15301,1,0,0:0:0:0:
236,336,15467,1,8,0:0:0:0:
236,332,15634,1,8,0:0:0:0:
240,348,15745,1,0,0:0:0:0:
244,340,15856,1,0,0:0:0:0:
244,336,15967,1,8,0:0:0:0:
244,336,16079,1,0,0:0:0:0:
244,336,16190,1,0,0:0:0:0:
244,336,16301,1,8,0:0:0:0:
256,320,16467,1,8,0:0:0:0:
256,320,16551,1,0,0:0:0:0:
252,320,16634,1,8,0:0:0:0:
260,336,16690,1,8,0:0:0:0:
260,336,16745,1,8,0:0:0:0:
260,336,16801,1,8,0:0:0:0:
260,336,16856,1,8,0:0:0:0:
256,336,16912,1,8,0:0:0:0:
264,332,16967,1,0,0:0:0:0:
248,332,17134,1,8,0:0:0:0:
252,340,17301,1,8,0:0:0:0:
260,340,17384,1,8,0:0:0:0:
252,340,17467,1,0,0:0:0:0:
252,340,17551,1,0,0:0:0:0:
252,340,17634,1,8,0:0:0:0:
220,260,17967,1,8,0:0:0:0:
276,340,18134,1,0,0:0:0:0:
276,340,18301,1,8,0:0:0:0:
276,340,18384,1,8,0:0:0:0:
276,340,18467,1,0,0:0:0:0:
276,340,18551,1,0,0:0:0:0:
276,340,18634,1,8,0:0:0:0:
288,336,18745,1,0,0:0:0:0:
288,336,18856,1,0,0:0:0:0:
288,336,18967,1,0,0:0:0:0:
300,324,19134,1,6,0:0:0:0:
300,324,19301,1,0,0:0:0:0:
300,324,19467,1,6,0:0:0:0:
300,324,19634,1,0,0:0:0:0:
308,328,19801,1,8,0:0:0:0:
308,328,19967,1,8,0:0:0:0:
308,328,20051,1,8,0:0:0:0:
308,328,20134,1,0,0:0:0:0:
308,328,20217,1,0,0:0:0:0:
308,328,20301,1,8,0:0:0:0:
308,328,20634,1,0,0:0:0:0:
300,332,20801,1,0,0:0:0:0:
300,332,20967,1,8,0:0:0:0:
300,332,21079,1,8,0:0:0:0:
300,332,21190,1,8,0:0:0:0:
300,332,21301,1,8,0:0:0:0:
300,320,21384,1,8,0:0:0:0:
300,320,21467,1,0,0:0:0:0:
300,344,21551,1,0,0:0:0:0:
300,344,21634,1,8,0:0:0:0:
300,340,21801,1,0,0:0:0:0:
300,344,21967,1,8,0:0:0:0:
292,340,22301,1,0,0:0:0:0:
292,340,22467,1,8,0:0:0:0:
292,344,22551,1,8,0:0:0:0:
292,340,22634,1,0,0:0:0:0:
292,344,22801,1,8,0:0:0:0:
292,344,22967,1,0,0:0:0:0:
292,340,23134,1,8,0:0:0:0:
292,340,23301,1,0,0:0:0:0:
292,340,23467,1,8,0:0:0:0:
292,340,23634,1,0,0:0:0:0:
292,344,23801,1,8,0:0:0:0:
292,344,23967,1,0,0:0:0:0:
292,352,24079,1,0,0:0:0:0:
304,340,24190,1,0,0:0:0:0:
304,340,24301,1,8,0:0:0:0:
300,340,24412,1,8,0:0:0:0:
300,340,24523,1,8,0:0:0:0:
300,340,24634,1,0,0:0:0:0:
300,340,24745,1,0,0:0:0:0:
300,340,24856,1,0,0:0:0:0:
300,340,24967,1,8,0:0:0:0:
296,336,25051,1,8,0:0:0:0:
296,336,25134,1,8,0:0:0:0:
296,336,25217,1,8,0:0:0:0:
296,336,25301,1,0,0:0:0:0:
328,296,25412,1,0,0:0:0:0:
312,336,25523,1,0,0:0:0:0:
312,336,25634,1,8,0:0:0:0:
316,348,25717,1,0,0:0:0:0:
316,352,25801,1,0,0:0:0:0:
316,348,25884,1,0,0:0:0:0:
316,348,25967,1,8,0:0:0:0:
320,336,26079,1,8,0:0:0:0:
320,336,26190,1,8,0:0:0:0:
316,352,26301,1,0,0:0:0:0:
316,352,26412,1,0,0:0:0:0:
316,352,26523,1,0,0:0:0:0:
320,360,26634,1,8,0:0:0:0:
328,356,26967,1,8,0:0:0:0:
312,348,27134,1,0,0:0:0:0:
328,356,27301,1,8,0:0:0:0:
328,356,27634,1,0,0:0:0:0:
324,348,27801,1,8,0:0:0:0:
324,348,27884,1,8,0:0:0:0:
324,348,27967,1,0,0:0:0:0:
324,348,28134,1,8,0:0:0:0:
324,348,28301,1,0,0:0:0:0:
324,348,28467,1,8,0:0:0:0:
324,348,28634,1,0,0:0:0:0:
300,344,28801,1,6,0:0:0:0:
316,332,28967,1,0,0:0:0:0:
316,332,29134,1,8,0:0:0:0:
316,316,29301,1,8,0:0:0:0:
304,320,29412,1,8,0:0:0:0:
304,320,29523,1,8,0:0:0:0:
304,320,29634,1,0,0:0:0:0:
304,320,29745,1,0,0:0:0:0:
304,320,29856,1,0,0:0:0:0:
304,320,29967,1,8,0:0:0:0:
308,320,30079,1,8,0:0:0:0:
308,320,30190,1,8,0:0:0:0:
308,320,30301,1,0,0:0:0:0:
288,320,30467,1,0,0:0:0:0:
288,320,30634,1,8,0:0:0:0:
312,320,30801,1,0,0:0:0:0:
312,320,30967,1,8,0:0:0:0:
312,320,31051,1,0,0:0:0:0:
312,320,31134,1,0,0:0:0:0:
312,320,31217,1,0,0:0:0:0:
312,320,31301,1,8,0:0:0:0:
312,320,31467,1,0,0:0:0:0:
312,320,31634,1,6,0:0:0:0:
304,316,31967,1,6,0:0:0:0:
304,316,32301,1,8,0:0:0:0:
304,316,32467,1,0,0:0:0:0:
304,316,32634,1,8,0:0:0:0:
304,316,32801,1,0,0:0:0:0:
280,320,32967,1,0,0:0:0:0:
308,288,33051,1,0,0:0:0:0:
304,292,33134,1,8,0:0:0:0:
304,316,33217,1,0,0:0:0:0:
300,312,33301,1,8,0:0:0:0:
288,296,33467,1,8,0:0:0:0:
300,312,33634,1,8,0:0:0:0:
300,312,33717,1,8,0:0:0:0:
300,312,33801,1,0,0:0:0:0:
300,312,33967,1,8,0:0:0:0:
280,304,34134,1,8,0:0:0:0:
280,304,34217,1,8,0:0:0:0:
280,304,34301,1,0,0:0:0:0:
280,304,34384,1,0,0:0:0:0:
280,304,34467,1,8,0:0:0:0:
280,304,34551,1,0,0:0:0:0:
280,304,34634,1,8,0:0:0:0:
280,304,34801,1,8,0:0:0:0:
280,304,34884,1,8,0:0:0:0:
280,304,34967,1,0,0:0:0:0:
280,304,35134,1,0,0:0:0:0:
280,304,35301,1,8,0:0:0:0:
280,304,35467,1,8,0:0:0:0:
280,304,35551,1,8,0:0:0:0:
296,304,35634,1,0,0:0:0:0:
280,304,35801,1,8,0:0:0:0:
300,272,35884,1,0,0:0:0:0:
288,296,35967,1,8,0:0:0:0:
300,272,36051,1,0,0:0:0:0:
300,272,36134,1,0,0:0:0:0:
300,272,36217,1,0,0:0:0:0:
292,304,36301,1,8,0:0:0:0:
300,300,36467,1,0,0:0:0:0:
308,288,36634,1,8,0:0:0:0:
288,296,36801,1,8,0:0:0:0:
288,296,36884,1,8,0:0:0:0:
288,296,36967,1,0,0:0:0:0:
292,296,37134,1,0,0:0:0:0:
292,296,37301,1,8,0:0:0:0:
292,296,37467,1,0,0:0:0:0:
292,296,37551,1,0,0:0:0:0:
292,296,37634,1,8,0:0:0:0:
288,296,37717,1,8,0:0:0:0:
288,296,37801,1,0,0:0:0:0:
288,296,37884,1,0,0:0:0:0:
288,296,37967,1,8,0:0:0:0:
292,296,38051,1,0,0:0:0:0:
292,296,38134,1,8,0:0:0:0:
292,296,38217,1,8,0:0:0:0:
292,296,38301,1,0,0:0:0:0:
292,296,38384,1,0,0:0:0:0:
292,296,38467,1,8,0:0:0:0:
292,296,38551,1,0,0:0:0:0:
292,296,38634,1,8,0:0:0:0:
288,296,38801,1,8,0:0:0:0:
288,296,38884,1,8,0:0:0:0:
288,296,38967,1,0,0:0:0:0:
292,296,39051,1,8,0:0:0:0:
292,296,39134,1,0,0:0:0:0:
292,296,39217,1,0,0:0:0:0:
292,296,39301,1,8,0:0:0:0:
292,296,39384,1,8,0:0:0:0:
292,296,39467,1,8,0:0:0:0:
292,296,39551,1,8,0:0:0:0:
292,296,39634,1,0,0:0:0:0:
296,308,39745,1,0,0:0:0:0:
296,308,39856,1,0,0:0:0:0:
296,308,39967,1,8,0:0:0:0:
304,312,40051,1,0,0:0:0:0:
304,312,40134,1,0,0:0:0:0:
304,312,40217,1,0,0:0:0:0:
304,312,40301,1,8,0:0:0:0:
340,300,40412,1,0,0:0:0:0:
340,300,40523,1,0,0:0:0:0:
308,320,40634,1,8,0:0:0:0:
308,316,40745,1,0,0:0:0:0:
308,316,40856,1,0,0:0:0:0:
308,320,40967,1,8,0:0:0:0:
304,320,41079,1,0,0:0:0:0:
304,320,41190,1,0,0:0:0:0:
304,320,41301,1,8,0:0:0:0:
304,320,41412,1,0,0:0:0:0:
304,320,41523,1,0,0:0:0:0:
304,320,41634,1,8,0:0:0:0:
304,320,41745,1,8,0:0:0:0:
304,320,41856,1,0,0:0:0:0:
304,320,41967,1,8,0:0:0:0:
304,320,42079,1,8,0:0:0:0:
304,320,42190,1,0,0:0:0:0:
296,316,42301,1,8,0:0:0:0:
288,272,42412,1,0,0:0:0:0:
292,288,42523,1,0,0:0:0:0:
292,304,42634,1,8,0:0:0:0:
292,288,42745,1,0,0:0:0:0:
292,288,42856,1,0,0:0:0:0:
292,288,42967,1,8,0:0:0:0:
292,304,43023,1,0,0:0:0:0:
292,308,43079,1,8,0:0:0:0:
292,308,43134,1,0,0:0:0:0:
292,308,43190,1,8,0:0:0:0:
292,308,43245,1,0,0:0:0:0:
292,308,43301,1,8,0:0:0:0:
304,304,43412,1,0,0:0:0:0:
304,304,43523,1,0,0:0:0:0:
304,304,43634,1,8,0:0:0:0:
304,316,43801,1,0,0:0:0:0:
304,316,43967,1,8,0:0:0:0:
304,316,44051,1,8,0:0:0:0:
304,316,44134,1,0,0:0:0:0:
304,316,44217,1,0,0:0:0:0:
304,316,44301,1,8,0:0:0:0:
256,336,44467,1,0,0:0:0:0:
304,316,44634,1,8,0:0:0:0:
304,316,44801,1,0,0:0:0:0:
304,316,44967,1,8,0:0:0:0:
304,316,45051,1,8,0:0:0:0:
304,316,45134,1,0,0:0:0:0:
304,316,45217,1,0,0:0:0:0:
304,316,45301,1,8,0:0:0:0:
312,320,45412,1,0,0:0:0:0:
312,320,45523,1,0,0:0:0:0:
312,320,45634,1,0,0:0:0:0:
304,320,45801,1,6,0:0:0:0:
304,320,45967,1,0,0:0:0:0:
304,320,46134,1,6,0:0:0:0:
312,324,46301,1,0,0:0:0:0:
312,320,46467,1,8,0:0:0:0:
304,320,46634,1,8,0:0:0:0:
304,320,46717,1,8,0:0:0:0:
304,320,46801,1,0,0:0:0:0:
304,320,46884,1,0,0:0:0:0:
304,320,46967,1,8,0:0:0:0:
300,324,47134,1,0,0:0:0:0:
308,312,47301,1,8,0:0:0:0:
308,312,47467,1,0,0:0:0:0:
308,312,47634,1,8,0:0:0:0:
300,312,47745,1,0,0:0:0:0:
300,312,47856,1,0,0:0:0:0:
300,312,47967,1,8,0:0:0:0:
300,312,48079,1,0,0:0:0:0:
300,312,48190,1,0,0:0:0:0:
300,312,48301,1,8,0:0:0:0:
300,320,48467,1,8,0:0:0:0:
300,320,48551,1,0,0:0:0:0:
300,320,48634,1,8,0:0:0:0:
308,320,48690,1,8,0:0:0:0:
308,320,48745,1,8,0:0:0:0:
308,320,48801,1,8,0:0:0:0:
308,320,48856,1,8,0:0:0:0:
308,320,48912,1,8,0:0:0:0:
308,320,48967,1,0,0:0:0:0:
300,332,49134,1,8,0:0:0:0:
300,332,49301,1,8,0:0:0:0:
300,332,49384,1,8,0:0:0:0:
300,332,49467,1,0,0:0:0:0:
300,332,49551,1,0,0:0:0:0:
300,332,49634,1,8,0:0:0:0:
300,324,49801,1,0,0:0:0:0:
300,332,49967,1,8,0:0:0:0:
300,332,50134,1,0,0:0:0:0:
300,332,50301,1,8,0:0:0:0:
300,332,50384,1,8,0:0:0:0:
300,332,50467,1,0,0:0:0:0:
300,332,50551,1,0,0:0:0:0:
300,332,50634,1,8,0:0:0:0:
300,332,50745,1,0,0:0:0:0:
300,332,50856,1,0,0:0:0:0:
300,332,50967,1,0,0:0:0:0:
304,340,51134,1,6,0:0:0:0:
304,340,51301,1,0,0:0:0:0:
304,340,51467,1,6,0:0:0:0:
304,344,51634,1,0,0:0:0:0:
304,344,51801,1,8,0:0:0:0:
304,344,51967,1,8,0:0:0:0:
316,360,52051,1,8,0:0:0:0:
320,344,52134,1,0,0:0:0:0:
320,344,52217,1,0,0:0:0:0:
320,344,52301,1,8,0:0:0:0:
232,344,52467,1,0,0:0:0:0:
320,344,52634,1,8,0:0:0:0:
320,344,52801,1,0,0:0:0:0:
312,352,52884,1,0,0:0:0:0:
320,344,52967,1,8,0:0:0:0:
324,344,53079,1,8,0:0:0:0:
324,344,53190,1,8,0:0:0:0:
328,344,53301,1,8,0:0:0:0:
328,344,53384,1,8,0:0:0:0:
328,344,53467,1,0,0:0:0:0:
328,344,53551,1,0,0:0:0:0:
328,344,53634,1,8,0:0:0:0:
328,344,53801,1,0,0:0:0:0:
328,344,53967,1,8,0:0:0:0:
324,344,54134,1,0,0:0:0:0:
328,344,54301,1,8,0:0:0:0:
340,348,54412,1,0,0:0:0:0:
340,348,54523,1,0,0:0:0:0:
340,348,54634,1,8,0:0:0:0:
324,324,54801,1,0,0:0:0:0:
336,356,54967,1,8,0:0:0:0:
324,344,55079,1,0,0:0:0:0:
324,344,55190,1,0,0:0:0:0:
324,344,55301,1,8,0:0:0:0:
360,340,55467,1,0,0:0:0:0:
340,348,55634,1,8,0:0:0:0:
344,348,55717,1,8,0:0:0:0:
344,348,55801,1,0,0:0:0:0:
344,348,55967,1,8,0:0:0:0:
344,348,56134,1,0,0:0:0:0:
332,320,56301,1,8,0:0:0:0:
332,320,56412,1,0,0:0:0:0:
332,320,56523,1,0,0:0:0:0:
332,320,56634,1,8,0:0:0:0:
336,328,56801,1,0,0:0:0:0:
336,328,56967,1,8,0:0:0:0:
360,296,57079,1,0,0:0:0:0:
344,312,57190,1,0,0:0:0:0:
344,316,57301,1,8,0:0:0:0:
356,320,57412,1,0,0:0:0:0:
356,320,57523,1,0,0:0:0:0:
356,320,57634,1,8,0:0:0:0:
372,328,57801,1,0,0:0:0:0:
368,328,57967,1,8,0:0:0:0:
356,324,58079,1,8,0:0:0:0:
356,324,58190,1,8,0:0:0:0:
356,324,58301,1,0,0:0:0:0:
348,328,58467,1,8,0:0:0:0:
348,328,58634,1,0,0:0:0:0:
348,328,58801,1,0,0:0:0:0:
356,336,58967,1,8,0:0:0:0:
356,336,59134,1,0,0:0:0:0:
356,336,59301,1,8,0:0:0:0:
368,336,59412,1,0,0:0:0:0:
368,336,59523,1,0,0:0:0:0:
368,336,59634,1,8,0:0:0:0:
360,344,59801,1,0,0:0:0:0:
360,344,59967,1,8,0:0:0:0:
348,336,60079,1,8,0:0:0:0:
348,336,60190,1,8,0:0:0:0:
348,336,60301,1,0,0:0:0:0:
348,336,60412,1,0,0:0:0:0:
348,336,60523,1,0,0:0:0:0:
348,336,60634,1,8,0:0:0:0:
348,320,60801,1,0,0:0:0:0:
348,320,60967,1,8,0:0:0:0:
348,328,61079,1,8,0:0:0:0:
348,328,61190,1,8,0:0:0:0:
348,328,61301,1,0,0:0:0:0:
348,328,61412,1,0,0:0:0:0:
348,328,61523,1,0,0:0:0:0:
348,328,61634,1,8,0:0:0:0:
352,336,61801,1,0,0:0:0:0:
352,336,61967,1,8,0:0:0:0:
360,328,62079,1,8,0:0:0:0:
360,328,62190,1,8,0:0:0:0:
360,328,62301,1,0,0:0:0:0:
360,328,62412,1,0,0:0:0:0:
360,328,62523,1,0,0:0:0:0:
360,328,62634,1,8,0:0:0:0:
344,348,62801,1,0,0:0:0:0:
344,348,62967,1,8,0:0:0:0:
344,336,63079,1,0,0:0:0:0:
344,336,63190,1,0,0:0:0:0:
344,336,63301,1,8,0:0:0:0:
344,336,63412,1,0,0:0:0:0:
344,336,63523,1,0,0:0:0:0:
344,336,63634,1,8,0:0:0:0:
336,328,63801,1,0,0:0:0:0:
328,332,63967,1,8,0:0:0:0:
344,324,64079,1,8,0:0:0:0:
344,324,64190,1,8,0:0:0:0:
344,324,64301,1,0,0:0:0:0:
344,324,64412,1,0,0:0:0:0:
344,324,64523,1,0,0:0:0:0:
344,324,64634,1,8,0:0:0:0:
344,324,64745,1,8,0:0:0:0:
344,324,64856,1,8,0:0:0:0:
344,324,64967,1,0,0:0:0:0:
344,324,65079,1,0,0:0:0:0:
344,324,65190,1,0,0:0:0:0:
344,324,65301,1,8,0:0:0:0:
344,324,65412,1,0,0:0:0:0:
344,324,65523,1,0,0:0:0:0:
344,324,65634,1,8,0:0:0:0:
344,324,65745,1,0,0:0:0:0:
344,324,65856,1,0,0:0:0:0:
344,324,65967,1,8,0:0:0:0:
344,324,66079,1,0,0:0:0:0:
344,324,66190,1,0,0:0:0:0:
344,324,66301,1,8,0:0:0:0:
324,348,66467,1,0,0:0:0:0:
324,348,66634,1,8,0:0:0:0:
320,320,66745,1,0,0:0:0:0:
328,328,66856,1,0,0:0:0:0:
340,352,66967,1,8,0:0:0:0:
324,336,67079,1,0,0:0:0:0:
324,340,67190,1,0,0:0:0:0:
324,340,67301,1,8,0:0:0:0:
312,340,67467,1,0,0:0:0:0:
316,344,67634,1,8,0:0:0:0:
308,344,67745,1,0,0:0:0:0:
304,344,67856,1,0,0:0:0:0:
304,344,67967,1,8,0:0:0:0:
304,344,68079,1,0,0:0:0:0:
304,344,68190,1,0,0:0:0:0:
304,344,68301,1,8,0:0:0:0:
304,344,68412,1,0,0:0:0:0:
304,344,68523,1,0,0:0:0:0:
304,344,68634,1,8,0:0:0:0:
308,344,68745,1,0,0:0:0:0:
304,344,68856,1,0,0:0:0:0:
304,344,68967,1,8,0:0:0:0:
304,344,69079,1,0,0:0:0:0:
304,344,69190,1,0,0:0:0:0:
304,344,69301,1,8,0:0:0:0:
304,344,69412,1,0,0:0:0:0:
304,344,69523,1,0,0:0:0:0:
304,344,69634,1,8,0:0:0:0:
308,344,69745,1,0,0:0:0:0:
304,344,69856,1,0,0:0:0:0:
304,344,69967,1,8,0:0:0:0:
308,348,70079,1,0,0:0:0:0:
308,348,70190,1,0,0:0:0:0:
308,348,70301,1,8,0:0:0:0:
320,324,70412,1,0,0:0:0:0:
316,328,70523,1,0,0:0:0:0:
316,328,70634,1,8,0:0:0:0:
316,332,70745,1,8,0:0:0:0:
316,332,70856,1,8,0:0:0:0:
316,332,70967,1,0,0:0:0:0:
316,332,71079,1,0,0:0:0:0:
316,332,71190,1,0,0:0:0:0:
316,332,71301,1,8,0:0:0:0:
312,328,71412,1,0,0:0:0:0:
316,328,71523,1,0,0:0:0:0:
316,328,71634,1,8,0:0:0:0:
316,332,71745,1,0,0:0:0:0:
316,332,71856,1,8,0:0:0:0:
316,332,71967,1,0,0:0:0:0:
312,336,72079,1,0,0:0:0:0:
312,336,72190,1,8,0:0:0:0:
312,336,72301,1,0,0:0:0:0:
312,336,72412,1,8,0:0:0:0:
312,340,72523,1,0,0:0:0:0:
312,340,72634,1,8,0:0:0:0:
312,340,72745,1,8,0:0:0:0:
312,340,72856,1,8,0:0:0:0:
312,340,72967,1,0,0:0:0:0:
312,336,73079,1,8,0:0:0:0:
312,336,73190,1,8,0:0:0:0:
308,328,73301,1,8,0:0:0:0:
312,336,73412,1,0,0:0:0:0:
312,340,73523,1,0,0:0:0:0:
312,340,73634,1,8,0:0:0:0:
312,340,73745,1,8,0:0:0:0:
312,340,73856,1,8,0:0:0:0:
312,340,73967,1,0,0:0:0:0:
316,352,74051,1,8,0:0:0:0:
316,352,74134,1,8,0:0:0:0:
316,352,74217,1,8,0:0:0:0:
316,352,74301,1,0,0:0:0:0:
316,368,74412,1,8,0:0:0:0:
316,368,74523,1,8,0:0:0:0:
316,368,74634,1,0,0:0:0:0:
316,368,74745,1,0,0:0:0:0:
316,368,74856,1,0,0:0:0:0:
316,368,74967,1,8,0:0:0:0:
312,368,75134,1,0,0:0:0:0:
312,368,75301,1,8,0:0:0:0:
328,332,75634,1,0,0:0:0:0:
308,348,75690,1,0,0:0:0:0:
308,348,75745,1,0,0:0:0:0:
308,348,75801,1,8,0:0:0:0:
300,352,75884,1,0,0:0:0:0:
300,352,75967,1,8,0:0:0:0:
300,352,76051,1,0,0:0:0:0:
300,352,76134,1,0,0:0:0:0:
300,352,76217,1,0,0:0:0:0:
312,344,76301,1,8,0:0:0:0:
312,344,76356,1,8,0:0:0:0:
312,344,76412,1,8,0:0:0:0:
320,332,76467,1,0,0:0:0:0:
320,336,76551,1,0,0:0:0:0:
320,336,76634,1,0,0:0:0:0:
320,336,76717,1,0,0:0:0:0:
320,336,76801,1,8,0:0:0:0:
320,336,76884,1,8,0:0:0:0:
320,336,76967,1,0,0:0:0:0:
304,344,77023,1,0,0:0:0:0:
304,344,77079,1,0,0:0:0:0:
304,344,77134,1,8,0:0:0:0:
308,328,77217,1,0,0:0:0:0:
320,332,77301,1,8,0:0:0:0:
308,296,77384,1,8,0:0:0:0:
320,332,77467,1,0,0:0:0:0:
312,340,77551,1,0,0:0:0:0:
312,336,77634,1,8,0:0:0:0:
312,336,77690,1,8,0:0:0:0:
312,336,77745,1,8,0:0:0:0:
312,336,77801,1,0,0:0:0:0:
308,328,77884,1,0,0:0:0:0:
308,328,77967,1,8,0:0:0:0:
308,328,78051,1,8,0:0:0:0:
308,328,78134,1,8,0:0:0:0:
312,344,78217,1,8,0:0:0:0:
312,344,78301,1,0,0:0:0:0:
324,292,78356,1,0,0:0:0:0:
312,320,78412,1,0,0:0:0:0:
312,332,78467,1,8,0:0:0:0:
312,336,78551,1,8,0:0:0:0:
312,336,78634,1,0,0:0:0:0:
312,336,78690,1,0,0:0:0:0:
312,336,78745,1,0,0:0:0:0:
312,336,78801,1,8,0:0:0:0:
336,316,78884,1,8,0:0:0:0:
336,316,78967,1,0,0:0:0:0:
336,316,79079,1,0,0:0:0:0:
336,320,79190,1,0,0:0:0:0:
336,320,79301,1,8,0:0:0:0:
332,320,79356,1,8,0:0:0:0:
332,332,79412,1,8,0:0:0:0:
332,320,79467,1,0,0:0:0:0:
340,320,79551,1,0,0:0:0:0:
340,320,79634,1,8,0:0:0:0:
340,320,79717,1,0,0:0:0:0:
340,320,79801,1,8,0:0:0:0:
340,320,79884,1,0,0:0:0:0:
340,320,79967,1,8,0:0:0:0:
340,320,80051,1,0,0:0:0:0:
336,320,80134,1,8,0:0:0:0:
336,320,80217,1,0,0:0:0:0:
336,320,80301,1,8,0:0:0:0:
340,320,80384,1,8,0:0:0:0:
344,312,80467,1,0,0:0:0:0:
344,312,80523,1,0,0:0:0:0:
344,312,80579,1,0,0:0:0:0:
340,320,80634,1,8,0:0:0:0:
344,312,80801,1,0,0:0:0:0:
336,312,80967,1,4,0:0:0:0:
312,320,81134,1,8,0:0:0:0:
320,316,81190,1,0,0:0:0:0:
320,316,81245,1,0,0:0:0:0:
320,316,81301,1,8,0:0:0:0:
316,308,81384,1,8,0:0:0:0:
316,308,81467,1,0,0:0:0:0:
316,308,81551,1,0,0:0:0:0:
316,308,81634,1,8,0:0:0:0:
316,308,81717,1,8,0:0:0:0:
316,308,81801,1,0,0:0:0:0:
316,308,81884,1,8,0:0:0:0:
316,308,81967,1,0,0:0:0:0:
316,308,82051,1,0,0:0:0:0:
316,308,82134,1,8,0:0:0:0:
316,308,82217,1,8,0:0:0:0:
316,308,82301,1,0,0:0:0:0:
304,296,82412,1,8,0:0:0:0:
308,296,82523,1,8,0:0:0:0:
308,296,82634,1,0,0:0:0:0:
308,308,82717,1,0,0:0:0:0:
308,308,82801,1,8,0:0:0:0:
308,308,82884,1,0,0:0:0:0:
308,308,82967,1,8,0:0:0:0:
308,304,83079,1,8,0:0:0:0:
308,304,83190,1,8,0:0:0:0:
308,304,83301,1,0,0:0:0:0:
308,304,83412,1,0,0:0:0:0:
308,304,83523,1,0,0:0:0:0:
308,304,83634,1,8,0:0:0:0:
292,320,83717,1,8,0:0:0:0:
292,320,83801,1,8,0:0:0:0:
292,320,83884,1,8,0:0:0:0:
292,320,83967,1,0,0:0:0:0:
292,320,84051,1,8,0:0:0:0:
292,320,84134,1,0,0:0:0:0:
292,320,84217,1,0,0:0:0:0:
292,320,84301,1,8,0:0:0:0:
292,320,84384,1,8,0:0:0:0:
292,320,84467,1,8,0:0:0:0:
292,320,84551,1,8,0:0:0:0:
292,320,84634,1,0,0:0:0:0:
292,320,84717,1,8,0:0:0:0:
292,320,84801,1,0,0:0:0:0:
292,320,84884,1,0,0:0:0:0:
292,320,84967,1,8,0:0:0:0:
292,320,85051,1,0,0:0:0:0:
292,320,85134,1,8,0:0:0:0:
292,320,85217,1,8,0:0:0:0:
292,320,85301,1,0,0:0:0:0:
292,320,85384,1,0,0:0:0:0:
292,320,85467,1,0,0:0:0:0:
292,320,85551,1,0,0:0:0:0:
292,320,85634,1,8,0:0:0:0:
288,320,85801,1,0,0:0:0:0:
280,332,85967,1,0,0:0:0:0:
280,332,86023,1,0,0:0:0:0:
280,332,86079,1,0,0:0:0:0:
280,332,86134,1,0,0:0:0:0:
280,332,86190,1,0,0:0:0:0:
280,332,86245,1,0,0:0:0:0:
280,332,86301,1,8,0:0:0:0:
288,320,86467,1,0,0:0:0:0:
276,320,86634,1,8,0:0:0:0:
268,328,86690,1,0,0:0:0:0:
268,328,86745,1,0,0:0:0:0:
268,328,86801,1,0,0:0:0:0:
268,328,86856,1,0,0:0:0:0:
268,328,86912,1,0,0:0:0:0:
268,328,86967,1,8,0:0:0:0:
268,328,87134,1,0,0:0:0:0:
264,324,87301,1,8,0:0:0:0:
264,324,87356,1,0,0:0:0:0:
264,324,87412,1,0,0:0:0:0:
264,324,87467,1,8,0:0:0:0:
264,324,87523,1,0,0:0:0:0:
264,324,87579,1,0,0:0:0:0:
264,324,87634,1,8,0:0:0:0:
264,324,87801,1,0,0:0:0:0:
264,324,87967,1,0,0:0:0:0:
260,324,88023,1,8,0:0:0:0:
260,324,88079,1,8,0:0:0:0:
260,324,88134,1,8,0:0:0:0:
260,324,88190,1,8,0:0:0:0:
260,324,88245,1,8,0:0:0:0:
260,324,88301,1,0,0:0:0:0:
260,320,88467,1,0,0:0:0:0:
256,320,88634,1,0,0:0:0:0:
256,320,88690,1,8,0:0:0:0:
256,320,88745,1,8,0:0:0:0:
256,320,88801,1,0,0:0:0:0:
256,320,88856,1,8,0:0:0:0:
256,320,88912,1,8,0:0:0:0:
256,320,88967,1,0,0:0:0:0:
260,324,89134,1,0,0:0:0:0:
260,324,89190,1,0,0:0:0:0:
260,324,89245,1,0,0:0:0:0:
260,324,89301,1,8,0:0:0:0:
260,320,89467,1,0,0:0:0:0:
256,320,89523,1,0,0:0:0:0:
256,320,89579,1,0,0:0:0:0:
256,320,89634,1,8,0:0:0:0:
256,320,89801,1,0,0:0:0:0:
256,320,89856,1,0,0:0:0:0:
256,320,89912,1,0,0:0:0:0:
256,320,89967,1,8,0:0:0:0:
260,324,90134,1,0,0:0:0:0:
260,324,90190,1,0,0:0:0:0:
260,324,90245,1,0,0:0:0:0:
260,324,90301,1,8,0:0:0:0:
296,288,90384,1,8,0:0:0:0:
280,312,90467,1,8,0:0:0:0:
280,312,90551,1,8,0:0:0:0:
280,312,90634,1,8,0:0:0:0:
280,312,90717,1,8,0:0:0:0:
280,312,90801,1,8,0:0:0:0:
280,312,90884,1,8,0:0:0:0:
272,312,90967,1,0,0:0:0:0:
280,304,91023,1,8,0:0:0:0:
280,304,91079,1,8,0:0:0:0:
280,312,91134,1,0,0:0:0:0:
268,328,91217,1,0,0:0:0:0:
268,324,91301,1,8,0:0:0:0:
256,304,91384,1,0,0:0:0:0:
268,320,91467,1,8,0:0:0:0:
280,320,91523,1,8,0:0:0:0:
280,320,91579,1,8,0:0:0:0:
268,320,91634,1,0,0:0:0:0:
280,304,91801,1,8,0:0:0:0:
280,304,91884,1,8,0:0:0:0:
280,304,91967,1,8,0:0:0:0:
280,304,92134,1,0,0:0:0:0:
280,304,92217,1,0,0:0:0:0:
280,304,92301,1,0,0:0:0:0:
280,304,92467,1,0,0:0:0:0:
280,304,92551,1,0,0:0:0:0:
280,304,92634,1,8,0:0:0:0:
280,304,92717,1,8,0:0:0:0:
280,304,92801,1,0,0:0:0:0:
280,304,92884,1,8,0:0:0:0:
280,304,92967,1,0,0:0:0:0:
280,304,93051,1,0,0:0:0:0:
280,304,93134,1,8,0:0:0:0:
280,304,93301,1,8,0:0:0:0:
284,304,93384,1,0,0:0:0:0:
284,304,93467,1,8,0:0:0:0:
284,304,93551,1,8,0:0:0:0:
284,304,93634,1,0,0:0:0:0:
284,304,93717,1,8,0:0:0:0:
284,304,93801,1,0,0:0:0:0:
284,304,93884,1,0,0:0:0:0:
284,304,93967,1,8,0:0:0:0:
284,304,94051,1,8,0:0:0:0:
284,304,94134,1,0,0:0:0:0:
284,304,94217,1,8,0:0:0:0:
284,304,94301,1,0,0:0:0:0:
280,304,94412,1,0,0:0:0:0:
280,304,94523,1,0,0:0:0:0:
280,304,94634,1,8,0:0:0:0:
284,304,94717,1,0,0:0:0:0:
284,304,94801,1,0,0:0:0:0:
284,304,94884,1,0,0:0:0:0:
280,304,94967,1,8,0:0:0:0:
284,304,95051,1,0,0:0:0:0:
296,292,95134,1,8,0:0:0:0:
280,296,95190,1,0,0:0:0:0:
280,296,95245,1,0,0:0:0:0:
280,296,95301,1,8,0:0:0:0:
272,296,95384,1,0,0:0:0:0:
272,296,95467,1,8,0:0:0:0:
272,296,95551,1,8,0:0:0:0:
272,296,95634,1,0,0:0:0:0:
280,296,95745,1,8,0:0:0:0:
280,296,95856,1,8,0:0:0:0:
292,280,95967,1,8,0:0:0:0:
292,280,96079,1,0,0:0:0:0:
292,280,96190,1,0,0:0:0:0:
284,308,96301,1,8,0:0:0:0:
288,280,96467,1,0,0:0:0:0:
292,276,96634,1,8,0:0:0:0:
292,280,96690,1,8,0:0:0:0:
292,280,96745,1,8,0:0:0:0:
292,280,96801,1,8,0:0:0:0:
292,280,96856,1,8,0:0:0:0:
292,280,96912,1,8,0:0:0:0:
292,280,96967,1,0,0:0:0:0:
292,280,97134,1,8,0:0:0:0:
292,280,97217,1,8,0:0:0:0:
292,276,97301,1,8,0:0:0:0:
272,280,97467,1,8,0:0:0:0:
272,280,97551,1,8,0:0:0:0:
272,280,97634,1,0,0:0:0:0:
272,280,97801,1,8,0:0:0:0:
272,280,97884,1,0,0:0:0:0:
272,280,97967,1,8,0:0:0:0:
272,280,98051,1,8,0:0:0:0:
272,280,98134,1,8,0:0:0:0:
272,280,98217,1,8,0:0:0:0:
272,280,98301,1,0,0:0:0:0:
272,280,98384,1,0,0:0:0:0:
272,280,98467,1,8,0:0:0:0:
272,280,98551,1,0,0:0:0:0:
272,280,98634,1,8,0:0:0:0:
272,280,98717,1,8,0:0:0:0:
272,280,98801,1,0,0:0:0:0:
272,280,98884,1,8,0:0:0:0:
272,280,98967,1,0,0:0:0:0:
272,280,99051,1,0,0:0:0:0:
272,280,99134,1,8,0:0:0:0:
272,280,99217,1,8,0:0:0:0:
272,280,99301,1,8,0:0:0:0:
272,280,99412,1,0,0:0:0:0:
272,280,99523,1,0,0:0:0:0:
272,280,99634,1,0,0:0:0:0:
272,280,99745,1,8,0:0:0:0:
272,280,99856,1,0,0:0:0:0:
272,280,99967,1,8,0:0:0:0:
272,280,100079,1,0,0:0:0:0:
272,280,100190,1,0,0:0:0:0:
272,280,100301,1,8,0:0:0:0:
272,280,100412,1,8,0:0:0:0:
272,280,100523,1,0,0:0:0:0:
272,280,100634,1,8,0:0:0:0:
272,280,100745,1,0,0:0:0:0:
272,280,100856,1,8,0:0:0:0:
272,280,100967,1,0,0:0:0:0:
272,284,101051,1,8,0:0:0:0:
272,284,101134,1,0,0:0:0:0:
272,284,101217,1,0,0:0:0:0:
272,284,101301,1,8,0:0:0:0:
272,284,101384,1,8,0:0:0:0:
272,284,101467,1,0,0:0:0:0:
272,284,101551,1,0,0:0:0:0:
272,284,101634,1,8,0:0:0:0:
272,280,101690,1,0,0:0:0:0:
272,280,101745,1,8,0:0:0:0:
272,284,101801,1,0,0:0:0:0:
297,280,101856,1,8,0:0:0:0:
322,277,101912,1,0,0:0:0:0:
322,277,101967,1,8,0:0:0:0:
276,280,102051,1,8,0:0:0:0:
276,280,102134,1,0,0:0:0:0:
276,280,102217,1,8,0:0:0:0:
276,280,102301,1,0,0:0:0:0:
276,280,102384,1,0,0:0:0:0:
276,280,102467,1,8,0:0:0:0:
276,280,102551,1,8,0:0:0:0:
276,280,102634,1,0,0:0:0:0:
276,280,102717,1,8,0:0:0:0:
276,280,102801,1,8,0:0:0:0:
276,280,102884,1,8,0:0:0:0:
276,280,102967,1,0,0:0:0:0:
276,280,103134,1,8,0:0:0:0:
284,288,103301,1,0,0:0:0:0:
288,288,103356,1,0,0:0:0:0:
288,288,103412,1,0,0:0:0:0:
288,288,103467,1,8,0:0:0:0:
276,316,103551,1,0,0:0:0:0:
280,312,103634,1,8,0:0:0:0:
280,312,103717,1,8,0:0:0:0:
280,312,103801,1,8,0:0:0:0:
280,312,103884,1,8,0:0:0:0:
280,312,103967,1,0,0:0:0:0:
304,304,104079,1,8,0:0:0:0:
304,304,104190,1,8,0:0:0:0:
304,304,104301,1,0,0:0:0:0:
304,320,104467,1,6,0:0:0:0:
304,320,104634,1,0,0:0:0:0:
304,320,104801,1,6,0:0:0:0:
304,320,104967,1,0,0:0:0:0:
304,316,105023,1,0,0:0:0:0:
304,316,105079,1,0,0:0:0:0:
304,316,105134,1,8,0:0:0:0:
316,292,105217,1,0,0:0:0:0:
316,304,105301,1,8,0:0:0:0:
316,304,105384,1,8,0:0:0:0:
316,304,105467,1,0,0:0:0:0:
316,304,105551,1,0,0:0:0:0:
316,304,105634,1,8,0:0:0:0:
316,304,105801,1,0,0:0:0:0:
316,304,105967,1,8,0:0:0:0:
336,276,106023,1,8,0:0:0:0:
336,276,106079,1,8,0:0:0:0:
316,304,106134,1,0,0:0:0:0:
336,280,106217,1,0,0:0:0:0:
336,276,106301,1,8,0:0:0:0:
320,284,106412,1,0,0:0:0:0:
320,284,106523,1,8,0:0:0:0:
320,284,106634,1,0,0:0:0:0:
320,284,106745,1,8,0:0:0:0:
320,284,106856,1,8,0:0:0:0:
320,284,106967,1,0,0:0:0:0:
312,280,107134,1,8,0:0:0:0:
312,280,107217,1,0,0:0:0:0:
312,280,107301,1,8,0:0:0:0:
316,272,107356,1,8,0:0:0:0:
316,272,107412,1,8,0:0:0:0:
316,272,107467,1,8,0:0:0:0:
316,272,107523,1,8,0:0:0:0:
316,272,107579,1,8,0:0:0:0:
316,272,107634,1,0,0:0:0:0:
320,264,107801,1,8,0:0:0:0:
320,264,107967,1,0,0:0:0:0:
312,280,108051,1,8,0:0:0:0:
312,280,108134,1,0,0:0:0:0:
320,264,108217,1,0,0:0:0:0:
320,264,108301,1,8,0:0:0:0:
320,264,108467,1,0,0:0:0:0:
304,288,108634,1,8,0:0:0:0:
304,288,108717,1,0,0:0:0:0:
304,288,108801,1,8,0:0:0:0:
304,288,108884,1,8,0:0:0:0:
304,288,108967,1,0,0:0:0:0:
312,280,109051,1,8,0:0:0:0:
312,280,109134,1,8,0:0:0:0:
312,276,109217,1,0,0:0:0:0:
312,276,109301,1,8,0:0:0:0:
312,276,109412,1,8,0:0:0:0:
304,288,109523,1,8,0:0:0:0:
312,276,109634,1,0,0:0:0:0:
312,276,109801,1,6,0:0:0:0:
312,276,109967,1,0,0:0:0:0:
312,280,110134,1,6,0:0:0:0:
312,276,110301,1,0,0:0:0:0:
312,288,110356,1,0,0:0:0:0:
312,288,110412,1,0,0:0:0:0:
312,284,110467,1,8,0:0:0:0:
324,280,110551,1,0,0:0:0:0:
324,280,110634,1,8,0:0:0:0:
324,280,110717,1,0,0:0:0:0:
324,280,110801,1,8,0:0:0:0:
324,280,110884,1,8,0:0:0:0:
324,280,110967,1,0,0:0:0:0:
324,280,111134,1,0,0:0:0:0:
324,280,111301,1,8,0:0:0:0:
324,280,111384,1,8,0:0:0:0:
324,280,111467,1,0,0:0:0:0:
324,280,111551,1,0,0:0:0:0:
324,280,111634,1,8,0:0:0:0:
316,264,111745,1,8,0:0:0:0:
316,264,111856,1,8,0:0:0:0:
316,264,111967,1,8,0:0:0:0:
332,264,112051,1,8,0:0:0:0:
328,264,112134,1,0,0:0:0:0:
328,264,112217,1,0,0:0:0:0:
328,264,112301,1,8,0:0:0:0:
320,272,112467,1,0,0:0:0:0:
284,264,112634,1,8,0:0:0:0:
324,264,112967,1,4,0:0:0:0:
