osu file format v14

[General]
AudioFilename: audio.mp3
AudioLeadIn: 0
PreviewTime: -1
Countdown: 0
SampleSet: Normal
StackLeniency: 0.7
Mode: 1
LetterboxInBreaks: 0
SkinPreference:taiko
WidescreenStoryboard: 1

[Editor]
Bookmarks: 11634,22301,32967,43634,54301,75634,91634,102301,112967
DistanceSpacing: 1.1
BeatDivisor: 4
GridSize: 32
TimelineZoom: 1.9

[Metadata]
Title:ZADAMGA
TitleUnicode:ZADAMGA
Artist:onoken
ArtistUnicode:onoken
Creator:OnosakiHito
Version:Ura Oni
Source:pop'n music
Tags:lapistoria ラピストリア bemani konami
BeatmapID:1791313
BeatmapSetID:857350

[Difficulty]
HPDrainRate:6
CircleSize:5
OverallDifficulty:6
ApproachRate:5
SliderMultiplier:1.4
SliderTickRate:1

[Events]
//Background and Video events
0,0,"Taiko_BG.png",0,40
//Break Periods
//Storyboard Layer 0 (Background)
//Storyboard Layer 1 (Fail)
//Storyboard Layer 2 (Pass)
//Storyboard Layer 3 (Foreground)
//Storyboard Sound Samples

[TimingPoints]
968,333.333333333333,4,1,0,50,1,0
10967,-76.9230769230769,4,1,0,100,0,0
11634,-100,4,1,0,100,0,1
22301,-111.111111111111,4,1,0,100,0,0
24301,-133.333333333333,4,1,0,100,0,0
25301,-100,4,1,0,100,0,0
27634,-111.111111111111,4,1,0,100,0,0
29634,-133.333333333333,4,1,0,100,0,0
30634,-111.111111111111,4,1,0,100,0,0
30967,-109.89010989011,4,1,0,100,0,0
31301,-108.695652173913,4,1,0,100,0,0
31467,-107.52688172043,4,1,0,100,0,0
31634,-106.382978723404,4,1,0,100,0,0
31967,-105.263157894737,4,1,0,100,0,0
32301,-104.166666666667,4,1,0,100,0,0
32467,-103.092783505155,4,1,0,100,0,0
32634,-102.040816326531,4,1,0,100,0,0
32967,-100,4,1,0,100,0,0
54301,-133.333333333333,4,1,0,100,0,0
64634,-128.205128205128,4,1,0,100,0,0
64967,-125,4,1,0,100,0,0
67634,-117.647058823529,4,1,0,100,0,0
70301,-111.111111111111,4,1,0,100,0,0
72967,-105.263157894737,4,1,0,100,0,0
74301,-50,4,1,0,100,0,0
75634,-100,4,1,0,85,0,1
85634,-100,4,1,0,85,0,0
86301,-90.9090909090909,4,1,0,85,0,0
86967,-83.3333333333333,4,1,0,85,0,0
87634,-76.9230769230769,4,1,0,85,0,0
88301,-71.4285714285714,4,1,0,85,0,0
88967,-66.6666666666667,4,1,0,85,0,0
89134,-64.5161290322581,4,1,0,85,0,0
89301,-62.5,4,1,0,85,0,0
89467,-60.6060606060606,4,1,0,85,0,0
89634,-58.8235294117647,4,1,0,85,0,0
89801,-57.1428571428571,4,1,0,85,0,0
89967,-55.5555555555556,4,1,0,85,0,0
90134,-54.054054054054,4,1,0,85,0,0
90301,-52.6315789473684,4,1,0,85,0,0
90467,-51.2820512820513,4,1,0,85,0,0
90634,-50,4,1,0,85,0,0
90801,-48.780487804878,4,1,0,85,0,0
90967,-33.3333333333333,4,1,0,85,0,0
91634,-100,4,1,0,85,0,1
112967,-25,4,1,0,85,0,0

[HitObjects]
256,192,967,5,8,0:0:0:0:
256,192,1634,1,12,0:0:0:0:
256,192,2301,1,8,0:0:0:0:
256,192,2634,1,8,0:0:0:0:
256,192,2967,1,8,0:0:0:0:
256,192,3634,1,8,0:0:0:0:
256,192,3967,1,8,0:0:0:0:
256,192,4301,1,12,0:0:0:0:
256,192,4634,1,8,0:0:0:0:
256,192,4967,1,8,0:0:0:0:
256,192,5301,1,8,0:0:0:0:
256,192,5634,1,8,0:0:0:0:
256,192,6301,1,8,0:0:0:0:
256,192,6967,1,12,0:0:0:0:
256,192,7634,1,8,0:0:0:0:
256,192,7967,1,8,0:0:0:0:
256,192,8301,1,8,0:0:0:0:
256,192,8967,1,8,0:0:0:0:
256,192,9301,1,8,0:0:0:0:
256,192,9634,1,12,0:0:0:0:
256,192,9967,1,8,0:0:0:0:
256,192,10301,1,8,0:0:0:0:
256,192,10634,1,8,0:0:0:0:
256,192,10967,6,0,L|192:192,5,45.4999979171754
256,192,11634,5,4,0:0:0:0:
256,192,11801,5,8,0:0:0:0:
256,192,11967,1,8,0:0:0:0:
256,192,12051,1,8,0:0:0:0:
256,192,12134,1,8,0:0:0:0:
256,192,12217,1,8,0:0:0:0:
256,192,12301,5,4,0:0:0:0:
256,192,12634,1,4,0:0:0:0:
256,192,12801,5,8,0:0:0:0:
256,192,12967,1,8,0:0:0:0:
256,192,13051,1,8,0:0:0:0:
256,192,13134,1,8,0:0:0:0:
256,192,13217,1,8,0:0:0:0:
256,192,13301,5,0,0:0:0:0:
256,192,13412,1,0,0:0:0:0:
256,192,13523,1,0,0:0:0:0:
256,192,13634,1,0,0:0:0:0:
256,192,13801,5,12,0:0:0:0:
256,192,13967,5,0,0:0:0:0:
256,192,14134,5,12,0:0:0:0:
256,192,14301,5,4,0:0:0:0:
256,192,14467,5,8,0:0:0:0:
256,192,14634,1,8,0:0:0:0:
256,192,14717,1,8,0:0:0:0:
256,192,14801,1,8,0:0:0:0:
256,192,14884,1,8,0:0:0:0:
256,192,14967,5,4,0:0:0:0:
256,192,15301,1,4,0:0:0:0:
256,192,15467,5,8,0:0:0:0:
256,192,15634,1,8,0:0:0:0:
256,192,15745,5,0,0:0:0:0:
256,192,15856,1,0,0:0:0:0:
256,192,15967,5,8,0:0:0:0:
256,192,16079,1,8,0:0:0:0:
256,192,16190,1,8,0:0:0:0:
256,192,16301,5,0,0:0:0:0:
256,192,16467,5,12,0:0:0:0:
256,192,16801,1,12,0:0:0:0:
256,192,16967,5,4,0:0:0:0:
256,192,17134,5,8,0:0:0:0:
256,192,17301,1,8,0:0:0:0:
256,192,17384,1,8,0:0:0:0:
256,192,17467,5,8,0:0:0:0:
256,192,17551,1,8,0:0:0:0:
256,192,17634,5,4,0:0:0:0:
256,192,17967,1,4,0:0:0:0:
256,192,18134,5,8,0:0:0:0:
256,192,18301,1,8,0:0:0:0:
256,192,18384,1,8,0:0:0:0:
256,192,18467,1,8,0:0:0:0:
256,192,18551,1,8,0:0:0:0:
256,192,18634,5,0,0:0:0:0:
256,192,18745,1,0,0:0:0:0:
256,192,18856,1,0,0:0:0:0:
256,192,18967,1,0,0:0:0:0:
256,192,19134,5,12,0:0:0:0:
256,192,19301,5,0,0:0:0:0:
256,192,19467,5,12,0:0:0:0:
256,192,19634,5,4,0:0:0:0:
256,192,19801,5,8,0:0:0:0:
256,192,19967,1,8,0:0:0:0:
256,192,20051,1,8,0:0:0:0:
256,192,20134,1,8,0:0:0:0:
256,192,20217,1,8,0:0:0:0:
256,192,20301,5,4,0:0:0:0:
256,192,20634,1,4,0:0:0:0:
256,192,20801,5,8,0:0:0:0:
256,192,20967,5,0,0:0:0:0:
256,192,21079,5,8,0:0:0:0:
256,192,21190,1,8,0:0:0:0:
256,192,21301,5,0,0:0:0:0:
256,192,21384,5,8,0:0:0:0:
256,192,21467,1,8,0:0:0:0:
256,192,21551,1,8,0:0:0:0:
256,192,21634,5,4,0:0:0:0:
256,192,21801,5,8,0:0:0:0:
256,192,21967,5,4,0:0:0:0:
256,192,22301,1,4,0:0:0:0:
256,192,22467,5,8,0:0:0:0:
256,192,22634,1,8,0:0:0:0:
256,192,22801,1,8,0:0:0:0:
256,192,22967,5,0,0:0:0:0:
256,192,23134,5,8,0:0:0:0:
256,192,23217,1,8,0:0:0:0:
256,192,23301,5,0,0:0:0:0:
256,192,23467,5,8,0:0:0:0:
256,192,23634,5,0,0:0:0:0:
256,192,23801,5,8,0:0:0:0:
256,192,23884,1,8,0:0:0:0:
256,192,23967,5,0,0:0:0:0:
256,192,24301,5,8,0:0:0:0:
256,192,24412,5,8,0:0:0:0:
256,192,24523,1,8,0:0:0:0:
256,192,24634,5,0,0:0:0:0:
256,192,24745,5,0,0:0:0:0:
256,192,24856,1,0,0:0:0:0:
256,192,24967,5,8,0:0:0:0:
256,192,25301,5,4,0:0:0:0:
256,192,25801,1,0,0:0:0:0:
256,192,25967,5,8,0:0:0:0:
256,192,26301,5,0,0:0:0:0:
256,192,26634,5,12,0:0:0:0:
256,192,26967,1,8,0:0:0:0:
256,192,27301,1,12,0:0:0:0:
256,192,27634,5,4,0:0:0:0:
256,192,27801,5,8,0:0:0:0:
256,192,27884,1,8,0:0:0:0:
256,192,27967,1,8,0:0:0:0:
256,192,28134,1,8,0:0:0:0:
256,192,28301,5,0,0:0:0:0:
256,192,28467,5,8,0:0:0:0:
256,192,28551,5,0,0:0:0:0:
256,192,28634,1,0,0:0:0:0:
256,192,28801,5,12,0:0:0:0:
256,192,28967,5,0,0:0:0:0:
256,192,29134,5,8,0:0:0:0:
256,192,29217,1,8,0:0:0:0:
256,192,29301,5,0,0:0:0:0:
256,192,29634,1,0,0:0:0:0:
256,192,29745,5,8,0:0:0:0:
256,192,29856,1,8,0:0:0:0:
256,192,29967,5,0,0:0:0:0:
256,192,30079,5,8,0:0:0:0:
256,192,30190,1,8,0:0:0:0:
256,192,30301,5,0,0:0:0:0:
256,192,30634,1,0,0:0:0:0:
256,192,30967,5,12,0:0:0:0:
256,192,31301,1,8,0:0:0:0:
256,192,31467,5,0,0:0:0:0:
256,192,31634,5,12,0:0:0:0:
256,192,31967,5,12,0:0:0:0:
256,192,32301,1,8,0:0:0:0:
256,192,32467,5,0,0:0:0:0:
256,192,32634,5,12,0:0:0:0:
256,192,32967,5,12,0:0:0:0:
256,192,33134,5,0,0:0:0:0:
256,192,33217,1,0,0:0:0:0:
256,192,33301,1,0,0:0:0:0:
256,192,33467,1,0,0:0:0:0:
256,192,33634,5,8,0:0:0:0:
256,192,33801,5,0,0:0:0:0:
256,192,33967,1,0,0:0:0:0:
256,192,34051,1,0,0:0:0:0:
256,192,34134,1,0,0:0:0:0:
256,192,34301,5,8,0:0:0:0:
256,192,34467,5,0,0:0:0:0:
256,192,34551,1,0,0:0:0:0:
256,192,34634,5,8,0:0:0:0:
256,192,34801,5,0,0:0:0:0:
256,192,34967,5,8,0:0:0:0:
256,192,35051,5,0,0:0:0:0:
256,192,35134,1,0,0:0:0:0:
256,192,35217,1,0,0:0:0:0:
256,192,35301,1,0,0:0:0:0:
256,192,35467,1,0,0:0:0:0:
256,192,35634,5,8,0:0:0:0:
256,192,35801,5,0,0:0:0:0:
256,192,35884,1,0,0:0:0:0:
256,192,35967,5,8,0:0:0:0:
256,192,36134,5,0,0:0:0:0:
256,192,36301,5,8,0:0:0:0:
256,192,36384,5,0,0:0:0:0:
256,192,36467,1,0,0:0:0:0:
256,192,36634,5,8,0:0:0:0:
256,192,36801,5,0,0:0:0:0:
256,192,36884,1,0,0:0:0:0:
256,192,36967,5,8,0:0:0:0:
256,192,37134,5,0,0:0:0:0:
256,192,37301,5,8,0:0:0:0:
256,192,37467,1,8,0:0:0:0:
256,192,37634,5,0,0:0:0:0:
256,192,37717,1,0,0:0:0:0:
256,192,37801,1,0,0:0:0:0:
256,192,37884,1,0,0:0:0:0:
256,192,37967,5,8,0:0:0:0:
256,192,38134,1,8,0:0:0:0:
256,192,38301,1,12,0:0:0:0:
256,192,38467,5,0,0:0:0:0:
256,192,38551,1,0,0:0:0:0:
256,192,38634,1,0,0:0:0:0:
256,192,38801,1,0,0:0:0:0:
256,192,38967,5,8,0:0:0:0:
256,192,39134,5,0,0:0:0:0:
256,192,39301,1,0,0:0:0:0:
256,192,39384,1,0,0:0:0:0:
256,192,39467,1,0,0:0:0:0:
256,192,39634,5,8,0:0:0:0:
256,192,39717,5,0,0:0:0:0:
256,192,39801,1,0,0:0:0:0:
256,192,39967,5,8,0:0:0:0:
256,192,40051,1,8,0:0:0:0:
256,192,40134,5,0,0:0:0:0:
256,192,40301,5,8,0:0:0:0:
256,192,40384,5,0,0:0:0:0:
256,192,40467,1,0,0:0:0:0:
256,192,40551,1,0,0:0:0:0:
256,192,40634,1,0,0:0:0:0:
256,192,40801,1,0,0:0:0:0:
256,192,40967,5,8,0:0:0:0:
256,192,41051,5,0,0:0:0:0:
256,192,41134,1,0,0:0:0:0:
256,192,41301,5,8,0:0:0:0:
256,192,41467,5,0,0:0:0:0:
256,192,41551,1,0,0:0:0:0:
256,192,41634,5,8,0:0:0:0:
256,192,41856,5,0,0:0:0:0:
256,192,41967,5,8,0:0:0:0:
256,192,42190,5,8,0:0:0:0:
256,192,42301,1,0,0:0:0:0:
256,192,42412,1,0,0:0:0:0:
256,192,42523,1,0,0:0:0:0:
256,192,42634,5,8,0:0:0:0:
256,192,42745,1,0,0:0:0:0:
256,192,42856,1,0,0:0:0:0:
256,192,42967,5,8,0:0:0:0:
256,192,43023,1,8,0:0:0:0:
256,192,43079,1,8,0:0:0:0:
256,192,43134,1,8,0:0:0:0:
256,192,43190,1,8,0:0:0:0:
256,192,43245,1,8,0:0:0:0:
256,192,43301,5,0,0:0:0:0:
256,192,43467,5,8,0:0:0:0:
256,192,43634,5,4,0:0:0:0:
256,192,43801,5,8,0:0:0:0:
256,192,43967,1,8,0:0:0:0:
256,192,44051,1,8,0:0:0:0:
256,192,44134,1,8,0:0:0:0:
256,192,44217,1,8,0:0:0:0:
256,192,44301,5,4,0:0:0:0:
256,192,44634,1,4,0:0:0:0:
256,192,44801,5,8,0:0:0:0:
256,192,44967,1,8,0:0:0:0:
256,192,45051,1,8,0:0:0:0:
256,192,45134,1,8,0:0:0:0:
256,192,45217,1,8,0:0:0:0:
256,192,45301,5,0,0:0:0:0:
256,192,45412,1,0,0:0:0:0:
256,192,45523,1,0,0:0:0:0:
256,192,45634,1,0,0:0:0:0:
256,192,45801,5,12,0:0:0:0:
256,192,45967,5,0,0:0:0:0:
256,192,46134,5,12,0:0:0:0:
256,192,46301,5,4,0:0:0:0:
256,192,46467,5,8,0:0:0:0:
256,192,46634,1,8,0:0:0:0:
256,192,46717,1,8,0:0:0:0:
256,192,46801,1,8,0:0:0:0:
256,192,46884,1,8,0:0:0:0:
256,192,46967,5,4,0:0:0:0:
256,192,47301,1,4,0:0:0:0:
256,192,47467,5,8,0:0:0:0:
256,192,47634,1,8,0:0:0:0:
256,192,47745,5,0,0:0:0:0:
256,192,47856,1,0,0:0:0:0:
256,192,47967,5,8,0:0:0:0:
256,192,48079,1,8,0:0:0:0:
256,192,48190,1,8,0:0:0:0:
256,192,48301,5,0,0:0:0:0:
256,192,48467,5,12,0:0:0:0:
256,192,48801,1,12,0:0:0:0:
256,192,48967,5,4,0:0:0:0:
256,192,49134,5,8,0:0:0:0:
256,192,49301,1,8,0:0:0:0:
256,192,49384,1,8,0:0:0:0:
256,192,49467,5,8,0:0:0:0:
256,192,49551,1,8,0:0:0:0:
256,192,49634,5,4,0:0:0:0:
256,192,49967,1,4,0:0:0:0:
256,192,50134,5,8,0:0:0:0:
256,192,50301,1,8,0:0:0:0:
256,192,50384,1,8,0:0:0:0:
256,192,50467,1,8,0:0:0:0:
256,192,50551,1,8,0:0:0:0:
256,192,50634,5,0,0:0:0:0:
256,192,50745,1,0,0:0:0:0:
256,192,50856,1,0,0:0:0:0:
256,192,50967,1,0,0:0:0:0:
256,192,51134,5,12,0:0:0:0:
256,192,51301,5,0,0:0:0:0:
256,192,51467,5,12,0:0:0:0:
256,192,51634,5,4,0:0:0:0:
256,192,51801,5,8,0:0:0:0:
256,192,51967,1,8,0:0:0:0:
256,192,52051,1,8,0:0:0:0:
256,192,52134,1,8,0:0:0:0:
256,192,52217,1,8,0:0:0:0:
256,192,52301,5,4,0:0:0:0:
256,192,52634,1,4,0:0:0:0:
256,192,52801,5,8,0:0:0:0:
256,192,52967,5,0,0:0:0:0:
256,192,53079,5,8,0:0:0:0:
256,192,53190,1,8,0:0:0:0:
256,192,53301,5,0,0:0:0:0:
256,192,53384,5,8,0:0:0:0:
256,192,53467,1,8,0:0:0:0:
256,192,53551,1,8,0:0:0:0:
256,192,53634,5,4,0:0:0:0:
256,192,53801,5,8,0:0:0:0:
256,192,53967,5,4,0:0:0:0:
256,192,54301,1,0,0:0:0:0:
256,192,54801,1,0,0:0:0:0:
256,192,55301,1,0,0:0:0:0:
256,192,55801,1,0,0:0:0:0:
256,192,56301,5,8,0:0:0:0:
256,192,56801,5,0,0:0:0:0:
256,192,57301,1,0,0:0:0:0:
256,192,57801,1,0,0:0:0:0:
256,192,58301,1,0,0:0:0:0:
256,192,58801,1,0,0:0:0:0:
256,192,58967,5,8,0:0:0:0:
256,192,59301,5,0,0:0:0:0:
256,192,59801,1,0,0:0:0:0:
256,192,60301,1,0,0:0:0:0:
256,192,60801,1,0,0:0:0:0:
256,192,61301,1,0,0:0:0:0:
256,192,61634,5,8,0:0:0:0:
256,192,61801,5,0,0:0:0:0:
256,192,62301,1,0,0:0:0:0:
256,192,62801,1,0,0:0:0:0:
256,192,63301,1,0,0:0:0:0:
256,192,63801,1,0,0:0:0:0:
256,192,64301,5,12,0:0:0:0:
256,192,64634,1,8,0:0:0:0:
256,192,64967,1,8,0:0:0:0:
256,192,65301,1,8,0:0:0:0:
256,192,65634,1,12,0:0:0:0:
256,192,65967,1,8,0:0:0:0:
256,192,66301,1,8,0:0:0:0:
256,192,66634,1,8,0:0:0:0:
256,192,66967,1,12,0:0:0:0:
256,192,67301,1,8,0:0:0:0:
256,192,67634,1,8,0:0:0:0:
256,192,67967,1,8,0:0:0:0:
256,192,68301,1,12,0:0:0:0:
256,192,68634,1,8,0:0:0:0:
256,192,68967,1,8,0:0:0:0:
256,192,69301,1,8,0:0:0:0:
256,192,69634,1,12,0:0:0:0:
256,192,69967,1,8,0:0:0:0:
256,192,70301,1,12,0:0:0:0:
256,192,70412,1,8,0:0:0:0:
256,192,70523,1,8,0:0:0:0:
256,192,70634,1,8,0:0:0:0:
256,192,70745,1,8,0:0:0:0:
256,192,70856,1,8,0:0:0:0:
256,192,70967,1,12,0:0:0:0:
256,192,71079,1,8,0:0:0:0:
256,192,71190,1,8,0:0:0:0:
256,192,71301,1,8,0:0:0:0:
256,192,71412,1,8,0:0:0:0:
256,192,71523,1,8,0:0:0:0:
256,192,71634,1,12,0:0:0:0:
256,192,71745,1,8,0:0:0:0:
256,192,71856,1,8,0:0:0:0:
256,192,71967,1,8,0:0:0:0:
256,192,72078,1,8,0:0:0:0:
256,192,72189,1,8,0:0:0:0:
256,192,72300,1,12,0:0:0:0:
256,192,72412,1,8,0:0:0:0:
256,192,72523,1,8,0:0:0:0:
256,192,72634,1,8,0:0:0:0:
256,192,72745,1,8,0:0:0:0:
256,192,72856,1,8,0:0:0:0:
256,192,72967,1,12,0:0:0:0:
256,192,73079,1,8,0:0:0:0:
256,192,73190,1,8,0:0:0:0:
256,192,73245,1,8,0:0:0:0:
256,192,73301,1,8,0:0:0:0:
256,192,73412,1,8,0:0:0:0:
256,192,73523,1,8,0:0:0:0:
256,192,73634,1,12,0:0:0:0:
256,192,73745,1,8,0:0:0:0:
256,192,73856,1,8,0:0:0:0:
256,192,73912,1,8,0:0:0:0:
256,192,73967,1,8,0:0:0:0:
256,192,74079,1,8,0:0:0:0:
256,192,74190,1,8,0:0:0:0:
256,192,74301,1,12,0:0:0:0:
256,192,75634,5,0,0:0:0:0:
256,192,75717,1,0,0:0:0:0:
256,192,75801,1,0,0:0:0:0:
256,192,75884,1,0,0:0:0:0:
256,192,75967,1,0,0:0:0:0:
256,192,76051,1,0,0:0:0:0:
256,192,76134,1,0,0:0:0:0:
256,192,76190,1,0,0:0:0:0:
256,192,76245,1,0,0:0:0:0:
256,192,76301,5,8,0:0:0:0:
256,192,76384,1,8,0:0:0:0:
256,192,76467,1,8,0:0:0:0:
256,192,76551,1,8,0:0:0:0:
256,192,76634,1,8,0:0:0:0:
256,192,76717,1,8,0:0:0:0:
256,192,76801,1,8,0:0:0:0:
256,192,76856,1,8,0:0:0:0:
256,192,76912,1,8,0:0:0:0:
256,192,76967,5,0,0:0:0:0:
256,192,77051,1,0,0:0:0:0:
256,192,77134,1,0,0:0:0:0:
256,192,77190,1,0,0:0:0:0:
256,192,77245,1,0,0:0:0:0:
256,192,77301,5,8,0:0:0:0:
256,192,77384,1,8,0:0:0:0:
256,192,77467,1,8,0:0:0:0:
256,192,77523,1,8,0:0:0:0:
256,192,77579,1,8,0:0:0:0:
256,192,77634,5,0,0:0:0:0:
256,192,77717,5,8,0:0:0:0:
256,192,77801,5,0,0:0:0:0:
256,192,77884,1,0,0:0:0:0:
256,192,77967,5,8,0:0:0:0:
256,192,78051,5,0,0:0:0:0:
256,192,78134,5,8,0:0:0:0:
256,192,78217,1,8,0:0:0:0:
256,192,78301,5,0,0:0:0:0:
256,192,78384,1,0,0:0:0:0:
256,192,78467,1,0,0:0:0:0:
256,192,78523,1,0,0:0:0:0:
256,192,78579,1,0,0:0:0:0:
256,192,78634,5,8,0:0:0:0:
256,192,78717,1,8,0:0:0:0:
256,192,78801,1,8,0:0:0:0:
256,192,78856,1,8,0:0:0:0:
256,192,78912,1,8,0:0:0:0:
256,192,78967,5,0,0:0:0:0:
256,192,79051,1,0,0:0:0:0:
256,192,79134,5,0,0:0:0:0:
256,192,79190,1,0,0:0:0:0:
256,192,79245,1,0,0:0:0:0:
256,192,79301,5,8,0:0:0:0:
256,192,79384,1,8,0:0:0:0:
256,192,79467,1,8,0:0:0:0:
256,192,79523,1,8,0:0:0:0:
256,192,79579,1,8,0:0:0:0:
256,192,79634,5,0,0:0:0:0:
256,192,79717,1,0,0:0:0:0:
256,192,79801,5,8,0:0:0:0:
256,192,79884,1,8,0:0:0:0:
256,192,79967,5,0,0:0:0:0:
256,192,80051,1,0,0:0:0:0:
256,192,80134,1,0,0:0:0:0:
256,192,80190,1,0,0:0:0:0:
256,192,80245,1,0,0:0:0:0:
256,192,80301,5,8,0:0:0:0:
256,192,80384,1,8,0:0:0:0:
256,192,80467,1,8,0:0:0:0:
256,192,80551,1,8,0:0:0:0:
256,192,80634,1,8,0:0:0:0:
256,192,80717,1,8,0:0:0:0:
256,192,80801,1,8,0:0:0:0:
256,192,80884,1,8,0:0:0:0:
256,192,80967,5,0,0:0:0:0:
256,192,81050,1,0,0:0:0:0:
256,192,81134,1,0,0:0:0:0:
256,192,81217,1,0,0:0:0:0:
256,192,81300,1,0,0:0:0:0:
256,192,81384,1,0,0:0:0:0:
256,192,81467,1,0,0:0:0:0:
256,192,81523,1,0,0:0:0:0:
256,192,81578,1,0,0:0:0:0:
256,192,81634,5,8,0:0:0:0:
256,192,81717,1,8,0:0:0:0:
256,192,81800,1,8,0:0:0:0:
256,192,81884,1,8,0:0:0:0:
256,192,81967,1,8,0:0:0:0:
256,192,82050,1,8,0:0:0:0:
256,192,82134,1,8,0:0:0:0:
256,192,82189,1,8,0:0:0:0:
256,192,82245,1,8,0:0:0:0:
256,192,82300,5,0,0:0:0:0:
256,192,82384,1,0,0:0:0:0:
256,192,82467,1,0,0:0:0:0:
256,192,82523,1,0,0:0:0:0:
256,192,82578,1,0,0:0:0:0:
256,192,82634,5,8,0:0:0:0:
256,192,82717,1,8,0:0:0:0:
256,192,82800,1,8,0:0:0:0:
256,192,82856,1,8,0:0:0:0:
256,192,82912,1,8,0:0:0:0:
256,192,82967,5,0,0:0:0:0:
256,192,83050,5,8,0:0:0:0:
256,192,83134,5,0,0:0:0:0:
256,192,83217,1,0,0:0:0:0:
256,192,83300,5,8,0:0:0:0:
256,192,83384,5,0,0:0:0:0:
256,192,83467,5,8,0:0:0:0:
256,192,83550,1,8,0:0:0:0:
256,192,83634,5,0,0:0:0:0:
256,192,83717,1,0,0:0:0:0:
256,192,83800,1,0,0:0:0:0:
256,192,83856,1,0,0:0:0:0:
256,192,83912,1,0,0:0:0:0:
256,192,83967,5,8,0:0:0:0:
256,192,84050,1,8,0:0:0:0:
256,192,84134,1,8,0:0:0:0:
256,192,84189,1,8,0:0:0:0:
256,192,84245,1,8,0:0:0:0:
256,192,84300,5,0,0:0:0:0:
256,192,84384,1,0,0:0:0:0:
256,192,84467,5,0,0:0:0:0:
256,192,84523,1,0,0:0:0:0:
256,192,84578,1,0,0:0:0:0:
256,192,84634,5,8,0:0:0:0:
256,192,84717,1,8,0:0:0:0:
256,192,84800,1,8,0:0:0:0:
256,192,84856,1,8,0:0:0:0:
256,192,84912,1,8,0:0:0:0:
256,192,84967,5,0,0:0:0:0:
256,192,85050,1,0,0:0:0:0:
256,192,85134,5,8,0:0:0:0:
256,192,85217,1,8,0:0:0:0:
256,192,85300,5,0,0:0:0:0:
256,192,85384,1,0,0:0:0:0:
256,192,85467,1,0,0:0:0:0:
256,192,85551,1,0,0:0:0:0:
256,192,85634,5,12,0:0:0:0:
256,192,86301,1,12,0:0:0:0:
256,192,86967,1,12,0:0:0:0:
256,192,87634,1,12,0:0:0:0:
256,192,88301,1,12,0:0:0:0:
256,192,88967,1,12,0:0:0:0:
256,192,89134,1,8,0:0:0:0:
256,192,89301,1,12,0:0:0:0:
256,192,89467,1,8,0:0:0:0:
256,192,89634,1,12,0:0:0:0:
256,192,89801,1,8,0:0:0:0:
256,192,89967,1,12,0:0:0:0:
256,192,90134,1,8,0:0:0:0:
256,192,90301,1,12,0:0:0:0:
256,192,90467,1,12,0:0:0:0:
256,192,90634,1,12,0:0:0:0:
256,192,90801,1,12,0:0:0:0:
256,192,90967,12,0,91467,0:0:0:0:
256,192,91634,5,4,0:0:0:0:
256,192,91801,5,8,0:0:0:0:
256,192,91884,1,8,0:0:0:0:
256,192,91967,1,8,0:0:0:0:
256,192,92134,1,8,0:0:0:0:
256,192,92217,1,8,0:0:0:0:
256,192,92301,1,8,0:0:0:0:
256,192,92467,5,0,0:0:0:0:
256,192,92634,5,8,0:0:0:0:
256,192,92717,1,8,0:0:0:0:
256,192,92801,1,8,0:0:0:0:
256,192,92884,1,8,0:0:0:0:
256,192,92967,5,0,0:0:0:0:
256,192,93051,5,8,0:0:0:0:
256,192,93134,1,8,0:0:0:0:
256,192,93301,5,0,0:0:0:0:
256,192,93384,1,0,0:0:0:0:
256,192,93467,5,8,0:0:0:0:
256,192,93634,1,8,0:0:0:0:
256,192,93717,1,8,0:0:0:0:
256,192,93801,5,0,0:0:0:0:
256,192,93884,5,8,0:0:0:0:
256,192,93967,5,0,0:0:0:0:
256,192,94051,1,0,0:0:0:0:
256,192,94134,5,8,0:0:0:0:
256,192,94217,1,8,0:0:0:0:
256,192,94301,5,0,0:0:0:0:
256,192,94412,5,8,0:0:0:0:
256,192,94523,5,0,0:0:0:0:
256,192,94634,5,8,0:0:0:0:
256,192,94745,5,0,0:0:0:0:
256,192,94856,1,0,0:0:0:0:
256,192,94967,5,8,0:0:0:0:
256,192,95079,1,8,0:0:0:0:
256,192,95190,5,0,0:0:0:0:
256,192,95301,5,8,0:0:0:0:
256,192,95412,1,8,0:0:0:0:
256,192,95523,1,8,0:0:0:0:
256,192,95634,5,0,0:0:0:0:
256,192,95745,1,0,0:0:0:0:
256,192,95856,1,0,0:0:0:0:
256,192,95967,5,8,0:0:0:0:
256,192,96079,5,0,0:0:0:0:
256,192,96190,5,8,0:0:0:0:
256,192,96301,5,0,0:0:0:0:
256,192,96467,5,12,0:0:0:0:
256,192,96801,1,12,0:0:0:0:
256,192,96967,5,4,0:0:0:0:
256,192,97134,5,8,0:0:0:0:
256,192,97217,1,8,0:0:0:0:
256,192,97301,1,8,0:0:0:0:
256,192,97467,1,8,0:0:0:0:
256,192,97551,1,8,0:0:0:0:
256,192,97634,5,0,0:0:0:0:
256,192,97801,1,0,0:0:0:0:
256,192,97884,1,0,0:0:0:0:
256,192,97967,5,8,0:0:0:0:
256,192,98051,1,8,0:0:0:0:
256,192,98134,1,8,0:0:0:0:
256,192,98217,1,8,0:0:0:0:
256,192,98301,5,0,0:0:0:0:
256,192,98384,5,8,0:0:0:0:
256,192,98467,5,0,0:0:0:0:
256,192,98634,5,8,0:0:0:0:
256,192,98717,5,0,0:0:0:0:
256,192,98801,5,8,0:0:0:0:
256,192,98967,5,0,0:0:0:0:
256,192,99051,5,8,0:0:0:0:
256,192,99134,1,8,0:0:0:0:
256,192,99217,1,8,0:0:0:0:
256,192,99301,5,0,0:0:0:0:
256,192,99384,1,0,0:0:0:0:
256,192,99467,5,8,0:0:0:0:
256,192,99551,1,8,0:0:0:0:
256,192,99634,5,0,0:0:0:0:
256,192,99745,5,8,0:0:0:0:
256,192,99856,5,0,0:0:0:0:
256,192,99967,1,0,0:0:0:0:
256,192,100079,5,8,0:0:0:0:
256,192,100190,5,0,0:0:0:0:
256,192,100301,1,0,0:0:0:0:
256,192,100412,5,8,0:0:0:0:
256,192,100523,1,8,0:0:0:0:
256,192,100634,5,0,0:0:0:0:
256,192,100745,1,0,0:0:0:0:
256,192,100856,5,8,0:0:0:0:
256,192,100967,5,0,0:0:0:0:
256,192,101134,5,0,0:0:0:0:
256,192,101217,1,0,0:0:0:0:
256,192,101301,5,8,0:0:0:0:
256,192,101384,5,0,0:0:0:0:
256,192,101467,5,8,0:0:0:0:
256,192,101551,1,8,0:0:0:0:
256,192,101634,5,0,0:0:0:0:
256,192,101690,5,8,0:0:0:0:
256,192,101745,5,0,0:0:0:0:
256,192,101801,5,8,0:0:0:0:
256,192,101856,5,0,0:0:0:0:
256,192,101912,5,8,0:0:0:0:
256,192,101967,5,0,0:0:0:0:
256,192,102301,5,4,0:0:0:0:
256,192,102468,5,8,0:0:0:0:
256,192,102634,1,8,0:0:0:0:
256,192,102718,1,8,0:0:0:0:
256,192,102801,1,8,0:0:0:0:
256,192,102884,1,8,0:0:0:0:
256,192,102968,5,4,0:0:0:0:
256,192,103134,1,0,0:0:0:0:
256,192,103217,1,0,0:0:0:0:
256,192,103301,1,0,0:0:0:0:
256,192,103468,5,8,0:0:0:0:
256,192,103634,1,8,0:0:0:0:
256,192,103718,1,8,0:0:0:0:
256,192,103801,1,8,0:0:0:0:
256,192,103884,1,8,0:0:0:0:
256,192,103968,5,0,0:0:0:0:
256,192,104079,1,0,0:0:0:0:
256,192,104190,1,0,0:0:0:0:
256,192,104301,1,0,0:0:0:0:
256,192,104468,5,12,0:0:0:0:
256,192,104634,5,0,0:0:0:0:
256,192,104801,5,12,0:0:0:0:
256,192,104968,5,4,0:0:0:0:
256,192,105134,5,8,0:0:0:0:
256,192,105301,1,8,0:0:0:0:
256,192,105384,1,8,0:0:0:0:
256,192,105468,1,8,0:0:0:0:
256,192,105551,1,8,0:0:0:0:
256,192,105634,5,4,0:0:0:0:
256,192,105801,1,0,0:0:0:0:
256,192,105884,1,0,0:0:0:0:
256,192,105968,1,0,0:0:0:0:
256,192,106023,1,0,0:0:0:0:
256,192,106079,1,0,0:0:0:0:
256,192,106134,5,8,0:0:0:0:
256,192,106217,1,8,0:0:0:0:
256,192,106301,1,8,0:0:0:0:
256,192,106412,5,0,0:0:0:0:
256,192,106523,1,0,0:0:0:0:
256,192,106634,5,8,0:0:0:0:
256,192,106746,1,8,0:0:0:0:
256,192,106857,1,8,0:0:0:0:
256,192,106968,5,0,0:0:0:0:
256,192,107134,5,12,0:0:0:0:
256,192,107468,1,12,0:0:0:0:
256,192,107634,5,4,0:0:0:0:
256,192,107801,5,8,0:0:0:0:
256,192,107968,5,0,0:0:0:0:
256,192,108051,1,8,0:0:0:0:
256,192,108134,5,8,0:0:0:0:
256,192,108218,1,8,0:0:0:0:
256,192,108301,5,4,0:0:0:0:
256,192,108467,1,0,0:0:0:0:
256,192,108551,1,0,0:0:0:0:
256,192,108634,1,0,0:0:0:0:
256,192,108801,5,8,0:0:0:0:
256,192,108968,5,0,0:0:0:0:
256,192,109051,5,8,0:0:0:0:
256,192,109134,1,8,0:0:0:0:
256,192,109218,1,8,0:0:0:0:
256,192,109301,5,0,0:0:0:0:
256,192,109412,1,0,0:0:0:0:
256,192,109523,1,0,0:0:0:0:
256,192,109634,1,0,0:0:0:0:
256,192,109801,5,12,0:0:0:0:
256,192,109968,5,0,0:0:0:0:
256,192,110134,5,12,0:0:0:0:
256,192,110301,5,4,0:0:0:0:
256,192,110468,5,8,0:0:0:0:
256,192,110634,5,0,0:0:0:0:
256,192,110718,5,8,0:0:0:0:
256,192,110801,1,8,0:0:0:0:
256,192,110884,1,8,0:0:0:0:
256,192,110968,5,4,0:0:0:0:
256,192,111134,1,0,0:0:0:0:
256,192,111217,1,0,0:0:0:0:
256,192,111301,1,0,0:0:0:0:
256,192,111356,1,0,0:0:0:0:
256,192,111412,1,0,0:0:0:0:
256,192,111468,5,8,0:0:0:0:
256,192,111551,1,8,0:0:0:0:
256,192,111634,5,0,0:0:0:0:
256,192,111746,5,8,0:0:0:0:
256,192,111857,1,8,0:0:0:0:
256,192,111968,5,0,0:0:0:0:
256,192,112051,5,8,0:0:0:0:
256,192,112134,1,8,0:0:0:0:
256,192,112218,1,8,0:0:0:0:
256,192,112301,5,4,0:0:0:0:
256,192,112468,5,8,0:0:0:0:
256,192,112634,5,4,0:0:0:0:
256,192,112967,1,4,0:0:0:0:
