osu file format v14

[General]
AudioFilename: ZADAMGA.mp3
AudioLeadIn: 0
PreviewTime: 10969
Countdown: 0
SampleSet: Soft
StackLeniency: 0.7
Mode: 3
LetterboxInBreaks: 0
SpecialStyle: 0
WidescreenStoryboard: 0

[Editor]
Bookmarks: 22303,32969,43646,54313,64969,112969
DistanceSpacing: 1.1
BeatDivisor: 4
GridSize: 4
TimelineZoom: 2.2

[Metadata]
Title:ZADAMGA
TitleUnicode:ZADAMGA
Artist:onoken
ArtistUnicode:onoken
Creator:Ichigaki
Version:Phantom
Source:pop'n music ラピストリア
Tags:Lapistoria bemani konami electronic Kennosuke Ono
BeatmapID:2457163
BeatmapSetID:564622

[Difficulty]
HPDrainRate:8.5
CircleSize:4
OverallDifficulty:8.2
ApproachRate:5
SliderMultiplier:1.4
SliderTickRate:1

[Events]
//Background and Video events
0,0,"wallhaven-153759.jpg",0,0
//Break Periods
//Storyboard Layer 0 (Background)
//Storyboard Layer 1 (Fail)
//Storyboard Layer 2 (Pass)
//Storyboard Layer 3 (Foreground)
//Storyboard Layer 4 (Overlay)
//Storyboard Sound Samples

[TimingPoints]
970,333.333333333333,4,2,1,80,1,0
54303,-100,4,2,0,40,0,0
64969,-100,4,2,0,40,0,0
75636,-100,4,2,1,80,0,1
85636,-100,4,2,1,80,0,0
85858,-52.6315789473684,4,2,1,80,0,0
85886,-1000,4,2,1,80,0,0
85914,-52.6315789473684,4,2,1,80,0,0
85942,-1000,4,2,1,80,0,0
85969,-52.6315789473684,4,2,1,80,0,0
85997,-1000,4,2,1,80,0,0
86025,-52.6315789473684,4,2,1,80,0,0
86053,-1000,4,2,1,80,0,0
86081,-52.6315789473684,4,2,1,80,0,0
86108,-1000,4,2,1,80,0,0
86136,-52.6315789473684,4,2,1,80,0,0
86164,-1000,4,2,1,80,0,0
86192,-52.6315789473684,4,2,1,80,0,0
86219,-1000,4,2,1,80,0,0
86247,-100,4,2,1,80,0,0
86525,-52.6315789473684,4,2,1,80,0,0
86553,-1000,4,2,1,80,0,0
86581,-52.6315789473684,4,2,1,80,0,0
86609,-1000,4,2,1,80,0,0
86636,-52.6315789473684,4,2,1,80,0,0
86664,-1000,4,2,1,80,0,0
86692,-52.6315789473684,4,2,1,80,0,0
86720,-1000,4,2,1,80,0,0
86748,-52.6315789473684,4,2,1,80,0,0
86775,-1000,4,2,1,80,0,0
86803,-52.6315789473684,4,2,1,80,0,0
86831,-1000,4,2,1,80,0,0
86859,-52.6315789473684,4,2,1,80,0,0
86886,-1000,4,2,1,80,0,0
86914,-100,4,2,1,80,0,0
87192,-52.6315789473684,4,2,1,80,0,0
87220,-1000,4,2,1,80,0,0
87248,-52.6315789473684,4,2,1,80,0,0
87276,-1000,4,2,1,80,0,0
87303,-52.6315789473684,4,2,1,80,0,0
87331,-1000,4,2,1,80,0,0
87359,-52.6315789473684,4,2,1,80,0,0
87387,-1000,4,2,1,80,0,0
87415,-52.6315789473684,4,2,1,80,0,0
87442,-1000,4,2,1,80,0,0
87470,-52.6315789473684,4,2,1,80,0,0
87498,-1000,4,2,1,80,0,0
87526,-52.6315789473684,4,2,1,80,0,0
87553,-1000,4,2,1,80,0,0
87581,-100,4,2,1,80,0,0
87858,-52.6315789473684,4,2,1,80,0,0
87886,-1000,4,2,1,80,0,0
87914,-52.6315789473684,4,2,1,80,0,0
87942,-1000,4,2,1,80,0,0
87969,-52.6315789473684,4,2,1,80,0,0
87997,-1000,4,2,1,80,0,0
88025,-52.6315789473684,4,2,1,80,0,0
88053,-1000,4,2,1,80,0,0
88081,-52.6315789473684,4,2,1,80,0,0
88108,-1000,4,2,1,80,0,0
88136,-52.6315789473684,4,2,1,80,0,0
88164,-1000,4,2,1,80,0,0
88192,-52.6315789473684,4,2,1,80,0,0
88219,-1000,4,2,1,80,0,0
88247,-100,4,2,1,80,0,0
88525,-52.6315789473684,4,2,1,80,0,0
88553,-1000,4,2,1,80,0,0
88581,-52.6315789473684,4,2,1,80,0,0
88609,-1000,4,2,1,80,0,0
88636,-52.6315789473684,4,2,1,80,0,0
88664,-1000,4,2,1,80,0,0
88692,-52.6315789473684,4,2,1,80,0,0
88720,-1000,4,2,1,80,0,0
88748,-52.6315789473684,4,2,1,80,0,0
88775,-1000,4,2,1,80,0,0
88803,-52.6315789473684,4,2,1,80,0,0
88831,-1000,4,2,1,80,0,0
88859,-52.6315789473684,4,2,1,80,0,0
88886,-1000,4,2,1,80,0,0
88914,-100,4,2,1,80,0,0
91636,-100,4,2,1,80,0,1
102303,-100,4,2,1,80,0,0

[HitObjects]
320,192,969,5,0,0:0:0:0:
192,192,1303,1,0,0:0:0:0:
448,192,1636,1,0,0:0:0:0:
64,192,1969,1,0,0:0:0:0:
320,192,2303,1,0,0:0:0:0:
192,192,2636,1,0,0:0:0:0:
192,192,2969,1,0,0:0:0:0:
64,192,3303,1,0,0:0:0:0:
320,192,3636,1,0,0:0:0:0:
192,192,3969,1,0,0:0:0:0:
448,192,4303,1,0,0:0:0:0:
64,192,4636,1,0,0:0:0:0:
320,192,4969,1,0,0:0:0:0:
192,192,5303,1,0,0:0:0:0:
192,192,5636,1,0,0:0:0:0:
64,192,5969,1,0,0:0:0:0:
320,192,6303,1,0,0:0:0:0:
192,192,6636,1,0,0:0:0:0:
448,192,6969,1,0,0:0:0:0:
320,192,7303,1,0,0:0:0:0:
192,192,7636,1,0,0:0:0:0:
320,192,7969,1,0,0:0:0:0:
320,192,8303,1,0,0:0:0:0:
64,192,8636,1,0,0:0:0:0:
320,192,8969,1,0,0:0:0:0:
192,192,9303,1,0,0:0:0:0:
448,192,9636,1,0,0:0:0:0:
320,192,9969,1,0,0:0:0:0:
192,192,10303,1,0,0:0:0:0:
64,192,10636,1,0,0:0:0:0:
64,192,10969,1,2,0:0:0:0:
192,192,11025,1,2,0:0:0:0:
448,192,11081,1,2,0:0:0:0:
320,192,11136,1,2,0:0:0:0:
64,192,11192,1,2,0:0:0:0:
192,192,11247,1,2,0:0:0:0:
448,192,11303,1,2,0:0:0:0:
320,192,11358,1,2,0:0:0:0:
64,192,11414,1,2,0:0:0:0:
192,192,11469,1,2,0:0:0:0:
448,192,11525,1,2,0:0:0:0:
320,192,11581,1,2,0:0:0:0:
192,192,11636,1,4,0:0:0:0:
64,192,11636,1,8,0:0:0:0:
448,192,11636,1,2,0:0:0:0:
448,192,11803,128,2,11886:0:0:0:0:
64,192,11803,128,0,11886:0:0:0:0:
64,192,11969,1,0,0:0:0:0:
448,192,11969,1,2,0:0:0:0:
320,192,12053,1,2,0:0:0:0:
192,192,12136,1,2,0:0:0:0:
64,192,12136,1,0,0:0:0:0:
192,192,12219,1,2,0:0:0:0:
64,192,12219,1,0,0:0:0:0:
448,192,12303,128,8,12553:0:0:0:0:
192,192,12303,128,0,12553:0:0:0:0:
64,192,12303,128,2,12553:0:0:0:0:
448,192,12636,1,4,0:0:0:0:
192,192,12636,1,2,0:0:0:0:
64,192,12636,1,8,0:0:0:0:
448,192,12803,128,0,12886:0:0:0:0:
320,192,12803,128,0,12886:0:0:0:0:
448,192,12969,1,0,0:0:0:0:
64,192,12969,1,2,0:0:0:0:
192,192,13053,1,2,0:0:0:0:
320,192,13136,1,0,0:0:0:0:
64,192,13136,1,2,0:0:0:0:
192,192,13219,1,2,0:0:0:0:
320,192,13303,1,2,0:0:0:0:
64,192,13414,1,0,0:0:0:0:
448,192,13414,1,2,0:0:0:0:
320,192,13525,1,2,0:0:0:0:
192,192,13525,1,0,0:0:0:0:
448,192,13636,1,2,0:0:0:0:
64,192,13636,1,0,0:0:0:0:
320,192,13803,1,2,0:0:0:0:
64,192,13803,128,0,13886:0:0:0:0:
448,192,13803,128,8,13886:0:0:0:0:
64,192,13969,1,0,0:0:0:0:
448,192,13969,1,2,0:0:0:0:
192,192,14136,1,8,0:0:0:0:
64,192,14136,128,0,14219:0:0:0:0:
448,192,14136,128,2,14219:0:0:0:0:
64,192,14303,1,4,0:0:0:0:
320,192,14303,1,2,0:0:0:0:
448,192,14303,1,8,0:0:0:0:
192,192,14469,128,2,14553:0:0:0:0:
64,192,14469,128,0,14553:0:0:0:0:
448,192,14636,1,0,0:0:0:0:
64,192,14636,1,2,0:0:0:0:
192,192,14719,1,2,0:0:0:0:
448,192,14803,1,2,0:0:0:0:
320,192,14803,1,0,0:0:0:0:
448,192,14886,1,0,0:0:0:0:
320,192,14886,1,2,0:0:0:0:
320,192,14969,128,2,15219:0:0:0:0:
448,192,14969,128,8,15219:0:0:0:0:
64,192,14969,128,0,15219:0:0:0:0:
448,192,15303,1,4,0:0:0:0:
320,192,15303,1,2,0:0:0:0:
64,192,15303,1,8,0:0:0:0:
64,192,15469,128,0,15553:0:0:0:0:
192,192,15469,128,2,15553:0:0:0:0:
320,192,15636,1,2,0:0:0:0:
448,192,15636,1,8,0:0:0:0:
64,192,15636,1,0,0:0:0:0:
448,192,15747,1,0,0:0:0:0:
320,192,15747,1,2,0:0:0:0:
192,192,15858,1,0,0:0:0:0:
64,192,15858,1,2,0:0:0:0:
320,192,15969,1,2,0:0:0:0:
448,192,15969,1,8,0:0:0:0:
64,192,15969,1,0,0:0:0:0:
448,192,16081,1,2,0:0:0:0:
320,192,16081,1,0,0:0:0:0:
64,192,16192,1,2,0:0:0:0:
192,192,16192,1,0,0:0:0:0:
192,192,16303,1,2,0:0:0:0:
64,192,16303,1,8,0:0:0:0:
64,192,16469,1,2,0:0:0:0:
448,192,16469,1,0,0:0:0:0:
192,192,16581,1,2,0:0:0:0:
448,192,16636,1,2,0:0:0:0:
320,192,16692,1,2,0:0:0:0:
192,192,16747,1,2,0:0:0:0:
448,192,16803,1,2,0:0:0:0:
64,192,16803,1,0,0:0:0:0:
320,192,16858,1,2,0:0:0:0:
192,192,16914,1,2,0:0:0:0:
64,192,16969,1,8,0:0:0:0:
320,192,16969,1,2,0:0:0:0:
448,192,16969,1,4,0:0:0:0:
448,192,17136,128,0,17219:0:0:0:0:
320,192,17136,128,2,17219:0:0:0:0:
448,192,17303,1,0,0:0:0:0:
64,192,17303,1,2,0:0:0:0:
320,192,17386,1,2,0:0:0:0:
64,192,17469,1,0,0:0:0:0:
192,192,17469,1,2,0:0:0:0:
64,192,17553,1,0,0:0:0:0:
192,192,17553,1,2,0:0:0:0:
64,192,17636,128,8,17886:0:0:0:0:
192,192,17636,128,2,17886:0:0:0:0:
448,192,17636,128,0,17886:0:0:0:0:
64,192,17969,1,4,0:0:0:0:
320,192,17969,1,2,0:0:0:0:
448,192,17969,1,8,0:0:0:0:
320,192,18136,128,2,18219:0:0:0:0:
448,192,18136,128,0,18219:0:0:0:0:
64,192,18303,1,0,0:0:0:0:
192,192,18303,1,2,0:0:0:0:
320,192,18386,1,2,0:0:0:0:
64,192,18469,1,0,0:0:0:0:
448,192,18469,1,2,0:0:0:0:
192,192,18553,1,2,0:0:0:0:
320,192,18636,1,2,0:0:0:0:
64,192,18747,1,0,0:0:0:0:
448,192,18747,1,2,0:0:0:0:
192,192,18858,1,0,0:0:0:0:
320,192,18858,1,2,0:0:0:0:
64,192,18969,1,0,0:0:0:0:
448,192,18969,1,2,0:0:0:0:
192,192,19136,1,2,0:0:0:0:
448,192,19136,128,0,19219:0:0:0:0:
64,192,19136,128,8,19219:0:0:0:0:
64,192,19303,1,2,0:0:0:0:
448,192,19303,1,0,0:0:0:0:
320,192,19469,1,2,0:0:0:0:
64,192,19469,128,0,19553:0:0:0:0:
448,192,19469,128,8,19553:0:0:0:0:
448,192,19636,1,4,0:0:0:0:
192,192,19636,1,2,0:0:0:0:
64,192,19636,1,8,0:0:0:0:
64,192,19803,128,0,19886:0:0:0:0:
192,192,19803,128,2,19886:0:0:0:0:
64,192,19969,1,2,0:0:0:0:
448,192,19969,1,0,0:0:0:0:
192,192,20053,1,2,0:0:0:0:
320,192,20136,1,2,0:0:0:0:
448,192,20136,1,0,0:0:0:0:
448,192,20219,1,0,0:0:0:0:
320,192,20219,1,2,0:0:0:0:
448,192,20303,128,8,20553:0:0:0:0:
320,192,20303,128,2,20553:0:0:0:0:
64,192,20303,128,0,20553:0:0:0:0:
448,192,20636,1,8,0:0:0:0:
320,192,20636,1,2,0:0:0:0:
64,192,20636,1,4,0:0:0:0:
64,192,20803,128,0,20886:0:0:0:0:
192,192,20803,128,2,20886:0:0:0:0:
64,192,20969,1,2,0:0:0:0:
448,192,20969,1,0,0:0:0:0:
192,192,21081,1,2,0:0:0:0:
320,192,21192,1,2,0:0:0:0:
64,192,21303,1,2,0:0:0:0:
448,192,21303,1,0,0:0:0:0:
192,192,21386,1,2,0:0:0:0:
320,192,21469,1,2,0:0:0:0:
448,192,21469,1,0,0:0:0:0:
64,192,21553,1,0,0:0:0:0:
192,192,21553,1,2,0:0:0:0:
320,192,21636,1,2,0:0:0:0:
64,192,21636,128,0,21719:0:0:0:0:
448,192,21636,128,8,21719:0:0:0:0:
192,192,21803,128,2,21886:0:0:0:0:
320,192,21803,128,8,21886:0:0:0:0:
64,192,21969,128,0,22219:0:0:0:0:
448,192,21969,128,8,22219:0:0:0:0:
192,192,21969,1,2,0:0:0:0:
64,192,22303,1,8,0:0:0:0:
192,192,22303,1,2,0:0:0:0:
448,192,22303,1,4,0:0:0:0:
320,192,22469,128,0,22553:0:0:0:0:
64,192,22636,128,0,22719:0:0:0:0:
320,192,22803,128,0,22886:0:0:0:0:
192,192,22969,128,0,23053:0:0:0:0:
448,192,23136,128,0,23219:0:0:0:0:
64,192,23303,128,0,23386:0:0:0:0:
448,192,23469,128,0,23553:0:0:0:0:
192,192,23636,128,0,23719:0:0:0:0:
64,192,23803,128,0,23886:0:0:0:0:
448,192,23969,128,0,24081:0:0:0:0:
320,192,23969,1,0,0:0:0:0:
64,192,24081,1,0,0:0:0:0:
192,192,24081,128,0,24192:0:0:0:0:
448,192,24303,128,0,24414:0:0:0:0:
192,192,24303,1,0,0:0:0:0:
320,192,24414,128,0,24525:0:0:0:0:
64,192,24414,1,0,0:0:0:0:
192,192,24525,128,0,24636:0:0:0:0:
64,192,24636,128,0,24747:0:0:0:0:
320,192,24636,1,0,0:0:0:0:
192,192,24747,128,0,24858:0:0:0:0:
448,192,24747,1,0,0:0:0:0:
320,192,24858,128,0,24969:0:0:0:0:
64,192,24969,1,2,0:0:0:0:
448,192,24969,128,0,25303:0:0:0:0:
192,192,25081,1,0,0:0:0:0:
320,192,25192,1,0,0:0:0:0:
192,192,25303,1,2,0:0:0:0:
64,192,25303,128,8,25636:0:0:0:0:
320,192,25414,1,0,0:0:0:0:
448,192,25525,1,0,0:0:0:0:
192,192,25636,1,0,0:0:0:0:
448,192,25747,1,0,0:0:0:0:
320,192,25803,1,2,0:0:0:0:
192,192,25858,1,0,0:0:0:0:
64,192,25969,1,0,0:0:0:0:
320,192,25969,1,2,0:0:0:0:
448,192,25969,128,8,26303:0:0:0:0:
192,192,26081,1,0,0:0:0:0:
64,192,26192,1,0,0:0:0:0:
320,192,26303,1,0,0:0:0:0:
192,192,26303,1,2,0:0:0:0:
64,192,26414,1,0,0:0:0:0:
448,192,26525,1,0,0:0:0:0:
320,192,26636,1,0,0:0:0:0:
192,192,26636,1,2,0:0:0:0:
64,192,26636,128,8,26969:0:0:0:0:
448,192,26747,1,0,0:0:0:0:
192,192,26858,1,0,0:0:0:0:
320,192,26969,1,2,0:0:0:0:
448,192,26969,1,8,0:0:0:0:
64,192,27081,1,0,0:0:0:0:
320,192,27136,1,0,0:0:0:0:
448,192,27136,1,0,0:0:0:0:
192,192,27192,1,0,0:0:0:0:
64,192,27303,1,0,0:0:0:0:
320,192,27303,1,2,0:0:0:0:
448,192,27303,128,8,27636:0:0:0:0:
192,192,27414,1,0,0:0:0:0:
320,192,27525,1,0,0:0:0:0:
192,192,27636,1,2,0:0:0:0:
64,192,27636,1,12,0:0:0:0:
448,192,27803,128,0,27886:0:0:0:0:
192,192,27969,128,0,28053:0:0:0:0:
320,192,28136,128,0,28219:0:0:0:0:
64,192,28303,128,0,28386:0:0:0:0:
448,192,28469,128,0,28553:0:0:0:0:
320,192,28636,128,0,28719:0:0:0:0:
64,192,28803,128,4,28886:0:0:0:0:
192,192,28803,1,2,0:0:0:0:
448,192,28803,1,0,0:0:0:0:
320,192,28969,128,0,29053:0:0:0:0:
192,192,29136,128,0,29219:0:0:0:0:
448,192,29303,128,0,29414:0:0:0:0:
64,192,29303,1,0,0:0:0:0:
192,192,29414,1,0,0:0:0:0:
64,192,29636,128,0,29747:0:0:0:0:
320,192,29636,1,0,0:0:0:0:
448,192,29747,1,0,0:0:0:0:
192,192,29858,1,0,0:0:0:0:
448,192,29969,128,0,30081:0:0:0:0:
64,192,29969,1,0,0:0:0:0:
320,192,30081,1,0,0:0:0:0:
192,192,30192,1,0,0:0:0:0:
448,192,30303,128,0,30886:0:0:0:0:
64,192,30303,128,2,30553:0:0:0:0:
192,192,30636,128,2,30886:0:0:0:0:
64,192,30636,1,0,0:0:0:0:
192,192,30969,1,2,0:0:0:0:
64,192,30969,1,8,0:0:0:0:
448,192,30969,128,0,31303:0:0:0:0:
320,192,31136,1,0,0:0:0:0:
192,192,31303,128,8,31636:0:0:0:0:
64,192,31303,1,2,0:0:0:0:
320,192,31469,1,2,0:0:0:0:
448,192,31469,1,8,0:0:0:0:
320,192,31636,128,8,31969:0:0:0:0:
64,192,31636,1,0,0:0:0:0:
448,192,31636,1,2,0:0:0:0:
64,192,31969,128,8,32303:0:0:0:0:
448,192,31969,1,0,0:0:0:0:
192,192,31969,1,2,0:0:0:0:
320,192,32303,128,8,32636:0:0:0:0:
448,192,32303,1,2,0:0:0:0:
64,192,32469,1,2,0:0:0:0:
192,192,32469,1,8,0:0:0:0:
448,192,32636,128,0,32969:0:0:0:0:
64,192,32636,1,2,0:0:0:0:
192,192,32636,1,8,0:0:0:0:
64,192,32969,128,8,33636:0:0:0:0:
192,192,32969,1,4,0:0:0:0:
320,192,32969,1,2,0:0:0:0:
448,192,33303,1,2,0:0:0:0:
320,192,33303,1,0,0:0:0:0:
448,192,33636,128,0,34303:0:0:0:0:
320,192,33636,1,2,0:0:0:0:
192,192,33803,1,2,0:0:0:0:
64,192,33803,1,0,0:0:0:0:
64,192,33969,1,8,0:0:0:0:
320,192,33969,1,2,0:0:0:0:
192,192,34303,128,2,34969:0:0:0:0:
64,192,34303,1,0,0:0:0:0:
320,192,34469,1,2,0:0:0:0:
448,192,34636,1,2,0:0:0:0:
320,192,34636,128,8,34969:0:0:0:0:
64,192,34969,128,0,35636:0:0:0:0:
448,192,34969,1,2,0:0:0:0:
192,192,35136,1,0,0:0:0:0:
320,192,35136,1,2,0:0:0:0:
192,192,35303,1,8,0:0:0:0:
448,192,35303,1,2,0:0:0:0:
320,192,35636,128,0,36303:0:0:0:0:
448,192,35636,1,2,0:0:0:0:
192,192,35803,1,2,0:0:0:0:
192,192,35969,128,8,36303:0:0:0:0:
64,192,35969,1,2,0:0:0:0:
448,192,36303,128,0,36969:0:0:0:0:
64,192,36303,1,2,0:0:0:0:
192,192,36469,1,2,0:0:0:0:
320,192,36469,1,0,0:0:0:0:
320,192,36636,128,8,36969:0:0:0:0:
64,192,36636,1,2,0:0:0:0:
192,192,36969,128,0,37636:0:0:0:0:
64,192,36969,1,2,0:0:0:0:
320,192,37136,1,2,0:0:0:0:
448,192,37303,1,8,0:0:0:0:
64,192,37303,128,2,37636:0:0:0:0:
448,192,37469,1,0,0:0:0:0:
320,192,37469,1,2,0:0:0:0:
320,192,37636,1,2,0:0:0:0:
448,192,37636,1,0,0:0:0:0:
64,192,37719,1,2,0:0:0:0:
320,192,37803,1,2,0:0:0:0:
192,192,37803,1,0,0:0:0:0:
448,192,37886,1,2,0:0:0:0:
64,192,37969,1,0,0:0:0:0:
320,192,37969,1,2,0:0:0:0:
192,192,37969,1,8,0:0:0:0:
448,192,38053,1,2,0:0:0:0:
192,192,38136,1,2,0:0:0:0:
64,192,38136,1,0,0:0:0:0:
320,192,38219,1,2,0:0:0:0:
192,192,38303,1,2,0:0:0:0:
64,192,38303,1,4,0:0:0:0:
448,192,38303,1,8,0:0:0:0:
320,192,38386,1,2,0:0:0:0:
448,192,38469,1,2,0:0:0:0:
192,192,38553,1,2,0:0:0:0:
64,192,38636,1,8,0:0:0:0:
448,192,38636,1,0,0:0:0:0:
320,192,38636,1,2,0:0:0:0:
192,192,38719,1,2,0:0:0:0:
320,192,38803,1,2,0:0:0:0:
448,192,38886,1,2,0:0:0:0:
64,192,38969,1,0,0:0:0:0:
192,192,38969,1,2,0:0:0:0:
320,192,39053,1,2,0:0:0:0:
64,192,39136,1,8,0:0:0:0:
448,192,39136,1,2,0:0:0:0:
192,192,39219,1,2,0:0:0:0:
320,192,39303,1,2,0:0:0:0:
64,192,39303,1,0,0:0:0:0:
448,192,39303,1,8,0:0:0:0:
192,192,39386,1,2,0:0:0:0:
320,192,39469,1,2,0:0:0:0:
448,192,39553,1,2,0:0:0:0:
192,192,39636,1,2,0:0:0:0:
64,192,39636,1,0,0:0:0:0:
320,192,39747,1,2,0:0:0:0:
192,192,39858,1,2,0:0:0:0:
448,192,39969,1,8,0:0:0:0:
64,192,39969,1,0,0:0:0:0:
320,192,39969,1,2,0:0:0:0:
192,192,40053,1,2,0:0:0:0:
320,192,40136,1,2,0:0:0:0:
192,192,40219,1,2,0:0:0:0:
448,192,40303,1,2,0:0:0:0:
64,192,40303,1,0,0:0:0:0:
320,192,40414,1,2,0:0:0:0:
448,192,40469,1,0,0:0:0:0:
64,192,40469,1,0,0:0:0:0:
192,192,40525,1,2,0:0:0:0:
448,192,40636,1,0,0:0:0:0:
64,192,40636,1,0,0:0:0:0:
320,192,40636,1,2,0:0:0:0:
192,192,40747,1,2,0:0:0:0:
448,192,40858,1,2,0:0:0:0:
320,192,40969,1,2,0:0:0:0:
64,192,40969,1,8,0:0:0:0:
192,192,40969,1,0,0:0:0:0:
448,192,41081,1,2,0:0:0:0:
64,192,41192,1,2,0:0:0:0:
320,192,41303,1,2,0:0:0:0:
448,192,41303,1,0,0:0:0:0:
192,192,41303,1,8,0:0:0:0:
64,192,41414,1,2,0:0:0:0:
448,192,41525,1,2,0:0:0:0:
192,192,41636,1,8,0:0:0:0:
64,192,41636,1,0,0:0:0:0:
320,192,41636,1,2,0:0:0:0:
448,192,41747,1,2,0:0:0:0:
192,192,41858,1,2,0:0:0:0:
64,192,41858,1,8,0:0:0:0:
448,192,41969,1,8,0:0:0:0:
64,192,41969,1,0,0:0:0:0:
320,192,41969,1,2,0:0:0:0:
192,192,42081,1,2,0:0:0:0:
320,192,42192,1,2,0:0:0:0:
448,192,42192,1,8,0:0:0:0:
448,192,42303,1,0,0:0:0:0:
192,192,42303,1,2,0:0:0:0:
64,192,42303,1,8,0:0:0:0:
192,192,42414,1,2,0:0:0:0:
64,192,42414,1,8,0:0:0:0:
448,192,42525,1,8,0:0:0:0:
320,192,42525,1,2,0:0:0:0:
320,192,42636,1,2,0:0:0:0:
64,192,42636,1,0,0:0:0:0:
448,192,42636,1,8,0:0:0:0:
192,192,42747,1,2,0:0:0:0:
320,192,42858,1,2,0:0:0:0:
448,192,42858,1,8,0:0:0:0:
448,192,42969,1,8,0:0:0:0:
64,192,42969,1,2,0:0:0:0:
320,192,43025,1,2,0:0:0:0:
192,192,43081,1,2,0:0:0:0:
64,192,43136,1,2,0:0:0:0:
448,192,43192,1,2,0:0:0:0:
320,192,43247,1,2,0:0:0:0:
64,192,43303,1,2,0:0:0:0:
192,192,43303,128,0,43636:0:0:0:0:
448,192,43636,1,8,0:0:0:0:
320,192,43636,1,0,0:0:0:0:
64,192,43636,1,0,0:0:0:0:
192,192,43803,128,2,43886:0:0:0:0:
320,192,43803,128,0,43886:0:0:0:0:
64,192,43969,128,0,44053:0:0:0:0:
448,192,43969,1,2,0:0:0:0:
320,192,44053,1,2,0:0:0:0:
192,192,44136,128,0,44219:0:0:0:0:
64,192,44136,1,2,0:0:0:0:
320,192,44219,1,2,0:0:0:0:
448,192,44219,1,0,0:0:0:0:
320,192,44303,128,2,44553:0:0:0:0:
448,192,44303,128,8,44553:0:0:0:0:
64,192,44303,128,0,44386:0:0:0:0:
448,192,44636,1,4,0:0:0:0:
192,192,44636,1,2,0:0:0:0:
64,192,44636,1,8,0:0:0:0:
320,192,44803,128,2,44886:0:0:0:0:
448,192,44803,128,0,44886:0:0:0:0:
64,192,44969,1,0,0:0:0:0:
192,192,44969,1,2,0:0:0:0:
448,192,44969,128,0,45053:0:0:0:0:
320,192,45053,1,2,0:0:0:0:
192,192,45136,1,2,0:0:0:0:
64,192,45136,1,0,0:0:0:0:
320,192,45219,1,2,0:0:0:0:
192,192,45303,1,2,0:0:0:0:
448,192,45303,1,0,0:0:0:0:
64,192,45303,128,0,45386:0:0:0:0:
320,192,45414,1,2,0:0:0:0:
448,192,45414,1,0,0:0:0:0:
192,192,45525,1,0,0:0:0:0:
64,192,45525,1,2,0:0:0:0:
448,192,45636,128,2,45719:0:0:0:0:
320,192,45636,128,8,45719:0:0:0:0:
64,192,45803,128,8,45886:0:0:0:0:
192,192,45803,128,2,45886:0:0:0:0:
448,192,45803,1,0,0:0:0:0:
448,192,45969,1,0,0:0:0:0:
320,192,45969,1,2,0:0:0:0:
64,192,46136,1,0,0:0:0:0:
192,192,46136,128,2,46219:0:0:0:0:
448,192,46136,128,8,46219:0:0:0:0:
448,192,46303,1,4,0:0:0:0:
320,192,46303,1,2,0:0:0:0:
64,192,46303,1,8,0:0:0:0:
192,192,46469,128,2,46553:0:0:0:0:
320,192,46469,128,0,46553:0:0:0:0:
64,192,46636,1,2,0:0:0:0:
448,192,46636,128,0,46719:0:0:0:0:
192,192,46719,1,2,0:0:0:0:
320,192,46803,128,0,46886:0:0:0:0:
448,192,46803,1,2,0:0:0:0:
64,192,46886,1,0,0:0:0:0:
192,192,46886,1,2,0:0:0:0:
64,192,46969,128,0,47219:0:0:0:0:
192,192,46969,128,2,47219:0:0:0:0:
448,192,46969,128,0,47053:0:0:0:0:
64,192,47303,1,8,0:0:0:0:
320,192,47303,1,2,0:0:0:0:
448,192,47303,1,4,0:0:0:0:
192,192,47469,128,0,47553:0:0:0:0:
64,192,47469,128,2,47553:0:0:0:0:
192,192,47636,1,2,0:0:0:0:
64,192,47636,1,8,0:0:0:0:
448,192,47636,128,0,47747:0:0:0:0:
192,192,47747,1,0,0:0:0:0:
64,192,47747,1,2,0:0:0:0:
320,192,47858,1,0,0:0:0:0:
448,192,47858,1,2,0:0:0:0:
192,192,47969,1,2,0:0:0:0:
64,192,47969,1,0,0:0:0:0:
448,192,47969,128,0,48081:0:0:0:0:
192,192,48081,1,0,0:0:0:0:
64,192,48081,1,2,0:0:0:0:
320,192,48192,1,0,0:0:0:0:
448,192,48192,1,2,0:0:0:0:
192,192,48303,1,8,0:0:0:0:
64,192,48303,128,2,48386:0:0:0:0:
64,192,48469,1,2,0:0:0:0:
448,192,48469,1,8,0:0:0:0:
320,192,48581,1,2,0:0:0:0:
64,192,48636,1,2,0:0:0:0:
192,192,48692,1,2,0:0:0:0:
320,192,48747,1,2,0:0:0:0:
64,192,48803,1,2,0:0:0:0:
448,192,48803,1,8,0:0:0:0:
192,192,48858,1,2,0:0:0:0:
320,192,48914,1,2,0:0:0:0:
64,192,48969,1,2,0:0:0:0:
192,192,48969,1,4,0:0:0:0:
448,192,48969,1,8,0:0:0:0:
192,192,49136,128,0,49219:0:0:0:0:
320,192,49136,128,2,49219:0:0:0:0:
448,192,49303,1,2,0:0:0:0:
64,192,49303,128,0,49386:0:0:0:0:
320,192,49386,1,2,0:0:0:0:
192,192,49469,128,0,49553:0:0:0:0:
64,192,49469,1,2,0:0:0:0:
448,192,49553,1,0,0:0:0:0:
320,192,49553,1,2,0:0:0:0:
448,192,49636,128,0,49886:0:0:0:0:
320,192,49636,128,2,49886:0:0:0:0:
64,192,49636,128,8,49719:0:0:0:0:
448,192,49969,1,4,0:0:0:0:
192,192,49969,1,2,0:0:0:0:
64,192,49969,1,8,0:0:0:0:
320,192,50136,128,2,50219:0:0:0:0:
448,192,50136,128,0,50219:0:0:0:0:
64,192,50303,1,0,0:0:0:0:
192,192,50303,1,2,0:0:0:0:
448,192,50303,128,0,50386:0:0:0:0:
320,192,50386,1,2,0:0:0:0:
192,192,50469,1,2,0:0:0:0:
64,192,50469,1,0,0:0:0:0:
320,192,50553,1,2,0:0:0:0:
448,192,50636,1,0,0:0:0:0:
192,192,50636,1,2,0:0:0:0:
64,192,50636,128,0,50719:0:0:0:0:
320,192,50747,1,2,0:0:0:0:
448,192,50747,1,0,0:0:0:0:
64,192,50858,1,0,0:0:0:0:
192,192,50858,1,2,0:0:0:0:
64,192,50969,1,0,0:0:0:0:
320,192,50969,128,2,51053:0:0:0:0:
448,192,50969,128,8,51053:0:0:0:0:
448,192,51136,1,8,0:0:0:0:
192,192,51136,128,2,51219:0:0:0:0:
64,192,51136,128,0,51219:0:0:0:0:
192,192,51303,1,2,0:0:0:0:
320,192,51303,1,0,0:0:0:0:
448,192,51469,1,0,0:0:0:0:
64,192,51469,128,8,51553:0:0:0:0:
320,192,51469,128,2,51553:0:0:0:0:
64,192,51636,1,2,0:0:0:0:
192,192,51636,1,8,0:0:0:0:
448,192,51636,1,4,0:0:0:0:
320,192,51803,128,0,51886:0:0:0:0:
192,192,51803,128,0,51886:0:0:0:0:
64,192,51969,1,2,0:0:0:0:
448,192,51969,128,0,52053:0:0:0:0:
192,192,52053,1,2,0:0:0:0:
320,192,52136,128,0,52219:0:0:0:0:
448,192,52136,1,2,0:0:0:0:
64,192,52219,1,0,0:0:0:0:
192,192,52219,1,2,0:0:0:0:
64,192,52303,128,0,52553:0:0:0:0:
192,192,52303,128,2,52553:0:0:0:0:
448,192,52303,128,8,52386:0:0:0:0:
64,192,52636,1,2,0:0:0:0:
320,192,52636,1,4,0:0:0:0:
448,192,52636,1,8,0:0:0:0:
192,192,52803,128,0,52886:0:0:0:0:
64,192,52803,128,2,52886:0:0:0:0:
448,192,52969,1,0,0:0:0:0:
64,192,52969,128,2,53081:0:0:0:0:
320,192,53081,1,2,0:0:0:0:
192,192,53192,1,2,0:0:0:0:
64,192,53303,1,0,0:0:0:0:
448,192,53303,128,2,53386:0:0:0:0:
320,192,53386,1,2,0:0:0:0:
192,192,53469,1,2,0:0:0:0:
64,192,53469,1,0,0:0:0:0:
320,192,53553,1,2,0:0:0:0:
448,192,53553,1,0,0:0:0:0:
64,192,53636,128,8,53719:0:0:0:0:
192,192,53636,128,2,53719:0:0:0:0:
448,192,53636,1,0,0:0:0:0:
320,192,53803,128,2,53886:0:0:0:0:
448,192,53803,128,0,53886:0:0:0:0:
64,192,53803,1,8,0:0:0:0:
64,192,53969,128,4,54219:0:0:0:0:
192,192,53969,128,2,54219:0:0:0:0:
448,192,53969,128,8,54219:0:0:0:0:
192,192,54303,1,2,0:0:0:0:
448,192,54303,1,4,0:0:0:0:
64,192,54303,1,8,0:0:0:0:
320,192,54414,1,0,0:0:0:0:
448,192,54525,1,0,0:0:0:0:
64,192,54525,1,2,0:0:0:0:
192,192,54636,1,0,0:0:0:0:
64,192,54747,1,2,0:0:0:0:
320,192,54747,1,0,0:0:0:0:
448,192,54858,1,0,0:0:0:0:
192,192,54969,1,2,0:0:0:0:
64,192,54969,1,0,0:0:0:0:
320,192,55081,1,0,0:0:0:0:
192,192,55192,1,2,0:0:0:0:
448,192,55192,1,0,0:0:0:0:
64,192,55303,1,0,0:0:0:0:
320,192,55414,1,0,0:0:0:0:
448,192,55414,1,2,0:0:0:0:
192,192,55525,1,0,0:0:0:0:
64,192,55636,1,0,0:0:0:0:
320,192,55636,1,2,0:0:0:0:
448,192,55747,1,0,0:0:0:0:
64,192,55858,1,2,0:0:0:0:
192,192,55858,1,0,0:0:0:0:
320,192,55969,1,0,0:0:0:0:
64,192,56081,1,2,0:0:0:0:
448,192,56081,1,0,0:0:0:0:
192,192,56192,1,0,0:0:0:0:
448,192,56303,1,8,0:0:0:0:
320,192,56303,1,2,0:0:0:0:
64,192,56303,128,0,56525:0:0:0:0:
448,192,56525,1,2,0:0:0:0:
192,192,56525,128,0,56747:0:0:0:0:
320,192,56636,1,2,0:0:0:0:
64,192,56747,1,2,0:0:0:0:
448,192,56747,128,0,56969:0:0:0:0:
192,192,56969,1,0,0:0:0:0:
64,192,56969,1,2,0:0:0:0:
320,192,57081,1,0,0:0:0:0:
192,192,57192,1,2,0:0:0:0:
448,192,57192,1,0,0:0:0:0:
64,192,57303,1,0,0:0:0:0:
320,192,57414,1,2,0:0:0:0:
448,192,57414,1,0,0:0:0:0:
192,192,57525,1,0,0:0:0:0:
320,192,57636,1,2,0:0:0:0:
64,192,57636,1,0,0:0:0:0:
448,192,57747,1,0,0:0:0:0:
192,192,57858,1,2,0:0:0:0:
64,192,57858,1,0,0:0:0:0:
320,192,57969,1,0,0:0:0:0:
64,192,58081,1,2,0:0:0:0:
448,192,58081,1,0,0:0:0:0:
192,192,58192,1,0,0:0:0:0:
448,192,58303,1,0,0:0:0:0:
320,192,58303,1,2,0:0:0:0:
64,192,58414,1,0,0:0:0:0:
192,192,58525,1,2,0:0:0:0:
320,192,58525,1,0,0:0:0:0:
448,192,58636,1,0,0:0:0:0:
64,192,58747,1,0,0:0:0:0:
192,192,58747,1,2,0:0:0:0:
320,192,58858,1,0,0:0:0:0:
64,192,58969,1,0,0:0:0:0:
192,192,58969,1,2,0:0:0:0:
448,192,58969,128,8,59192:0:0:0:0:
64,192,59192,128,2,59414:0:0:0:0:
320,192,59192,1,8,0:0:0:0:
192,192,59303,1,2,0:0:0:0:
320,192,59414,128,8,59636:0:0:0:0:
448,192,59414,1,2,0:0:0:0:
448,192,59636,1,8,0:0:0:0:
64,192,59636,1,2,0:0:0:0:
192,192,59747,1,0,0:0:0:0:
320,192,59858,1,0,0:0:0:0:
448,192,59858,1,2,0:0:0:0:
64,192,59969,1,0,0:0:0:0:
192,192,60081,1,2,0:0:0:0:
448,192,60081,1,0,0:0:0:0:
320,192,60192,1,0,0:0:0:0:
192,192,60303,1,2,0:0:0:0:
64,192,60303,1,0,0:0:0:0:
448,192,60414,1,0,0:0:0:0:
64,192,60525,1,0,0:0:0:0:
320,192,60525,1,2,0:0:0:0:
192,192,60636,1,0,0:0:0:0:
320,192,60747,1,0,0:0:0:0:
448,192,60747,1,2,0:0:0:0:
192,192,60858,1,0,0:0:0:0:
64,192,60969,1,2,0:0:0:0:
448,192,60969,1,0,0:0:0:0:
320,192,61081,1,0,0:0:0:0:
192,192,61192,1,0,0:0:0:0:
64,192,61192,1,2,0:0:0:0:
320,192,61303,1,0,0:0:0:0:
64,192,61414,1,0,0:0:0:0:
448,192,61414,1,2,0:0:0:0:
192,192,61525,1,0,0:0:0:0:
64,192,61636,128,0,61858:0:0:0:0:
320,192,61636,1,8,0:0:0:0:
448,192,61636,1,2,0:0:0:0:
320,192,61858,128,8,62081:0:0:0:0:
192,192,61858,1,2,0:0:0:0:
448,192,61969,1,2,0:0:0:0:
192,192,62081,128,2,62303:0:0:0:0:
64,192,62081,1,8,0:0:0:0:
64,192,62303,1,8,0:0:0:0:
448,192,62303,1,2,0:0:0:0:
320,192,62414,1,0,0:0:0:0:
64,192,62525,1,0,0:0:0:0:
448,192,62525,1,2,0:0:0:0:
192,192,62636,1,0,0:0:0:0:
320,192,62747,1,2,0:0:0:0:
64,192,62747,1,0,0:0:0:0:
448,192,62858,1,0,0:0:0:0:
64,192,62969,1,0,0:0:0:0:
192,192,62969,1,2,0:0:0:0:
320,192,63081,1,0,0:0:0:0:
448,192,63192,1,0,0:0:0:0:
192,192,63192,1,2,0:0:0:0:
64,192,63303,1,0,0:0:0:0:
320,192,63414,1,2,0:0:0:0:
448,192,63414,1,0,0:0:0:0:
192,192,63525,1,0,0:0:0:0:
64,192,63636,1,0,0:0:0:0:
448,192,63636,1,2,0:0:0:0:
320,192,63747,1,0,0:0:0:0:
64,192,63858,1,2,0:0:0:0:
192,192,63858,1,0,0:0:0:0:
448,192,63969,1,0,0:0:0:0:
320,192,64081,1,0,0:0:0:0:
64,192,64081,1,2,0:0:0:0:
192,192,64192,1,0,0:0:0:0:
320,192,64303,1,8,0:0:0:0:
64,192,64303,1,2,0:0:0:0:
448,192,64303,128,0,64525:0:0:0:0:
192,192,64525,1,2,0:0:0:0:
64,192,64525,128,8,64747:0:0:0:0:
448,192,64636,1,8,0:0:0:0:
320,192,64636,1,2,0:0:0:0:
192,192,64747,128,8,64969:0:0:0:0:
448,192,64747,1,2,0:0:0:0:
448,192,64969,1,4,0:0:0:0:
320,192,64969,1,8,0:0:0:0:
64,192,64969,1,2,0:0:0:0:
192,192,65081,1,2,0:0:0:0:
448,192,65192,128,2,65303:0:0:0:0:
320,192,65192,128,8,65303:0:0:0:0:
64,192,65303,1,0,0:0:0:0:
192,192,65303,1,2,0:0:0:0:
320,192,65414,128,8,65525:0:0:0:0:
448,192,65414,128,2,65525:0:0:0:0:
64,192,65525,1,2,0:0:0:0:
448,192,65636,1,4,0:0:0:0:
192,192,65636,1,2,0:0:0:0:
320,192,65636,1,0,0:0:0:0:
64,192,65747,1,2,0:0:0:0:
192,192,65858,128,8,65969:0:0:0:0:
320,192,65858,128,2,65969:0:0:0:0:
64,192,65969,1,0,0:0:0:0:
448,192,65969,1,2,0:0:0:0:
192,192,66081,128,8,66192:0:0:0:0:
320,192,66081,128,2,66192:0:0:0:0:
448,192,66192,1,2,0:0:0:0:
320,192,66303,1,4,0:0:0:0:
192,192,66303,1,0,0:0:0:0:
64,192,66303,1,2,0:0:0:0:
448,192,66414,1,2,0:0:0:0:
192,192,66525,128,2,66636:0:0:0:0:
64,192,66525,128,8,66636:0:0:0:0:
448,192,66636,1,0,0:0:0:0:
320,192,66636,1,2,0:0:0:0:
64,192,66747,128,8,66858:0:0:0:0:
192,192,66747,128,2,66858:0:0:0:0:
320,192,66858,1,2,0:0:0:0:
448,192,66969,1,2,0:0:0:0:
192,192,66969,1,4,0:0:0:0:
64,192,66969,1,0,0:0:0:0:
320,192,67081,1,2,0:0:0:0:
448,192,67192,128,2,67303:0:0:0:0:
64,192,67192,128,8,67303:0:0:0:0:
320,192,67303,1,0,0:0:0:0:
192,192,67303,1,2,0:0:0:0:
448,192,67414,128,2,67525:0:0:0:0:
64,192,67414,128,8,67525:0:0:0:0:
192,192,67525,1,2,0:0:0:0:
448,192,67636,1,4,0:0:0:0:
320,192,67636,1,2,0:0:0:0:
64,192,67636,1,0,0:0:0:0:
192,192,67747,1,2,0:0:0:0:
64,192,67858,128,8,67969:0:0:0:0:
320,192,67858,128,2,67969:0:0:0:0:
448,192,67969,1,2,0:0:0:0:
192,192,67969,1,0,0:0:0:0:
64,192,68081,128,8,68192:0:0:0:0:
320,192,68081,128,2,68192:0:0:0:0:
192,192,68192,1,2,0:0:0:0:
320,192,68303,1,2,0:0:0:0:
64,192,68303,1,0,0:0:0:0:
448,192,68303,1,4,0:0:0:0:
192,192,68414,1,2,0:0:0:0:
320,192,68525,128,2,68636:0:0:0:0:
448,192,68525,128,8,68636:0:0:0:0:
192,192,68636,1,2,0:0:0:0:
64,192,68636,1,0,0:0:0:0:
320,192,68747,128,2,68858:0:0:0:0:
448,192,68747,128,8,68858:0:0:0:0:
64,192,68858,1,2,0:0:0:0:
448,192,68969,1,0,0:0:0:0:
192,192,68969,1,2,0:0:0:0:
320,192,68969,1,4,0:0:0:0:
64,192,69081,1,2,0:0:0:0:
192,192,69192,128,2,69303:0:0:0:0:
448,192,69192,128,8,69303:0:0:0:0:
320,192,69303,1,2,0:0:0:0:
64,192,69303,1,0,0:0:0:0:
192,192,69414,128,2,69525:0:0:0:0:
448,192,69414,128,8,69525:0:0:0:0:
320,192,69525,1,2,0:0:0:0:
192,192,69636,1,2,0:0:0:0:
448,192,69636,1,0,0:0:0:0:
64,192,69636,1,4,0:0:0:0:
320,192,69747,1,2,0:0:0:0:
64,192,69858,128,2,69969:0:0:0:0:
192,192,69858,128,8,69969:0:0:0:0:
320,192,69969,1,2,0:0:0:0:
448,192,69969,1,0,0:0:0:0:
64,192,70081,128,2,70192:0:0:0:0:
192,192,70081,128,8,70192:0:0:0:0:
320,192,70192,1,2,0:0:0:0:
448,192,70303,1,0,0:0:0:0:
64,192,70303,1,4,0:0:0:0:
192,192,70303,1,2,0:0:0:0:
320,192,70414,1,2,0:0:0:0:
192,192,70469,1,2,0:0:0:0:
448,192,70525,1,2,0:0:0:0:
64,192,70525,1,8,0:0:0:0:
192,192,70636,1,0,0:0:0:0:
320,192,70636,1,2,0:0:0:0:
64,192,70747,1,10,0:0:0:0:
192,192,70803,1,2,0:0:0:0:
320,192,70858,1,2,0:0:0:0:
448,192,70858,1,0,0:0:0:0:
448,192,70969,1,0,0:0:0:0:
192,192,70969,1,2,0:0:0:0:
64,192,70969,1,0,0:0:0:0:
320,192,71081,1,2,0:0:0:0:
192,192,71136,1,2,0:0:0:0:
448,192,71192,1,2,0:0:0:0:
64,192,71192,1,8,0:0:0:0:
320,192,71303,1,0,0:0:0:0:
192,192,71303,1,2,0:0:0:0:
64,192,71414,1,10,0:0:0:0:
192,192,71469,1,2,0:0:0:0:
448,192,71525,1,0,0:0:0:0:
320,192,71525,1,2,0:0:0:0:
64,192,71636,1,0,0:0:0:0:
448,192,71636,1,0,0:0:0:0:
192,192,71636,1,2,0:0:0:0:
320,192,71747,1,2,0:0:0:0:
192,192,71803,1,2,0:0:0:0:
64,192,71858,1,8,0:0:0:0:
448,192,71858,1,2,0:0:0:0:
192,192,71969,1,0,0:0:0:0:
320,192,71969,1,2,0:0:0:0:
448,192,72081,1,10,0:0:0:0:
320,192,72136,1,2,0:0:0:0:
64,192,72192,1,2,0:0:0:0:
192,192,72192,1,0,0:0:0:0:
64,192,72303,1,2,0:0:0:0:
448,192,72303,1,0,0:0:0:0:
320,192,72303,1,0,0:0:0:0:
192,192,72414,1,2,0:0:0:0:
320,192,72469,1,2,0:0:0:0:
448,192,72525,1,8,0:0:0:0:
64,192,72525,1,2,0:0:0:0:
320,192,72636,1,0,0:0:0:0:
192,192,72636,1,2,0:0:0:0:
448,192,72747,1,8,0:0:0:0:
320,192,72803,1,2,0:0:0:0:
192,192,72858,1,2,0:0:0:0:
64,192,72858,1,0,0:0:0:0:
448,192,72969,1,0,0:0:0:0:
320,192,72969,1,2,0:0:0:0:
64,192,72969,1,8,0:0:0:0:
448,192,73081,1,8,0:0:0:0:
192,192,73081,1,2,0:0:0:0:
192,192,73192,1,2,0:0:0:0:
64,192,73192,1,8,0:0:0:0:
320,192,73303,1,2,0:0:0:0:
64,192,73303,1,8,0:0:0:0:
448,192,73414,1,2,0:0:0:0:
320,192,73414,1,8,0:0:0:0:
448,192,73525,1,2,0:0:0:0:
192,192,73525,1,8,0:0:0:0:
192,192,73636,1,2,0:0:0:0:
64,192,73636,1,0,0:0:0:0:
320,192,73747,1,2,0:0:0:0:
64,192,73747,1,8,0:0:0:0:
448,192,73858,1,8,0:0:0:0:
320,192,73858,1,2,0:0:0:0:
64,192,73969,1,8,0:0:0:0:
192,192,73969,1,2,0:0:0:0:
320,192,74053,1,2,0:0:0:0:
448,192,74053,1,8,0:0:0:0:
192,192,74136,1,2,0:0:0:0:
64,192,74136,1,8,0:0:0:0:
320,192,74219,1,2,0:0:0:0:
448,192,74219,1,8,0:0:0:0:
64,192,74303,128,8,74414:0:0:0:0:
192,192,74414,128,0,74525:0:0:0:0:
448,192,74525,128,0,74636:0:0:0:0:
320,192,74636,128,0,74747:0:0:0:0:
64,192,74747,128,0,74858:0:0:0:0:
192,192,74858,128,0,74969:0:0:0:0:
448,192,74969,1,8,0:0:0:0:
320,192,74969,1,2,0:0:0:0:
64,192,74969,1,0,0:0:0:0:
320,192,75136,1,2,0:0:0:0:
192,192,75136,1,0,0:0:0:0:
64,192,75303,128,8,75553:0:0:0:0:
192,192,75303,128,2,75553:0:0:0:0:
448,192,75303,128,0,75553:0:0:0:0:
448,192,75636,128,8,76219:0:0:0:0:
192,192,75636,1,2,0:0:0:0:
64,192,75636,1,4,0:0:0:0:
320,192,75719,1,2,0:0:0:0:
192,192,75803,1,2,0:0:0:0:
64,192,75886,1,2,0:0:0:0:
320,192,75969,128,2,76219:0:0:0:0:
192,192,75969,1,0,0:0:0:0:
192,192,76136,1,2,0:0:0:0:
64,192,76303,128,8,76886:0:0:0:0:
448,192,76303,1,0,0:0:0:0:
320,192,76303,1,2,0:0:0:0:
192,192,76386,1,2,0:0:0:0:
320,192,76469,1,2,0:0:0:0:
448,192,76553,1,2,0:0:0:0:
192,192,76636,128,0,76886:0:0:0:0:
320,192,76636,1,2,0:0:0:0:
64,192,76969,128,8,77219:0:0:0:0:
448,192,76969,1,2,0:0:0:0:
192,192,76969,1,0,0:0:0:0:
320,192,77053,1,2,0:0:0:0:
448,192,77136,1,2,0:0:0:0:
192,192,77219,1,2,0:0:0:0:
320,192,77303,1,2,0:0:0:0:
448,192,77303,128,0,77553:0:0:0:0:
192,192,77386,1,2,0:0:0:0:
64,192,77469,1,8,0:0:0:0:
320,192,77469,1,2,0:0:0:0:
192,192,77553,1,2,0:0:0:0:
64,192,77636,128,8,78219:0:0:0:0:
448,192,77636,1,0,0:0:0:0:
320,192,77636,1,2,0:0:0:0:
192,192,77719,1,2,0:0:0:0:
448,192,77803,1,2,0:0:0:0:
320,192,77886,1,2,0:0:0:0:
192,192,77969,1,2,0:0:0:0:
448,192,77969,128,0,78219:0:0:0:0:
320,192,78053,1,2,0:0:0:0:
192,192,78136,1,2,0:0:0:0:
320,192,78219,1,2,0:0:0:0:
64,192,78303,128,8,78553:0:0:0:0:
448,192,78303,1,0,0:0:0:0:
192,192,78303,1,2,0:0:0:0:
320,192,78386,1,2,0:0:0:0:
448,192,78469,1,2,0:0:0:0:
192,192,78553,1,2,0:0:0:0:
448,192,78636,128,8,78886:0:0:0:0:
320,192,78636,1,2,0:0:0:0:
64,192,78719,1,2,0:0:0:0:
192,192,78803,1,2,0:0:0:0:
320,192,78886,1,2,0:0:0:0:
64,192,78969,128,8,79192:0:0:0:0:
448,192,78969,1,0,0:0:0:0:
192,192,78969,1,2,0:0:0:0:
320,192,79081,1,2,0:0:0:0:
192,192,79192,1,2,0:0:0:0:
448,192,79303,128,8,79525:0:0:0:0:
320,192,79303,1,2,0:0:0:0:
64,192,79414,1,2,0:0:0:0:
192,192,79525,1,2,0:0:0:0:
64,192,79636,128,8,79886:0:0:0:0:
320,192,79636,1,2,0:0:0:0:
448,192,79719,1,2,0:0:0:0:
192,192,79803,1,2,0:0:0:0:
320,192,79886,1,2,0:0:0:0:
448,192,79969,128,8,80219:0:0:0:0:
192,192,79969,1,2,0:0:0:0:
64,192,80136,1,0,0:0:0:0:
192,192,80136,1,2,0:0:0:0:
64,192,80303,1,8,0:0:0:0:
320,192,80303,1,2,0:0:0:0:
448,192,80303,1,0,0:0:0:0:
192,192,80386,1,2,0:0:0:0:
320,192,80469,1,2,0:0:0:0:
448,192,80469,1,8,0:0:0:0:
192,192,80553,1,2,0:0:0:0:
448,192,80636,1,8,0:0:0:0:
64,192,80636,1,2,0:0:0:0:
320,192,80692,1,0,0:0:0:0:
192,192,80747,1,0,0:0:0:0:
64,192,80803,1,0,0:0:0:0:
320,192,80858,1,0,0:0:0:0:
192,192,80914,1,0,0:0:0:0:
448,192,80969,128,6,81553:0:0:0:0:
64,192,80969,1,8,0:0:0:0:
192,192,81303,1,2,0:0:0:0:
64,192,81303,128,0,81553:0:0:0:0:
192,192,81469,1,2,0:0:0:0:
320,192,81469,1,0,0:0:0:0:
448,192,81636,1,8,0:0:0:0:
320,192,81636,1,2,0:0:0:0:
64,192,81636,128,0,82219:0:0:0:0:
192,192,81719,1,2,0:0:0:0:
448,192,81803,1,2,0:0:0:0:
320,192,81886,1,2,0:0:0:0:
192,192,81969,1,2,0:0:0:0:
448,192,81969,128,0,82219:0:0:0:0:
320,192,82053,1,0,0:0:0:0:
192,192,82136,1,0,0:0:0:0:
320,192,82219,1,0,0:0:0:0:
448,192,82303,128,8,82525:0:0:0:0:
64,192,82303,1,2,0:0:0:0:
192,192,82414,1,2,0:0:0:0:
320,192,82525,1,2,0:0:0:0:
64,192,82636,128,2,82858:0:0:0:0:
448,192,82636,1,8,0:0:0:0:
192,192,82747,1,2,0:0:0:0:
320,192,82858,1,2,0:0:0:0:
448,192,82969,128,0,83192:0:0:0:0:
64,192,82969,1,8,0:0:0:0:
192,192,82969,1,2,0:0:0:0:
320,192,83081,1,2,0:0:0:0:
192,192,83192,1,2,0:0:0:0:
64,192,83303,128,2,83525:0:0:0:0:
448,192,83303,1,0,0:0:0:0:
320,192,83414,1,2,0:0:0:0:
192,192,83525,1,2,0:0:0:0:
320,192,83636,128,2,83886:0:0:0:0:
448,192,83636,1,8,0:0:0:0:
64,192,83719,1,2,0:0:0:0:
192,192,83803,1,2,0:0:0:0:
448,192,83886,1,2,0:0:0:0:
64,192,83969,128,8,84219:0:0:0:0:
320,192,83969,1,2,0:0:0:0:
192,192,84053,1,2,0:0:0:0:
448,192,84136,1,0,0:0:0:0:
320,192,84136,1,2,0:0:0:0:
192,192,84219,1,2,0:0:0:0:
448,192,84303,128,8,84553:0:0:0:0:
64,192,84303,1,0,0:0:0:0:
320,192,84303,1,2,0:0:0:0:
192,192,84386,1,2,0:0:0:0:
320,192,84469,1,2,0:0:0:0:
64,192,84553,1,2,0:0:0:0:
192,192,84636,128,8,84886:0:0:0:0:
320,192,84636,1,2,0:0:0:0:
448,192,84719,1,2,0:0:0:0:
64,192,84803,1,2,0:0:0:0:
320,192,84886,1,2,0:0:0:0:
64,192,84969,1,8,0:0:0:0:
448,192,84969,128,0,85219:0:0:0:0:
192,192,84969,1,2,0:0:0:0:
320,192,85053,1,2,0:0:0:0:
64,192,85136,1,2,0:0:0:0:
192,192,85219,1,2,0:0:0:0:
320,192,85303,128,8,85553:0:0:0:0:
448,192,85303,1,2,0:0:0:0:
64,192,85636,128,8,86219:0:0:0:0:
320,192,85636,1,4,0:0:0:0:
448,192,85636,1,2,0:0:0:0:
448,192,85886,128,0,86219:0:0:0:0:
320,192,85886,128,0,86219:0:0:0:0:
448,192,86303,128,8,86886:0:0:0:0:
320,192,86303,1,2,0:0:0:0:
64,192,86303,1,4,0:0:0:0:
64,192,86553,128,0,86886:0:0:0:0:
192,192,86553,128,0,86886:0:0:0:0:
192,192,86969,1,2,0:0:0:0:
448,192,86969,1,8,0:0:0:0:
64,192,86969,128,4,87553:0:0:0:0:
448,192,87219,128,0,87553:0:0:0:0:
320,192,87219,128,0,87553:0:0:0:0:
320,192,87636,1,4,0:0:0:0:
64,192,87636,1,8,0:0:0:0:
448,192,87636,128,2,88219:0:0:0:0:
320,192,87886,128,0,88219:0:0:0:0:
64,192,87886,128,0,88219:0:0:0:0:
320,192,88303,1,4,0:0:0:0:
448,192,88303,1,8,0:0:0:0:
64,192,88303,128,2,88886:0:0:0:0:
448,192,88553,128,0,88886:0:0:0:0:
192,192,88553,128,0,88886:0:0:0:0:
320,192,88969,1,8,0:0:0:0:
448,192,88969,128,2,89053:0:0:0:0:
64,192,88969,128,4,89053:0:0:0:0:
192,192,89136,128,8,89219:0:0:0:0:
320,192,89136,128,2,89219:0:0:0:0:
320,192,89303,1,8,0:0:0:0:
448,192,89303,128,2,89386:0:0:0:0:
64,192,89303,128,4,89386:0:0:0:0:
320,192,89469,128,8,89553:0:0:0:0:
192,192,89469,128,2,89553:0:0:0:0:
448,192,89636,1,4,0:0:0:0:
192,192,89636,128,2,89719:0:0:0:0:
64,192,89636,128,8,89719:0:0:0:0:
448,192,89803,128,2,89886:0:0:0:0:
320,192,89803,128,8,89886:0:0:0:0:
448,192,89969,1,4,0:0:0:0:
64,192,89969,128,8,90053:0:0:0:0:
192,192,89969,128,2,90053:0:0:0:0:
448,192,90136,128,8,90219:0:0:0:0:
320,192,90136,128,2,90219:0:0:0:0:
64,192,90303,1,8,0:0:0:0:
192,192,90303,1,2,0:0:0:0:
320,192,90386,1,2,0:0:0:0:
448,192,90386,1,8,0:0:0:0:
192,192,90469,1,2,0:0:0:0:
64,192,90469,1,8,0:0:0:0:
448,192,90553,1,8,0:0:0:0:
320,192,90553,1,2,0:0:0:0:
192,192,90636,1,2,0:0:0:0:
64,192,90636,1,8,0:0:0:0:
320,192,90719,1,2,0:0:0:0:
448,192,90719,1,8,0:0:0:0:
192,192,90803,1,2,0:0:0:0:
64,192,90803,1,8,0:0:0:0:
320,192,90886,1,2,0:0:0:0:
448,192,90886,1,8,0:0:0:0:
64,192,90969,1,2,0:0:0:0:
192,192,91025,1,2,0:0:0:0:
320,192,91081,1,2,0:0:0:0:
64,192,91136,1,2,0:0:0:0:
448,192,91136,1,8,0:0:0:0:
192,192,91192,1,2,0:0:0:0:
320,192,91247,1,2,0:0:0:0:
64,192,91303,1,8,0:0:0:0:
192,192,91303,1,2,0:0:0:0:
448,192,91358,1,2,0:0:0:0:
320,192,91414,1,2,0:0:0:0:
192,192,91469,1,2,0:0:0:0:
448,192,91525,1,2,0:0:0:0:
320,192,91581,1,2,0:0:0:0:
448,192,91636,1,4,0:0:0:0:
192,192,91636,1,2,0:0:0:0:
64,192,91636,1,8,0:0:0:0:
320,192,91803,1,2,0:0:0:0:
192,192,91886,1,2,0:0:0:0:
64,192,91969,1,0,0:0:0:0:
448,192,91969,1,8,0:0:0:0:
320,192,91969,1,2,0:0:0:0:
192,192,92136,1,2,0:0:0:0:
64,192,92219,1,2,0:0:0:0:
448,192,92303,1,8,0:0:0:0:
320,192,92303,1,2,0:0:0:0:
192,192,92469,1,2,0:0:0:0:
448,192,92469,1,0,0:0:0:0:
320,192,92553,1,2,0:0:0:0:
448,192,92636,1,8,0:0:0:0:
64,192,92636,1,0,0:0:0:0:
192,192,92636,1,2,0:0:0:0:
320,192,92719,1,2,0:0:0:0:
192,192,92803,1,2,0:0:0:0:
64,192,92886,1,2,0:0:0:0:
320,192,92969,1,2,0:0:0:0:
448,192,92969,1,8,0:0:0:0:
192,192,93053,1,2,0:0:0:0:
320,192,93136,1,2,0:0:0:0:
192,192,93303,1,2,0:0:0:0:
64,192,93303,1,0,0:0:0:0:
448,192,93303,1,8,0:0:0:0:
320,192,93386,1,2,0:0:0:0:
192,192,93469,1,2,0:0:0:0:
64,192,93636,1,2,0:0:0:0:
448,192,93636,1,8,0:0:0:0:
320,192,93719,1,2,0:0:0:0:
64,192,93803,1,0,0:0:0:0:
192,192,93803,1,2,0:0:0:0:
320,192,93886,1,2,0:0:0:0:
64,192,93969,1,8,0:0:0:0:
192,192,93969,1,2,0:0:0:0:
448,192,93969,1,0,0:0:0:0:
320,192,94053,1,2,0:0:0:0:
64,192,94136,1,2,0:0:0:0:
192,192,94219,1,2,0:0:0:0:
320,192,94303,1,2,0:0:0:0:
448,192,94303,1,8,0:0:0:0:
64,192,94414,1,2,0:0:0:0:
320,192,94525,1,2,0:0:0:0:
192,192,94636,1,2,0:0:0:0:
64,192,94636,1,8,0:0:0:0:
448,192,94636,1,0,0:0:0:0:
320,192,94747,1,2,0:0:0:0:
64,192,94858,1,2,0:0:0:0:
320,192,94969,1,8,0:0:0:0:
448,192,94969,1,0,0:0:0:0:
192,192,94969,1,2,0:0:0:0:
64,192,95081,1,2,0:0:0:0:
448,192,95192,1,8,0:0:0:0:
320,192,95192,1,2,0:0:0:0:
64,192,95303,1,0,0:0:0:0:
192,192,95303,1,2,0:0:0:0:
448,192,95303,1,8,0:0:0:0:
320,192,95386,1,2,0:0:0:0:
192,192,95469,1,2,0:0:0:0:
64,192,95553,1,2,0:0:0:0:
448,192,95636,1,8,0:0:0:0:
320,192,95636,1,2,0:0:0:0:
192,192,95747,1,2,0:0:0:0:
320,192,95858,1,2,0:0:0:0:
192,192,95969,1,2,0:0:0:0:
64,192,95969,1,0,0:0:0:0:
448,192,95969,1,8,0:0:0:0:
320,192,96081,1,2,0:0:0:0:
192,192,96136,1,2,0:0:0:0:
64,192,96136,1,8,0:0:0:0:
448,192,96192,1,2,0:0:0:0:
320,192,96303,1,8,0:0:0:0:
448,192,96469,1,8,0:0:0:0:
64,192,96469,128,4,96636:0:0:0:0:
192,192,96469,128,2,96636:0:0:0:0:
448,192,96636,1,2,0:0:0:0:
320,192,96692,1,2,0:0:0:0:
192,192,96747,1,2,0:0:0:0:
448,192,96803,1,8,0:0:0:0:
64,192,96803,1,2,0:0:0:0:
320,192,96858,1,2,0:0:0:0:
192,192,96914,1,2,0:0:0:0:
320,192,96969,1,8,0:0:0:0:
64,192,96969,1,2,0:0:0:0:
448,192,96969,1,4,0:0:0:0:
192,192,97136,1,2,0:0:0:0:
320,192,97219,1,2,0:0:0:0:
448,192,97303,1,8,0:0:0:0:
192,192,97303,1,2,0:0:0:0:
64,192,97469,1,2,0:0:0:0:
192,192,97525,1,2,0:0:0:0:
320,192,97581,1,2,0:0:0:0:
448,192,97636,1,2,0:0:0:0:
64,192,97636,1,0,0:0:0:0:
192,192,97636,1,8,0:0:0:0:
320,192,97803,1,2,0:0:0:0:
448,192,97886,1,2,0:0:0:0:
192,192,97969,1,2,0:0:0:0:
64,192,97969,1,8,0:0:0:0:
320,192,98053,1,2,0:0:0:0:
448,192,98136,1,2,0:0:0:0:
192,192,98219,1,2,0:0:0:0:
320,192,98303,1,2,0:0:0:0:
448,192,98303,1,8,0:0:0:0:
64,192,98303,1,0,0:0:0:0:
192,192,98386,1,2,0:0:0:0:
64,192,98469,1,2,0:0:0:0:
192,192,98636,1,8,0:0:0:0:
448,192,98636,1,2,0:0:0:0:
320,192,98719,1,2,0:0:0:0:
192,192,98803,1,2,0:0:0:0:
192,192,98969,1,2,0:0:0:0:
64,192,98969,1,0,0:0:0:0:
448,192,98969,1,8,0:0:0:0:
320,192,99053,1,2,0:0:0:0:
64,192,99136,1,2,0:0:0:0:
192,192,99219,1,2,0:0:0:0:
448,192,99303,1,8,0:0:0:0:
320,192,99303,1,2,0:0:0:0:
64,192,99414,1,2,0:0:0:0:
192,192,99525,1,2,0:0:0:0:
320,192,99636,1,8,0:0:0:0:
448,192,99636,1,0,0:0:0:0:
64,192,99636,1,2,0:0:0:0:
192,192,99747,1,2,0:0:0:0:
320,192,99858,1,2,0:0:0:0:
448,192,99858,1,8,0:0:0:0:
192,192,99969,1,2,0:0:0:0:
64,192,99969,1,8,0:0:0:0:
448,192,99969,1,0,0:0:0:0:
192,192,100081,1,2,0:0:0:0:
64,192,100081,1,8,0:0:0:0:
448,192,100192,1,8,0:0:0:0:
320,192,100192,1,2,0:0:0:0:
320,192,100303,1,2,0:0:0:0:
448,192,100303,1,8,0:0:0:0:
64,192,100303,1,0,0:0:0:0:
192,192,100414,1,2,0:0:0:0:
448,192,100525,5,2,0:0:0:0:
320,192,100525,1,8,0:0:0:0:
64,192,100636,1,8,0:0:0:0:
192,192,100636,1,2,0:0:0:0:
448,192,100636,1,0,0:0:0:0:
320,192,100747,1,2,0:0:0:0:
192,192,100858,1,2,0:0:0:0:
64,192,100969,1,0,0:0:0:0:
320,192,100969,1,2,0:0:0:0:
448,192,100969,1,8,0:0:0:0:
192,192,101053,1,2,0:0:0:0:
448,192,101136,1,0,0:0:0:0:
320,192,101136,1,2,0:0:0:0:
64,192,101219,1,2,0:0:0:0:
448,192,101303,1,8,0:0:0:0:
320,192,101303,1,2,0:0:0:0:
192,192,101303,1,0,0:0:0:0:
64,192,101386,1,2,0:0:0:0:
448,192,101469,1,0,0:0:0:0:
320,192,101469,1,2,0:0:0:0:
192,192,101553,1,2,0:0:0:0:
64,192,101636,5,12,0:0:0:0:
448,192,101636,1,2,0:0:0:0:
320,192,101692,1,2,0:0:0:0:
192,192,101747,1,2,0:0:0:0:
448,192,101803,1,2,0:0:0:0:
64,192,101803,1,0,0:0:0:0:
320,192,101858,1,2,0:0:0:0:
192,192,101914,1,2,0:0:0:0:
64,192,101969,1,0,0:0:0:0:
448,192,101969,1,2,0:0:0:0:
320,192,102025,1,2,0:0:0:0:
192,192,102081,1,2,0:0:0:0:
64,192,102136,1,2,0:0:0:0:
320,192,102192,1,2,0:0:0:0:
192,192,102247,1,2,0:0:0:0:
64,192,102303,1,2,0:0:0:0:
448,192,102303,1,12,0:0:0:0:
320,192,102358,1,2,0:0:0:0:
192,192,102414,1,2,0:0:0:0:
448,192,102469,1,2,0:0:0:0:
320,192,102525,1,2,0:0:0:0:
192,192,102581,1,2,0:0:0:0:
64,192,102636,1,0,0:0:0:0:
448,192,102636,1,2,0:0:0:0:
320,192,102719,1,2,0:0:0:0:
192,192,102719,1,0,0:0:0:0:
448,192,102803,1,2,0:0:0:0:
64,192,102803,1,0,0:0:0:0:
192,192,102886,1,0,0:0:0:0:
320,192,102886,1,2,0:0:0:0:
448,192,102969,128,0,103219:0:0:0:0:
64,192,102969,128,8,103219:0:0:0:0:
320,192,102969,128,2,103219:0:0:0:0:
448,192,103303,1,12,0:0:0:0:
64,192,103303,1,2,0:0:0:0:
320,192,103358,1,2,0:0:0:0:
192,192,103414,1,2,0:0:0:0:
64,192,103469,1,2,0:0:0:0:
448,192,103525,1,2,0:0:0:0:
320,192,103581,1,2,0:0:0:0:
64,192,103636,1,0,0:0:0:0:
192,192,103636,1,2,0:0:0:0:
448,192,103719,1,2,0:0:0:0:
320,192,103803,1,0,0:0:0:0:
192,192,103803,1,2,0:0:0:0:
64,192,103886,1,2,0:0:0:0:
320,192,103969,1,0,0:0:0:0:
448,192,103969,1,2,0:0:0:0:
320,192,104081,1,2,0:0:0:0:
192,192,104081,1,0,0:0:0:0:
64,192,104192,1,0,0:0:0:0:
192,192,104192,1,2,0:0:0:0:
448,192,104303,1,8,0:0:0:0:
320,192,104303,128,2,104386:0:0:0:0:
64,192,104303,128,0,104386:0:0:0:0:
64,192,104469,1,8,0:0:0:0:
192,192,104469,128,0,104553:0:0:0:0:
448,192,104469,128,2,104553:0:0:0:0:
320,192,104636,1,2,0:0:0:0:
192,192,104636,1,0,0:0:0:0:
448,192,104803,1,0,0:0:0:0:
64,192,104803,128,2,104886:0:0:0:0:
320,192,104803,128,0,104886:0:0:0:0:
64,192,104969,1,12,0:0:0:0:
192,192,104969,1,2,0:0:0:0:
448,192,105025,1,2,0:0:0:0:
320,192,105081,1,2,0:0:0:0:
192,192,105136,1,2,0:0:0:0:
448,192,105192,1,2,0:0:0:0:
320,192,105247,1,2,0:0:0:0:
64,192,105303,1,0,0:0:0:0:
192,192,105303,1,2,0:0:0:0:
448,192,105386,1,0,0:0:0:0:
320,192,105386,1,2,0:0:0:0:
192,192,105469,1,2,0:0:0:0:
64,192,105469,1,0,0:0:0:0:
448,192,105553,1,0,0:0:0:0:
320,192,105553,1,2,0:0:0:0:
64,192,105636,128,0,105886:0:0:0:0:
192,192,105636,128,2,105886:0:0:0:0:
448,192,105636,128,8,105886:0:0:0:0:
64,192,105969,1,2,0:0:0:0:
448,192,105969,1,8,0:0:0:0:
320,192,106025,1,2,0:0:0:0:
192,192,106081,1,2,0:0:0:0:
64,192,106136,1,2,0:0:0:0:
448,192,106192,1,2,0:0:0:0:
320,192,106247,1,2,0:0:0:0:
64,192,106303,1,8,0:0:0:0:
192,192,106303,1,2,0:0:0:0:
448,192,106303,1,0,0:0:0:0:
192,192,106414,1,2,0:0:0:0:
64,192,106414,1,0,0:0:0:0:
320,192,106525,1,0,0:0:0:0:
448,192,106525,1,2,0:0:0:0:
320,192,106636,1,8,0:0:0:0:
448,192,106636,1,2,0:0:0:0:
64,192,106636,1,0,0:0:0:0:
192,192,106747,1,2,0:0:0:0:
64,192,106747,1,0,0:0:0:0:
448,192,106858,1,0,0:0:0:0:
320,192,106858,1,2,0:0:0:0:
448,192,106969,1,8,0:0:0:0:
320,192,106969,1,2,0:0:0:0:
64,192,106969,1,0,0:0:0:0:
64,192,107136,1,12,0:0:0:0:
448,192,107136,1,2,0:0:0:0:
192,192,107192,1,2,0:0:0:0:
320,192,107247,1,2,0:0:0:0:
448,192,107303,1,2,0:0:0:0:
192,192,107358,1,2,0:0:0:0:
320,192,107414,1,2,0:0:0:0:
448,192,107469,1,2,0:0:0:0:
64,192,107469,1,0,0:0:0:0:
192,192,107525,1,2,0:0:0:0:
320,192,107581,1,2,0:0:0:0:
448,192,107636,1,12,0:0:0:0:
64,192,107636,1,2,0:0:0:0:
192,192,107692,1,2,0:0:0:0:
320,192,107747,1,2,0:0:0:0:
64,192,107803,1,2,0:0:0:0:
192,192,107858,1,2,0:0:0:0:
320,192,107914,1,2,0:0:0:0:
64,192,107969,1,2,0:0:0:0:
448,192,107969,1,0,0:0:0:0:
320,192,108053,1,0,0:0:0:0:
192,192,108053,1,2,0:0:0:0:
448,192,108136,1,0,0:0:0:0:
64,192,108136,1,2,0:0:0:0:
192,192,108219,1,2,0:0:0:0:
320,192,108219,1,0,0:0:0:0:
64,192,108303,128,0,108553:0:0:0:0:
320,192,108303,128,2,108553:0:0:0:0:
448,192,108303,128,8,108553:0:0:0:0:
64,192,108636,1,2,0:0:0:0:
448,192,108636,1,12,0:0:0:0:
192,192,108692,1,2,0:0:0:0:
320,192,108747,1,2,0:0:0:0:
448,192,108803,1,2,0:0:0:0:
64,192,108858,1,2,0:0:0:0:
192,192,108914,1,2,0:0:0:0:
448,192,108969,1,2,0:0:0:0:
320,192,108969,1,0,0:0:0:0:
64,192,109053,1,2,0:0:0:0:
192,192,109136,1,2,0:0:0:0:
320,192,109136,1,2,0:0:0:0:
448,192,109219,1,2,0:0:0:0:
64,192,109303,1,0,0:0:0:0:
192,192,109303,1,2,0:0:0:0:
320,192,109414,1,2,0:0:0:0:
192,192,109414,1,0,0:0:0:0:
320,192,109525,1,2,0:0:0:0:
448,192,109525,1,0,0:0:0:0:
448,192,109636,1,8,0:0:0:0:
64,192,109636,128,0,109719:0:0:0:0:
192,192,109636,128,2,109719:0:0:0:0:
64,192,109803,1,0,0:0:0:0:
448,192,109803,128,0,109886:0:0:0:0:
320,192,109803,128,8,109886:0:0:0:0:
192,192,109969,1,2,0:0:0:0:
320,192,109969,1,0,0:0:0:0:
448,192,110136,1,2,0:0:0:0:
192,192,110136,128,8,110219:0:0:0:0:
64,192,110136,128,0,110219:0:0:0:0:
448,192,110303,1,12,0:0:0:0:
64,192,110303,1,2,0:0:0:0:
320,192,110358,1,2,0:0:0:0:
192,192,110414,1,2,0:0:0:0:
64,192,110469,1,2,0:0:0:0:
448,192,110525,1,2,0:0:0:0:
320,192,110581,1,2,0:0:0:0:
192,192,110636,1,2,0:0:0:0:
64,192,110636,1,0,0:0:0:0:
320,192,110719,1,2,0:0:0:0:
448,192,110719,1,0,0:0:0:0:
192,192,110803,1,2,0:0:0:0:
64,192,110803,1,0,0:0:0:0:
448,192,110886,1,0,0:0:0:0:
320,192,110886,1,2,0:0:0:0:
64,192,110969,128,0,111219:0:0:0:0:
448,192,110969,128,2,111219:0:0:0:0:
192,192,110969,128,8,111219:0:0:0:0:
64,192,111303,1,12,0:0:0:0:
448,192,111303,1,2,0:0:0:0:
320,192,111358,1,2,0:0:0:0:
192,192,111414,1,2,0:0:0:0:
448,192,111469,1,2,0:0:0:0:
320,192,111525,1,2,0:0:0:0:
192,192,111581,1,2,0:0:0:0:
64,192,111636,1,0,0:0:0:0:
448,192,111636,1,2,0:0:0:0:
320,192,111747,1,2,0:0:0:0:
192,192,111747,1,0,0:0:0:0:
448,192,111858,1,2,0:0:0:0:
64,192,111858,1,0,0:0:0:0:
64,192,111969,1,0,0:0:0:0:
192,192,111969,1,2,0:0:0:0:
320,192,112053,1,2,0:0:0:0:
448,192,112053,1,0,0:0:0:0:
192,192,112136,1,2,0:0:0:0:
64,192,112136,1,0,0:0:0:0:
448,192,112219,1,0,0:0:0:0:
320,192,112219,1,2,0:0:0:0:
448,192,112303,1,2,0:0:0:0:
64,192,112303,128,8,112386:0:0:0:0:
192,192,112303,128,4,112386:0:0:0:0:
192,192,112469,128,2,112553:0:0:0:0:
320,192,112469,128,12,112553:0:0:0:0:
448,192,112636,128,8,112969:0:0:0:0:
320,192,112636,128,4,112969:0:0:0:0:
64,192,112636,1,2,0:0:0:0:
64,192,112969,1,2,0:0:0:0:
192,192,113636,1,0,0:0:0:0:
448,192,114303,1,0,0:0:0:0:
320,192,114636,1,0,0:0:0:0:
192,192,114969,1,0,0:0:0:0:
64,192,115636,128,0,115969:0:0:0:0:
320,192,115969,128,0,116303:0:0:0:0:
448,192,116303,128,0,116636:0:0:0:0:
192,192,116636,128,0,116969:0:0:0:0:
448,192,116969,128,0,117303:0:0:0:0:
320,192,117303,128,0,117636:0:0:0:0:
64,192,117636,128,0,118303:0:0:0:0:
