osu file format v14

[General]
AudioFilename: ZADAMGA.mp3
AudioLeadIn: 0
PreviewTime: 10969
Countdown: 0
SampleSet: Soft
StackLeniency: 0.7
Mode: 3
LetterboxInBreaks: 0
SpecialStyle: 0
WidescreenStoryboard: 0

[Editor]
Bookmarks: 22303,32969,43646,54303
DistanceSpacing: 1.1
BeatDivisor: 4
GridSize: 4
TimelineZoom: 2.2

[Metadata]
Title:ZADAMGA
TitleUnicode:ZADAMGA
Artist:onoken
ArtistUnicode:onoken
Creator:Ichigaki
Version:Hyper
Source:pop'n music ラピストリア
Tags:Lapistoria bemani konami electronic Kennosuke Ono
BeatmapID:2438004
BeatmapSetID:564622

[Difficulty]
HPDrainRate:8
CircleSize:4
OverallDifficulty:8
ApproachRate:5
SliderMultiplier:1.4
SliderTickRate:1

[Events]
//Background and Video events
0,0,"wallhaven-153759.jpg",0,0
//Break Periods
//Storyboard Layer 0 (Background)
//Storyboard Layer 1 (Fail)
//Storyboard Layer 2 (Pass)
//Storyboard Layer 3 (Foreground)
//Storyboard Layer 4 (Overlay)
//Storyboard Sound Samples

[TimingPoints]
970,333.333333333333,4,2,1,80,1,0
54303,-100,4,2,0,40,0,0
75636,-100,4,2,1,80,0,1
85636,-100,4,2,1,80,0,0
91636,-100,4,2,1,80,0,1
102303,-100,4,2,1,80,0,0

[HitObjects]
320,192,969,5,0,0:0:0:0:
192,192,1303,1,0,0:0:0:0:
448,192,1636,1,0,0:0:0:0:
64,192,1969,1,0,0:0:0:0:
320,192,2303,1,0,0:0:0:0:
192,192,2636,1,0,0:0:0:0:
192,192,2969,1,0,0:0:0:0:
64,192,3303,1,0,0:0:0:0:
320,192,3636,1,0,0:0:0:0:
192,192,3969,1,0,0:0:0:0:
448,192,4303,1,0,0:0:0:0:
64,192,4636,1,0,0:0:0:0:
320,192,4969,1,0,0:0:0:0:
192,192,5303,1,0,0:0:0:0:
192,192,5636,1,0,0:0:0:0:
64,192,5969,1,0,0:0:0:0:
320,192,6303,1,0,0:0:0:0:
192,192,6636,1,0,0:0:0:0:
448,192,6969,1,0,0:0:0:0:
320,192,7303,1,0,0:0:0:0:
192,192,7636,1,0,0:0:0:0:
320,192,7969,1,0,0:0:0:0:
320,192,8303,1,0,0:0:0:0:
64,192,8636,1,0,0:0:0:0:
320,192,8969,1,0,0:0:0:0:
192,192,9303,1,0,0:0:0:0:
448,192,9636,1,0,0:0:0:0:
320,192,9969,1,0,0:0:0:0:
192,192,10303,1,0,0:0:0:0:
64,192,10636,1,0,0:0:0:0:
448,192,10969,128,0,11636:0:0:0:0:
320,192,11303,128,0,11636:0:0:0:0:
192,192,11636,1,4,0:0:0:0:
64,192,11636,1,8,0:0:0:0:
64,192,11803,1,2,0:0:0:0:
448,192,11969,1,2,0:0:0:0:
320,192,11969,1,0,0:0:0:0:
192,192,12053,1,2,0:0:0:0:
64,192,12136,1,2,0:0:0:0:
320,192,12136,1,0,0:0:0:0:
320,192,12219,1,2,0:0:0:0:
192,192,12303,128,8,12636:0:0:0:0:
448,192,12303,128,2,12636:0:0:0:0:
320,192,12636,1,4,0:0:0:0:
64,192,12636,1,2,0:0:0:0:
192,192,12803,1,0,0:0:0:0:
320,192,12969,1,2,0:0:0:0:
448,192,12969,1,0,0:0:0:0:
64,192,13053,1,2,0:0:0:0:
192,192,13136,1,2,0:0:0:0:
320,192,13219,1,2,0:0:0:0:
448,192,13303,1,2,0:0:0:0:
192,192,13414,1,2,0:0:0:0:
64,192,13414,1,0,0:0:0:0:
448,192,13525,1,2,0:0:0:0:
320,192,13525,1,0,0:0:0:0:
192,192,13636,1,2,0:0:0:0:
64,192,13636,1,0,0:0:0:0:
320,192,13803,128,2,13969:0:0:0:0:
64,192,13803,128,8,13969:0:0:0:0:
192,192,13969,1,2,0:0:0:0:
448,192,13969,1,0,0:0:0:0:
320,192,14136,128,8,14303:0:0:0:0:
64,192,14136,128,2,14303:0:0:0:0:
448,192,14303,1,4,0:0:0:0:
192,192,14303,1,2,0:0:0:0:
320,192,14469,1,2,0:0:0:0:
64,192,14636,1,2,0:0:0:0:
192,192,14636,1,0,0:0:0:0:
320,192,14719,1,2,0:0:0:0:
448,192,14803,1,2,0:0:0:0:
64,192,14803,1,0,0:0:0:0:
64,192,14886,1,2,0:0:0:0:
448,192,14969,128,2,15303:0:0:0:0:
320,192,14969,128,8,15303:0:0:0:0:
64,192,15303,1,4,0:0:0:0:
192,192,15303,1,2,0:0:0:0:
320,192,15469,1,2,0:0:0:0:
64,192,15636,1,2,0:0:0:0:
448,192,15636,1,8,0:0:0:0:
192,192,15747,1,2,0:0:0:0:
320,192,15858,1,2,0:0:0:0:
448,192,15969,1,2,0:0:0:0:
64,192,15969,1,8,0:0:0:0:
192,192,16081,1,2,0:0:0:0:
320,192,16192,1,2,0:0:0:0:
192,192,16303,1,2,0:0:0:0:
64,192,16303,1,8,0:0:0:0:
320,192,16469,1,0,0:0:0:0:
448,192,16469,128,2,16969:0:0:0:0:
64,192,16469,1,0,0:0:0:0:
320,192,16803,128,0,16969:0:0:0:0:
192,192,16969,1,8,0:0:0:0:
64,192,16969,1,2,0:0:0:0:
320,192,17136,1,2,0:0:0:0:
64,192,17303,1,2,0:0:0:0:
448,192,17303,1,0,0:0:0:0:
320,192,17386,1,2,0:0:0:0:
64,192,17469,1,2,0:0:0:0:
192,192,17469,1,0,0:0:0:0:
192,192,17553,1,2,0:0:0:0:
448,192,17636,128,8,17969:0:0:0:0:
320,192,17636,128,2,17969:0:0:0:0:
192,192,17969,1,4,0:0:0:0:
64,192,17969,1,2,0:0:0:0:
320,192,18136,1,2,0:0:0:0:
64,192,18303,1,2,0:0:0:0:
448,192,18303,1,0,0:0:0:0:
192,192,18386,1,2,0:0:0:0:
320,192,18469,1,2,0:0:0:0:
448,192,18553,1,2,0:0:0:0:
64,192,18636,1,2,0:0:0:0:
320,192,18747,1,2,0:0:0:0:
448,192,18747,1,0,0:0:0:0:
64,192,18858,1,2,0:0:0:0:
192,192,18858,1,0,0:0:0:0:
320,192,18969,1,2,0:0:0:0:
448,192,18969,1,0,0:0:0:0:
448,192,19136,128,2,19303:0:0:0:0:
192,192,19136,128,8,19303:0:0:0:0:
64,192,19303,1,2,0:0:0:0:
320,192,19303,1,0,0:0:0:0:
448,192,19469,128,2,19636:0:0:0:0:
192,192,19469,128,8,19636:0:0:0:0:
64,192,19636,1,4,0:0:0:0:
320,192,19636,1,2,0:0:0:0:
192,192,19803,1,2,0:0:0:0:
64,192,19969,1,2,0:0:0:0:
448,192,19969,1,0,0:0:0:0:
192,192,20053,1,2,0:0:0:0:
320,192,20136,1,2,0:0:0:0:
448,192,20136,1,0,0:0:0:0:
320,192,20219,1,2,0:0:0:0:
64,192,20303,128,8,20636:0:0:0:0:
192,192,20303,128,2,20636:0:0:0:0:
448,192,20636,1,8,0:0:0:0:
320,192,20636,1,2,0:0:0:0:
320,192,20803,1,2,0:0:0:0:
64,192,20969,1,2,0:0:0:0:
448,192,20969,1,0,0:0:0:0:
192,192,21081,1,2,0:0:0:0:
320,192,21192,1,2,0:0:0:0:
64,192,21303,1,2,0:0:0:0:
192,192,21386,1,2,0:0:0:0:
448,192,21469,1,2,0:0:0:0:
320,192,21469,1,0,0:0:0:0:
64,192,21553,1,2,0:0:0:0:
192,192,21553,1,0,0:0:0:0:
320,192,21636,1,2,0:0:0:0:
448,192,21636,128,8,21803:0:0:0:0:
64,192,21803,1,2,0:0:0:0:
192,192,21803,128,8,21969:0:0:0:0:
448,192,21969,128,8,22303:0:0:0:0:
320,192,21969,1,2,0:0:0:0:
64,192,21969,1,0,0:0:0:0:
64,192,22303,1,8,0:0:0:0:
192,192,22303,1,2,0:0:0:0:
320,192,22469,1,0,0:0:0:0:
64,192,22636,1,0,0:0:0:0:
320,192,22803,1,0,0:0:0:0:
192,192,22969,1,0,0:0:0:0:
448,192,23136,1,0,0:0:0:0:
64,192,23303,1,0,0:0:0:0:
448,192,23469,1,0,0:0:0:0:
192,192,23636,1,0,0:0:0:0:
64,192,23803,1,0,0:0:0:0:
448,192,23969,1,0,0:0:0:0:
192,192,24081,1,0,0:0:0:0:
320,192,24303,1,0,0:0:0:0:
64,192,24414,1,0,0:0:0:0:
448,192,24525,1,0,0:0:0:0:
192,192,24636,1,0,0:0:0:0:
448,192,24747,1,0,0:0:0:0:
64,192,24858,1,0,0:0:0:0:
448,192,24969,128,2,25303:0:0:0:0:
192,192,24969,1,0,0:0:0:0:
320,192,25303,1,2,0:0:0:0:
64,192,25303,128,8,25636:0:0:0:0:
320,192,25636,128,0,25969:0:0:0:0:
192,192,25636,1,0,0:0:0:0:
448,192,25803,1,0,0:0:0:0:
192,192,25969,128,2,26303:0:0:0:0:
64,192,25969,1,8,0:0:0:0:
320,192,26303,128,2,26636:0:0:0:0:
448,192,26303,1,0,0:0:0:0:
448,192,26636,1,2,0:0:0:0:
64,192,26636,128,8,26969:0:0:0:0:
192,192,26969,128,2,27303:0:0:0:0:
448,192,26969,1,8,0:0:0:0:
320,192,27136,1,2,0:0:0:0:
448,192,27303,128,2,27636:0:0:0:0:
64,192,27303,1,8,0:0:0:0:
64,192,27636,1,2,0:0:0:0:
192,192,27636,1,12,0:0:0:0:
448,192,27803,1,0,0:0:0:0:
192,192,27969,1,0,0:0:0:0:
320,192,28136,1,0,0:0:0:0:
64,192,28303,1,0,0:0:0:0:
448,192,28469,1,0,0:0:0:0:
320,192,28636,1,0,0:0:0:0:
192,192,28803,1,4,0:0:0:0:
64,192,28803,1,2,0:0:0:0:
320,192,28969,1,0,0:0:0:0:
64,192,29136,1,0,0:0:0:0:
448,192,29303,1,0,0:0:0:0:
192,192,29414,1,0,0:0:0:0:
320,192,29636,1,0,0:0:0:0:
64,192,29747,1,0,0:0:0:0:
192,192,29858,1,0,0:0:0:0:
448,192,29969,1,0,0:0:0:0:
192,192,30081,1,0,0:0:0:0:
320,192,30192,1,0,0:0:0:0:
448,192,30303,128,2,30636:0:0:0:0:
64,192,30303,1,0,0:0:0:0:
192,192,30636,128,2,30969:0:0:0:0:
64,192,30969,128,2,31303:0:0:0:0:
448,192,30969,1,8,0:0:0:0:
192,192,31303,128,8,31636:0:0:0:0:
448,192,31303,1,2,0:0:0:0:
320,192,31469,1,2,0:0:0:0:
320,192,31636,128,8,31969:0:0:0:0:
448,192,31636,1,2,0:0:0:0:
64,192,31969,128,8,32303:0:0:0:0:
192,192,31969,1,2,0:0:0:0:
448,192,32303,128,2,32636:0:0:0:0:
192,192,32303,1,8,0:0:0:0:
320,192,32469,1,2,0:0:0:0:
192,192,32636,128,2,32969:0:0:0:0:
64,192,32636,1,8,0:0:0:0:
320,192,32969,1,8,0:0:0:0:
448,192,32969,128,4,33636:0:0:0:0:
192,192,33303,1,2,0:0:0:0:
64,192,33303,1,8,0:0:0:0:
64,192,33636,128,2,34303:0:0:0:0:
192,192,33636,1,0,0:0:0:0:
320,192,33803,1,2,0:0:0:0:
320,192,33969,1,8,0:0:0:0:
448,192,33969,1,2,0:0:0:0:
320,192,34303,1,2,0:0:0:0:
448,192,34303,128,0,34636:0:0:0:0:
192,192,34469,1,2,0:0:0:0:
320,192,34636,128,2,34969:0:0:0:0:
64,192,34636,1,8,0:0:0:0:
192,192,34969,1,2,0:0:0:0:
64,192,34969,128,0,35636:0:0:0:0:
448,192,35136,1,2,0:0:0:0:
320,192,35303,1,8,0:0:0:0:
448,192,35303,1,2,0:0:0:0:
320,192,35636,1,2,0:0:0:0:
448,192,35636,128,0,35969:0:0:0:0:
192,192,35803,1,2,0:0:0:0:
64,192,35969,1,8,0:0:0:0:
320,192,35969,128,2,36303:0:0:0:0:
64,192,36303,128,2,36636:0:0:0:0:
192,192,36303,1,0,0:0:0:0:
448,192,36469,1,2,0:0:0:0:
448,192,36636,1,8,0:0:0:0:
192,192,36636,128,2,36969:0:0:0:0:
448,192,36969,128,2,37303:0:0:0:0:
320,192,36969,1,0,0:0:0:0:
64,192,37136,1,2,0:0:0:0:
64,192,37303,1,8,0:0:0:0:
192,192,37303,1,2,0:0:0:0:
192,192,37469,1,2,0:0:0:0:
320,192,37469,1,0,0:0:0:0:
320,192,37636,1,2,0:0:0:0:
448,192,37636,1,0,0:0:0:0:
192,192,37719,1,2,0:0:0:0:
448,192,37803,1,0,0:0:0:0:
64,192,37803,1,0,0:0:0:0:
320,192,37886,1,2,0:0:0:0:
64,192,37969,1,2,0:0:0:0:
192,192,37969,1,8,0:0:0:0:
448,192,38053,1,2,0:0:0:0:
320,192,38136,1,2,0:0:0:0:
192,192,38219,1,2,0:0:0:0:
64,192,38303,1,2,0:0:0:0:
448,192,38303,1,4,0:0:0:0:
320,192,38386,1,2,0:0:0:0:
192,192,38469,1,2,0:0:0:0:
64,192,38553,1,2,0:0:0:0:
320,192,38636,1,8,0:0:0:0:
448,192,38636,1,2,0:0:0:0:
192,192,38719,1,2,0:0:0:0:
320,192,38803,1,2,0:0:0:0:
448,192,38886,1,2,0:0:0:0:
64,192,38969,1,2,0:0:0:0:
192,192,39053,1,2,0:0:0:0:
320,192,39136,1,8,0:0:0:0:
448,192,39136,1,2,0:0:0:0:
64,192,39219,1,2,0:0:0:0:
192,192,39303,1,2,0:0:0:0:
320,192,39303,1,8,0:0:0:0:
448,192,39386,1,2,0:0:0:0:
64,192,39469,1,2,0:0:0:0:
192,192,39553,1,2,0:0:0:0:
448,192,39636,1,2,0:0:0:0:
320,192,39636,1,0,0:0:0:0:
64,192,39747,1,2,0:0:0:0:
192,192,39858,1,2,0:0:0:0:
448,192,39969,1,8,0:0:0:0:
64,192,39969,1,2,0:0:0:0:
320,192,40081,1,0,0:0:0:0:
192,192,40192,1,0,0:0:0:0:
320,192,40303,1,2,0:0:0:0:
448,192,40303,1,0,0:0:0:0:
64,192,40414,1,2,0:0:0:0:
448,192,40469,1,0,0:0:0:0:
192,192,40525,1,2,0:0:0:0:
64,192,40636,1,2,0:0:0:0:
320,192,40636,1,0,0:0:0:0:
192,192,40747,1,2,0:0:0:0:
448,192,40858,1,2,0:0:0:0:
192,192,40969,1,2,0:0:0:0:
64,192,40969,1,8,0:0:0:0:
320,192,41081,1,2,0:0:0:0:
64,192,41192,1,2,0:0:0:0:
448,192,41303,1,2,0:0:0:0:
192,192,41303,1,8,0:0:0:0:
320,192,41414,1,2,0:0:0:0:
64,192,41525,1,2,0:0:0:0:
448,192,41636,1,8,0:0:0:0:
320,192,41636,1,2,0:0:0:0:
192,192,41747,1,2,0:0:0:0:
320,192,41858,1,2,0:0:0:0:
448,192,41858,1,8,0:0:0:0:
192,192,41969,1,8,0:0:0:0:
64,192,41969,1,2,0:0:0:0:
448,192,42081,1,2,0:0:0:0:
64,192,42192,1,2,0:0:0:0:
192,192,42192,1,8,0:0:0:0:
448,192,42303,1,2,0:0:0:0:
320,192,42303,1,8,0:0:0:0:
192,192,42414,1,2,0:0:0:0:
64,192,42414,1,8,0:0:0:0:
448,192,42525,1,8,0:0:0:0:
320,192,42525,1,2,0:0:0:0:
64,192,42636,1,2,0:0:0:0:
192,192,42636,1,8,0:0:0:0:
320,192,42747,1,2,0:0:0:0:
64,192,42858,1,2,0:0:0:0:
192,192,42858,1,8,0:0:0:0:
448,192,42969,128,8,43636:0:0:0:0:
320,192,42969,1,0,0:0:0:0:
192,192,43303,128,0,43636:0:0:0:0:
64,192,43636,1,4,0:0:0:0:
320,192,43636,1,2,0:0:0:0:
192,192,43803,1,2,0:0:0:0:
320,192,43969,1,2,0:0:0:0:
64,192,43969,128,0,44136:0:0:0:0:
192,192,44053,1,2,0:0:0:0:
320,192,44136,1,2,0:0:0:0:
448,192,44136,128,0,44303:0:0:0:0:
192,192,44219,1,2,0:0:0:0:
320,192,44303,128,2,44636:0:0:0:0:
64,192,44303,128,8,44636:0:0:0:0:
192,192,44636,1,8,0:0:0:0:
448,192,44636,1,2,0:0:0:0:
320,192,44803,1,2,0:0:0:0:
448,192,44969,1,2,0:0:0:0:
64,192,44969,1,0,0:0:0:0:
320,192,45053,1,2,0:0:0:0:
192,192,45136,1,2,0:0:0:0:
64,192,45219,1,2,0:0:0:0:
448,192,45303,1,2,0:0:0:0:
320,192,45303,1,0,0:0:0:0:
192,192,45414,1,2,0:0:0:0:
64,192,45414,1,0,0:0:0:0:
448,192,45525,1,2,0:0:0:0:
320,192,45525,1,0,0:0:0:0:
192,192,45636,1,2,0:0:0:0:
64,192,45636,1,8,0:0:0:0:
320,192,45803,128,8,45969:0:0:0:0:
64,192,45803,128,2,45969:0:0:0:0:
192,192,45969,1,2,0:0:0:0:
448,192,45969,1,0,0:0:0:0:
320,192,46136,128,2,46303:0:0:0:0:
64,192,46136,128,8,46303:0:0:0:0:
448,192,46303,1,8,0:0:0:0:
192,192,46303,1,2,0:0:0:0:
320,192,46469,1,2,0:0:0:0:
64,192,46636,128,2,46803:0:0:0:0:
192,192,46636,1,0,0:0:0:0:
320,192,46719,1,2,0:0:0:0:
192,192,46803,1,2,0:0:0:0:
448,192,46803,128,0,46969:0:0:0:0:
320,192,46886,1,2,0:0:0:0:
192,192,46969,128,2,47303:0:0:0:0:
64,192,46969,128,0,47303:0:0:0:0:
320,192,47303,1,4,0:0:0:0:
448,192,47303,1,2,0:0:0:0:
192,192,47469,1,2,0:0:0:0:
64,192,47636,1,8,0:0:0:0:
448,192,47636,1,2,0:0:0:0:
320,192,47747,1,2,0:0:0:0:
192,192,47858,1,2,0:0:0:0:
64,192,47969,1,2,0:0:0:0:
320,192,47969,1,8,0:0:0:0:
448,192,48081,1,2,0:0:0:0:
192,192,48192,1,2,0:0:0:0:
320,192,48303,1,8,0:0:0:0:
64,192,48303,1,2,0:0:0:0:
192,192,48469,128,0,48969:0:0:0:0:
448,192,48469,1,0,0:0:0:0:
64,192,48469,1,0,0:0:0:0:
320,192,48803,128,0,48969:0:0:0:0:
448,192,48969,1,2,0:0:0:0:
64,192,48969,1,0,0:0:0:0:
320,192,49136,1,2,0:0:0:0:
192,192,49303,1,2,0:0:0:0:
448,192,49303,128,0,49469:0:0:0:0:
320,192,49386,1,2,0:0:0:0:
192,192,49469,1,2,0:0:0:0:
64,192,49469,128,0,49636:0:0:0:0:
320,192,49553,1,2,0:0:0:0:
448,192,49636,128,2,49969:0:0:0:0:
192,192,49636,128,8,49969:0:0:0:0:
320,192,49969,1,4,0:0:0:0:
64,192,49969,1,8,0:0:0:0:
448,192,50136,1,2,0:0:0:0:
64,192,50303,1,2,0:0:0:0:
192,192,50303,1,0,0:0:0:0:
320,192,50386,1,2,0:0:0:0:
448,192,50469,1,2,0:0:0:0:
320,192,50553,1,2,0:0:0:0:
64,192,50636,1,2,0:0:0:0:
192,192,50636,1,0,0:0:0:0:
320,192,50747,1,2,0:0:0:0:
448,192,50747,1,0,0:0:0:0:
64,192,50858,1,2,0:0:0:0:
192,192,50858,1,0,0:0:0:0:
320,192,50969,1,2,0:0:0:0:
448,192,50969,1,8,0:0:0:0:
448,192,51136,128,8,51303:0:0:0:0:
192,192,51136,128,2,51303:0:0:0:0:
64,192,51303,1,2,0:0:0:0:
320,192,51303,1,0,0:0:0:0:
448,192,51469,128,8,51636:0:0:0:0:
192,192,51469,128,2,51636:0:0:0:0:
64,192,51636,1,2,0:0:0:0:
320,192,51636,1,8,0:0:0:0:
192,192,51803,1,2,0:0:0:0:
320,192,51969,1,2,0:0:0:0:
448,192,51969,128,0,52136:0:0:0:0:
192,192,52053,1,2,0:0:0:0:
320,192,52136,1,2,0:0:0:0:
64,192,52136,128,0,52303:0:0:0:0:
192,192,52219,1,2,0:0:0:0:
448,192,52303,128,2,52636:0:0:0:0:
320,192,52303,128,8,52636:0:0:0:0:
64,192,52636,1,8,0:0:0:0:
192,192,52636,1,2,0:0:0:0:
320,192,52803,1,2,0:0:0:0:
64,192,52969,1,2,0:0:0:0:
448,192,52969,1,0,0:0:0:0:
192,192,53081,1,2,0:0:0:0:
320,192,53192,1,2,0:0:0:0:
448,192,53303,1,2,0:0:0:0:
64,192,53303,1,0,0:0:0:0:
192,192,53386,1,2,0:0:0:0:
448,192,53469,1,2,0:0:0:0:
320,192,53469,1,0,0:0:0:0:
64,192,53553,1,2,0:0:0:0:
192,192,53553,1,0,0:0:0:0:
320,192,53636,1,2,0:0:0:0:
448,192,53636,128,8,53803:0:0:0:0:
64,192,53803,1,8,0:0:0:0:
192,192,53803,128,2,53969:0:0:0:0:
448,192,53969,128,4,54303:0:0:0:0:
320,192,53969,1,2,0:0:0:0:
64,192,53969,1,8,0:0:0:0:
64,192,54303,1,2,0:0:0:0:
320,192,54303,128,4,54525:0:0:0:0:
192,192,54525,128,2,54747:0:0:0:0:
64,192,54747,128,2,54969:0:0:0:0:
448,192,54969,128,2,55192:0:0:0:0:
320,192,54969,1,0,0:0:0:0:
192,192,55192,128,2,55414:0:0:0:0:
320,192,55414,128,2,55636:0:0:0:0:
64,192,55636,128,2,55858:0:0:0:0:
448,192,55636,1,0,0:0:0:0:
320,192,55858,128,2,56081:0:0:0:0:
192,192,56081,128,2,56303:0:0:0:0:
320,192,56303,128,8,56525:0:0:0:0:
448,192,56303,128,2,56525:0:0:0:0:
192,192,56525,128,2,56747:0:0:0:0:
64,192,56525,128,8,56747:0:0:0:0:
448,192,56747,128,2,56969:0:0:0:0:
320,192,56747,128,8,56969:0:0:0:0:
192,192,56969,128,2,57192:0:0:0:0:
64,192,56969,1,8,0:0:0:0:
320,192,57192,128,2,57414:0:0:0:0:
64,192,57414,128,2,57636:0:0:0:0:
448,192,57636,128,2,57858:0:0:0:0:
192,192,57636,1,0,0:0:0:0:
320,192,57858,128,2,58081:0:0:0:0:
64,192,58081,128,2,58303:0:0:0:0:
448,192,58303,128,2,58525:0:0:0:0:
192,192,58303,1,0,0:0:0:0:
320,192,58525,128,2,58747:0:0:0:0:
192,192,58747,128,2,58969:0:0:0:0:
64,192,58969,128,2,59192:0:0:0:0:
320,192,58969,128,8,59192:0:0:0:0:
192,192,59192,128,2,59414:0:0:0:0:
448,192,59192,128,8,59414:0:0:0:0:
320,192,59414,128,8,59636:0:0:0:0:
64,192,59414,128,2,59636:0:0:0:0:
448,192,59636,128,8,59858:0:0:0:0:
192,192,59636,1,2,0:0:0:0:
64,192,59858,128,2,60081:0:0:0:0:
320,192,60081,128,2,60303:0:0:0:0:
64,192,60303,128,2,60525:0:0:0:0:
192,192,60303,1,0,0:0:0:0:
448,192,60525,128,2,60747:0:0:0:0:
192,192,60747,128,2,60969:0:0:0:0:
448,192,60969,128,2,61192:0:0:0:0:
320,192,60969,1,0,0:0:0:0:
64,192,61192,128,2,61414:0:0:0:0:
192,192,61414,128,2,61636:0:0:0:0:
448,192,61636,128,8,61858:0:0:0:0:
320,192,61636,128,2,61858:0:0:0:0:
64,192,61858,128,8,62081:0:0:0:0:
192,192,61858,128,2,62081:0:0:0:0:
448,192,62081,128,2,62303:0:0:0:0:
320,192,62081,128,8,62303:0:0:0:0:
64,192,62303,128,8,62525:0:0:0:0:
192,192,62303,1,2,0:0:0:0:
320,192,62525,128,2,62747:0:0:0:0:
64,192,62747,128,2,62969:0:0:0:0:
448,192,62969,128,2,63192:0:0:0:0:
320,192,62969,1,0,0:0:0:0:
192,192,63192,128,2,63414:0:0:0:0:
448,192,63414,128,2,63636:0:0:0:0:
64,192,63636,128,2,63858:0:0:0:0:
192,192,63636,1,0,0:0:0:0:
320,192,63858,128,2,64081:0:0:0:0:
64,192,64081,128,2,64303:0:0:0:0:
448,192,64303,128,8,64525:0:0:0:0:
320,192,64303,128,2,64525:0:0:0:0:
192,192,64525,128,2,64747:0:0:0:0:
64,192,64525,128,8,64747:0:0:0:0:
320,192,64747,128,8,64969:0:0:0:0:
448,192,64747,128,2,64969:0:0:0:0:
192,192,64969,1,4,0:0:0:0:
64,192,64969,1,8,0:0:0:0:
320,192,65192,1,2,0:0:0:0:
64,192,65192,1,8,0:0:0:0:
192,192,65303,1,2,0:0:0:0:
320,192,65414,128,8,65636:0:0:0:0:
448,192,65414,128,2,65636:0:0:0:0:
192,192,65636,1,4,0:0:0:0:
64,192,65636,1,2,0:0:0:0:
320,192,65858,1,8,0:0:0:0:
64,192,65858,1,2,0:0:0:0:
192,192,65969,1,2,0:0:0:0:
448,192,66081,128,8,66303:0:0:0:0:
320,192,66081,128,2,66303:0:0:0:0:
64,192,66303,1,4,0:0:0:0:
192,192,66303,1,2,0:0:0:0:
192,192,66525,1,2,0:0:0:0:
448,192,66525,1,8,0:0:0:0:
320,192,66636,1,2,0:0:0:0:
192,192,66747,128,8,66969:0:0:0:0:
64,192,66747,128,2,66969:0:0:0:0:
448,192,66969,1,2,0:0:0:0:
320,192,66969,1,4,0:0:0:0:
192,192,67192,1,2,0:0:0:0:
448,192,67192,1,8,0:0:0:0:
320,192,67303,1,2,0:0:0:0:
192,192,67414,128,2,67636:0:0:0:0:
64,192,67414,128,8,67636:0:0:0:0:
448,192,67636,1,4,0:0:0:0:
320,192,67636,1,2,0:0:0:0:
192,192,67858,1,8,0:0:0:0:
320,192,67858,1,2,0:0:0:0:
448,192,67969,1,2,0:0:0:0:
64,192,68081,128,8,68303:0:0:0:0:
320,192,68081,128,2,68303:0:0:0:0:
448,192,68303,1,2,0:0:0:0:
192,192,68303,1,4,0:0:0:0:
192,192,68525,1,2,0:0:0:0:
320,192,68525,1,8,0:0:0:0:
64,192,68636,1,2,0:0:0:0:
192,192,68747,128,2,68969:0:0:0:0:
448,192,68747,128,8,68969:0:0:0:0:
320,192,68969,1,2,0:0:0:0:
64,192,68969,1,4,0:0:0:0:
320,192,69192,1,2,0:0:0:0:
448,192,69192,1,8,0:0:0:0:
192,192,69303,1,2,0:0:0:0:
320,192,69414,128,2,69636:0:0:0:0:
64,192,69414,128,8,69636:0:0:0:0:
448,192,69636,1,2,0:0:0:0:
192,192,69636,1,4,0:0:0:0:
64,192,69858,1,2,0:0:0:0:
192,192,69858,1,8,0:0:0:0:
320,192,69969,1,2,0:0:0:0:
192,192,70081,128,2,70303:0:0:0:0:
448,192,70081,128,8,70303:0:0:0:0:
320,192,70303,1,8,0:0:0:0:
64,192,70303,1,2,0:0:0:0:
192,192,70414,1,2,0:0:0:0:
320,192,70525,1,2,0:0:0:0:
64,192,70636,1,2,0:0:0:0:
448,192,70636,1,8,0:0:0:0:
192,192,70747,1,2,0:0:0:0:
320,192,70858,1,2,0:0:0:0:
64,192,70969,1,2,0:0:0:0:
448,192,70969,1,8,0:0:0:0:
192,192,71081,1,2,0:0:0:0:
320,192,71192,1,2,0:0:0:0:
64,192,71303,1,2,0:0:0:0:
192,192,71303,1,8,0:0:0:0:
448,192,71414,1,2,0:0:0:0:
320,192,71525,1,2,0:0:0:0:
448,192,71636,1,2,0:0:0:0:
192,192,71636,1,8,0:0:0:0:
64,192,71747,1,2,0:0:0:0:
320,192,71858,1,2,0:0:0:0:
192,192,71969,1,2,0:0:0:0:
64,192,71969,1,8,0:0:0:0:
448,192,72081,1,2,0:0:0:0:
320,192,72192,1,2,0:0:0:0:
64,192,72303,1,2,0:0:0:0:
448,192,72303,1,8,0:0:0:0:
192,192,72414,1,2,0:0:0:0:
320,192,72525,1,2,0:0:0:0:
192,192,72636,1,2,0:0:0:0:
448,192,72636,1,8,0:0:0:0:
64,192,72747,1,2,0:0:0:0:
320,192,72858,1,2,0:0:0:0:
64,192,72969,1,2,0:0:0:0:
192,192,72969,1,8,0:0:0:0:
320,192,73081,1,2,0:0:0:0:
448,192,73192,1,2,0:0:0:0:
64,192,73303,1,2,0:0:0:0:
192,192,73303,1,8,0:0:0:0:
320,192,73414,1,2,0:0:0:0:
192,192,73525,1,2,0:0:0:0:
448,192,73636,1,8,0:0:0:0:
64,192,73636,1,2,0:0:0:0:
320,192,73747,1,2,0:0:0:0:
192,192,73858,1,2,0:0:0:0:
448,192,73969,1,8,0:0:0:0:
64,192,73969,1,2,0:0:0:0:
320,192,74053,1,2,0:0:0:0:
192,192,74136,1,2,0:0:0:0:
64,192,74219,1,0,0:0:0:0:
448,192,74303,128,8,74414:0:0:0:0:
192,192,74414,128,0,74525:0:0:0:0:
448,192,74525,128,0,74636:0:0:0:0:
64,192,74636,128,0,74747:0:0:0:0:
320,192,74747,128,0,74858:0:0:0:0:
64,192,74858,128,0,74969:0:0:0:0:
448,192,74969,1,8,0:0:0:0:
320,192,74969,1,2,0:0:0:0:
192,192,75136,1,2,0:0:0:0:
64,192,75136,1,0,0:0:0:0:
448,192,75303,1,8,0:0:0:0:
64,192,75303,128,2,75636:0:0:0:0:
320,192,75303,1,0,0:0:0:0:
448,192,75636,128,8,76303:0:0:0:0:
320,192,75636,1,2,0:0:0:0:
192,192,75719,1,2,0:0:0:0:
64,192,75803,1,2,0:0:0:0:
320,192,75886,1,2,0:0:0:0:
192,192,75969,1,2,0:0:0:0:
320,192,76136,1,2,0:0:0:0:
64,192,76303,128,8,76969:0:0:0:0:
192,192,76303,1,2,0:0:0:0:
320,192,76386,1,2,0:0:0:0:
448,192,76469,1,2,0:0:0:0:
192,192,76553,1,2,0:0:0:0:
320,192,76636,1,2,0:0:0:0:
320,192,76969,1,8,0:0:0:0:
448,192,76969,1,2,0:0:0:0:
192,192,77053,1,2,0:0:0:0:
64,192,77136,1,2,0:0:0:0:
320,192,77219,1,2,0:0:0:0:
192,192,77303,1,10,0:0:0:0:
64,192,77386,1,2,0:0:0:0:
448,192,77469,1,0,0:0:0:0:
320,192,77469,1,2,0:0:0:0:
192,192,77553,1,2,0:0:0:0:
64,192,77636,128,8,78303:0:0:0:0:
448,192,77636,1,2,0:0:0:0:
320,192,77719,1,2,0:0:0:0:
192,192,77803,1,2,0:0:0:0:
448,192,77886,1,2,0:0:0:0:
320,192,77969,1,2,0:0:0:0:
192,192,78053,1,2,0:0:0:0:
448,192,78136,1,2,0:0:0:0:
320,192,78219,1,2,0:0:0:0:
448,192,78303,1,8,0:0:0:0:
192,192,78303,1,2,0:0:0:0:
320,192,78386,1,2,0:0:0:0:
192,192,78469,1,2,0:0:0:0:
320,192,78553,1,2,0:0:0:0:
64,192,78636,1,8,0:0:0:0:
448,192,78636,1,2,0:0:0:0:
192,192,78719,1,2,0:0:0:0:
320,192,78803,1,2,0:0:0:0:
448,192,78886,1,2,0:0:0:0:
192,192,78969,1,8,0:0:0:0:
64,192,78969,1,2,0:0:0:0:
320,192,79081,1,2,0:0:0:0:
448,192,79192,1,2,0:0:0:0:
320,192,79303,1,8,0:0:0:0:
192,192,79303,1,2,0:0:0:0:
64,192,79414,1,2,0:0:0:0:
192,192,79525,1,2,0:0:0:0:
320,192,79636,1,8,0:0:0:0:
448,192,79636,1,2,0:0:0:0:
64,192,79719,1,2,0:0:0:0:
192,192,79803,1,2,0:0:0:0:
320,192,79886,1,2,0:0:0:0:
448,192,79969,1,8,0:0:0:0:
64,192,79969,1,2,0:0:0:0:
192,192,80136,1,2,0:0:0:0:
64,192,80136,1,0,0:0:0:0:
320,192,80303,1,8,0:0:0:0:
448,192,80303,1,2,0:0:0:0:
192,192,80469,1,2,0:0:0:0:
64,192,80469,1,8,0:0:0:0:
448,192,80636,1,8,0:0:0:0:
320,192,80636,128,2,80969:0:0:0:0:
448,192,80969,128,2,81636:0:0:0:0:
64,192,80969,1,12,0:0:0:0:
64,192,81303,1,2,0:0:0:0:
320,192,81469,1,2,0:0:0:0:
64,192,81636,128,8,82303:0:0:0:0:
192,192,81636,1,2,0:0:0:0:
320,192,81719,1,2,0:0:0:0:
448,192,81803,1,2,0:0:0:0:
192,192,81886,1,2,0:0:0:0:
320,192,81969,1,2,0:0:0:0:
448,192,82053,1,2,0:0:0:0:
192,192,82136,1,2,0:0:0:0:
320,192,82219,1,2,0:0:0:0:
448,192,82303,1,8,0:0:0:0:
192,192,82303,1,2,0:0:0:0:
320,192,82414,1,2,0:0:0:0:
192,192,82525,1,2,0:0:0:0:
64,192,82636,1,2,0:0:0:0:
448,192,82636,1,8,0:0:0:0:
320,192,82747,1,2,0:0:0:0:
192,192,82858,1,2,0:0:0:0:
320,192,82969,1,8,0:0:0:0:
64,192,82969,128,2,83636:0:0:0:0:
448,192,83081,1,2,0:0:0:0:
192,192,83192,1,2,0:0:0:0:
320,192,83303,1,2,0:0:0:0:
192,192,83414,1,2,0:0:0:0:
320,192,83525,1,2,0:0:0:0:
192,192,83636,1,2,0:0:0:0:
448,192,83636,1,8,0:0:0:0:
320,192,83719,1,2,0:0:0:0:
448,192,83803,1,2,0:0:0:0:
192,192,83886,1,2,0:0:0:0:
320,192,83969,1,10,0:0:0:0:
448,192,84053,1,2,0:0:0:0:
192,192,84136,1,2,0:0:0:0:
64,192,84136,1,0,0:0:0:0:
320,192,84219,1,2,0:0:0:0:
64,192,84303,1,8,0:0:0:0:
448,192,84303,1,2,0:0:0:0:
192,192,84386,1,2,0:0:0:0:
320,192,84469,1,2,0:0:0:0:
448,192,84553,1,2,0:0:0:0:
64,192,84636,1,8,0:0:0:0:
192,192,84636,1,2,0:0:0:0:
320,192,84719,1,2,0:0:0:0:
192,192,84803,1,2,0:0:0:0:
64,192,84886,1,2,0:0:0:0:
448,192,84969,1,8,0:0:0:0:
320,192,84969,1,2,0:0:0:0:
192,192,85053,1,2,0:0:0:0:
320,192,85136,1,2,0:0:0:0:
192,192,85219,1,2,0:0:0:0:
64,192,85303,1,2,0:0:0:0:
448,192,85303,128,8,85636:0:0:0:0:
64,192,85636,128,8,86303:0:0:0:0:
320,192,85636,1,4,0:0:0:0:
320,192,85886,128,0,86303:0:0:0:0:
192,192,86303,128,8,86969:0:0:0:0:
448,192,86303,1,6,0:0:0:0:
448,192,86553,128,0,86969:0:0:0:0:
320,192,86969,128,6,87636:0:0:0:0:
64,192,86969,1,8,0:0:0:0:
64,192,87219,128,0,87636:0:0:0:0:
448,192,87636,128,4,88303:0:0:0:0:
192,192,87636,1,8,0:0:0:0:
320,192,87886,128,0,88303:0:0:0:0:
64,192,88303,128,6,88969:0:0:0:0:
192,192,88303,1,8,0:0:0:0:
192,192,88553,128,0,88969:0:0:0:0:
448,192,88969,1,4,0:0:0:0:
320,192,88969,1,2,0:0:0:0:
192,192,89136,1,8,0:0:0:0:
64,192,89136,1,2,0:0:0:0:
320,192,89303,1,8,0:0:0:0:
448,192,89303,1,4,0:0:0:0:
64,192,89469,1,8,0:0:0:0:
192,192,89469,1,2,0:0:0:0:
448,192,89636,1,8,0:0:0:0:
320,192,89636,1,4,0:0:0:0:
192,192,89803,1,8,0:0:0:0:
64,192,89803,1,2,0:0:0:0:
320,192,89969,1,8,0:0:0:0:
448,192,89969,1,4,0:0:0:0:
64,192,90136,1,2,0:0:0:0:
192,192,90136,1,8,0:0:0:0:
448,192,90303,1,8,0:0:0:0:
320,192,90303,1,2,0:0:0:0:
192,192,90386,1,2,0:0:0:0:
64,192,90386,1,8,0:0:0:0:
320,192,90469,1,2,0:0:0:0:
448,192,90469,1,8,0:0:0:0:
64,192,90553,1,8,0:0:0:0:
192,192,90553,1,2,0:0:0:0:
448,192,90636,1,2,0:0:0:0:
320,192,90636,1,8,0:0:0:0:
192,192,90719,1,2,0:0:0:0:
64,192,90719,1,8,0:0:0:0:
448,192,90803,1,2,0:0:0:0:
320,192,90803,1,8,0:0:0:0:
64,192,90886,1,2,0:0:0:0:
192,192,90886,1,8,0:0:0:0:
320,192,90969,1,8,0:0:0:0:
448,192,90969,128,2,91303:0:0:0:0:
192,192,91136,1,0,0:0:0:0:
64,192,91136,1,0,0:0:0:0:
64,192,91303,1,10,0:0:0:0:
320,192,91303,128,0,91636:0:0:0:0:
64,192,91636,1,4,0:0:0:0:
448,192,91636,1,10,0:0:0:0:
192,192,91803,1,2,0:0:0:0:
320,192,91886,1,2,0:0:0:0:
448,192,91969,1,8,0:0:0:0:
64,192,91969,1,2,0:0:0:0:
320,192,92136,1,2,0:0:0:0:
192,192,92219,1,2,0:0:0:0:
64,192,92303,1,8,0:0:0:0:
192,192,92469,1,2,0:0:0:0:
448,192,92469,1,0,0:0:0:0:
320,192,92553,1,2,0:0:0:0:
192,192,92636,1,8,0:0:0:0:
64,192,92636,1,2,0:0:0:0:
448,192,92719,1,2,0:0:0:0:
320,192,92803,1,2,0:0:0:0:
192,192,92886,1,2,0:0:0:0:
448,192,92969,1,2,0:0:0:0:
64,192,92969,1,8,0:0:0:0:
320,192,93053,1,2,0:0:0:0:
192,192,93136,1,2,0:0:0:0:
64,192,93303,1,2,0:0:0:0:
448,192,93303,1,8,0:0:0:0:
192,192,93386,1,2,0:0:0:0:
320,192,93469,1,2,0:0:0:0:
192,192,93636,1,10,0:0:0:0:
320,192,93719,1,2,0:0:0:0:
64,192,93803,1,2,0:0:0:0:
192,192,93803,1,0,0:0:0:0:
320,192,93886,1,2,0:0:0:0:
64,192,93969,1,8,0:0:0:0:
448,192,93969,1,2,0:0:0:0:
192,192,94053,1,2,0:0:0:0:
320,192,94136,1,2,0:0:0:0:
192,192,94219,1,2,0:0:0:0:
448,192,94303,1,2,0:0:0:0:
64,192,94303,1,8,0:0:0:0:
320,192,94414,1,2,0:0:0:0:
192,192,94525,1,2,0:0:0:0:
448,192,94636,1,2,0:0:0:0:
64,192,94636,1,8,0:0:0:0:
320,192,94747,1,2,0:0:0:0:
192,192,94858,1,2,0:0:0:0:
64,192,94969,1,8,0:0:0:0:
448,192,94969,1,2,0:0:0:0:
320,192,95081,1,2,0:0:0:0:
64,192,95192,1,8,0:0:0:0:
192,192,95192,1,2,0:0:0:0:
320,192,95303,1,2,0:0:0:0:
448,192,95303,1,8,0:0:0:0:
64,192,95386,1,2,0:0:0:0:
192,192,95469,1,2,0:0:0:0:
320,192,95553,1,2,0:0:0:0:
64,192,95636,1,8,0:0:0:0:
448,192,95636,1,2,0:0:0:0:
192,192,95747,1,2,0:0:0:0:
448,192,95858,1,2,0:0:0:0:
192,192,95969,1,2,0:0:0:0:
64,192,95969,128,8,96303:0:0:0:0:
448,192,96081,1,2,0:0:0:0:
320,192,96136,1,8,0:0:0:0:
192,192,96192,1,2,0:0:0:0:
320,192,96303,1,2,0:0:0:0:
64,192,96469,1,4,0:0:0:0:
192,192,96469,128,8,96969:0:0:0:0:
448,192,96469,1,0,0:0:0:0:
320,192,96803,128,0,96969:0:0:0:0:
448,192,96969,1,2,0:0:0:0:
64,192,96969,1,0,0:0:0:0:
192,192,97136,1,2,0:0:0:0:
320,192,97219,1,2,0:0:0:0:
448,192,97303,1,8,0:0:0:0:
192,192,97303,1,0,0:0:0:0:
320,192,97469,1,2,0:0:0:0:
192,192,97553,1,0,0:0:0:0:
64,192,97636,1,2,0:0:0:0:
448,192,97636,1,8,0:0:0:0:
192,192,97803,1,2,0:0:0:0:
320,192,97886,1,2,0:0:0:0:
448,192,97969,1,10,0:0:0:0:
64,192,97969,1,0,0:0:0:0:
192,192,98053,1,2,0:0:0:0:
320,192,98136,1,2,0:0:0:0:
192,192,98219,1,2,0:0:0:0:
448,192,98303,1,2,0:0:0:0:
64,192,98303,1,8,0:0:0:0:
320,192,98386,1,2,0:0:0:0:
192,192,98469,1,2,0:0:0:0:
64,192,98636,1,8,0:0:0:0:
448,192,98636,1,2,0:0:0:0:
320,192,98719,1,2,0:0:0:0:
192,192,98803,1,2,0:0:0:0:
320,192,98969,1,2,0:0:0:0:
64,192,98969,1,8,0:0:0:0:
192,192,99053,1,2,0:0:0:0:
320,192,99136,1,2,0:0:0:0:
448,192,99219,1,2,0:0:0:0:
64,192,99303,1,8,0:0:0:0:
192,192,99303,1,2,0:0:0:0:
320,192,99414,1,2,0:0:0:0:
192,192,99525,1,2,0:0:0:0:
64,192,99636,1,8,0:0:0:0:
448,192,99636,1,2,0:0:0:0:
320,192,99747,1,2,0:0:0:0:
192,192,99858,1,2,0:0:0:0:
64,192,99858,1,8,0:0:0:0:
320,192,99969,1,2,0:0:0:0:
448,192,99969,1,8,0:0:0:0:
192,192,100081,1,2,0:0:0:0:
64,192,100081,1,8,0:0:0:0:
320,192,100192,1,8,0:0:0:0:
448,192,100192,1,2,0:0:0:0:
64,192,100303,1,2,0:0:0:0:
192,192,100303,1,8,0:0:0:0:
448,192,100414,1,2,0:0:0:0:
64,192,100525,1,2,0:0:0:0:
320,192,100525,1,8,0:0:0:0:
192,192,100636,1,8,0:0:0:0:
448,192,100636,1,2,0:0:0:0:
320,192,100747,1,2,0:0:0:0:
192,192,100858,1,2,0:0:0:0:
64,192,100969,1,2,0:0:0:0:
448,192,100969,1,8,0:0:0:0:
192,192,101136,1,2,0:0:0:0:
320,192,101136,1,0,0:0:0:0:
64,192,101303,1,8,0:0:0:0:
448,192,101303,1,2,0:0:0:0:
320,192,101469,1,2,0:0:0:0:
192,192,101469,1,0,0:0:0:0:
320,192,101636,1,8,0:0:0:0:
448,192,101636,128,6,102303:0:0:0:0:
64,192,101803,1,2,0:0:0:0:
192,192,101803,1,0,0:0:0:0:
64,192,101969,1,2,0:0:0:0:
320,192,101969,128,0,102303:0:0:0:0:
64,192,102303,1,12,0:0:0:0:
192,192,102303,128,0,102469:0:0:0:0:
320,192,102469,128,0,102636:0:0:0:0:
192,192,102636,1,2,0:0:0:0:
64,192,102636,1,0,0:0:0:0:
320,192,102719,1,2,0:0:0:0:
448,192,102719,1,0,0:0:0:0:
192,192,102803,1,2,0:0:0:0:
64,192,102803,1,0,0:0:0:0:
320,192,102886,1,2,0:0:0:0:
448,192,102886,1,0,0:0:0:0:
192,192,102969,128,8,103303:0:0:0:0:
64,192,102969,128,2,103303:0:0:0:0:
448,192,103303,1,14,0:0:0:0:
320,192,103358,1,2,0:0:0:0:
192,192,103414,1,2,0:0:0:0:
448,192,103469,1,2,0:0:0:0:
320,192,103525,1,2,0:0:0:0:
192,192,103581,1,2,0:0:0:0:
64,192,103636,1,2,0:0:0:0:
448,192,103636,1,0,0:0:0:0:
320,192,103719,1,2,0:0:0:0:
192,192,103803,1,2,0:0:0:0:
64,192,103886,1,2,0:0:0:0:
448,192,103969,1,2,0:0:0:0:
320,192,103969,1,0,0:0:0:0:
192,192,104081,1,2,0:0:0:0:
64,192,104081,1,0,0:0:0:0:
448,192,104192,1,2,0:0:0:0:
320,192,104192,1,0,0:0:0:0:
192,192,104303,128,2,104469:0:0:0:0:
64,192,104303,128,8,104469:0:0:0:0:
320,192,104469,128,8,104636:0:0:0:0:
448,192,104469,128,2,104636:0:0:0:0:
192,192,104636,1,2,0:0:0:0:
64,192,104636,1,0,0:0:0:0:
448,192,104803,128,8,104969:0:0:0:0:
320,192,104803,128,2,104969:0:0:0:0:
64,192,104969,1,12,0:0:0:0:
192,192,104969,128,2,105136:0:0:0:0:
320,192,105136,128,2,105303:0:0:0:0:
192,192,105303,1,2,0:0:0:0:
64,192,105303,1,0,0:0:0:0:
320,192,105386,1,2,0:0:0:0:
448,192,105386,1,0,0:0:0:0:
192,192,105469,1,2,0:0:0:0:
64,192,105469,1,0,0:0:0:0:
320,192,105553,1,2,0:0:0:0:
448,192,105553,1,0,0:0:0:0:
192,192,105636,128,2,105969:0:0:0:0:
64,192,105636,128,8,105969:0:0:0:0:
448,192,105969,1,2,0:0:0:0:
320,192,106025,1,2,0:0:0:0:
192,192,106081,1,2,0:0:0:0:
64,192,106136,1,2,0:0:0:0:
320,192,106192,1,2,0:0:0:0:
192,192,106247,1,2,0:0:0:0:
64,192,106303,1,2,0:0:0:0:
448,192,106303,1,0,0:0:0:0:
320,192,106414,1,2,0:0:0:0:
192,192,106525,1,2,0:0:0:0:
64,192,106636,1,2,0:0:0:0:
448,192,106636,1,0,0:0:0:0:
320,192,106747,1,2,0:0:0:0:
192,192,106858,1,2,0:0:0:0:
320,192,106969,1,2,0:0:0:0:
448,192,106969,1,0,0:0:0:0:
64,192,107136,128,2,107636:0:0:0:0:
448,192,107136,1,12,0:0:0:0:
192,192,107136,1,0,0:0:0:0:
192,192,107469,128,0,107636:0:0:0:0:
320,192,107636,1,12,0:0:0:0:
448,192,107636,128,0,107803:0:0:0:0:
192,192,107803,128,2,107969:0:0:0:0:
448,192,107969,1,2,0:0:0:0:
64,192,107969,1,0,0:0:0:0:
192,192,108053,1,2,0:0:0:0:
320,192,108053,1,0,0:0:0:0:
448,192,108136,1,2,0:0:0:0:
64,192,108136,1,0,0:0:0:0:
192,192,108219,1,2,0:0:0:0:
320,192,108219,1,0,0:0:0:0:
64,192,108303,128,2,108636:0:0:0:0:
448,192,108303,128,8,108636:0:0:0:0:
192,192,108636,1,2,0:0:0:0:
320,192,108692,1,2,0:0:0:0:
448,192,108747,1,2,0:0:0:0:
64,192,108803,1,2,0:0:0:0:
192,192,108858,1,2,0:0:0:0:
320,192,108914,1,2,0:0:0:0:
64,192,108969,1,2,0:0:0:0:
448,192,108969,1,0,0:0:0:0:
192,192,109053,1,2,0:0:0:0:
320,192,109136,1,2,0:0:0:0:
448,192,109219,1,2,0:0:0:0:
64,192,109303,1,2,0:0:0:0:
192,192,109303,1,0,0:0:0:0:
320,192,109414,1,2,0:0:0:0:
448,192,109414,1,0,0:0:0:0:
64,192,109525,1,2,0:0:0:0:
192,192,109525,1,0,0:0:0:0:
320,192,109636,1,2,0:0:0:0:
448,192,109636,1,8,0:0:0:0:
320,192,109803,128,8,109969:0:0:0:0:
64,192,109803,128,0,109969:0:0:0:0:
192,192,109969,1,2,0:0:0:0:
448,192,109969,1,0,0:0:0:0:
320,192,110136,128,2,110303:0:0:0:0:
64,192,110136,128,8,110303:0:0:0:0:
192,192,110303,128,12,110469:0:0:0:0:
448,192,110303,1,0,0:0:0:0:
320,192,110469,128,2,110636:0:0:0:0:
64,192,110636,1,2,0:0:0:0:
448,192,110636,1,0,0:0:0:0:
192,192,110719,1,2,0:0:0:0:
320,192,110719,1,0,0:0:0:0:
64,192,110803,1,2,0:0:0:0:
448,192,110803,1,0,0:0:0:0:
192,192,110886,1,2,0:0:0:0:
320,192,110886,1,0,0:0:0:0:
448,192,110969,128,2,111303:0:0:0:0:
64,192,110969,128,8,111303:0:0:0:0:
192,192,111303,1,12,0:0:0:0:
320,192,111358,1,2,0:0:0:0:
448,192,111414,1,2,0:0:0:0:
64,192,111469,1,2,0:0:0:0:
192,192,111525,1,2,0:0:0:0:
320,192,111581,1,2,0:0:0:0:
64,192,111636,1,2,0:0:0:0:
448,192,111636,1,0,0:0:0:0:
192,192,111747,1,2,0:0:0:0:
320,192,111858,1,2,0:0:0:0:
192,192,111969,1,2,0:0:0:0:
64,192,111969,1,0,0:0:0:0:
320,192,112053,1,2,0:0:0:0:
448,192,112053,1,0,0:0:0:0:
64,192,112136,1,2,0:0:0:0:
192,192,112136,1,0,0:0:0:0:
448,192,112219,1,2,0:0:0:0:
320,192,112219,1,0,0:0:0:0:
64,192,112303,128,8,112469:0:0:0:0:
192,192,112303,1,2,0:0:0:0:
448,192,112469,1,2,0:0:0:0:
320,192,112469,128,12,112636:0:0:0:0:
64,192,112636,128,8,112969:0:0:0:0:
192,192,112636,1,2,0:0:0:0:
448,192,112969,1,2,0:0:0:0:
320,192,112969,1,0,0:0:0:0:
64,192,113636,1,0,0:0:0:0:
448,192,114303,1,0,0:0:0:0:
320,192,114636,1,0,0:0:0:0:
192,192,114969,1,0,0:0:0:0:
64,192,115636,128,0,115969:0:0:0:0:
320,192,115969,128,0,116303:0:0:0:0:
448,192,116303,128,0,116636:0:0:0:0:
192,192,116636,128,0,116969:0:0:0:0:
448,192,116969,128,0,117303:0:0:0:0:
320,192,117303,128,0,117636:0:0:0:0:
64,192,117636,128,0,118303:0:0:0:0:
