osu file format v14

[General]
AudioFilename: audio.mp3
AudioLeadIn: 0
PreviewTime: 11592
Countdown: 0
SampleSet: Soft
StackLeniency: 0.7
Mode: 0
LetterboxInBreaks: 0
WidescreenStoryboard: 1

[Editor]
Bookmarks: 75634
DistanceSpacing: 1
BeatDivisor: 4
GridSize: 32
TimelineZoom: 2

[Metadata]
Title:ZADAMGA
TitleUnicode:ZADAMGA
Artist:onoken
ArtistUnicode:onoken
Creator:Down
Version:Hard
Source:pop'n music ラピストリア
Tags:popn konami bemani video game corsace closed sf nm6 cc2021 electronic instrumental luscent lapistoria
BeatmapID:3183778
BeatmapSetID:1492550

[Difficulty]
HPDrainRate:4.5
CircleSize:4
OverallDifficulty:6
ApproachRate:8
SliderMultiplier:1.5
SliderTickRate:1

[Events]
//Background and Video events
0,0,"not coool.jpg",0,0
//Break Periods
//Storyboard Layer 0 (Background)
//Storyboard Layer 1 (Fail)
//Storyboard Layer 2 (Pass)
//Storyboard Layer 3 (Foreground)
//Storyboard Layer 4 (Overlay)
//Storyboard Sound Samples

[TimingPoints]
968,333.333333333333,4,2,1,40,1,0
10967,-100,4,2,1,60,0,0
11634,-100,4,2,1,70,0,1
22301,-100,4,2,1,50,0,0
25301,-100,4,2,1,65,0,0
27634,-100,4,2,1,50,0,0
30967,-100,4,2,1,65,0,0
32967,-100,4,2,1,60,0,0
37634,-100,4,2,1,65,0,0
43634,-100,4,2,1,70,0,1
54301,-100,4,2,1,50,0,0
64967,-100,4,2,1,55,0,0
70301,-100,4,2,1,60,0,0
75634,-100,4,2,1,70,0,0
80967,-100,4,2,1,70,0,0
81301,-100,4,2,1,70,0,0
90301,-100,4,2,1,75,0,0
91634,-100,4,2,1,80,0,1
96467,-100,4,2,1,80,0,1
96801,-100,4,2,1,80,0,1
102301,-90.9090909090909,4,2,1,80,0,1
102967,-90.9090909090909,4,2,1,80,0,1
103301,-90.9090909090909,4,2,1,80,0,1
105634,-90.9090909090909,4,2,1,80,0,1
105967,-90.9090909090909,4,2,1,80,0,1
108301,-90.9090909090909,4,2,1,80,0,1
108634,-90.9090909090909,4,2,1,80,0,1
110967,-90.9090909090909,4,2,1,80,0,1
111301,-90.9090909090909,4,2,1,80,0,1
112967,-100,4,2,1,80,0,0

[Colours]
Combo1 : 78,108,254
Combo2 : 185,114,250
Combo3 : 210,210,210
Combo4 : 248,54,54
Combo5 : 252,214,141
Combo6 : 248,233,103
Combo7 : 138,230,136
Combo8 : 151,182,255

[HitObjects]
208,303,10967,22,0,B|232:282|262:261|262:261|194:240|161:188|161:188|200:172|208:134,1,262.5,2|0,0:0|0:0,0:0:0:0:
223,144,11634,86,0,P|207:97|191:55,1,75,10|0,0:0|0:0,0:0:0:0:
117,57,11967,2,0,L|63:36,3,37.5,0|0|8|8,0:0|0:0|0:0|0:0,0:0:0:0:
49,69,12301,2,0,P|70:142|77:199,1,112.5,6|0,1:0|0:0,0:0:0:0:
63,193,12634,1,8,0:0:0:0:
134,234,12801,1,0,0:0:0:0:
204,191,12967,22,0,P|238:182|287:159,1,75,0|8,0:0|0:0,0:0:0:0:
338,112,13301,38,0,B|339:94|339:94|305:57,2,50,2|10|10,0:3|0:3|0:3,0:0:0:0:
418,132,13634,37,8,0:0:0:0:
361,191,13801,1,2,1:0:0:0:
424,250,13967,1,10,0:0:0:0:
424,250,14134,1,2,1:0:0:0:
371,313,14301,22,0,P|339:324|289:357,1,75,10|0,0:0|0:0,0:0:0:0:
233,300,14634,2,0,P|219:308|191:315,3,37.5,0|0|8|8,0:0|0:0|0:0|0:0,0:0:0:0:
157,319,14967,2,0,P|134:292|58:245,1,112.5,6|0,1:0|0:0,0:0:0:0:
52,246,15301,1,8,0:0:0:0:
97,177,15467,1,0,0:0:0:0:
48,109,15634,38,0,B|28:112|28:112|-43:96,2,50,2|10|10,1:3|0:3|0:3,0:0:0:0:
110,48,15967,2,0,B|133:38|133:38|192:40,2,50,2|10|10,1:3|0:3|0:3,0:0:0:0:
165,122,16301,38,0,B|197:146|183:209,1,75,8|0,0:0|1:0,0:0:0:0:
186,190,16551,1,2,0:1:0:0:
186,190,16634,1,2,0:1:0:0:
116,228,16801,1,2,0:1:0:0:
174,286,16967,22,0,P|222:299|279:319,1,75,2|0,0:0|0:0,0:0:0:0:
317,264,17301,2,0,L|362:299,3,37.5,0|0|8|8,0:0|0:0|0:0|0:0,0:0:0:0:
387,278,17634,2,0,P|423:249|501:226,1,112.5,6|0,1:0|0:0,0:0:0:0:
496,212,17967,1,8,0:0:0:0:
430,162,18134,1,0,0:0:0:0:
474,92,18301,86,0,P|440:80|383:46,1,75,0|8,0:0|0:0,0:0:0:0:
331,99,18634,70,0,B|321:126|321:126|331:175,2,50,2|10|10,0:3|0:3|0:3,0:0:0:0:
273,40,18967,69,10,0:0:0:0:
231,111,19134,1,2,1:0:0:0:
155,89,19301,1,10,0:0:0:0:
155,89,19467,1,2,1:0:0:0:
142,170,19634,86,0,P|112:186|58:216,1,75,10|0,0:0|0:0,0:0:0:0:
48,128,19967,2,0,P|28:122|11:103,3,37.5,0|0|8|8,0:0|0:0|0:0|0:0,0:0:0:0:
18,69,20301,2,0,P|79:35|115:13,1,112.5,6|0,1:0|0:0,0:0:0:0:
134,21,20634,1,8,0:0:0:0:
185,85,20801,1,0,0:0:0:0:
259,50,20967,70,0,B|287:43|287:43|304:12,2,50,2|2|2,0:3|0:3|0:3,0:0:0:0:
256,128,21301,70,0,P|247:148|241:168,3,37.5,0|0|8|8,0:0|0:0|0:0|0:0,0:0:0:0:
213,193,21634,2,0,P|179:181|134:153,1,75,10|10,0:0|0:0,0:0:0:0:
71,199,21967,1,2,1:0:0:0:
29,359,22301,86,0,P|70:341|115:321,1,75,12|0,0:0|0:0,0:0:0:0:
157,272,22634,2,0,P|195:287|252:300,1,75,2|2,0:0|0:0,0:0:0:0:
299,336,22967,1,2,0:0:0:0:
369,293,23134,1,2,0:0:0:0:
436,340,23301,2,0,P|476:309|511:276,1,75,2|2,0:0|0:0,0:0:0:0:
493,210,23634,22,0,P|477:186|451:129,1,75,2|2,0:0|0:0,0:0:0:0:
395,89,23967,38,0,B|398:61|398:61|415:26,2,50,2|2|2,0:3|0:3|0:3,0:0:0:0:
320,75,24301,6,0,B|321:48|321:48|339:5,2,50,2|2|2,0:3|0:3|0:3,0:0:0:0:
244,61,24634,102,0,B|244:33|244:33|260:-2,2,50,2|2|2,0:3|0:3|0:3,0:0:0:0:
191,120,24967,6,0,B|190:147|190:147|210:184,2,50,2|2|2,0:3|0:3|0:3,0:0:0:0:
142,57,25301,101,10,0:3:0:0:
120,54,25412,1,2,0:3:0:0:
101,44,25523,1,2,0:3:0:0:
89,27,25634,2,0,B|72:26|72:26|10:51,2,50,2|2|2,0:3|0:3|0:3,0:0:0:0:
64,114,25967,70,0,P|56:180|48:282,1,150,2|10,1:3|0:3,0:0:0:0:
206,313,26634,37,2,1:3:0:0:
228,310,26745,1,2,0:3:0:0:
247,300,26856,1,2,0:3:0:0:
259,283,26967,2,0,B|283:290|283:290|313:324,2,50,2|2|2,1:3|0:3|0:3,0:0:0:0:
195,235,27301,1,2,1:3:0:0:
273,90,27634,70,0,P|319:78|371:63,1,75,12|0,0:0|0:0,0:0:0:0:
422,101,27967,2,0,P|468:123|504:133,1,75,2|2,0:0|0:0,0:0:0:0:
464,208,28301,1,2,0:0:0:0:
392,248,28467,1,2,0:0:0:0:
441,320,28634,1,2,0:0:0:0:
441,320,28801,1,10,0:0:0:0:
372,364,28967,86,0,P|341:370|287:381,1,75,2|2,0:0|0:0,0:0:0:0:
226,337,29301,70,0,B|205:338|205:338|151:311,2,50,2|2|2,0:3|0:3|0:3,0:0:0:0:
285,282,29634,6,0,B|312:279|312:279|355:300,2,50,2|2|2,0:3|0:3|0:3,0:0:0:0:
228,226,29967,102,0,B|207:224|207:224|162:195,2,50,2|2|2,0:3|0:3|0:3,0:0:0:0:
284,172,30301,70,0,B|287:93|229:30,1,150,2|2,0:0|0:0,0:0:0:0:
423,99,30967,86,0,P|407:174|395:264,1,150,12|0,0:0|0:0,0:0:0:0:
443,315,31467,1,8,0:0:0:0:
368,350,31634,2,0,P|341:356|280:369,1,75,0|0,1:0|0:0,0:0:0:0:
231,313,31967,2,0,P|242:278|257:214,1,75,4|0,1:0|0:0,0:0:0:0:
324,201,32301,1,0,1:0:0:0:
269,139,32467,1,8,0:0:0:0:
313,69,32634,1,0,1:0:0:0:
162,2,32967,22,0,P|89:46|30:98,1,150,14|0,0:0|1:0,0:0:0:0:
69,165,33467,1,0,0:0:0:0:
139,121,33634,2,0,P|166:145|222:195,1,75,2|8,0:0|0:0,0:0:0:0:
193,254,33967,2,0,P|157:265|102:294,1,75,0|0,1:0|0:0,0:0:0:0:
263,298,34301,86,0,P|357:298|372:229,2,150,10|2|10,0:0|1:0|0:0,0:0:0:0:
193,254,35134,1,8,0:0:0:0:
254,199,35301,2,0,P|295:183|347:176,1,75,0|0,1:0|0:0,0:0:0:0:
402,92,35634,22,0,P|328:94|303:4,2,150,10|2|2,0:0|1:0|0:0,0:0:0:0:
462,35,36467,1,8,0:0:0:0:
495,110,36634,2,0,P|479:149|465:195,1,75,2|0,1:0|0:0,0:0:0:0:
445,311,36967,86,0,P|410:295|370:284,1,75,10|0,0:0|0:0,0:0:0:0:
319,222,37301,2,0,P|355:211|389:195,1,75,2|8,1:0|0:0,0:0:0:0:
468,180,37634,2,0,P|432:122|335:62,1,150,2|0,1:0|1:0,0:0:0:0:
291,107,38134,1,0,0:0:0:0:
220,63,38301,22,0,P|209:42|192:23,3,37.5,10|0|0|0,0:0|0:0|0:0|0:0,0:0:0:0:
159,33,38634,2,0,P|127:88|132:157,1,112.5,0|0,1:0|0:0,0:0:0:0:
136,150,38967,86,0,P|114:163|84:176,3,37.5,2|0|8|0,0:0|0:0|0:0|0:0,0:0:0:0:
61,169,39301,2,0,P|119:218|132:274,1,112.5,0|0,1:0|0:0,0:0:0:0:
149,264,39634,70,0,B|155:294|155:294|128:343,2,50,10|2|2,0:3|0:3|0:3,0:0:0:0:
210,205,39967,38,0,L|190:159,3,37.5,2|0|0|0,1:0|0:0|0:0|0:0,0:0:0:0:
278,242,40301,70,0,B|283:276|283:276|257:321,2,50,10|2|2,0:3|0:3|0:3,0:0:0:0:
333,187,40634,6,0,B|333:161|333:161|308:123,2,50,2|2|2,1:3|0:3|0:3,0:0:0:0:
392,240,40967,101,2,1:3:0:0:
414,237,41078,1,2,0:3:0:0:
433,227,41189,1,2,0:3:0:0:
445,210,41300,2,0,B|470:218|470:218|494:258,2,50,2|2|2,1:3|0:3|0:3,0:0:0:0:
432,134,41634,5,2,1:3:0:0:
410,137,41745,1,2,0:3:0:0:
391,147,41856,1,10,0:3:0:0:
379,164,41967,22,0,P|357:154|324:146,3,37.5,2|0|0|0,1:0|0:0|0:0|0:0,0:0:0:0:
333,228,42301,69,2,1:3:0:0:
311,231,42412,1,10,0:3:0:0:
292,241,42523,1,10,0:3:0:0:
279,257,42634,2,0,B|261:244|261:244|200:233,2,50,2|2|10,1:3|0:3|0:3,0:0:0:0:
215,321,42967,38,0,P|208:285|183:160,1,150,2|8,1:1|0:0,0:0:0:0:
43,90,43634,22,0,P|105:69|133:41,1,75,10|0,0:0|0:0,0:0:0:0:
177,12,43967,2,0,L|225:22,3,37.5,0|0|8|8,0:0|0:0|0:0|0:0,0:0:0:0:
220,61,44301,2,0,P|180:112|164:180,1,112.5,6|0,1:0|0:0,0:0:0:0:
155,172,44634,1,8,0:0:0:0:
229,208,44801,1,0,0:0:0:0:
286,149,44967,86,0,P|323:135|377:107,1,75,0|8,0:0|0:0,0:0:0:0:
432,150,45301,70,0,B|458:153|458:153|493:179,2,50,2|10|10,0:3|0:3|0:3,0:0:0:0:
377,205,45634,69,10,0:0:0:0:
441,256,45801,1,2,1:0:0:0:
382,314,45967,1,10,0:0:0:0:
382,314,46134,1,2,1:0:0:0:
299,304,46301,86,0,P|272:315|219:332,1,75,10|0,0:0|0:0,0:0:0:0:
179,263,46634,2,0,L|131:242,3,37.5,0|0|8|8,0:0|0:0|0:0|0:0,0:0:0:0:
110,223,46967,2,0,P|62:264|66:323,1,112.5,6|0,1:0|0:0,0:0:0:0:
52,328,47301,1,8,0:0:0:0:
125,365,47467,1,0,0:0:0:0:
192,317,47634,70,0,B|224:325|224:325|256:354,2,50,2|2|10,1:3|1:3|0:3,0:0:0:0:
200,231,47967,2,0,B|224:212|224:212|268:201,2,50,2|2|10,1:3|1:3|0:3,0:0:0:0:
110,223,48301,38,0,P|87:182|54:149,1,75,8|0,0:0|1:0,0:0:0:0:
68,161,48551,1,2,0:1:0:0:
68,161,48634,1,2,0:1:0:0:
121,97,48801,1,2,0:1:0:0:
68,33,48967,22,0,P|110:18|154:5,1,75,10|0,0:0|0:0,0:0:0:0:
218,35,49301,2,0,L|275:54,3,37.5,0|0|8|8,0:0|0:0|0:0|0:0,0:0:0:0:
272,83,49634,2,0,P|242:138|238:190,1,112.5,6|0,1:0|0:0,0:0:0:0:
229,205,49967,1,8,0:0:0:0:
305,235,50134,1,0,0:0:0:0:
377,194,50301,86,0,L|459:176,1,75,0|8,0:0|0:0,0:0:0:0:
485,103,50634,70,0,B|480:78|480:78|451:48,2,50,2|10|10,0:3|0:3|0:3,0:0:0:0:
399,110,50967,69,10,0:0:0:0:
331,62,51134,1,2,1:0:0:0:
268,115,51301,1,10,0:0:0:0:
268,115,51467,1,2,1:0:0:0:
202,64,51634,86,0,P|145:46|115:32,1,75,10|0,0:0|0:0,0:0:0:0:
77,102,51967,2,0,L|51:137,3,37.5,0|0|8|8,0:0|0:0|0:0|0:0,0:0:0:0:
57,174,52301,2,0,L|103:289,1,112.5,6|0,1:0|0:0,0:0:0:0:
87,294,52634,1,8,0:0:0:0:
160,332,52801,1,0,0:0:0:0:
218,274,52967,70,0,B|246:283|246:283|266:309,2,50,2|2|2,0:3|0:3|0:3,0:0:0:0:
184,201,53301,38,0,P|166:206|131:219,3,37.5,0|0|8|8,0:0|0:0|0:0|0:0,0:0:0:0:
110,196,53634,2,0,P|88:152|69:113,1,75,2|10,1:0|0:0,0:0:0:0:
116,56,53967,1,2,1:0:0:0:
274,103,54301,22,0,P|373:63|449:45,1,150,10|2,0:3|0:3,0:0:0:0:
490,85,54801,1,0,0:0:0:0:
425,136,54967,2,0,P|408:172|422:221,1,75,2|0,0:3|0:0,0:0:0:0:
472,263,55301,2,0,P|433:282|397:301,1,75,2|0,0:3|0:0,0:0:0:0:
348,356,55634,85,2,0:3:0:0:
287,300,55801,2,0,P|228:285|168:204,1,150,0|0,0:0|0:0,0:0:0:0:
215,149,56301,2,0,P|262:159|303:166,1,75,2|0,1:3|0:0,0:0:0:0:
334,95,56634,1,2,0:3:0:0:
267,45,56801,1,0,0:0:0:0:
189,71,56967,22,0,P|142:81|9:102,1,150,2|2,0:3|0:3,0:0:0:0:
82,170,57467,1,0,0:0:0:0:
16,220,57634,2,0,P|9:262|-3:306,1,75,2|0,0:3|0:0,0:0:0:0:
67,342,57967,2,0,P|112:326|163:318,1,75,2|0,0:3|0:0,0:0:0:0:
180,248,58301,85,10,0:3:0:0:
248,292,58467,2,0,P|299:334|381:363,1,150,0|0,0:0|0:0,0:0:0:0:
437,305,58967,2,0,P|450:275|453:224,1,75,2|0,1:3|0:0,0:0:0:0:
390,179,59301,2,0,P|374:170|342:113,1,75,10|0,0:3|0:0,0:0:0:0:
375,47,59634,22,0,P|320:38|199:18,1,150,2|2,0:3|0:3,0:0:0:0:
166,78,60134,1,0,0:0:0:0:
229,130,60301,2,0,P|253:215|270:297,1,150,10|2,0:3|0:3,0:0:0:0:
339,313,60801,1,0,0:0:0:0:
389,248,60967,86,0,P|427:236|476:220,1,75,2|0,0:3|0:0,0:0:0:0:
491,147,61301,1,10,0:3:0:0:
425,97,61467,1,0,0:0:0:0:
500,63,61634,2,2,P|429:52|335:39,1,150,2|2,1:3|0:3,0:0:0:0:
285,90,62134,1,0,0:0:0:0:
212,50,62301,22,0,P|167:95|62:113,1,150,10|2,0:3|0:3,0:0:0:0:
36,183,62801,1,0,0:0:0:0:
112,212,62967,2,0,P|114:260|121:310,1,75,2|0,0:3|0:0,0:0:0:0:
54,341,63301,2,0,P|86:362|134:383,1,75,10|0,0:3|0:0,0:0:0:0:
189,333,63634,85,2,0:3:0:0:
264,367,63801,2,0,P|292:294|325:201,1,150,0|0,0:0|0:0,0:0:0:0:
251,174,64301,2,0,P|225:176|149:193,1,75,10|0,0:3|0:0,0:0:0:0:
101,151,64634,1,2,1:3:0:0:
155,88,64801,1,0,0:0:0:0:
102,24,64967,22,0,P|74:21|12:9,1,75,2|0,1:3|0:0,0:0:0:0:
155,88,65301,2,0,P|183:85|245:73,1,75,2|0,1:3|0:0,0:0:0:0:
101,151,65634,2,0,L|69:306,1,150,2|10,1:3|0:3,0:0:0:0:
139,343,66134,1,0,0:0:0:0:
196,283,66301,86,0,P|246:315|288:325,1,75,2|0,1:3|0:0,0:0:0:0:
139,343,66634,2,0,P|89:375|47:385,1,75,2|0,1:3|0:0,0:0:0:0:
70,297,66967,2,0,P|110:218|172:155,1,150,2|2,1:3|1:3,0:0:0:0:
190,100,67467,1,0,0:0:0:0:
135,37,67634,22,0,P|103:52|40:68,1,75,2|0,1:3|0:0,0:0:0:0:
190,100,67967,2,0,P|222:115|285:131,1,75,10|0,0:3|0:0,0:0:0:0:
325,177,68301,2,0,P|398:114|436:65,1,150,2|2,1:3|1:3,0:0:0:0:
505,108,68801,1,0,0:0:0:0:
466,180,68967,86,0,P|477:218|488:273,1,75,10|0,0:3|0:0,0:0:0:0:
355,285,69301,2,0,P|386:307|423:309,1,75,2|0,1:3|0:0,0:0:0:0:
278,255,69634,2,0,P|224:273|114:318,1,150,2|2,1:3|1:3,0:0:0:0:
79,249,70134,1,0,0:0:0:0:
67,167,70301,70,0,B|46:165|46:165|12:193,2,50,2|2|2,1:3|1:3|1:3,0:0:0:0:
94,95,70634,2,0,B|79:81|79:81|76:46,2,50,2|2|2,1:3|1:3|1:3,0:0:0:0:
164,59,70967,5,10,0:3:0:0:
186,62,71078,1,2,1:3:0:0:
205,72,71189,1,2,1:3:0:0:
217,89,71300,2,0,B|240:77|240:77|256:41,2,50,2|2|2,1:3|1:3|1:3,0:0:0:0:
268,156,71634,102,0,B|263:183|263:183|280:215,2,50,2|2|2,1:3|1:3|1:3,0:0:0:0:
340,129,71967,2,0,B|366:155|366:155|369:186,2,50,10|2|2,0:3|1:3|1:3,0:0:0:0:
393,69,72301,5,2,1:3:0:0:
415,66,72412,1,2,1:3:0:0:
434,56,72523,1,2,1:3:0:0:
446,39,72634,2,0,B|472:44|472:44|510:67,2,50,2|2|2,1:3|1:3|1:3,0:0:0:0:
470,131,72967,102,0,B|485:156|485:156|485:209,2,50,10|2|2,0:3|1:3|1:3,0:0:0:0:
401,175,73301,2,0,B|395:202|395:202|414:254,2,50,2|2|2,1:3|1:3|1:3,0:0:0:0:
333,130,73634,6,0,B|339:108|339:108|319:65,2,50,2|2|2,1:3|1:3|1:3,0:0:0:0:
266,184,73967,22,0,L|205:211,3,37.5,0|0|0|0,1:0|1:0|1:0|1:0,0:0:0:0:
194,219,74301,22,0,P|143:167|114:67,1,150,0|0,0:0|0:0,0:0:0:0:
116,95,74967,85,0,0:0:0:0:
37,119,75134,1,0,0:0:0:0:
52,200,75301,2,0,P|30:257|30:298,1,75,0|0,1:0|0:0,0:0:0:0:
74,339,75634,22,0,P|169:320|249:303,1,150,14|0,0:0|0:0,0:0:0:0:
281,253,76134,1,0,0:0:0:0:
349,298,76301,2,0,P|324:235|287:131,1,150,2|0,1:0|0:0,0:0:0:0:
329,81,76801,1,0,0:0:0:0:
261,34,76967,86,0,L|179:77,1,75,10|0,0:0|0:0,0:0:0:0:
159,144,77301,2,0,P|120:132|67:114,1,75,2|8,0:0|0:0,0:0:0:0:
22,69,77634,2,0,P|38:112|61:236,1,150,2|0,1:0|0:0,0:0:0:0:
116,273,78134,1,0,0:0:0:0:
167,337,78301,22,0,L|245:360,1,75,10|0,0:0|0:0,0:0:0:0:
65,336,78634,2,0,P|36:350|1:377,1,75,2|0,0:0|0:0,0:0:0:0:
116,273,78967,2,0,P|133:224|152:199,1,75,2|0,1:3|0:0,0:0:0:0:
110,98,79301,2,0,P|149:125|193:129,1,75,2|0,0:3|0:0,0:0:0:0:
246,172,79634,86,0,P|315:142|356:68,1,150,10|2,0:0|0:0,0:0:0:0:
415,26,80134,1,0,0:0:0:0:
461,94,80301,2,0,L|517:106,3,37.5,2|0|8|0,1:0|0:0|0:0|0:0,0:0:0:0:
504,142,80634,2,0,P|472:192|456:269,1,112.5,8|0,0:0|0:0,0:0:0:0:
473,256,80967,22,0,L|297:296,1,150,10|0,0:0|0:0,0:0:0:0:
261,238,81467,1,8,0:0:0:0:
191,283,81634,2,0,P|144:297|110:324,1,75,2|0,1:0|0:0,0:0:0:0:
190,203,81967,2,0,P|201:169|240:141,1,75,0|0,0:0|0:0,0:0:0:0:
254,64,82301,86,0,P|189:51|97:38,1,150,10|10,0:3|0:3,0:0:0:0:
44,94,82801,1,0,0:0:0:0:
88,163,82967,2,0,P|108:212|120:241,1,75,2|0,1:3|0:0,0:0:0:0:
69,301,83301,2,0,P|25:282|-2:278,1,75,2|0,0:3|0:0,0:0:0:0:
135,347,83634,22,0,P|178:328|225:313,1,75,10|0,0:0|0:0,0:0:0:0:
221,200,83967,2,0,P|193:157|142:141,1,75,2|8,0:0|0:0,0:0:0:0:
267,267,84301,2,0,P|289:282|325:347,1,75,2|0,1:0|0:0,0:0:0:0:
434,361,84634,2,0,P|447:320|467:272,1,75,10|0,0:0|0:0,0:0:0:0:
379,266,84967,86,0,P|362:207|333:103,1,150,2|10,1:0|0:0,0:0:0:0:
406,75,85467,1,0,0:0:0:0:
331,39,85634,22,0,P|407:26|508:5,1,150,14|0,0:0|0:0,0:0:0:0:
490,176,86301,86,0,P|416:190|342:203,1,150,14|0,0:0|0:0,0:0:0:0:
217,96,86967,22,0,P|143:81|69:68,1,150,14|0,0:0|0:0,0:0:0:0:
5,220,87634,86,0,P|14:274|103:281,1,150,14|0,0:0|0:0,0:0:0:0:
253,340,88301,22,0,P|268:292|361:264,1,150,14|0,0:0|0:0,0:0:0:0:
427,302,88801,1,0,0:0:0:0:
468,231,88967,86,0,P|447:191|431:137,1,75,8|8,0:0|0:0,0:0:0:0:
375,106,89301,2,0,P|381:66|407:21,1,75,8|8,0:0|0:0,0:0:0:0:
314,22,89634,1,8,0:0:0:0:
251,75,89801,1,8,0:0:0:0:
177,37,89967,2,0,P|156:51|98:82,1,75,8|8,0:0|0:0,0:0:0:0:
71,147,90301,22,0,L|28:134,3,37.5,0|0|0|0,1:0|1:0|1:0|1:0,0:0:0:0:
136,193,90634,2,0,L|179:180,3,37.5,0|0|0|0,1:0|1:0|1:0|1:0,0:0:0:0:
64,225,90967,2,0,P|58:294|114:360,1,150,2|2,0:1|0:1,0:0:0:0:
239,250,91634,85,12,0:0:0:0:
312,287,91801,2,0,L|352:315,2,37.5,2|2|2,0:0|0:0|1:0,0:0:0:0:
176,203,92134,2,0,L|127:223,2,37.5,2|2|2,0:0|0:0|0:0,0:0:0:0:
292,187,92467,1,10,0:0:0:0:
292,187,92551,1,2,0:0:0:0:
292,187,92634,2,0,L|269:142,3,37.5,2|0|0|0,1:0|0:0|0:0|0:0,0:0:0:0:
291,115,92967,22,0,P|328:98|363:44,1,75,10|2,0:0|0:0,0:0:0:0:
425,35,93301,2,0,P|471:63|497:97,1,75,2|2,1:0|0:0,0:0:0:0:
452,154,93634,2,0,L|506:173,3,37.5,0|0|8|0,0:0|0:0|0:0|0:0,0:0:0:0:
496,207,93967,2,0,P|441:237|381:271,1,112.5,0|0,1:0|0:0,0:0:0:0:
378,264,94301,38,0,B|366:241|366:241|319:218,2,50,10|2|2,0:3|0:3|0:3,0:0:0:0:
324,343,94634,2,0,B|301:363|301:363|245:370,2,50,2|2|2,1:3|0:3|0:3,0:0:0:0:
265,280,94967,5,2,1:3:0:0:
243,283,95078,1,2,0:3:0:0:
224,293,95189,1,10,0:3:0:0:
212,310,95300,22,0,L|150:292,3,37.5,0|0|0|0,1:0|0:0|0:0|0:0,0:0:0:0:
140,277,95634,70,0,B|125:261|125:261|131:207,2,50,10|2|2,0:3|0:3|0:3,0:0:0:0:
50,317,95967,2,0,B|54:343|54:343|26:397,2,50,2|2|2,1:3|0:3|0:3,0:0:0:0:
48,240,96301,37,0,1:0:0:0:
184,176,96467,2,0,P|188:120|122:51,1,150,12|0,0:0|1:0,0:0:0:0:
208,14,96967,21,12,0:0:0:0:
281,128,97134,2,0,L|318:97,2,37.5,2|2|2,0:0|0:0|1:0,0:0:0:0:
128,53,97467,2,0,P|100:47|78:38,2,37.5,2|2|14,0:0|0:0|0:0,0:0:0:0:
184,176,97801,1,2,0:0:0:0:
184,176,97884,1,2,0:0:0:0:
184,176,97967,2,0,L|153:215,3,37.5,2|0|0|0,1:0|0:0|0:0|0:0,0:0:0:0:
176,244,98301,86,0,P|226:263|267:279,1,75,14|2,0:0|0:0,0:0:0:0:
302,331,98634,2,0,P|339:315|391:301,1,75,2|2,1:0|0:0,0:0:0:0:
429,245,98967,2,0,L|473:266,3,37.5,12|0|0|0,0:0|0:0|0:0|0:0,0:0:0:0:
356,220,99301,70,0,B|340:192|340:192|304:172,2,50,2|2|2,1:3|0:3|0:3,0:0:0:0:
285,259,99634,5,10,0:3:0:0:
263,256,99745,1,2,0:3:0:0:
244,246,99856,1,10,0:3:0:0:
232,229,99967,2,0,B|218:224|218:224|172:246,2,50,2|10|2,1:3|0:3|0:3,0:0:0:0:
248,151,100301,101,10,0:3:0:0:
245,129,100412,1,2,0:3:0:0:
235,110,100523,1,10,0:3:0:0:
218,98,100634,2,0,B|215:82|215:82|235:38,2,50,2|2|2,1:3|0:3|0:3,0:0:0:0:
149,132,100967,70,0,L|97:143,3,37.5,8|0|8|0,0:0|0:0|0:0|0:0,0:0:0:0:
212,182,101301,2,0,L|264:193,3,37.5,0|0|8|0,1:0|0:0|0:0|0:0,0:0:0:0:
139,212,101634,2,0,B|86:246|86:246|134:309|102:341,1,150,2|2,1:1|1:1,0:0:0:0:
275,350,102301,85,14,0:0:0:0:
333,292,102467,2,0,P|310:224|284:113,1,165.000005035401,0|0,0:0|0:0,0:0:0:0:
288,133,102884,1,2,0:1:0:0:
288,133,102967,2,0,L|380:152,1,82.5000025177003,14|0,0:0|0:0,0:0:0:0:
437,102,103301,1,8,0:0:0:0:
378,44,103467,1,0,0:0:0:0:
297,23,103634,22,0,P|254:26|215:38,1,82.5000025177003,8|0,0:0|0:0,0:0:0:0:
243,116,103967,38,0,B|228:126|228:126|213:189,2,55.0000016784668,2|2|2,1:3|0:3|0:3,0:0:0:0:
315,149,104301,37,10,0:0:0:0:
389,184,104467,1,2,1:0:0:0:
360,261,104634,1,10,0:0:0:0:
360,261,104801,1,2,1:0:0:0:
431,300,104967,22,0,P|408:330|393:381,1,82.5000025177003,10|0,0:1|0:0,0:0:0:0:
313,351,105301,2,0,P|292:345|259:342,3,41.2500012588501,8|0|0|0,0:0|0:0|0:0|0:0,0:0:0:0:
244,313,105634,2,0,P|207:285|189:208,1,123.75000377655,14|0,0:0|0:0,0:0:0:0:
205,199,105967,1,10,0:1:0:0:
145,141,106134,1,2,0:1:0:0:
208,88,106301,38,0,B|191:67|191:67|184:10,2,55.0000016784668,10|2|2,0:3|0:3|0:3,0:0:0:0:
298,155,106634,2,0,B|282:174|282:174|285:225,2,55.0000016784668,10|2|2,0:3|0:3|0:3,0:0:0:0:
286,79,106967,37,8,0:0:0:0:
364,52,107134,2,0,P|403:92|472:208,1,165.000005035401,0|2,1:0|0:1,0:0:0:0:
442,264,107634,22,0,P|400:254|359:239,1,82.5000025177003,14|0,0:0|0:0,0:0:0:0:
305,299,107967,2,0,L|352:359,3,41.2500012588501,8|0|0|0,0:0|0:0|0:0|0:0,0:0:0:0:
311,368,108301,2,0,P|249:350|177:342,1,123.75000377655,14|0,0:0|0:0,0:0:0:0:
174,329,108634,1,8,0:0:0:0:
119,266,108801,1,0,0:0:0:0:
55,318,108967,86,0,P|14:284|0:248,1,82.5000025177003,8|0,0:0|0:0,0:0:0:0:
62,204,109301,70,0,B|45:185|45:185|4:179,2,55.0000016784668,2|2|2,1:3|0:3|0:3,0:0:0:0:
143,205,109634,37,10,0:0:0:0:
191,137,109801,1,2,1:0:0:0:
153,64,109967,1,10,0:0:0:0:
153,64,110134,1,2,1:0:0:0:
230,34,110301,22,0,P|272:44|325:61,1,82.5000025177003,10|0,0:1|0:0,0:0:0:0:
385,87,110634,2,0,L|442:68,3,41.2500012588501,8|0|0|0,0:0|0:0|0:0|0:0,0:0:0:0:
458,50,110967,2,0,L|436:196,1,123.75000377655,14|0,0:0|0:0,0:0:0:0:
452,190,111301,1,2,1:1:0:0:
396,250,111467,1,2,0:1:0:0:
326,205,111634,38,0,B|299:187|299:187|287:155,2,55.0000016784668,2|2|2,0:3|0:3|0:3,0:0:0:0:
318,283,111967,38,0,P|335:298|353:322,3,41.2500012588501,0|0|8|8,0:0|0:0|0:0|0:0,0:0:0:0:
377,340,112301,2,0,L|474:363,1,82.5000025177003,6|10,1:0|0:0,0:0:0:0:
497,286,112634,2,0,P|486:235|468:151,1,123.75000377655,6|0,1:0|0:0,0:0:0:0:
453,156,112967,21,12,0:0:0:0:
