osu file format v14

[General]
AudioFilename: -RB VOLZZA- Viden - onoken (1).mp3
AudioLeadIn: 0
PreviewTime: 45483
Countdown: 0
SampleSet: Normal
StackLeniency: 0.7
Mode: 1
LetterboxInBreaks: 0
WidescreenStoryboard: 0

[Editor]
DistanceSpacing: 1.1
BeatDivisor: 4
GridSize: 32
TimelineZoom: 1.9

[Metadata]
Title:Viden
TitleUnicode:Viden
Artist:onoken
ArtistUnicode:onoken
Creator:Nwolf
Version:Oni
Source:REFLEC BEAT VOLZZA
Tags:アンティークフォノグラフ antique phonograph vienna Kennosuke Ono
BeatmapID:1513662
BeatmapSetID:708312

[Difficulty]
HPDrainRate:7
CircleSize:4
OverallDifficulty:6
ApproachRate:9
SliderMultiplier:1.4
SliderTickRate:1

[Events]
//Background and Video events
0,0,"background.jpg",0,0
//Break Periods
//Storyboard Layer 0 (Background)
//Storyboard Layer 1 (Fail)
//Storyboard Layer 2 (Pass)
//Storyboard Layer 3 (Foreground)
//Storyboard Sound Samples

[TimingPoints]
1690,344.827586206897,4,1,0,50,1,0
1690,-133.333333333333,4,1,0,50,0,0
6690,-131.578947368421,4,1,0,53,0,0
6776,-129.87012987013,4,1,0,56,0,0
6862,-126.582278481013,4,1,0,59,0,0
7034,-120.481927710843,4,1,0,65,0,0
7121,-117.647058823529,4,1,0,68,0,0
7207,-114.942528735632,4,1,0,70,0,0
12207,-113.636363636364,4,1,0,73,0,0
12293,-111.111111111111,4,1,0,76,0,0
12379,-108.695652173913,4,1,0,79,0,0
12552,-104.166666666667,4,1,0,85,0,0
12638,-102.040816326531,4,1,0,87,0,0
12724,-100,4,1,0,90,0,0
23758,-114.942528735632,4,1,0,65,0,0
27896,-107.52688172043,4,1,0,72,0,0
29362,-114.942528735632,4,1,0,65,0,0
33414,-107.52688172043,4,1,0,72,0,0
34276,-106.382978723404,4,1,0,72,0,0
34362,-105.263157894737,4,1,0,72,0,0
34448,-104.166666666667,4,1,0,72,0,0
34534,-103.092783505155,4,1,0,72,0,0
34621,-102.040816326531,4,1,0,72,0,0
34793,-107.52688172043,4,1,0,77,0,0
38845,-100,4,1,0,83,0,0
40396,-114.942528735632,4,1,0,77,0,0
42724,-125,4,1,0,77,0,0
42896,-123.456790123457,4,1,0,77,0,0
43069,-121.951219512195,4,1,0,77,0,0
43241,-119.047619047619,4,1,0,77,0,0
43414,-116.279069767442,4,1,0,77,0,0
43586,-113.636363636364,4,1,0,77,0,0
43758,-111.111111111111,4,1,0,77,0,0
43931,-108.695652173913,4,1,0,77,0,0
44103,-106.382978723404,4,1,0,77,0,0
44276,-103.092783505155,4,1,0,77,0,0
44448,-100,4,1,0,77,0,0
45483,-100,4,1,0,83,0,0
45827,-100,4,1,0,90,0,1
64965,-105.263157894737,4,1,0,80,0,1
65138,-109.89010989011,4,1,0,75,0,0
65483,-114.942528735632,4,1,0,75,0,0
69448,-107.52688172043,4,1,0,83,0,0
70138,-106.382978723404,4,1,0,83,0,0
70224,-105.263157894737,4,1,0,83,0,0
70310,-104.166666666667,4,1,0,83,0,0
70396,-103.092783505155,4,1,0,83,0,0
70483,-102.040816326531,4,1,0,83,0,0
70655,-107.52688172043,4,1,0,75,0,0
74965,-100,4,1,0,83,0,0
76345,-107.52688172043,4,1,0,75,0,0
80396,-100,4,1,0,83,0,0
81690,-98.0392156862745,4,1,0,83,0,0
82207,-96.1538461538461,4,1,0,83,0,0
82724,-94.3396226415094,4,1,0,83,0,0
83241,-92.5925925925926,4,1,0,83,0,0
83758,-90.9090909090909,4,1,0,83,0,0
84276,-89.2857142857143,4,1,0,83,0,0
84448,-87.719298245614,4,1,0,83,0,0
87293,-133.333333333333,4,1,0,50,0,0
89621,-100,4,1,0,83,0,0
89965,-100,4,1,0,90,0,1
112034,-100,4,1,0,50,0,0
112207,-105.263157894737,4,1,0,50,0,0
112379,-111.111111111111,4,1,0,50,0,0
112552,-117.647058823529,4,1,0,50,0,0
112724,-125,4,1,0,50,0,0
112896,-133.333333333333,4,1,0,50,0,0

[Colours]
Combo1 : 211,202,14
Combo2 : 69,98,233
Combo3 : 224,254,245
Combo4 : 27,170,218

[HitObjects]
224,224,1690,5,4,0:0:0:0:
288,160,1862,1,8,0:0:0:0:
224,160,2207,1,0,0:0:0:0:
288,160,2379,1,8,0:0:0:0:
224,160,2724,1,0,0:0:0:0:
288,160,2896,1,8,0:0:0:0:
224,160,3414,1,0,0:0:0:0:
288,160,3758,1,8,0:0:0:0:
224,160,3931,1,0,0:0:0:0:
288,160,4103,1,8,0:0:0:0:
224,160,4448,1,0,0:0:0:0:
288,160,4621,1,8,0:0:0:0:
224,160,4965,1,0,0:0:0:0:
288,160,5138,1,8,0:0:0:0:
224,160,5483,1,0,0:0:0:0:
288,160,5655,1,8,0:0:0:0:
288,160,6000,1,8,0:0:0:0:
224,160,6345,1,0,0:0:0:0:
224,160,6690,1,0,0:0:0:0:
224,160,6776,1,0,0:0:0:0:
288,160,6862,1,8,0:0:0:0:
288,160,7034,1,8,0:0:0:0:
288,160,7121,1,8,0:0:0:0:
224,160,7207,1,0,0:0:0:0:
288,160,7379,1,8,0:0:0:0:
288,160,7552,1,8,0:0:0:0:
224,160,7724,1,0,0:0:0:0:
288,160,7896,1,8,0:0:0:0:
224,160,8241,1,0,0:0:0:0:
288,160,8414,1,8,0:0:0:0:
288,160,8758,1,8,0:0:0:0:
288,160,8931,1,8,0:0:0:0:
224,160,9103,1,0,0:0:0:0:
224,160,9190,1,0,0:0:0:0:
288,160,9276,1,8,0:0:0:0:
224,160,9448,1,0,0:0:0:0:
288,160,9621,1,8,0:0:0:0:
288,160,9793,1,8,0:0:0:0:
224,160,9965,1,0,0:0:0:0:
288,160,10138,1,8,0:0:0:0:
288,160,10310,1,8,0:0:0:0:
224,160,10483,1,0,0:0:0:0:
288,160,10655,1,8,0:0:0:0:
224,160,11000,1,0,0:0:0:0:
288,160,11172,1,8,0:0:0:0:
288,160,11517,1,8,0:0:0:0:
224,160,11690,1,0,0:0:0:0:
288,160,11862,1,8,0:0:0:0:
224,160,12207,1,0,0:0:0:0:
224,160,12293,1,0,0:0:0:0:
288,160,12379,1,8,0:0:0:0:
288,160,12552,1,8,0:0:0:0:
288,160,12638,1,8,0:0:0:0:
224,160,12724,5,0,0:0:0:0:
288,160,12896,1,8,0:0:0:0:
288,160,13069,1,8,0:0:0:0:
224,160,13241,1,0,0:0:0:0:
224,160,13327,1,0,0:0:0:0:
288,160,13414,1,8,0:0:0:0:
288,160,13758,1,8,0:0:0:0:
288,160,13931,1,8,0:0:0:0:
224,160,14276,1,0,0:0:0:0:
224,160,14362,1,0,0:0:0:0:
288,160,14448,1,8,0:0:0:0:
224,160,14621,1,0,0:0:0:0:
288,160,14793,1,8,0:0:0:0:
224,160,14965,1,0,0:0:0:0:
288,160,15138,1,8,0:0:0:0:
288,160,15224,1,8,0:0:0:0:
288,160,15310,1,8,0:0:0:0:
288,160,15396,1,8,0:0:0:0:
224,160,15483,1,0,0:0:0:0:
224,160,15655,1,0,0:0:0:0:
288,160,15827,1,8,0:0:0:0:
224,160,16000,1,0,0:0:0:0:
224,160,16086,1,0,0:0:0:0:
224,160,16172,1,0,0:0:0:0:
288,160,16517,1,8,0:0:0:0:
288,160,16690,1,8,0:0:0:0:
288,160,17034,1,8,0:0:0:0:
288,160,17121,1,8,0:0:0:0:
288,160,17207,1,8,0:0:0:0:
224,160,17379,1,0,0:0:0:0:
224,160,17724,1,0,0:0:0:0:
224,160,17810,1,0,0:0:0:0:
288,160,17896,1,8,0:0:0:0:
224,160,18069,1,0,0:0:0:0:
288,160,18241,1,8,0:0:0:0:
288,160,18414,1,8,0:0:0:0:
224,160,18586,1,0,0:0:0:0:
224,160,18758,1,0,0:0:0:0:
224,160,18845,1,0,0:0:0:0:
288,160,18931,1,8,0:0:0:0:
288,160,19276,1,8,0:0:0:0:
288,160,19448,1,8,0:0:0:0:
224,160,19793,1,0,0:0:0:0:
224,160,19879,1,0,0:0:0:0:
288,160,19965,1,8,0:0:0:0:
224,160,20138,1,0,0:0:0:0:
288,160,20310,1,8,0:0:0:0:
224,160,20483,1,0,0:0:0:0:
288,160,20655,1,8,0:0:0:0:
288,160,20741,1,8,0:0:0:0:
288,160,20827,1,8,0:0:0:0:
288,160,20914,1,8,0:0:0:0:
224,160,21000,1,0,0:0:0:0:
224,160,21172,1,0,0:0:0:0:
288,160,21345,1,8,0:0:0:0:
224,224,21517,1,4,0:0:0:0:
224,160,21690,1,0,0:0:0:0:
288,160,21862,1,8,0:0:0:0:
224,224,22034,1,4,0:0:0:0:
224,224,22207,1,4,0:0:0:0:
224,224,23758,5,4,0:0:0:0:
288,160,23931,1,8,0:0:0:0:
288,160,24103,1,8,0:0:0:0:
224,160,24276,1,0,0:0:0:0:
288,160,24448,1,8,0:0:0:0:
288,160,24621,1,8,0:0:0:0:
224,160,24793,1,0,0:0:0:0:
288,160,24965,1,8,0:0:0:0:
224,224,25138,1,4,0:0:0:0:
288,160,25310,1,8,0:0:0:0:
288,160,25483,1,8,0:0:0:0:
224,160,25655,1,0,0:0:0:0:
288,160,25827,1,8,0:0:0:0:
288,160,26000,1,8,0:0:0:0:
224,160,26172,1,0,0:0:0:0:
288,160,26345,1,8,0:0:0:0:
224,224,26517,1,4,0:0:0:0:
288,160,26690,1,8,0:0:0:0:
288,160,26862,1,8,0:0:0:0:
224,160,27034,1,0,0:0:0:0:
288,160,27207,1,8,0:0:0:0:
288,160,27379,1,8,0:0:0:0:
224,160,27552,1,0,0:0:0:0:
288,160,27724,1,8,0:0:0:0:
224,224,27896,1,4,0:0:0:0:
288,160,28069,1,8,0:0:0:0:
288,160,28155,1,8,0:0:0:0:
224,160,28241,1,0,0:0:0:0:
224,160,28327,1,0,0:0:0:0:
288,160,28414,1,8,0:0:0:0:
288,160,28758,1,8,0:0:0:0:
288,160,28845,1,8,0:0:0:0:
224,160,28931,1,0,0:0:0:0:
224,160,29017,1,0,0:0:0:0:
288,160,29103,1,8,0:0:0:0:
224,224,29276,1,4,0:0:0:0:
288,160,29448,1,8,0:0:0:0:
288,160,29621,1,8,0:0:0:0:
224,160,29793,1,0,0:0:0:0:
288,160,29965,1,8,0:0:0:0:
288,160,30138,1,8,0:0:0:0:
224,160,30310,1,0,0:0:0:0:
288,160,30483,1,8,0:0:0:0:
224,224,30655,1,4,0:0:0:0:
288,160,30827,1,8,0:0:0:0:
288,160,31000,1,8,0:0:0:0:
224,160,31172,1,0,0:0:0:0:
288,160,31345,1,8,0:0:0:0:
288,160,31517,1,8,0:0:0:0:
224,160,31690,1,0,0:0:0:0:
288,160,31862,1,8,0:0:0:0:
224,224,32034,1,4,0:0:0:0:
288,160,32207,1,8,0:0:0:0:
288,160,32379,1,8,0:0:0:0:
224,160,32552,1,0,0:0:0:0:
288,160,32724,1,8,0:0:0:0:
288,160,32896,1,8,0:0:0:0:
224,160,33069,1,0,0:0:0:0:
288,160,33241,1,8,0:0:0:0:
224,224,33414,1,4,0:0:0:0:
288,160,33586,1,8,0:0:0:0:
288,160,33672,1,8,0:0:0:0:
224,160,33758,1,0,0:0:0:0:
224,160,33845,1,0,0:0:0:0:
288,160,33931,1,8,0:0:0:0:
288,160,34276,1,8,0:0:0:0:
288,160,34362,1,8,0:0:0:0:
224,160,34448,1,0,0:0:0:0:
224,160,34534,1,0,0:0:0:0:
288,160,34621,1,8,0:0:0:0:
224,224,34793,1,4,0:0:0:0:
288,160,34965,1,8,0:0:0:0:
288,160,35052,1,8,0:0:0:0:
288,160,35138,1,8,0:0:0:0:
224,160,35310,1,0,0:0:0:0:
288,160,35483,1,8,0:0:0:0:
288,160,35655,1,8,0:0:0:0:
224,160,35827,1,0,0:0:0:0:
288,160,36000,1,8,0:0:0:0:
224,224,36172,1,4,0:0:0:0:
224,160,36345,1,0,0:0:0:0:
288,160,36517,1,8,0:0:0:0:
288,160,36603,1,8,0:0:0:0:
288,160,36690,1,8,0:0:0:0:
224,160,36862,1,0,0:0:0:0:
224,160,36948,1,0,0:0:0:0:
224,160,37034,1,0,0:0:0:0:
288,160,37207,1,8,0:0:0:0:
224,224,37552,1,4,0:0:0:0:
288,160,37724,1,8,0:0:0:0:
288,160,37810,1,8,0:0:0:0:
288,160,37896,1,8,0:0:0:0:
224,160,38069,1,0,0:0:0:0:
288,160,38241,1,8,0:0:0:0:
288,160,38414,1,8,0:0:0:0:
224,160,38586,1,0,0:0:0:0:
288,160,38758,1,8,0:0:0:0:
224,224,38931,1,4,0:0:0:0:
288,160,39103,1,8,0:0:0:0:
288,160,39190,1,8,0:0:0:0:
224,160,39276,1,0,0:0:0:0:
224,160,39362,1,0,0:0:0:0:
288,160,39448,1,8,0:0:0:0:
288,160,39793,1,8,0:0:0:0:
288,160,39879,1,8,0:0:0:0:
224,160,39965,1,0,0:0:0:0:
224,160,40052,1,0,0:0:0:0:
288,160,40138,1,8,0:0:0:0:
224,224,40310,1,4,0:0:0:0:
288,160,40483,1,8,0:0:0:0:
288,160,40569,1,8,0:0:0:0:
288,160,40655,1,8,0:0:0:0:
224,160,40827,1,0,0:0:0:0:
288,160,41000,1,8,0:0:0:0:
288,160,41172,1,8,0:0:0:0:
224,160,41345,1,0,0:0:0:0:
288,160,41517,1,8,0:0:0:0:
224,224,41690,1,4,0:0:0:0:
224,160,41862,1,0,0:0:0:0:
288,160,42034,1,8,0:0:0:0:
288,160,42121,1,8,0:0:0:0:
288,160,42207,1,8,0:0:0:0:
224,160,42379,1,0,0:0:0:0:
224,160,42465,1,0,0:0:0:0:
224,160,42552,1,0,0:0:0:0:
288,160,42724,1,8,0:0:0:0:
224,160,42896,1,0,0:0:0:0:
224,160,43069,1,0,0:0:0:0:
224,160,43241,1,0,0:0:0:0:
224,160,43414,1,0,0:0:0:0:
224,160,43586,1,0,0:0:0:0:
224,160,43758,1,0,0:0:0:0:
224,160,43931,1,0,0:0:0:0:
224,160,44103,1,0,0:0:0:0:
224,160,44276,1,0,0:0:0:0:
256,192,44448,12,0,45310,0:0:0:0:
288,160,45483,5,8,0:0:0:0:
288,160,45655,1,8,0:0:0:0:
224,224,45827,1,4,0:0:0:0:
288,160,46000,1,8,0:0:0:0:
288,160,46086,1,8,0:0:0:0:
288,160,46172,1,8,0:0:0:0:
288,160,46345,1,8,0:0:0:0:
288,160,46431,1,8,0:0:0:0:
224,160,46517,1,0,0:0:0:0:
224,160,46603,1,0,0:0:0:0:
288,160,46690,1,8,0:0:0:0:
224,160,47034,1,0,0:0:0:0:
288,160,47121,1,8,0:0:0:0:
224,160,47207,1,0,0:0:0:0:
288,160,47379,1,8,0:0:0:0:
224,160,47465,1,0,0:0:0:0:
288,160,47552,1,8,0:0:0:0:
288,160,47724,1,8,0:0:0:0:
288,160,47810,1,8,0:0:0:0:
224,160,47896,1,0,0:0:0:0:
224,160,47983,1,0,0:0:0:0:
288,160,48069,1,8,0:0:0:0:
224,160,48327,1,0,0:0:0:0:
224,160,48414,1,0,0:0:0:0:
288,160,48500,1,8,0:0:0:0:
288,160,48586,1,8,0:0:0:0:
224,160,48672,1,0,0:0:0:0:
224,160,48758,1,0,0:0:0:0:
288,160,48931,1,8,0:0:0:0:
288,160,49103,1,8,0:0:0:0:
288,160,49190,1,8,0:0:0:0:
224,160,49276,1,0,0:0:0:0:
224,160,49362,1,0,0:0:0:0:
288,160,49448,1,8,0:0:0:0:
288,160,49707,1,8,0:0:0:0:
224,160,49793,1,0,0:0:0:0:
224,160,49879,1,0,0:0:0:0:
288,160,49965,1,8,0:0:0:0:
224,160,50138,1,0,0:0:0:0:
224,160,50224,1,0,0:0:0:0:
288,160,50310,1,8,0:0:0:0:
288,160,50483,1,8,0:0:0:0:
288,160,50569,1,8,0:0:0:0:
224,160,50655,1,0,0:0:0:0:
224,160,50827,1,0,0:0:0:0:
288,224,51000,1,12,0:0:0:0:
224,160,51172,1,0,0:0:0:0:
224,160,51258,1,0,0:0:0:0:
224,160,51345,1,0,0:0:0:0:
288,160,51517,1,8,0:0:0:0:
288,160,51603,1,8,0:0:0:0:
288,160,51690,1,8,0:0:0:0:
288,160,51862,1,8,0:0:0:0:
288,160,51948,1,8,0:0:0:0:
224,160,52034,1,0,0:0:0:0:
224,160,52121,1,0,0:0:0:0:
288,160,52207,1,8,0:0:0:0:
224,160,52552,1,0,0:0:0:0:
288,160,52638,1,8,0:0:0:0:
224,160,52724,1,0,0:0:0:0:
288,160,52896,1,8,0:0:0:0:
224,160,52983,1,0,0:0:0:0:
288,160,53069,1,8,0:0:0:0:
288,160,53241,1,8,0:0:0:0:
288,160,53327,1,8,0:0:0:0:
224,160,53414,1,0,0:0:0:0:
224,160,53500,1,0,0:0:0:0:
288,160,53586,1,8,0:0:0:0:
288,160,53931,1,8,0:0:0:0:
224,160,54103,1,0,0:0:0:0:
288,160,54448,1,8,0:0:0:0:
224,160,54793,1,0,0:0:0:0:
224,160,54908,1,0,0:0:0:0:
288,160,55023,1,8,0:0:0:0:
224,160,55138,1,0,0:0:0:0:
224,160,55310,1,0,0:0:0:0:
288,160,55483,1,8,0:0:0:0:
288,160,55569,1,8,0:0:0:0:
224,160,55655,1,0,0:0:0:0:
288,160,56000,1,8,0:0:0:0:
288,160,56086,1,8,0:0:0:0:
224,160,56172,1,0,0:0:0:0:
288,160,56258,1,0,0:0:0:0:
224,160,56345,1,0,0:0:0:0:
224,160,56431,1,0,0:0:0:0:
288,160,56517,1,8,0:0:0:0:
224,160,56862,1,0,0:0:0:0:
224,160,56948,1,0,0:0:0:0:
288,160,57034,1,8,0:0:0:0:
288,160,57207,1,8,0:0:0:0:
224,160,57379,1,0,0:0:0:0:
224,160,57465,1,0,0:0:0:0:
288,160,57552,1,8,0:0:0:0:
288,160,57638,1,8,0:0:0:0:
224,160,57724,1,0,0:0:0:0:
288,160,57896,1,8,0:0:0:0:
224,160,58069,1,0,0:0:0:0:
288,160,58155,1,8,0:0:0:0:
224,160,58241,1,0,0:0:0:0:
288,160,58414,1,8,0:0:0:0:
224,160,58500,1,0,0:0:0:0:
288,160,58586,1,8,0:0:0:0:
224,160,58758,1,0,0:0:0:0:
224,160,58844,1,0,0:0:0:0:
288,160,58930,1,8,0:0:0:0:
288,160,59017,1,8,0:0:0:0:
224,160,59103,1,0,0:0:0:0:
224,160,59276,1,8,0:0:0:0:
224,160,59362,1,0,0:0:0:0:
224,160,59448,1,0,0:0:0:0:
288,160,59534,1,8,0:0:0:0:
288,160,59621,1,8,0:0:0:0:
224,160,59707,1,0,0:0:0:0:
224,160,59793,1,0,0:0:0:0:
288,160,59965,1,8,0:0:0:0:
288,160,60138,1,8,0:0:0:0:
288,160,60224,1,8,0:0:0:0:
224,160,60310,1,0,0:0:0:0:
288,160,60655,1,8,0:0:0:0:
288,160,60741,1,8,0:0:0:0:
224,160,60828,1,0,0:0:0:0:
224,160,60914,1,0,0:0:0:0:
288,160,61000,1,8,0:0:0:0:
224,160,61172,1,0,0:0:0:0:
224,160,61258,1,0,0:0:0:0:
288,160,61345,1,8,0:0:0:0:
288,160,61517,1,8,0:0:0:0:
288,160,61603,1,8,0:0:0:0:
224,160,61690,1,0,0:0:0:0:
224,160,61776,1,0,0:0:0:0:
224,160,61862,1,0,0:0:0:0:
288,224,62034,1,12,0:0:0:0:
224,160,62379,1,0,0:0:0:0:
288,160,62552,1,8,0:0:0:0:
224,160,62638,1,0,0:0:0:0:
288,160,62724,1,8,0:0:0:0:
224,160,62896,1,0,0:0:0:0:
288,160,62983,1,8,0:0:0:0:
224,160,63069,1,0,0:0:0:0:
288,160,63241,1,8,0:0:0:0:
224,160,63327,1,0,0:0:0:0:
288,160,63414,1,8,0:0:0:0:
224,160,63586,1,0,0:0:0:0:
224,160,63672,1,0,0:0:0:0:
224,160,63758,1,0,0:0:0:0:
288,160,63931,1,8,0:0:0:0:
288,160,64017,1,8,0:0:0:0:
288,160,64103,1,8,0:0:0:0:
224,160,64276,1,0,0:0:0:0:
224,160,64362,1,0,0:0:0:0:
224,160,64448,1,0,0:0:0:0:
288,224,64621,1,12,0:0:0:0:
288,160,64965,1,8,0:0:0:0:
224,160,65138,5,0,0:0:0:0:
288,160,65483,1,8,0:0:0:0:
224,160,65655,1,0,0:0:0:0:
224,160,66000,1,0,0:0:0:0:
288,160,66172,1,8,0:0:0:0:
224,160,66345,1,0,0:0:0:0:
224,160,66690,1,0,0:0:0:0:
288,160,66862,1,8,0:0:0:0:
224,160,67207,1,0,0:0:0:0:
288,160,67552,1,8,0:0:0:0:
224,160,67896,1,0,0:0:0:0:
288,160,68241,1,8,0:0:0:0:
224,160,68414,1,0,0:0:0:0:
224,160,68758,1,0,0:0:0:0:
288,160,68931,1,8,0:0:0:0:
224,160,69103,1,0,0:0:0:0:
224,160,69448,1,0,0:0:0:0:
224,160,69534,1,0,0:0:0:0:
288,160,69621,1,8,0:0:0:0:
288,160,69707,1,8,0:0:0:0:
224,160,69793,1,0,0:0:0:0:
288,160,70138,1,8,0:0:0:0:
288,160,70224,1,8,0:0:0:0:
224,160,70310,1,0,0:0:0:0:
224,160,70396,1,0,0:0:0:0:
288,160,70483,1,8,0:0:0:0:
224,224,70655,1,4,0:0:0:0:
224,160,70827,1,0,0:0:0:0:
224,160,71172,1,0,0:0:0:0:
288,160,71345,1,8,0:0:0:0:
224,160,71690,1,0,0:0:0:0:
288,160,71862,1,8,0:0:0:0:
224,160,72207,1,0,0:0:0:0:
288,160,72379,1,8,0:0:0:0:
224,160,72552,1,0,0:0:0:0:
288,160,72724,1,8,0:0:0:0:
224,160,72896,1,0,0:0:0:0:
288,160,73069,1,8,0:0:0:0:
288,160,73155,1,8,0:0:0:0:
288,160,73241,1,8,0:0:0:0:
288,160,73327,1,8,0:0:0:0:
224,160,73414,1,0,0:0:0:0:
224,160,73586,1,0,0:0:0:0:
224,160,73931,1,0,0:0:0:0:
288,160,74103,1,8,0:0:0:0:
224,160,74448,1,0,0:0:0:0:
288,160,74621,1,8,0:0:0:0:
224,160,74965,1,0,0:0:0:0:
224,160,75052,1,0,0:0:0:0:
288,160,75138,1,8,0:0:0:0:
288,160,75224,1,8,0:0:0:0:
224,160,75310,1,0,0:0:0:0:
288,160,75655,1,8,0:0:0:0:
288,160,75741,1,8,0:0:0:0:
224,160,75827,1,0,0:0:0:0:
224,160,75914,1,0,0:0:0:0:
288,160,76000,1,8,0:0:0:0:
224,160,76172,1,0,0:0:0:0:
224,160,76345,1,0,0:0:0:0:
224,160,76690,1,0,0:0:0:0:
288,160,76862,1,8,0:0:0:0:
224,160,77207,1,0,0:0:0:0:
288,160,77379,1,8,0:0:0:0:
224,160,77724,1,0,0:0:0:0:
288,160,77896,1,8,0:0:0:0:
224,160,78069,1,0,0:0:0:0:
288,160,78241,1,8,0:0:0:0:
224,160,78414,1,0,0:0:0:0:
288,160,78586,1,8,0:0:0:0:
288,160,78672,1,8,0:0:0:0:
288,160,78758,1,8,0:0:0:0:
288,160,78845,1,8,0:0:0:0:
224,160,78931,1,0,0:0:0:0:
224,160,79103,1,0,0:0:0:0:
224,160,79448,1,0,0:0:0:0:
288,160,79621,1,8,0:0:0:0:
224,160,79965,1,0,0:0:0:0:
288,160,80138,1,8,0:0:0:0:
224,160,80483,1,0,0:0:0:0:
224,160,80569,1,0,0:0:0:0:
288,160,80655,1,8,0:0:0:0:
288,160,80741,1,8,0:0:0:0:
224,160,80827,1,0,0:0:0:0:
224,160,81000,1,0,0:0:0:0:
288,160,81172,1,8,0:0:0:0:
288,160,81258,1,8,0:0:0:0:
224,160,81345,1,0,0:0:0:0:
224,160,81431,1,0,0:0:0:0:
288,160,81517,1,8,0:0:0:0:
288,224,81690,1,12,0:0:0:0:
288,224,81862,1,12,0:0:0:0:
224,160,82034,1,0,0:0:0:0:
288,224,82207,1,12,0:0:0:0:
288,224,82379,1,12,0:0:0:0:
224,160,82552,1,0,0:0:0:0:
288,224,82724,1,12,0:0:0:0:
288,224,82896,1,12,0:0:0:0:
224,160,83069,1,0,0:0:0:0:
288,224,83241,1,12,0:0:0:0:
288,224,83414,1,12,0:0:0:0:
224,160,83586,1,0,0:0:0:0:
288,224,83758,1,12,0:0:0:0:
288,224,83931,1,12,0:0:0:0:
224,160,84103,1,0,0:0:0:0:
288,224,84276,1,12,0:0:0:0:
32,32,84448,6,0,B|480:32|480:32|32:352|32:352|320:352,1,1276.79998441406
288,160,89621,5,8,0:0:0:0:
288,160,89793,1,8,0:0:0:0:
224,224,89965,1,4,0:0:0:0:
288,160,90138,1,8,0:0:0:0:
288,160,90224,1,8,0:0:0:0:
288,160,90310,1,8,0:0:0:0:
288,160,90483,1,8,0:0:0:0:
288,160,90569,1,8,0:0:0:0:
224,160,90655,1,0,0:0:0:0:
224,160,90741,1,0,0:0:0:0:
288,160,90828,1,8,0:0:0:0:
224,160,91172,1,0,0:0:0:0:
288,160,91259,1,8,0:0:0:0:
224,160,91345,1,0,0:0:0:0:
288,160,91517,1,8,0:0:0:0:
224,160,91603,1,0,0:0:0:0:
288,160,91690,1,8,0:0:0:0:
288,160,91862,1,8,0:0:0:0:
288,160,91948,1,8,0:0:0:0:
224,160,92034,1,0,0:0:0:0:
224,160,92121,1,0,0:0:0:0:
288,160,92207,1,8,0:0:0:0:
224,160,92465,1,0,0:0:0:0:
224,160,92552,1,0,0:0:0:0:
288,160,92638,1,8,0:0:0:0:
288,160,92724,1,8,0:0:0:0:
224,160,92810,1,0,0:0:0:0:
224,160,92896,1,0,0:0:0:0:
288,160,93069,1,8,0:0:0:0:
288,160,93241,1,8,0:0:0:0:
288,160,93328,1,8,0:0:0:0:
224,160,93414,1,0,0:0:0:0:
224,160,93500,1,0,0:0:0:0:
288,160,93586,1,8,0:0:0:0:
288,160,93845,1,8,0:0:0:0:
224,160,93931,1,0,0:0:0:0:
224,160,94017,1,0,0:0:0:0:
288,160,94103,1,8,0:0:0:0:
224,160,94276,1,0,0:0:0:0:
224,160,94362,1,0,0:0:0:0:
288,160,94448,1,8,0:0:0:0:
288,160,94621,1,8,0:0:0:0:
288,160,94707,1,8,0:0:0:0:
224,160,94793,1,0,0:0:0:0:
224,160,94965,1,0,0:0:0:0:
288,224,95138,1,12,0:0:0:0:
224,160,95310,1,0,0:0:0:0:
224,160,95395,1,0,0:0:0:0:
224,160,95483,1,0,0:0:0:0:
288,160,95655,1,8,0:0:0:0:
288,160,95741,1,8,0:0:0:0:
288,160,95827,1,8,0:0:0:0:
288,160,96000,1,8,0:0:0:0:
288,160,96086,1,8,0:0:0:0:
224,160,96172,1,0,0:0:0:0:
224,160,96259,1,0,0:0:0:0:
288,160,96345,1,8,0:0:0:0:
224,160,96690,1,0,0:0:0:0:
288,160,96776,1,8,0:0:0:0:
224,160,96862,1,0,0:0:0:0:
288,160,97034,1,8,0:0:0:0:
224,160,97121,1,0,0:0:0:0:
288,160,97207,1,8,0:0:0:0:
288,160,97379,1,8,0:0:0:0:
288,160,97465,1,8,0:0:0:0:
224,160,97552,1,0,0:0:0:0:
224,160,97638,1,0,0:0:0:0:
288,160,97724,1,8,0:0:0:0:
218,156,97896,1,0,0:0:0:0:
288,160,98069,1,8,0:0:0:0:
224,160,98241,1,0,0:0:0:0:
288,160,98586,1,8,0:0:0:0:
224,160,98931,1,0,0:0:0:0:
224,160,99046,1,0,0:0:0:0:
288,160,99161,1,8,0:0:0:0:
224,160,99276,1,0,0:0:0:0:
224,160,99448,1,0,0:0:0:0:
288,160,99621,1,8,0:0:0:0:
288,160,99707,1,8,0:0:0:0:
224,160,99793,1,0,0:0:0:0:
288,160,100138,1,8,0:0:0:0:
288,160,100224,1,8,0:0:0:0:
224,160,100310,1,0,0:0:0:0:
288,160,100396,1,0,0:0:0:0:
224,160,100483,1,0,0:0:0:0:
224,160,100569,1,0,0:0:0:0:
288,160,100655,1,8,0:0:0:0:
224,160,101000,1,0,0:0:0:0:
224,160,101086,1,0,0:0:0:0:
288,160,101172,1,8,0:0:0:0:
288,160,101258,1,8,0:0:0:0:
288,160,101345,1,8,0:0:0:0:
224,160,101517,1,0,0:0:0:0:
224,160,101603,1,0,0:0:0:0:
288,160,101690,1,8,0:0:0:0:
288,160,101776,1,8,0:0:0:0:
224,160,101862,1,0,0:0:0:0:
288,160,102034,1,8,0:0:0:0:
224,160,102207,1,0,0:0:0:0:
288,160,102293,1,8,0:0:0:0:
224,160,102379,1,0,0:0:0:0:
288,160,102552,1,8,0:0:0:0:
224,160,102638,1,0,0:0:0:0:
288,160,102724,1,8,0:0:0:0:
224,160,102896,1,0,0:0:0:0:
224,160,102982,1,0,0:0:0:0:
288,160,103068,1,8,0:0:0:0:
288,160,103155,1,8,0:0:0:0:
224,160,103241,1,0,0:0:0:0:
288,160,103414,1,8,0:0:0:0:
288,160,103500,1,0,0:0:0:0:
288,160,103586,1,0,0:0:0:0:
288,160,103673,1,8,0:0:0:0:
288,160,103759,1,8,0:0:0:0:
224,160,103845,1,0,0:0:0:0:
224,160,103931,1,0,0:0:0:0:
288,160,104103,1,8,0:0:0:0:
288,160,104276,1,8,0:0:0:0:
288,160,104362,1,8,0:0:0:0:
224,160,104448,1,0,0:0:0:0:
288,160,104793,1,8,0:0:0:0:
288,160,104879,1,8,0:0:0:0:
224,160,104966,1,0,0:0:0:0:
224,160,105052,1,0,0:0:0:0:
288,160,105138,1,8,0:0:0:0:
224,160,105310,1,0,0:0:0:0:
224,160,105396,1,0,0:0:0:0:
288,160,105483,1,8,0:0:0:0:
288,160,105655,1,8,0:0:0:0:
288,160,105741,1,8,0:0:0:0:
224,160,105828,1,0,0:0:0:0:
224,160,106000,1,0,0:0:0:0:
288,224,106172,1,12,0:0:0:0:
224,160,106517,1,0,0:0:0:0:
224,160,106603,1,0,0:0:0:0:
288,160,106690,1,8,0:0:0:0:
288,160,106776,1,8,0:0:0:0:
288,160,106862,1,8,0:0:0:0:
224,160,107034,1,0,0:0:0:0:
224,160,107121,1,0,0:0:0:0:
288,160,107207,1,8,0:0:0:0:
288,160,107293,1,8,0:0:0:0:
224,160,107379,1,0,0:0:0:0:
288,160,107552,1,8,0:0:0:0:
224,160,107724,1,0,0:0:0:0:
288,160,107810,1,8,0:0:0:0:
224,160,107896,1,0,0:0:0:0:
288,160,108069,1,8,0:0:0:0:
224,160,108155,1,0,0:0:0:0:
288,160,108241,1,8,0:0:0:0:
224,160,108414,1,0,0:0:0:0:
224,160,108500,1,0,0:0:0:0:
288,160,108586,1,8,0:0:0:0:
288,160,108672,1,8,0:0:0:0:
224,160,108758,1,0,0:0:0:0:
288,160,108931,1,8,0:0:0:0:
224,160,109103,1,0,0:0:0:0:
224,160,109190,1,0,0:0:0:0:
288,160,109276,1,8,0:0:0:0:
224,160,109448,1,0,0:0:0:0:
224,160,109534,1,0,0:0:0:0:
288,160,109793,1,8,0:0:0:0:
224,160,109965,1,0,0:0:0:0:
224,160,110052,1,0,0:0:0:0:
288,160,110310,1,8,0:0:0:0:
288,160,110396,1,8,0:0:0:0:
224,160,110483,1,0,0:0:0:0:
224,160,110569,1,0,0:0:0:0:
288,160,110655,1,8,0:0:0:0:
224,160,110827,1,0,0:0:0:0:
224,160,110914,1,0,0:0:0:0:
224,160,111000,1,0,0:0:0:0:
288,160,111172,1,8,0:0:0:0:
224,160,111258,1,0,0:0:0:0:
288,160,111345,1,8,0:0:0:0:
288,160,111431,1,8,0:0:0:0:
224,160,111517,1,0,0:0:0:0:
288,160,111690,1,8,0:0:0:0:
288,160,111776,1,8,0:0:0:0:
288,160,111862,1,8,0:0:0:0:
224,160,112034,1,0,0:0:0:0:
288,160,112207,1,8,0:0:0:0:
288,160,112379,1,8,0:0:0:0:
224,160,112552,1,0,0:0:0:0:
288,160,112724,1,8,0:0:0:0:
224,160,113069,1,0,0:0:0:0:
288,160,113241,1,8,0:0:0:0:
288,160,113586,1,8,0:0:0:0:
288,160,113758,1,8,0:0:0:0:
224,160,114103,1,0,0:0:0:0:
288,160,114448,1,8,0:0:0:0:
224,160,114793,1,0,0:0:0:0:
288,160,114965,1,8,0:0:0:0:
224,160,115310,1,0,0:0:0:0:
288,160,115483,1,8,0:0:0:0:
288,160,115655,1,8,0:0:0:0:
224,160,115827,1,0,0:0:0:0:
288,160,116000,1,8,0:0:0:0:
