osu file format v14

[General]
AudioFilename: -RB VOLZZA- Viden - onoken (1).mp3
AudioLeadIn: 0
PreviewTime: 45483
Countdown: 1
SampleSet: Soft
StackLeniency: 0.3
Mode: 0
LetterboxInBreaks: 0
WidescreenStoryboard: 1

[Editor]
DistanceSpacing: 0.3
BeatDivisor: 4
GridSize: 4
TimelineZoom: 1.3

[Metadata]
Title:Viden
TitleUnicode:Viden
Artist:onoken
ArtistUnicode:onoken
Creator:-kevincela-
Version:Hard
Source:REFLEC BEAT VOLZZA
Tags:Nerova Riuz GX toybot NRG アンティークフォノグラフ antique phonograph vienna Kennosuke Ono
BeatmapID:1054667
BeatmapSetID:375402

[Difficulty]
HPDrainRate:5
CircleSize:4
OverallDifficulty:6
ApproachRate:8
SliderMultiplier:1.5
SliderTickRate:1

[Events]
//Background and Video events
0,0,"background.jpg",0,0
//Break Periods
//Storyboard Layer 0 (Background)
//Storyboard Layer 1 (Fail)
//Storyboard Layer 2 (Pass)
//Storyboard Layer 3 (Foreground)
//Storyboard Sound Samples

[TimingPoints]
1690,344.827586206897,4,2,1,60,1,0
1690,-133.333333333333,4,2,1,60,0,0
12724,-111.111111111111,4,2,1,70,0,0
15138,-100,4,2,1,70,0,0
15483,-111.111111111111,4,2,1,70,0,0
20655,-100,4,2,1,70,0,0
22724,-200,4,2,1,20,0,0
23758,-125,4,2,1,70,0,0
34448,-100,4,2,1,70,0,0
34793,-111.111111111111,4,2,1,70,0,0
43586,-100,4,2,1,70,0,0
44276,-133.333333333333,4,2,1,70,0,0
44621,-153.846153846154,4,2,1,70,0,0
44965,-181.818181818182,4,2,1,70,0,0
45310,-200,4,2,1,70,0,0
45827,-100,4,2,1,80,0,1
62379,-111.111111111111,4,2,1,80,0,1
63069,-100,4,2,1,80,0,1
65138,-133.333333333333,4,2,1,70,0,0
70655,-111.111111111111,4,2,1,70,0,0
81690,-100,4,2,1,70,0,0
84965,-111.111111111111,4,2,1,70,0,0
85483,-125,4,2,1,70,0,0
87034,-300,4,2,2,70,0,0
87207,-300,4,2,2,20,0,0
89621,-100,4,2,1,40,0,0
89965,-100,4,2,1,80,0,1
100655,-80,4,2,1,80,0,1
101000,-100,4,2,1,80,0,1
107207,-90.9090909090909,4,2,1,80,0,1
107896,-83.3333333333333,4,2,1,80,0,1
108586,-76.9230769230769,4,2,1,80,0,1
109276,-90.9090909090909,4,2,1,80,0,1
112034,-133.333333333333,4,2,1,60,0,0
116000,-166.666666666667,4,2,1,60,0,0
116345,-166.666666666667,4,2,1,50,0,0
116517,-166.666666666667,4,2,1,40,0,0
116690,-166.666666666667,4,2,1,30,0,0

[Colours]
Combo1 : 211,202,14
Combo2 : 69,98,233
Combo3 : 224,254,245
Combo4 : 27,170,218

[HitObjects]
52,240,1690,5,4,0:0:0:0:
132,268,1862,2,0,L|262:259,1,112.500004291535,2|0,0:0|1:0,0:0:0:0:
320,296,2379,2,0,P|328:328|332:368,2,56.2500021457673,2|0|0,0:0|0:0|1:0,0:0:0:0:
244,260,2896,6,0,P|236:208|248:128,1,112.500004291535,2|0,0:0|0:0,0:0:0:0:
292,80,3414,1,2,0:0:0:0:
360,128,3586,2,0,L|364:168,2,28.1250010728836,0|0|2,0:0|0:0|0:0,0:0:0:0:
420,68,3931,1,0,0:0:0:0:
488,120,4103,2,0,P|496:148|496:196,1,56.2500021457673,2|0,0:0|0:0,0:0:0:0:
464,300,4448,5,0,1:0:0:0:
392,348,4621,2,0,P|340:356|272:324,1,112.500004291535,2|0,0:0|1:0,0:0:0:0:
232,268,5138,2,0,L|240:212,1,56.2500021457673,2|0,0:0|0:0,0:0:0:0:
164,324,5483,1,0,1:0:0:0:
84,292,5655,6,0,L|60:176,2,112.500004291535,2|2|2,0:0|0:0|0:0,0:0:0:0:
84,292,7207,6,0,L|156:288,1,56.2500021457673,0|2,1:0|0:0,0:0:0:0:
264,344,7552,2,0,L|192:340,1,56.2500021457673,2|0,0:3|1:0,0:0:0:0:
104,204,7896,2,0,B|232:196,1,112.500004291535,2|0,0:0|1:0,0:0:0:0:
288,88,8414,6,0,B|160:80,1,112.500004291535,2|0,0:0|0:0,0:0:0:0:
100,128,8931,1,2,0:3:0:0:
20,100,9103,1,0,0:0:0:0:
20,100,9190,1,0,0:0:0:0:
20,100,9276,2,0,P|16:128|20:168,1,56.2500021457673,2|0,0:0|0:0,0:0:0:0:
84,220,9621,2,0,P|85:248|81:275,1,56.2500021457673,2|0,0:3|0:0,0:0:0:0:
100,128,9965,5,0,1:0:0:0:
164,60,10138,2,0,L|228:64,2,56.2500021457673,2|2|0,0:0|0:3|1:0,0:0:0:0:
20,100,10655,2,0,P|12:148|36:228,1,112.500004291535,2|0,0:0|1:0,0:0:0:0:
92,272,11172,6,0,P|124:264|172:268,1,56.2500021457673,2|0,1:2|0:0,0:0:0:0:
184,340,11517,2,0,P|152:348|104:344,1,56.2500021457673,2|2,1:2|0:3,0:0:0:0:
128,184,11862,2,0,B|188:172|180:204|240:192,1,112.500004291535,2|0,1:2|0:0,0:0:0:0:
328,176,12379,1,2,0:0:0:0:
380,100,12552,1,0,0:0:0:0:
452,236,12724,5,6,1:2:0:0:
452,236,12896,2,0,P|444:304|372:336,1,134.999995880127,2|2,0:0|1:2,0:0:0:0:
308,292,13414,2,0,L|316:212,1,67.4999979400635,2|0,0:0|0:0,0:0:0:0:
220,336,13758,5,2,1:2:0:0:
220,336,13931,2,0,L|205:190,1,134.999995880127,2|2,0:0|1:2,0:0:0:0:
112,160,14448,2,0,L|105:227,1,67.4999979400635,2|0,0:0|0:0,0:0:0:0:
192,104,14793,6,0,L|185:36,1,67.4999979400635,2|0,0:0|0:0,0:0:0:0:
206,201,15138,2,0,P|270:209|334:197,1,112.5,2|0,0:0|0:0,0:0:0:0:
340,196,15483,5,2,1:2:0:0:
424,156,15655,2,0,B|444:220|408:232|432:300,1,134.999995880127,2|2,0:0|1:2,0:0:0:0:
510,319,16172,2,0,P|515:286|508:254,1,67.4999979400635,2|0,0:0|0:0,0:0:0:0:
308,208,16517,5,2,1:2:0:0:
309,295,16690,2,0,P|365:319|433:283,1,134.999995880127,2|2,0:0|0:0,0:0:0:0:
429,290,17379,2,0,B|409:232|445:220|425:156,1,134.999995880127,2|2,0:0|0:0,0:0:0:0:
356,96,17896,1,2,0:3:0:0:
272,136,18069,1,2,0:0:0:0:
128,96,18241,5,2,1:2:0:0:
128,96,18414,2,0,P|120:160|136:236,1,134.999995880127,2|2,0:0|1:2,0:0:0:0:
152,320,18931,2,0,L|76:316,1,67.4999979400635,2|0,0:0|0:0,0:0:0:0:
228,248,19276,5,2,1:2:0:0:
228,248,19448,2,0,L|389:239,1,134.999995880127,2|2,0:0|1:2,0:0:0:0:
448,284,19965,2,0,P|456:312|456:368,1,67.4999979400635,2|0,0:0|0:0,0:0:0:0:
362,240,20310,6,0,P|354:212|354:156,1,67.4999979400635,2|0,0:0|0:0,0:0:0:0:
364,68,20655,2,0,L|232:64,1,112.5,2|0,0:0|0:0,0:0:0:0:
224,64,21000,5,2,1:2:0:0:
236,168,21172,2,0,L|248:264,1,75,2|0,1:2|0:0,0:0:0:0:
128,120,21517,5,2,1:2:0:0:
144,240,21689,2,0,L|156:336,1,75,2|0,1:2|0:0,0:0:0:0:
40,192,22034,5,2,1:2:0:0:
60,352,22207,1,2,1:2:0:0:
60,352,22724,6,0,L|54:305,1,37.5,2|0,0:0|0:0,0:0:0:0:
172,156,23758,6,0,P|180:112|168:24,2,120,0|0|0,1:0|1:0|1:0,0:0:0:0:
172,156,24793,1,0,1:0:0:0:
248,208,24965,1,0,1:0:0:0:
144,292,25138,6,0,P|100:284|12:296,2,120,0|0|0,1:0|1:0|1:0,0:0:0:0:
220,328,26000,1,0,1:0:0:0:
288,280,26172,2,0,L|296:212,1,60,2|0,1:3|1:0,0:0:0:0:
312,72,26517,6,0,P|356:80|444:68,2,120,0|0|0,1:0|1:0|1:0,0:0:0:0:
312,72,27552,1,0,1:0:0:0:
232,44,27725,1,0,1:0:0:0:
88,112,27896,6,0,L|96:236,1,120,0|2,1:0|1:2,0:0:0:0:
64,312,28414,1,0,0:0:0:0:
128,368,28586,6,0,L|160:364,3,30,0|0|0|0,1:0|0:0|1:0|0:0,0:0:0:0:
180,344,28931,2,0,L|212:340,3,30,2|0|0|0,1:2|0:0|1:0|0:0,0:0:0:0:
236,324,29276,6,0,L|228:184,2,120,0|0|0,1:0|1:0|1:0,0:0:0:0:
236,324,30310,1,0,1:0:0:0:
308,368,30483,1,0,1:0:0:0:
412,232,30655,6,0,L|420:92,2,120,0|0|0,1:0|1:0|1:0,0:0:0:0:
364,300,31517,1,0,1:0:0:0:
292,256,31690,2,0,L|286:168,1,60,2|0,1:3|1:0,0:0:0:0:
192,80,32034,6,0,L|52:72,2,120,0|0|0,1:0|1:0|1:0,0:0:0:0:
192,80,33069,1,0,1:0:0:0:
268,48,33241,1,0,1:0:0:0:
408,88,33414,6,0,P|412:148|404:216,1,120,0|2,1:0|1:2,0:0:0:0:
368,284,33931,1,0,0:0:0:0:
244,324,34103,5,0,1:0:0:0:
248,240,34276,2,0,L|252:168,1,60,2|0,1:3|1:0,0:0:0:0:
256,96,34621,1,2,0:3:0:0:
144,44,34793,5,4,1:2:0:0:
80,112,34965,2,0,P|72:172|88:256,1,134.999995880127,2|0,0:0|0:0,0:0:0:0:
140,312,35483,2,0,L|220:308,1,67.4999979400635,2|0,1:2|0:0,0:0:0:0:
284,352,35827,1,0,1:0:0:0:
428,304,36000,6,0,B|424:252|424:252|432:224|432:224|429:170,1,134.999995880127,2|0,1:2|0:0,0:0:0:0:
384,96,36517,2,0,L|308:100,1,67.4999979400635,2|0,1:2|0:0,0:0:0:0:
232,72,36862,1,2,1:2:0:0:
181,141,37034,1,0,1:0:0:0:
95,120,37207,1,2,1:2:0:0:
149,49,37379,1,0,1:0:0:0:
316,99,37552,5,0,1:0:0:0:
316,99,37724,2,0,L|312:251,1,134.999995880127,2|0,0:0|0:0,0:0:0:0:
372,300,38241,2,0,L|448:292,1,67.4999979400635,2|0,1:2|0:0,0:0:0:0:
312,233,38586,1,0,1:0:0:0:
208,308,38758,6,0,P|164:324|60:300,1,134.999995880127,2|2,1:2|0:0,0:0:0:0:
16,248,39276,2,0,L|20:172,1,67.4999979400635,0|2,1:0|0:0,0:0:0:0:
24,92,39621,6,0,L|68:88,3,33.7499989700318,0|0|0|0,1:0|0:0|1:0|0:0,0:0:0:0:
80,68,39965,2,0,L|124:72,3,33.7499989700318,2|0|0|0,1:2|0:0|1:0|0:0,0:0:0:0:
140,56,40310,5,0,1:0:0:0:
196,124,40483,2,0,L|192:264,1,134.999995880127,2|0,0:0|0:0,0:0:0:0:
272,296,41000,2,0,P|304:284|344:284,1,67.4999979400635,2|0,1:2|0:0,0:0:0:0:
320,368,41345,1,0,1:0:0:0:
396,212,41517,6,0,P|428:276|404:344,1,134.999995880127,2|0,1:2|0:0,0:0:0:0:
320,368,42034,2,0,L|232:364,1,67.4999979400635,2|0,1:2|0:0,0:0:0:0:
184,308,42379,1,2,1:2:0:0:
224,228,42552,1,0,1:0:0:0:
164,168,42724,2,0,L|76:164,1,67.4999979400635,2|0,1:3|1:0,0:0:0:0:
244,68,43069,5,0,1:0:0:0:
244,68,43241,2,0,L|332:64,1,67.4999979400635,2|0,1:2|1:0,0:0:0:0:
448,132,43586,2,0,L|360:136,1,75,0|2,1:0|1:2,0:0:0:0:
252,220,43931,2,0,L|340:216,1,75,0|0,1:0|1:0,0:0:0:0:
440,242,44276,6,0,B|452:206|452:206|447:127,3,112.500004291535,2|0|0|0,1:2|0:0|0:0|0:0,0:0:0:0:
392,68,45483,1,2,0:0:0:0:
320,120,45655,1,2,0:0:0:0:
208,48,45827,6,0,P|136:32|64:64,1,150,2|2,1:2|1:3,0:0:0:0:
32,144,46345,1,0,0:0:0:0:
87,214,46517,1,2,1:2:0:0:
87,214,46603,1,0,0:0:0:0:
87,214,46690,2,0,P|159:230|231:198,1,150,2|0,1:3|0:0,0:0:0:0:
336,128,47207,6,0,L|340:48,1,75,2|0,1:2|0:0,0:0:0:0:
424,88,47552,2,0,L|420:168,1,75,0|0,1:3|0:0,0:0:0:0:
484,228,47896,1,2,1:2:0:0:
484,228,47983,1,0,0:0:0:0:
485,229,48069,2,0,P|415:252|349:222,1,150,2|2,1:3|1:3,0:0:0:0:
260,136,48586,6,0,P|188:121|126:160,1,150,2|2,1:3|1:3,0:0:0:0:
96,244,49103,1,2,0:0:0:0:
152,316,49276,1,2,1:0:0:0:
152,316,49362,1,0,0:0:0:0:
152,316,49448,2,0,B|208:312|208:312|248:324|248:324|312:320,1,150,2|2,1:3|0:0,0:0:0:0:
472,300,49965,6,0,P|480:252|464:140,1,150,2|2,1:2|1:3,0:0:0:0:
408,84,50483,2,0,L|252:72,1,150,2|2,0:0|1:3,0:0:0:0:
280,160,51000,2,0,L|151:150,1,112.5,6|0,0:0|0:0,0:0:0:0:
132,148,51345,6,0,B|116:188|116:188|124:308,1,150,2|2,1:2|1:3,0:0:0:0:
192,356,51862,1,0,0:0:0:0:
272,312,52034,1,2,1:2:0:0:
272,312,52121,1,0,0:0:0:0:
272,312,52207,2,0,L|424:304,1,150,2|0,1:3|0:0,0:0:0:0:
508,220,52724,6,0,P|512:152|496:52,1,150,2|2,1:2|1:3,0:0:0:0:
432,20,53241,1,0,0:0:0:0:
352,60,53414,2,0,L|260:52,1,75,0|2,1:0|1:3,0:0:0:0:
156,104,53758,2,0,L|93:109,2,50,0|0|0,0:0|0:0|0:0,0:0:0:0:
224,144,54103,6,0,P|232:188|220:256,1,100,2|2,1:2|0:0,0:0:0:0:
184,304,54448,2,0,L|296:296,1,100,2|2,1:3|0:0,0:0:0:0:
352,324,54793,2,0,L|348:380,2,50,2|2|2,1:2|0:0|0:0,0:0:0:0:
408,272,55138,2,0,L|404:216,2,50,2|2|2,0:0|0:0|0:0,0:0:0:0:
476,312,55483,6,0,B|500:276|500:276|492:152,1,150,2|0,1:2|1:0,0:0:0:0:
448,92,56000,2,0,P|400:112|312:60,1,150,2|0,1:3|1:0,0:0:0:0:
392,24,56517,1,2,0:0:0:0:
392,24,56862,6,0,L|380:184,1,150,6|2,1:2|1:3,0:0:0:0:
308,228,57379,1,0,0:0:0:0:
232,176,57552,2,0,L|236:128,2,37.5,2|2|2,1:2|1:2|1:2,0:0:0:0:
156,224,57896,1,2,1:3:0:0:
228,280,58069,1,2,0:2:0:0:
76,324,58241,6,0,L|64:174,1,150,2|2,1:2|1:3,0:0:0:0:
108,96,58758,1,0,0:0:0:0:
196,68,58931,1,2,1:2:0:0:
196,68,59017,1,2,1:2:0:0:
196,68,59103,1,2,1:2:0:0:
280,104,59276,1,2,1:3:0:0:
316,184,59448,1,0,0:0:0:0:
256,320,59621,6,0,L|96:316,1,150,2|2,1:2|1:3,0:0:0:0:
36,260,60138,1,0,0:0:0:0:
36,260,60224,1,0,0:0:0:0:
36,260,60310,2,0,P|28:216|40:164,1,75,2|2,1:2|1:2,0:0:0:0:
100,128,60655,2,0,L|194:130,1,75,2|0,1:3|0:0,0:0:0:0:
316,84,61000,6,0,B|332:124|332:124|324:248,1,150,2|2,1:2|1:3,0:0:0:0:
256,292,61517,2,0,B|324:264|324:264|412:288,1,150,2|2,0:0|1:2,0:0:0:0:
488,304,62034,2,0,L|480:180,1,112.5,6|0,0:0|0:0,0:0:0:0:
496,164,62379,6,0,L|416:156,1,67.4999979400635,0|0,1:0|1:0,0:0:0:0:
392,84,62724,2,0,L|312:76,1,67.4999979400635,0|0,1:0|1:0,0:0:0:0:
260,156,63069,6,0,L|180:148,1,75,0|0,1:0|1:0,0:0:0:0:
224,20,63414,2,0,L|144:12,1,75,0|0,1:0|1:0,0:0:0:0:
32,92,63758,6,0,B|20:132|20:132|36:248,1,150,0|0,1:0|1:0,0:0:0:0:
100,304,64276,1,0,1:0:0:0:
172,248,64448,1,0,1:0:0:0:
240,304,64621,2,0,P|312:320|388:280,1,150,2|0,1:2|0:0,0:0:0:0:
476,160,65138,5,0,1:0:0:0:
416,104,65310,2,0,B|396:136|396:136|400:228,1,112.500004291535,2|0,0:0|1:0,0:0:0:0:
456,276,65827,2,0,L|516:268,1,56.2500021457673,2|0,0:0|0:0,0:0:0:0:
400,344,66172,5,0,1:0:0:0:
400,344,66345,2,0,L|263:325,1,112.500004291535,2|0,0:0|0:0,0:0:0:0:
228,272,66862,2,0,P|224:236|228:204,1,56.2500021457673,2|0,0:0|0:0,0:0:0:0:
308,180,67207,2,0,P|312:216|308:248,1,56.2500021457673,2|0,0:0|0:0,0:0:0:0:
228,272,67552,1,2,0:0:0:0:
144,240,67724,1,0,0:0:0:0:
112,112,67896,5,0,1:0:0:0:
180,52,68069,2,0,P|200:96|176:180,1,112.500004291535,2|0,0:0|1:0,0:0:0:0:
144,240,68586,2,0,L|80:232,1,56.2500021457673,2|0,0:0|0:0,0:0:0:0:
196,316,68931,5,0,1:0:0:0:
196,316,69103,2,0,B|252:308|244:336|308:328,1,112.500004291535,2|2,0:0|0:0,0:0:0:0:
380,284,69621,1,0,0:0:0:0:
376,200,69793,1,2,0:0:0:0:
308,152,69965,6,0,L|268:160,3,28.1250010728836,2|0|2|0,0:0|0:0|0:0|0:0,0:0:0:0:
256,152,70310,2,0,L|216:160,3,28.1250010728836,2|0|2|0,0:0|0:0|0:0|0:0,0:0:0:0:
200,152,70655,5,4,1:2:0:0:
120,112,70827,2,0,P|108:172|128:264,1,134.999995880127,2|2,0:0|0:0,0:0:0:0:
164,320,71345,2,0,L|252:312,1,67.4999979400635,2|0,1:3|0:0,0:0:0:0:
388,300,71690,5,2,0:0:0:0:
464,348,71862,2,0,P|475:281|463:215,1,134.999995880127,2|2,0:0|0:0,0:0:0:0:
400,156,72379,1,2,0:0:0:0:
316,192,72552,1,0,1:0:0:0:
236,148,72724,6,0,L|228:76,1,67.4999979400635,2|0,1:3|1:0,0:0:0:0:
164,208,73069,2,0,P|120:220|44:204,1,101.249996910095,2|0,0:0|0:0,0:0:0:0:
36,204,73414,5,2,1:2:0:0:
112,136,73586,2,0,L|124:292,1,134.999995880127,2|2,0:0|1:2,0:0:0:0:
216,248,74103,2,0,L|208:341,1,67.4999979400635,2|0,1:3|0:0,0:0:0:0:
296,196,74448,5,2,0:0:0:0:
364,256,74621,2,0,P|408:268|500:208,2,134.999995880127,2|2|2,0:0|0:0|0:0,0:0:0:0:
296,196,75483,5,2,1:3:0:0:
212,242,75655,1,2,1:2:0:0:
143,180,75828,1,2,0:0:0:0:
181,93,76000,1,2,0:0:0:0:
275,103,76173,5,2,1:2:0:0:
296,196,76345,2,0,L|444:188,1,134.999995880127,2|0,0:0|0:0,0:0:0:0:
496,248,76862,2,0,P|496:288|488:328,1,67.4999979400635,2|0,1:3|0:0,0:0:0:0:
430,188,77207,5,2,0:0:0:0:
400,280,77379,2,0,L|258:288,1,134.999995880127,2|2,0:0|0:0,0:0:0:0:
196,344,77896,1,2,0:0:0:0:
120,300,78069,1,0,1:0:0:0:
184,176,78241,6,0,L|188:244,1,67.4999979400635,2|0,1:3|1:0,0:0:0:0:
260,124,78586,2,0,P|312:132|380:108,1,101.249996910095,2|0,0:0|0:0,0:0:0:0:
387,108,78931,5,2,1:2:0:0:
436,180,79103,2,0,P|440:248|412:328,1,134.999995880127,2|2,0:0|1:2,0:0:0:0:
344,356,79621,2,0,L|260:352,1,67.4999979400635,2|0,1:3|0:0,0:0:0:0:
192,244,79965,5,2,1:2:0:0:
192,244,80138,2,0,L|335:237,1,134.999995880127,2|2,1:2|1:2,0:0:0:0:
380,168,80655,2,0,P|384:132|380:100,1,67.4999979400635,2|2,1:3|1:2,0:0:0:0:
288,40,81000,5,0,1:0:0:0:
212,84,81172,1,2,1:2:0:0:
128,52,81345,2,0,P|124:85|128:118,1,67.4999979400635,2|2,1:3|0:0,0:0:0:0:
156,264,81690,5,2,1:2:0:0:
252,272,81862,2,0,L|340:276,1,75,0|0,1:0|1:0,0:0:0:0:
212,180,82207,5,2,1:2:0:0:
308,188,82379,2,0,L|396:192,1,75,0|0,1:0|1:0,0:0:0:0:
252,92,82724,5,2,1:2:0:0:
156,100,82896,2,0,L|68:104,1,75,0|0,1:0|1:0,0:0:0:0:
196,8,83241,5,2,1:2:0:0:
100,16,83413,2,0,L|12:20,1,75,0|0,1:0|1:0,0:0:0:0:
156,100,83758,5,2,1:2:0:0:
252,92,83930,2,0,L|340:88,1,75,0|0,1:0|1:0,0:0:0:0:
216,188,84276,1,2,1:2:0:0:
108,196,84448,6,0,P|96:252|116:348,1,150,0|2,1:0|1:2,0:0:0:0:
188,384,84965,2,0,L|344:372,1,134.999995880127,0|2,1:0|1:2,0:0:0:0:
392,324,85483,6,0,P|396:272|380:192,1,120,0|2,1:0|1:2,0:0:0:0:
332,140,86000,2,0,P|276:152|192:132,1,120,0|2,1:0|1:2,0:0:0:0:
144,104,86517,2,0,L|132:44,1,60,0|0,1:0|1:0,0:0:0:0:
80,152,86862,2,0,L|68:210,1,60,0|0,1:0|1:0,0:0:0:0:
18,289,87207,6,0,B|64:316|112:292|112:292|148:304|148:304|184:292|184:292|204:352|168:372|132:364|119:350,1,300,0|0,0:0|0:0,0:0:0:0:
67,210,89621,5,2,0:0:0:0:
128,128,89793,1,2,0:0:0:0:
60,52,89965,6,0,P|120:28|212:68,1,150,2|2,1:2|1:3,0:0:0:0:
256,124,90483,1,0,0:0:0:0:
316,192,90655,1,2,1:2:0:0:
316,192,90741,1,0,0:0:0:0:
316,192,90827,2,0,P|384:217|454:193,1,150,2|0,1:3|0:0,0:0:0:0:
396,48,91345,6,0,P|386:87|388:132,1,75,2|0,1:2|0:0,0:0:0:0:
454,192,91690,2,0,P|454:229|463:265,1,75,0|2,1:3|0:0,0:0:0:0:
496,356,92034,1,2,1:2:0:0:
496,356,92121,1,0,0:0:0:0:
496,356,92207,2,0,L|332:344,1,150,2|2,1:3|1:3,0:0:0:0:
216,288,92724,6,0,P|176:316|72:284,1,150,2|2,1:3|1:3,0:0:0:0:
28,224,93241,1,2,0:0:0:0:
68,144,93414,1,2,1:0:0:0:
68,144,93500,1,0,0:0:0:0:
68,144,93586,2,0,P|108:116|212:148,1,150,2|2,1:3|0:0,0:0:0:0:
312,204,94103,6,0,L|324:40,1,150,2|2,1:2|1:3,0:0:0:0:
425,26,94621,2,0,L|414:175,1,150,2|2,0:0|1:3,0:0:0:0:
408,280,95138,2,0,B|384:304|384:304|304:300,1,112.5,6|0,0:0|0:0,0:0:0:0:
273,312,95483,6,0,P|218:278|133:304,1,150,2|2,1:2|1:3,0:0:0:0:
76,360,96000,1,0,0:0:0:0:
12,296,96172,1,2,1:2:0:0:
12,296,96258,1,0,0:0:0:0:
12,296,96345,2,0,L|16:140,1,150,2|0,1:3|0:0,0:0:0:0:
132,60,96862,6,0,B|184:64|184:64|232:52|232:52|292:56,1,150,2|2,1:2|1:3,0:0:0:0:
368,72,97379,1,0,0:0:0:0:
424,144,97552,2,0,P|432:176|424:236,1,75,0|2,1:0|1:3,0:0:0:0:
348,332,97896,2,0,L|352:392,2,50,0|0|0,0:0|0:0|0:0,0:0:0:0:
284,288,98241,6,0,B|244:304|244:304|168:296,1,100,2|2,1:2|0:0,0:0:0:0:
136,236,98586,2,0,B|176:220|176:220|252:228,1,100,2|2,1:3|0:0,0:0:0:0:
284,288,98931,2,0,L|292:344,2,50,2|2|2,1:2|0:0|0:0,0:0:0:0:
340,228,99276,2,0,L|348:172,2,50,2|2|2,0:0|0:0|0:0,0:0:0:0:
392,288,99621,6,0,P|448:304|512:240,1,150,2|0,1:2|1:0,0:0:0:0:
460,168,100138,2,0,L|480:8,1,150,2|0,1:3|1:0,0:0:0:0:
384,56,100655,1,2,0:0:0:0:
384,56,101000,6,0,B|332:52|332:52|288:64|288:64|232:60,1,150,6|2,1:2|1:3,0:0:0:0:
152,28,101517,1,0,0:0:0:0:
88,92,101690,2,0,L|36:88,2,37.5,2|2|2,1:2|1:2|1:2,0:0:0:0:
172,128,102034,1,2,1:3:0:0:
235,60,102207,1,2,0:2:0:0:
372,132,102379,6,0,B|388:172|388:172|380:300,1,150,2|2,1:2|1:3,0:0:0:0:
312,336,102896,1,0,0:0:0:0:
256,264,103069,1,2,1:2:0:0:
256,264,103155,1,2,1:2:0:0:
256,264,103241,1,2,1:2:0:0:
200,336,103414,1,2,1:3:0:0:
130,278,103586,1,0,0:0:0:0:
187,160,103758,6,0,P|256:132|324:160,1,150,2|2,1:2|1:3,0:0:0:0:
364,240,104276,1,0,0:0:0:0:
364,240,104362,1,0,0:0:0:0:
364,240,104448,2,0,L|360:320,1,75,2|2,1:2|1:2,0:0:0:0:
456,352,104793,2,0,L|452:277,1,75,2|0,1:3|0:0,0:0:0:0:
323,159,105138,6,0,P|255:132|187:160,1,150,2|2,1:2|1:3,0:0:0:0:
136,236,105655,2,0,L|128:72,1,150,2|2,0:0|1:2,0:0:0:0:
28,36,106172,2,0,L|34:167,1,112.5,6|0,0:0|0:0,0:0:0:0:
24,180,106517,6,0,L|116:184,1,75,8|0,1:0|1:0,0:0:0:0:
56,272,106862,2,0,L|148:276,1,75,8|0,1:0|1:0,0:0:0:0:
192,164,107207,6,0,L|284:168,1,82.5000025177003,8|0,1:0|1:0,0:0:0:0:
216,320,107552,2,0,L|308:324,1,82.5000025177003,8|0,1:0|1:0,0:0:0:0:
420,224,107896,6,0,P|433:178|433:124,1,89.9999972534181,8|0,1:0|1:0,0:0:0:0:
261,79,108241,2,0,P|262:125|274:169,1,89.9999972534181,8|0,1:0|1:0,0:0:0:0:
168,64,108586,6,0,L|61:49,1,97.4999955368044,8|0,1:0|1:0,0:0:0:0:
273,167,108931,2,0,L|379:152,1,97.4999955368044,8|0,1:0|1:0,0:0:0:0:
132,231,109276,6,0,L|82:224,3,41.2500012588501,8|0|0|0,1:0|1:0|1:0|1:0,0:0:0:0:
244,300,109793,6,0,L|293:293,3,41.2500012588501,8|0|0|0,1:0|1:0|1:0|1:0,0:0:0:0:
128,364,110310,6,0,L|78:357,3,41.2500012588501,8|0|0|0,1:0|1:0|1:0|1:0,0:0:0:0:
60,372,110655,6,0,L|56:284,1,82.5000025177003,0|0,1:0|1:0,0:0:0:0:
20,196,111000,2,0,B|104:176|96:228|188:196,1,165.000005035401,0|10,1:0|1:0,0:0:0:0:
276,164,111517,1,0,0:0:0:0:
364,212,111690,2,0,P|372:256|372:304,1,82.5000025177003,10|2,1:1|1:2,0:0:0:0:
256,368,112034,5,6,0:2:0:0:
184,324,112207,2,0,P|144:312|60:344,1,112.500004291535,2|0,0:0|1:0,0:0:0:0:
8,284,112724,2,0,L|0:228,2,56.2500021457673,2|0|0,0:0|0:0|1:0,0:0:0:0:
104,208,113241,6,0,L|121:86,1,112.500004291535,2|0,0:0|0:0,0:0:0:0:
184,40,113758,1,2,0:0:0:0:
244,100,113931,2,0,L|236:152,2,28.1250010728836,0|0|2,0:0|0:0|0:0,0:0:0:0:
316,60,114276,1,0,0:0:0:0:
380,116,114448,2,0,P|388:152|384:192,1,56.2500021457673,2|0,0:0|0:0,0:0:0:0:
372,304,114793,5,0,1:0:0:0:
296,340,114965,2,0,L|172:332,1,112.500004291535,2|0,0:0|1:0,0:0:0:0:
112,376,115483,1,2,1:2:0:0:
40,332,115655,1,0,0:0:0:0:
64,252,115827,1,0,1:0:0:0:
172,160,116000,6,0,L|264:164,1,89.9999972534181,2|0,0:0|0:0,0:0:0:0:
320,232,116517,5,0,0:0:0:0:
316,248,116690,1,2,0:0:0:0:
