osu file format v14

[General]
AudioFilename: onoken feat. [HD] Versa.mp3
AudioLeadIn: 0
PreviewTime: -1
Countdown: 0
SampleSet: Soft
StackLeniency: 0.7
Mode: 0
LetterboxInBreaks: 1
WidescreenStoryboard: 0

[Editor]
DistanceSpacing: 0.1
BeatDivisor: 4
GridSize: 32
TimelineZoom: 1.4

[Metadata]
Title:Versa (feat. Saira)
TitleUnicode:Versa (feat. 彩羅)
Artist:onoken
ArtistUnicode:onoken
Creator:byfar
Version:bcue1`
Source:pop n' music
Tags:
BeatmapID:849478
BeatmapSetID:389618

[Difficulty]
HPDrainRate:8
CircleSize:4.5
OverallDifficulty:8
ApproachRate:9.6
SliderMultiplier:2
SliderTickRate:1

[Events]
//Background and Video events
0,0,"bg.png",0,0
//Break Periods
//Storyboard Layer 0 (Background)
//Storyboard Layer 1 (Fail)
//Storyboard Layer 2 (Pass)
//Storyboard Layer 3 (Foreground)
//Storyboard Sound Samples

[TimingPoints]
991,333.333333333333,4,2,1,60,1,0
9490,-166.666666666667,4,2,1,60,0,0
10156,-83.3333333333333,4,2,1,60,0,0
11656,-66.6666666666667,4,2,1,60,0,0
16156,-66.6666666666667,4,2,1,60,0,0
20490,-55.5555555555556,4,2,1,60,0,0
25990,-166.666666666667,4,2,1,60,0,0
26823,-55.5555555555556,4,2,1,60,0,0
27490,-166.666666666667,4,2,1,60,0,0
27990,-83.3333333333333,4,2,1,60,0,0
36156,-71.4285714285714,4,2,1,60,0,0
36656,-62.5,4,2,1,60,0,0
37156,-71.4285714285714,4,2,1,60,0,0
40656,-66.6666666666667,4,2,1,60,0,0
50490,-133.333333333333,4,2,1,60,0,0
50990,-66.6666666666667,4,2,1,60,0,0
61990,-50,4,2,1,60,0,0
62490,-100,4,2,1,60,0,0
62990,-55.5555555555556,4,2,1,60,0,0
67824,-100,4,2,1,60,0,0
68324,-55.5555555555556,4,2,1,60,0,0
72824,-66.6666666666667,4,2,1,60,0,0
83490,-100,4,2,1,60,0,0
83657,-200,4,2,1,60,0,0
91657,-66.6666666666667,4,2,1,60,0,0

[Colours]
Combo1 : 255,111,111
Combo2 : 128,0,255
Combo3 : 190,159,225
Combo4 : 210,0,0

[HitObjects]
424,150,990,6,0,B|441:40,1,100,0|0,1:0|0:0,0:0:0:0:
88,150,3657,6,0,B|71:40,1,100,0|0,1:0|0:0,0:0:0:0:
127,258,5990,5,8,1:0:0:0:
268,322,6156,2,0,B|199:314|199:314|136:341|136:341|62:332,1,200,0|0,1:3|1:0,0:0:0:0:
441,46,7323,5,8,1:0:0:0:
410,166,7490,2,0,B|372:134|372:134|420:119,1,100,0|0,1:0|0:0,0:0:0:0:
10,58,8990,5,12,1:0:0:0:
62,0,9156,2,0,P|87:41|81:90,1,100,0|0,1:2|0:0,0:0:0:0:
5,174,9490,6,0,B|142:161,1,119.999996337891,2|0,0:0|0:0,0:0:0:0:
311,148,9990,1,2,0:0:0:0:
387,383,10156,6,0,B|424:304|424:304|406:206,1,179.999994506836,0|0,1:2|0:0,0:0:0:0:
407,213,10490,1,0,1:0:0:0:
512,313,10656,1,2,0:0:0:0:
331,290,10823,1,0,1:0:0:0:
331,290,10879,1,0,1:0:0:0:
331,290,10934,1,0,1:0:0:0:
331,290,10990,2,0,L|262:281,1,59.9999981689454,0|0,1:0|1:0,1:0:0:0:
150,267,11156,1,2,0:0:0:0:
331,290,11323,6,0,B|463:308|463:308|414:238,1,179.999994506836,2|0,0:1|0:0,0:0:0:0:
379,221,11656,6,0,B|274:207|274:207|236:152,1,150.000005722046,4|0,3:2|0:0,0:0:0:0:
192,90,11990,1,8,1:0:0:0:
13,332,12156,2,0,B|56:313|94:342|94:342|95:294|150:268|150:268|189:294|190:349|190:349|168:344,1,300.000011444092,0|0,1:3|3:3,0:3:0:0:
205,65,12656,5,8,1:0:0:0:
284,326,12823,2,0,B|235:381|235:381|162:340,2,150.000005722046,0|0|0,1:3|3:3|0:3,0:3:0:0:
221,40,13323,5,8,1:0:0:0:
470,185,13490,2,0,L|235:166,1,225.000008583069,0|0,1:0|0:0,0:0:0:0:
115,178,13823,6,0,P|147:156|167:107,1,75.0000028610231,0|0,3:0|0:0,1:0:0:0:
246,167,13990,2,0,P|281:181|311:225,1,75.0000028610231,8|0,1:0|0:0,0:0:0:0:
377,156,14156,2,0,P|409:134|429:85,1,75.0000028610231
271,308,14323,6,0,P|276:234|246:167,1,150.000005722046,0|0,3:0|0:0,0:0:0:0:
122,270,14656,1,8,1:0:0:0:
290,93,14823,2,0,P|345:30|281:87,1,225.000008583069,0|0,1:0|0:0,0:0:0:0:
265,54,15156,1,0,3:2:0:0:
379,305,15323,1,8,1:0:0:0:
127,168,15490,6,0,B|67:143|16:183|16:183|74:208,2,150.000005722046,0|0|0,1:3|3:0|0:3,0:0:0:0:
457,355,15990,5,8,1:0:0:0:
369,33,16157,2,0,B|352:134|352:134|410:101,1,150.000005722046
145,0,16490,2,0,B|120:-6|120:-6|99:7|99:7|135:15,1,75.0000028610231,0|0,3:0|0:0,0:0:0:0:
233,100,16656,6,0,B|258:106|258:106|279:93|279:93|243:85,1,75.0000028610231,8|0,1:0|0:0,0:0:0:0:
74,79,16823,2,0,B|49:73|49:73|28:86|28:86|52:91,1,75.0000028610231
184,164,16990,6,0,B|229:223|229:223|190:296,1,150.000005722046,0|0,1:2|0:0,0:0:0:0:
103,154,17323,1,8,1:0:0:0:
221,384,17490,6,0,P|152:358|74:356,1,150.000005722046,0|0,1:1|0:0,0:0:0:0:
0,371,17823,1,0,3:0:0:0:
187,159,17990,5,12,1:0:0:0:
350,370,18156,2,0,B|423:354|423:354|353:290,1,150.000005722046,0|8,1:0|0:0,0:0:0:0:
510,282,18490,2,0,B|478:301|478:301|443:270,1,75.0000028610231,0|0,3:0|0:0,0:0:0:0:
386,154,18656,6,0,L|361:349,1,150.000005722046,8|0,1:0|1:0,0:0:0:0:
469,112,18990,1,8,0:0:0:0:
321,90,19156,2,0,B|308:65|308:65|323:9,1,75.0000028610231,0|0,3:0|0:0,0:0:0:0:
232,202,19323,6,0,B|260:196|260:196|273:152,1,75.0000028610231,8|0,1:0|0:0,0:0:0:0:
134,65,19490,2,0,L|158:214,1,150.000005722046,4|0,3:2|0:0,0:0:0:0:
186,369,19823,1,0,3:0:0:0:
76,155,19990,6,0,B|110:136|110:136|154:140,1,75.0000028610231,8|0,1:0|0:0,0:0:0:0:
170,291,20156,2,0,B|73:311|73:311|133:244,1,150.000005722046,8|0,0:0|3:3,0:0:0:0:
410,105,20490,6,0,L|403:285,1,179.999994506836,8|0,1:0|0:0,0:0:0:0:
399,360,20823,1,0,1:0:0:0:
399,366,20879,1,0,1:0:0:0:
399,372,20935,1,0,1:0:0:0:
399,377,20990,6,0,L|407:178,1,179.999994506836,8|0,1:0|3:0,1:0:0:0:
246,332,21323,2,0,P|279:344|334:314,1,89.9999972534181,0|0,1:0|0:0,0:0:0:0:
332,245,21490,2,0,P|288:243|257:213,1,89.9999972534181,8|0,1:0|0:0,0:0:0:0:
240,48,21656,6,0,L|246:138,1,89.9999972534181,0|0,3:0|0:0,0:0:0:0:
181,184,21823,2,0,B|138:169|138:169|168:137,1,89.9999972534181,8|0,1:0|0:0,0:0:0:0:
325,51,21990,5,0,1:0:0:0:
389,20,22073,1,0,0:0:0:0:
458,38,22156,1,0,0:0:0:0:
495,100,22240,1,0,0:0:0:0:
407,94,22323,5,4,0:0:0:0:
402,105,22656,5,0,0:0:0:0:
397,116,22990,5,0,0:0:0:0:
392,127,23323,5,0,0:0:0:0:
436,198,23656,5,0,0:0:0:0:
431,209,23989,5,0,0:0:0:0:
426,220,24323,5,0,0:0:0:0:
421,231,24656,6,0,L|215:219,1,179.999994506836,0|8,3:0|0:0,0:0:0:0:
407,92,24990,5,0,0:0:0:0:
402,105,25323,5,0,0:0:0:0:
397,116,25657,5,0,0:0:0:0:
392,127,25990,5,0,0:0:0:0:
331,69,26156,6,0,L|258:77,1,59.9999981689454
195,85,26490,2,0,L|122:93,1,59.9999981689454
3,38,26823,6,0,B|56:67|56:67|64:220,1,179.999994506836,0|0,1:0|0:0,1:0:0:0:
197,354,27156,2,0,B|126:345|126:345|90:363|90:363|-5:352,1,179.999994506836,0|0,1:0|0:0,0:0:0:0:
243,235,27490,6,0,B|276:262|276:262|364:242,1,119.999996337891,2|0,1:2|0:0,0:0:0:0:
447,194,27990,6,0,L|430:312,1,119.999996337891,2|0,0:3|0:3,0:3:0:0:
512,355,28323,1,10,0:0:0:0:
360,151,28490,1,8,0:0:0:0:
360,151,28823,6,0,P|345:83|379:24,1,119.999996337891,0|0,3:3|0:3,0:3:0:0:
155,112,29156,2,0,B|25:93,1,119.999996337891,0|0,3:3|0:3,0:3:0:0:
13,327,29490,6,0,B|88:315|88:315|119:239,1,119.999996337891,4|0,3:2|0:0,0:0:0:0:
172,234,29740,1,0,0:0:0:0:
249,225,29823,1,0,0:0:0:0:
322,250,29906,1,0,0:0:0:0:
365,315,29990,2,0,L|358:381,1,59.9999981689454
386,129,30156,6,0,L|398:9,1,119.999996337891,12|0,0:1|0:0,0:0:0:0:
294,53,30490,1,0,3:0:0:0:
480,186,30656,2,0,P|505:249|474:314,1,119.999996337891,8|0,1:0|0:0,0:0:0:0:
275,170,30990,5,0,3:0:0:0:
499,81,31156,1,8,1:0:0:0:
397,9,31323,1,2,0:0:0:0:
193,209,31490,6,0,B|154:229|154:229|71:195|71:195|60:113,1,179.999994506836,0|0,3:0|0:0,0:0:0:0:
57,69,31823,2,0,L|182:54,1,119.999996337891,0|8,1:0|1:0,0:0:0:0:
480,186,32156,1,8,0:0:0:0:
323,315,32323,5,0,3:0:0:0:
391,151,32490,1,0,3:0:0:0:
412,350,32656,1,8,1:0:0:0:
33,228,32823,6,0,B|32:271|67:302|108:309|148:284|148:284|180:245|236:248,1,239.999992675781,0|0,1:0|3:0,0:0:0:0:
329,344,33323,2,0,B|308:305|308:305|318:213,1,119.999996337891,8|0,1:0|0:0,0:0:0:0:
395,174,33656,5,0,0:0:0:0:
225,339,33823,1,8,1:0:0:0:
307,130,33990,5,0,0:0:0:0:
231,364,34156,2,0,P|144:338|32:340,1,179.999994506836,4|0,1:0|0:0,0:0:0:0:
5,257,34490,2,0,L|64:248,1,59.9999981689454,0|0,3:0|0:0,0:0:0:0:
95,112,34656,6,8,P|24:100|61:162,1,179.999994506836,8|0,1:0|0:0,1:0:0:0:
64,247,34990,2,0,P|93:243|118:226,1,59.9999981689454,0|0,3:3|0:3,0:3:0:0:
178,99,35156,2,0,P|181:128|170:156,1,59.9999981689454,0|0,3:3|0:3,0:3:0:0:
206,237,35323,6,0,L|329:251,1,119.999996337891,8|0,1:2|0:3,0:3:0:0:
325,250,35573,1,0,0:0:0:0:
325,250,35656,6,0,B|373:218|413:240|413:240|429:195|469:178|521:202|521:202|521:251|468:261,1,299.999990844727,2|0,0:0|0:0,0:0:0:0:
501,325,36156,6,0,B|449:338|404:298|412:241|412:241|453:174|435:125|406:101|406:101|420:74|409:34,1,349.999989318848,6|0,0:0|0:0,0:0:0:0:
412,52,36656,6,0,B|375:23|310:37|310:37|373:17|406:-24|406:-24|466:-14|492:22|499:78|448:116,1,400,6|0,0:0|0:0,0:0:0:0:
298,121,37156,6,0,B|271:131|271:131|195:70|309:38|309:38|358:67|411:52,1,279.999991455078,6|0,1:2|0:0,0:0:0:0:
216,235,37656,6,0,L|141:224,1,69.9999978637696,0|0,3:0|0:3,0:3:0:0:
61,211,37823,2,0,L|4:202,2,46.6666652425131,0|0|0,0:3|0:3|0:3,0:3:0:0:
91,293,37990,6,0,P|101:326|97:361,1,69.9999978637696,2|0,3:0|0:0,0:0:0:0:
114,142,38157,2,0,P|133:113|140:79,1,69.9999978637696,0|0,3:0|0:0,0:0:0:0:
235,384,38323,5,8,1:0:0:0:
425,212,38490,1,0,3:0:0:0:
297,326,38656,5,0,3:0:0:0:
338,64,38823,1,8,1:0:0:0:
361,269,38990,5,0,3:0:0:0:
171,36,39156,1,0,3:0:0:0:
490,153,39323,5,8,1:0:0:0:
21,154,39490,1,0,3:0:0:0:
21,154,39545,1,0,3:0:0:0:
21,154,39601,1,0,3:0:0:0:
21,154,39656,1,8,1:0:0:0:
255,147,39823,5,0,3:0:0:0:
167,228,39990,5,0,0:1:0:0:
343,66,40156,1,0,0:0:0:0:
345,228,40323,5,0,0:0:0:0:
169,66,40489,1,0,0:0:0:0:
169,66,40823,6,0,P|188:123|35:113,1,300.000011444092,2|0,0:1|0:0,0:0:0:0:
295,162,41323,1,8,1:0:0:0:
112,116,41490,1,0,0:0:0:0:
430,30,41656,5,0,0:0:0:0:
295,162,41823,1,0,0:0:0:0:
367,100,41990,1,8,1:0:0:0:
343,371,42156,6,0,P|319:283|406:313,1,225.000008583069
343,371,42490,2,8,P|278:358|186:368,1,150.000005722046,0|8,1:0|1:0,1:0:0:0:
478,265,42823,1,0,0:0:0:0:
487,352,42990,5,0,3:0:0:0:
472,182,43156,1,0,3:0:0:0:
487,352,43323,1,8,1:0:0:0:
205,192,43490,5,0,0:0:0:0:
290,161,43656,1,0,0:0:0:0:
290,161,43740,1,0,0:0:0:0:
290,161,43823,2,0,B|305:195|305:195|285:262,1,75.0000028610231
261,303,43990,6,0,P|185:279|97:283,1,150.000005722046,8|0,1:0|0:0,0:0:0:0:
31,293,44323,1,0,3:0:0:0:
205,192,44490,1,2,0:0:0:0:
183,375,44656,1,8,1:0:0:0:
205,192,44823,6,0,L|227:-4,1,150.000005722046,8|0,3:0|0:0,0:0:0:0:
127,140,45073,1,0,0:0:0:0:
129,128,45156,2,0,B|92:82|31:100|31:100|70:148,1,150.000005722046,8|8,3:1|3:0,0:0:0:0:
298,114,45490,6,0,L|468:91,1,150.000005722046,8|0,1:0|0:0,0:0:0:0:
446,93,45823,6,0,B|456:54|421:24|421:24|373:41|371:82,1,150.000005722046,8|0,1:3|0:0,0:0:0:0:
384,248,46156,6,0,P|439:199|513:193,1,150.000005722046,4|0,0:0|0:0,0:0:0:0:
307,298,46490,1,0,3:0:0:0:
395,320,46656,6,0,P|395:275|358:220,1,75.0000028610231,8|0,1:0|0:0,0:0:0:0:
218,277,46823,1,0,0:0:0:0:
333,384,46990,5,0,3:0:0:0:
279,212,47156,1,0,3:0:0:0:
246,363,47323,1,8,1:0:0:0:
113,70,47490,6,0,B|171:0|270:44|270:44|222:117,1,225.000008583069,0|0,3:0|0:0,0:0:0:0:
241,87,47823,1,0,3:0:0:0:
75,148,47990,2,0,P|122:204|118:278,1,150.000005722046,8|0,1:0|0:0,0:0:0:0:
346,149,48323,5,8,1:0:0:0:
27,238,48490,1,4,0:0:0:0:
6,245,48823,6,0,L|96:269,1,75.0000028610231,0|0,3:0|0:0,0:0:0:0:
337,279,48990,2,0,P|259:189|247:308,1,300.000011444092,12|0,1:2|0:0,0:0:0:0:
351,251,49490,2,0,P|244:187|238:311,1,300.000011444092,12|0,1:2|0:0,0:0:0:0:
354,225,49990,6,0,P|232:185|231:315,1,300.000011444092,8|0,3:1|0:0,0:0:0:0:
411,346,50490,6,0,B|383:373|321:393|307:338|331:295|361:346|388:342,1,150.000005722046,0|0,3:3|0:0,0:0:0:0:
465,289,50906,1,0,0:0:0:0:
471,283,50990,6,0,P|484:249|467:183,1,75.0000028610231,2|0,0:1|0:0,0:0:0:0:
445,137,51156,2,0,P|422:108|356:90,1,75.0000028610231,8|0,1:0|0:0,0:0:0:0:
309,68,51323,1,0,0:0:0:0:
97,117,51490,6,8,B|70:173|70:173|155:180|228:137,1,225.000008583069,12|0,0:0|0:0,0:3:0:0:
309,68,51823,2,0,L|300:186,1,75.0000028610231,0|0,3:0|0:0,0:0:0:0:
286,373,51990,5,8,1:0:0:0:
512,151,52156,1,0,0:0:0:0:
425,369,52323,5,0,3:0:0:0:
163,54,52489,1,0,3:0:0:0:
174,301,52656,1,8,1:0:0:0:
447,206,52823,6,4,B|439:262|397:287|397:287|385:254|352:237|352:237|378:211|380:153,1,225.000008583069,4|4,0:2|0:2,0:2:0:0:
379,169,53156,1,0,3:0:0:0:
352,343,53323,2,0,P|336:278|272:298,1,150.000005722046,8|0,1:0|0:0,0:0:0:0:
167,32,53657,6,0,P|130:32|100:53,1,75.0000028610231,8|0,1:0|0:3,0:3:0:0:
28,192,53824,2,0,L|39:266,1,75.0000028610231,0|0,1:0|0:3,0:3:0:0:
17,71,53990,6,0,P|16:34|33:2,1,75.0000028610231,8|0,3:2|0:3,0:3:0:0:
258,117,54157,2,0,B|153:112|153:112|184:152,1,150.000005722046,4|0,1:2|0:3,0:3:0:0:
153,224,54407,1,0,0:0:0:0:
170,227,54490,2,0,P|207:224|238:203,1,75.0000028610231,2|0,3:2|0:0,0:0:0:0:
337,79,54657,6,0,B|343:130|343:130|321:180|321:180|329:250,1,150.000005722046,4|0,3:3|0:3,0:3:0:0:
469,201,54907,1,0,0:0:0:0:
480,209,54990,2,0,L|391:194,1,75.0000028610231,12|0,1:0|0:0,0:0:0:0:
331,307,55157,5,2,0:0:0:0:
435,57,55324,1,0,3:0:0:0:
331,307,55490,6,0,B|386:273|447:309|447:309|412:318,1,150.000005722046,0|0,3:0|0:0,0:0:0:0:
181,307,55824,2,0,B|125:273|64:309|64:309|99:318,1,150.000005722046,0|0,3:0|0:0,0:0:0:0:
131,193,56157,6,0,B|140:156|140:156|81:165,1,75.0000028610231
123,201,56490,2,0,B|132:164|132:164|73:173,1,75.0000028610231
68,75,56824,6,0,B|14:82|14:82|46:40|46:40|88:36,1,150.000005722046,4|0,0:0|0:0,0:0:0:0:
291,165,57157,1,0,0:0:0:0:
291,165,57324,6,0,L|300:240,1,75.0000028610231,8|0,1:0|0:0,0:0:0:0:
462,99,57490,1,0,0:0:0:0:
462,98,57657,6,0,L|453:172,1,75.0000028610231,0|0,3:0|0:0,0:0:0:0:
478,248,57824,2,0,P|441:252|406:237,1,75.0000028610231,0|0,3:0|0:0,0:0:0:0:
472,16,57990,5,8,1:0:0:0:
499,312,58157,1,0,3:0:0:0:
500,315,58213,1,0,3:0:0:0:
501,319,58268,1,0,3:0:0:0:
502,323,58324,6,0,P|430:329|339:281,1,150.000005722046,8|0,1:0|0:0,0:0:0:0:
71,69,58657,2,0,B|109:108|109:108|97:205,1,150.000005722046,8|0,0:0|0:0,0:0:0:0:
207,316,58990,5,0,1:1:0:0:
59,336,59157,1,0,1:0:0:0:
198,317,59324,5,0,1:1:0:0:
73,336,59491,1,0,1:0:0:0:
298,145,59657,6,0,P|223:149|157:118,1,150.000005722046,8|0,0:0|0:0,0:0:0:0:
433,35,59990,2,0,B|423:-12|423:-12|388:28|397:87,1,150.000005722046
405,202,60324,2,0,L|564:186,2,150.000005722046
55,274,60824,6,0,B|-9:232|-9:232|67:169,1,150.000005722046
255,168,61157,6,0,B|319:210|319:210|243:273,1,150.000005722046
155,221,61490,1,0,0:0:0:0:
392,368,61657,5,0,0:0:0:0:
331,324,61740,1,0,0:0:0:0:
255,314,61824,1,0,0:0:0:0:
184,338,61907,1,0,0:0:0:0:
120,382,61990,6,0,B|-25:361|-25:361|32:296|32:296|115:307,1,300
110,205,62324,6,0,L|97:315,1,100
37,161,62490,6,0,B|78:108|154:131|154:131|191:185|262:176,1,250
234,94,62990,6,8,B|266:36|247:-44|193:5|193:5|216:20,1,179.999994506836
461,275,63324,2,8,B|493:333|474:413|420:364|420:364|443:349,1,179.999994506836
403,171,63657,6,0,L|546:189,1,89.9999972534181
411,164,63990,2,0,L|500:175,1,89.9999972534181
218,230,64324,5,0,3:0:0:0:
299,282,64435,1,0,3:0:0:0:
217,319,64546,1,0,3:0:0:0:
294,284,64657,6,0,B|291:243|304:220|304:220|285:181|285:181|305:150|291:93,1,179.999994506836,0|0,3:0|0:0,3:0:0:0:
306,35,64990,6,0,L|184:46,1,89.9999972534181
155,90,65157,2,0,P|143:71|141:32,1,44.999998626709
128,180,65324,2,0,P|106:173|79:144,1,44.999998626709
444,111,65490,2,0,P|456:92|462:71,1,44.999998626709
472,201,65657,2,0,P|493:194|520:165,1,44.999998626709
306,18,65824,5,0,0:0:0:0:
294,129,65990,1,0,0:0:0:0:
292,146,66073,1,0,0:0:0:0:
291,165,66156,1,0,0:0:0:0:
289,183,66239,1,0,0:0:0:0:
285,219,66324,6,0,B|394:209|394:209|340:285,1,179.999994506836
268,379,66657,5,0,0:0:0:0:
279,298,66740,1,0,0:0:0:0:
344,346,66824,1,0,0:0:0:0:
166,325,66990,6,0,B|129:298|129:298|142:219,1,89.9999972534181
275,129,67157,2,0,B|285:225,1,89.9999972534181
137,255,67324,6,0,L|118:73,1,179.999994506836
425,96,67657,6,0,P|443:142|435:186,1,89.9999972534181
494,264,67824,6,0,B|464:225|464:225|401:218|401:218|365:245|365:245|252:233,1,250
59,148,68324,6,0,B|153:186|153:186|253:170|239:96|155:110,1,269.999991760254
155,19,68657,2,0,L|160:124,1,89.9999972534181
109,249,68824,2,0,B|150:267|150:267|200:251,1,89.9999972534181
375,255,68990,5,0,0:0:0:0:
375,201,69073,1,0,0:0:0:0:
323,184,69156,1,0,0:0:0:0:
292,228,69240,1,0,0:0:0:0:
319,286,69324,5,0,0:0:0:0:
387,264,69407,1,0,0:0:0:0:
387,192,69491,1,0,0:0:0:0:
319,170,69574,1,0,0:0:0:0:
276,228,69657,6,0,B|158:245,1,89.9999972534181
159,108,69824,2,0,B|149:66|149:66|177:23,1,89.9999972534181
507,98,69990,2,0,B|376:81|376:81|332:96|332:96|213:81,1,269.999991760254
242,84,70324,6,0,P|286:75|290:150,1,89.9999972534181
315,185,70490,2,0,L|306:251,1,44.999998626709
397,1,70657,2,0,L|388:67,1,44.999998626709
391,194,70824,2,0,L|382:260,1,44.999998626709
473,10,70991,2,0,L|464:76,1,44.999998626709
472,203,71157,6,0,B|348:185|348:185|442:276,1,179.999994506836
444,314,71490,6,0,P|409:349|385:294,1,89.9999972534181
232,317,71657,6,0,B|308:272|308:272|407:351,1,179.999994506836
470,322,71907,1,0,0:0:0:0:
470,322,71990,6,0,L|380:330,1,89.9999972534181
301,369,72102,1,0,0:0:0:0:
315,189,72213,1,0,0:0:0:0:
222,303,72324,6,0,L|132:309,1,89.9999972534181
8,284,72490,2,0,B|96:372|96:372|125:324,1,179.999994506836
490,103,72824,6,0,B|412:180|293:153|293:153|310:109|373:70,1,300.000011444092
430,2,73324,6,0,L|410:170,1,150.000005722046,0|0,0:3|0:3,0:3:0:0:
402,234,73657,1,0,0:0:0:0:
347,3,73824,1,0,0:0:0:0:
512,28,73990,1,0,0:0:0:0:
130,215,74157,6,0,B|108:131|108:131|148:72|148:72|165:136,1,225.000008583069
149,300,74490,2,0,L|0:286,1,150.000005722046
209,241,74824,1,0,0:0:0:0:
143,383,74990,5,0,0:0:0:0:
82,150,75157,1,0,0:0:0:0:
130,384,75324,1,0,0:0:0:0:
482,86,75490,6,0,B|422:85|390:140|390:140|346:99|285:120,1,225.000008583069
223,166,75824,1,0,0:0:0:0:
510,182,75990,2,0,P|456:181|505:206,1,150.000005722046
367,4,76324,6,0,L|382:95,1,75.0000028610231
413,288,76490,1,0,0:0:0:0:
416,304,76824,6,0,P|317:257|161:292,1,225.000008583069
141,313,77157,2,0,L|44:301,1,75.0000028610231
286,115,77324,2,0,B|317:151|317:151|307:253,1,150.000005722046
403,176,77657,6,0,L|477:163,1,75.0000028610231
212,69,77824,2,0,B|199:107|199:107|205:141,1,75.0000028610231
496,294,77990,6,0,B|475:248|475:248|396:261|396:261|436:346,1,225.000008583069
437,347,78324,6,0,L|179:326,1,225.000008583069
189,325,78657,1,0,0:0:0:0:
92,119,78824,6,0,B|26:220|26:220|61:298|61:298|124:198,1,300.000011444092
232,32,79324,6,0,B|119:8|149:108|9:76,1,225.000008583069
0,69,79657,1,0,0:0:0:0:
211,258,79824,6,0,B|226:218|226:218|204:113,1,150.000005722046
204,113,80046,5,0,0:0:0:0:
204,113,80102,1,0,0:0:0:0:
204,113,80157,2,0,L|295:122,1,75.0000028610231
111,218,80324,6,0,L|36:210,1,75.0000028610231
298,240,80490,2,0,L|373:248,1,75.0000028610231
126,362,80657,5,0,0:0:0:0:
97,293,80740,1,0,0:0:0:0:
111,218,80824,1,0,0:0:0:0:
170,171,80907,1,0,0:0:0:0:
245,165,80990,5,0,0:0:0:0:
280,380,81157,1,0,0:0:0:0:
339,144,81324,1,0,0:0:0:0:
375,371,81490,5,0,0:0:0:0:
11,160,81657,1,0,0:0:0:0:
508,230,81824,1,0,0:0:0:0:
60,342,81990,5,0,0:0:0:0:
455,32,82157,1,0,0:0:0:0:
455,32,82213,1,0,0:0:0:0:
455,32,82268,1,0,0:0:0:0:
455,32,82324,5,0,0:0:0:0:
260,192,82490,1,0,0:0:0:0:
177,76,83490,2,0,L|182:35,2,25
187,97,83657,6,0,B|134:80|77:104|77:104|37:85|30:33|30:33|-8:77|3:143|52:171|52:171|23:223|37:284|88:305|88:305|80:243|118:211|118:211|139:170|117:127,1,700
175,284,86157,6,0,B|218:262|264:280|264:280|278:321|321:349|368:348|426:312|403:217|341:212|327:269,1,350
267,109,87490,6,0,L|276:208,1,100
365,91,88157,2,0,P|313:78|266:103,1,100
256,92,88824,6,0,P|315:64|397:98,1,150
432,159,89490,1,0,0:0:0:0:
432,159,89657,2,0,L|500:152,2,50
352,165,90157,2,0,L|361:264,1,100
342,192,90657,2,0,L|347:256,1,50
354,352,90990,2,0,L|307:342,1,25
223,325,91157,6,0,P|164:309|103:332,1,125
106,329,91657,6,0,B|113:259|113:259|109:249|109:249|117:154,1,150.000005722046
119,178,91879,1,0,0:0:0:0:
123,175,91935,1,0,0:0:0:0:
127,172,91990,2,0,B|135:88,1,75.0000028610231
291,189,92157,6,0,B|285:242|285:242|195:195,1,150.000005722046
200,197,92435,1,0,0:0:0:0:
200,192,92490,1,0,0:0:0:0:
201,187,92546,1,0,0:0:0:0:
201,182,92601,1,0,0:0:0:0:
202,177,92657,6,0,B|210:114|210:114|316:177|274:335,1,300.000011444092
