osu file format v14

[General]
AudioFilename: sagashi mono.mp3
AudioLeadIn: 0
PreviewTime: 74625
Countdown: 0
SampleSet: Soft
StackLeniency: 0.7
Mode: 0
LetterboxInBreaks: 1
WidescreenStoryboard: 1

[Editor]
DistanceSpacing: 2
BeatDivisor: 8
GridSize: 4
TimelineZoom: 2.4

[Metadata]
Title:Sagashi Mono(BMS Edit)
TitleUnicode:探し物(BMS Edit)
Artist:onoken
ArtistUnicode:onoken
Creator:Ayakura Mei
Version:Normal
Source:BMS
Tags:
BeatmapID:701210
BeatmapSetID:177187

[Difficulty]
HPDrainRate:4
CircleSize:3
OverallDifficulty:4
ApproachRate:5
SliderMultiplier:1.4
SliderTickRate:1

[Events]
//Background and Video events
0,0,"BG.jpg",0,0
//Break Periods
//Storyboard Layer 0 (Background)
//Storyboard Layer 1 (Fail)
//Storyboard Layer 2 (Pass)
//Storyboard Layer 3 (Foreground)
//Storyboard Sound Samples
Sample,54222,0,"soft-hitclap7.wav",70
Sample,54597,0,"soft-hitclap.wav",70
Sample,54972,0,"soft-hitclap2.wav",70
Sample,55347,0,"soft-hitclap8.wav",70
Sample,55722,0,"soft-hitclap9.wav",70
Sample,56472,0,"soft-hitclap.wav",70
Sample,56847,0,"soft-hitclap2.wav",70
Sample,60222,0,"soft-hitclap9.wav",70
Sample,60597,0,"soft-hitfinish10.wav",70
Sample,60972,0,"soft-hitfinish8.wav",70
Sample,61347,0,"soft-hitclap2.wav",70
Sample,61628,0,"soft-hitfinish2.wav",70
Sample,61722,0,"soft-hitclap.wav",70
Sample,66222,0,"soft-hitclap7.wav",70
Sample,66597,0,"soft-hitclap.wav",70
Sample,66972,0,"soft-hitclap2.wav",70
Sample,67347,0,"soft-hitclap8.wav",70
Sample,67722,0,"soft-hitfinish9.wav",70
Sample,72222,0,"drum-hitfinish.wav",70
Sample,72785,0,"drum-hitwhistle2.wav",70
Sample,73347,0,"drum-hitclap2.wav",70
Sample,74097,0,"drum-hitclap3.wav",70
Sample,74847,0,"drum-hitclap2.wav",70
Sample,78222,0,"soft-hitclap7.wav",70
Sample,78597,0,"soft-hitclap.wav",70
Sample,78972,0,"soft-hitclap2.wav",70
Sample,79347,0,"soft-hitclap8.wav",70
Sample,84222,0,"soft-hitclap9.wav",70
Sample,84597,0,"soft-hitfinish10.wav",70
Sample,84972,0,"soft-hitfinish8.wav",70
Sample,85347,0,"soft-hitclap2.wav",70
Sample,85628,0,"soft-hitfinish2.wav",70
Sample,85722,0,"soft-hitclap.wav",70
Sample,85910,0,"soft-hitfinish11.wav",70
Sample,90222,0,"soft-hitclap7.wav",70
Sample,90597,0,"soft-hitclap.wav",70
Sample,90972,0,"soft-hitclap2.wav",70
Sample,91347,0,"soft-hitclap8.wav",70
Sample,96222,0,"drum-hitfinish.wav",70
Sample,96785,0,"drum-hitwhistle2.wav",70
Sample,97347,0,"drum-hitclap2.wav",70
Sample,98097,0,"drum-hitclap3.wav",70
Sample,98847,0,"drum-hitclap2.wav",70
Sample,135285,0,"normal-hitclap8.wav",70
Sample,135379,0,"normal-hitfinish8.wav",70
Sample,147291,0,"normal-hitclap8.wav",70
Sample,147379,0,"normal-hitfinish8.wav",70

[TimingPoints]
35,750,4,1,0,100,1,0
2191,-100,4,2,1,100,0,0
2378,-100,4,2,2,100,0,0
3691,-100,4,2,1,100,0,0
3878,-100,4,2,2,100,0,0
4253,-100,4,2,3,100,0,0
4628,-100,4,2,4,100,0,0
5003,-100,4,2,3,100,0,0
5097,-100,4,2,4,100,0,0
5191,-100,4,2,5,100,0,0
5566,-100,4,2,6,100,0,0
5941,-100,4,2,1,100,0,0
6410,-100,4,2,4,100,0,0
6691,-100,4,2,5,100,0,0
7160,-100,4,2,6,100,0,0
7441,-100,4,2,7,100,0,0
8097,-100,4,2,7,5,0,0
8191,-100,4,2,1,100,0,0
8566,-100,4,2,2,100,0,0
9691,-100,4,2,1,100,0,0
10035,-100,4,2,2,100,0,0
10410,-100,4,2,3,100,0,0
10785,-100,4,2,4,100,0,0
11003,-100,4,2,3,100,0,0
11097,-100,4,2,4,100,0,0
11191,-100,4,2,5,100,0,0
11566,-100,4,2,6,100,0,0
11941,-100,4,2,1,100,0,0
12316,-100,4,2,4,100,0,0
12691,-100,4,2,5,100,0,0
13066,-100,4,2,6,100,0,0
13441,-100,4,2,8,100,0,0
14097,-100,4,2,8,5,0,0
14191,-100,4,2,1,100,0,0
14566,-100,4,2,2,100,0,0
15691,-100,4,2,1,100,0,0
16066,-100,4,2,2,100,0,0
16441,-100,4,2,3,100,0,0
16816,-100,4,2,4,100,0,0
17003,-100,4,2,3,100,0,0
17097,-100,4,2,4,100,0,0
17191,-100,4,2,5,100,0,0
17566,-100,4,2,6,100,0,0
17941,-100,4,2,1,100,0,0
18410,-100,4,2,4,100,0,0
18691,-100,4,2,5,100,0,0
19160,-100,4,2,6,100,0,0
19441,-100,4,2,7,100,0,0
20097,-100,4,2,7,5,0,0
20191,-100,4,2,1,100,0,0
20566,-100,4,2,2,100,0,0
21691,-100,4,2,1,100,0,0
22035,-100,4,2,2,100,0,0
22410,-100,4,2,3,100,0,0
22785,-100,4,2,4,100,0,0
23003,-100,4,2,3,100,0,0
23097,-100,4,2,4,100,0,0
23191,-100,4,2,5,100,0,0
23378,-100,4,2,6,100,0,0
23941,-100,4,2,1,100,0,0
24316,-100,4,2,4,100,0,0
24691,-100,4,2,5,100,0,0
25066,-100,4,2,6,100,0,0
25441,-100,4,2,8,100,0,0
26097,-100,4,2,8,5,0,0
26191,-100,4,2,1,100,0,0
26566,-100,4,2,2,100,0,0
27597,-100,4,2,2,5,0,0
27691,-100,4,2,1,100,0,0
28160,-100,4,2,2,100,0,0
28441,-100,4,2,3,100,0,0
28816,-100,4,2,4,100,0,0
29003,-100,4,2,3,100,0,0
29097,-100,4,2,4,100,0,0
29191,-100,4,2,5,100,0,0
29566,-100,4,2,6,100,0,0
29941,-100,4,2,1,100,0,0
30410,-100,4,2,4,100,0,0
30691,-100,4,2,5,100,0,0
31160,-100,4,2,6,100,0,0
31441,-100,4,2,7,100,0,0
32097,-100,4,2,7,5,0,0
32191,-100,4,2,1,100,0,0
32566,-100,4,2,2,100,0,0
33597,-100,4,2,2,5,0,0
33691,-100,4,2,1,100,0,0
34160,-100,4,2,2,100,0,0
34441,-100,4,2,3,100,0,0
34816,-100,4,2,4,100,0,0
35003,-100,4,2,3,100,0,0
35097,-100,4,2,4,100,0,0
35191,-100,4,2,5,100,0,0
35660,-100,4,2,6,100,0,0
35941,-100,4,2,1,100,0,0
36410,-100,4,2,4,100,0,0
36691,-100,4,2,5,100,0,0
37160,-100,4,2,6,100,0,0
37441,-100,4,2,8,100,0,0
38097,-100,4,2,8,5,0,0
38191,-100,4,2,1,100,0,0
38566,-100,4,2,2,100,0,0
39597,-100,4,2,2,5,0,0
39691,-100,4,2,1,100,0,0
40160,-100,4,2,2,100,0,0
40441,-100,4,2,3,100,0,0
40816,-100,4,2,4,100,0,0
41003,-100,4,2,3,100,0,0
41097,-100,4,2,4,100,0,0
41191,-100,4,2,5,100,0,0
41660,-100,4,2,6,100,0,0
41941,-100,4,2,1,100,0,0
42410,-100,4,2,4,100,0,0
42691,-100,4,2,5,100,0,0
43066,-100,4,2,6,100,0,0
43441,-100,4,2,7,100,0,0
44097,-100,4,2,7,5,0,0
44191,-100,4,2,1,100,0,0
44566,-100,4,2,2,100,0,0
45597,-100,4,2,2,5,0,0
45691,-100,4,2,1,100,0,0
46066,-100,4,2,2,100,0,0
46441,-100,4,2,3,100,0,0
46816,-100,4,2,4,100,0,0
47003,-100,4,2,3,100,0,0
47097,-100,4,2,4,100,0,0
47191,-100,4,2,5,100,0,0
47566,-100,4,2,6,100,0,0
47941,-100,4,2,1,100,0,0
48410,-100,4,2,4,100,0,0
48691,-100,4,2,5,100,0,0
49066,-100,4,2,6,100,0,0
49441,-100,4,2,8,100,0,0
50097,-100,4,2,8,5,0,0
50191,-100,4,2,1,100,0,0
50566,-100,4,2,2,100,0,0
50941,-100,4,2,3,100,0,0
51597,-100,4,2,4,100,0,0
52347,-100,4,2,5,100,0,0
53097,-100,4,2,6,100,0,0
53847,-100,4,2,7,100,0,0
54316,-100,4,2,1,100,0,0
54691,-100,4,2,2,100,0,0
55066,-100,4,2,8,100,0,0
56191,-100,4,2,1,100,0,0
56566,-100,4,2,2,100,0,0
56941,-100,4,2,3,100,0,0
57597,-100,4,2,4,100,0,0
58347,-100,4,2,5,100,0,0
59097,-100,4,2,6,100,0,0
59847,-100,4,2,7,100,0,0
60316,-100,4,2,8,100,0,0
60691,-100,4,2,5,100,0,0
61066,-100,4,2,10,100,0,0
61441,-100,4,2,1,100,0,0
61769,-100,4,2,11,100,0,0
62191,-100,4,2,7,100,0,0
62378,-100,4,2,11,100,0,0
62566,-100,4,2,12,100,0,0
62941,-100,4,2,3,100,0,0
63597,-100,4,2,4,100,0,0
64347,-100,4,2,5,100,0,0
65097,-100,4,2,6,100,0,0
65847,-100,4,2,7,100,0,0
66316,-100,4,2,1,100,0,0
66691,-100,4,2,2,100,0,0
67066,-100,4,2,8,100,0,0
67628,-100,4,2,9,100,0,0
68191,-100,4,2,1,100,0,0
68566,-100,4,2,2,100,0,0
68941,-100,4,2,3,100,0,0
69691,-100,4,2,4,100,0,0
70441,-100,4,2,5,100,0,0
71191,-100,4,2,6,100,0,0
71941,-100,4,3,1,100,0,0
72597,-100,4,3,1,100,0,0
72691,-100,4,3,2,100,0,0
73160,-100,4,3,2,100,0,0
73441,-50,4,3,3,100,0,0
73722,-100,4,3,3,100,0,0
74191,-100,4,3,4,100,0,0
74566,-100,4,3,1,100,0,0
75035,-100,4,2,3,100,0,0
75597,-100,4,2,4,100,0,0
76347,-100,4,2,5,100,0,0
77097,-100,4,2,6,100,0,0
78035,-100,4,2,7,100,0,0
78316,-100,4,2,1,100,0,0
78691,-100,4,2,2,100,0,0
79066,-100,4,2,8,100,0,0
79628,-100,4,2,9,100,0,0
80097,-100,4,2,9,5,0,0
80191,-100,4,2,1,100,0,0
80566,-100,4,2,2,100,0,0
80941,-100,4,2,3,100,0,0
81597,-100,4,2,4,100,0,0
82347,-100,4,2,5,100,0,0
83097,-100,4,2,6,100,0,0
83847,-100,4,2,7,100,0,0
84316,-100,4,2,8,100,0,0
84691,-100,4,2,5,100,0,0
85066,-100,4,2,10,100,0,0
85441,-100,4,2,1,100,0,0
86003,-100,4,2,7,5,0,0
86191,-100,4,2,7,100,0,0
86378,-100,4,2,11,100,0,0
86566,-100,4,2,12,100,0,0
87035,-100,4,2,3,100,0,0
87503,-100,4,2,4,100,0,0
88253,-100,4,2,5,100,0,0
89097,-100,4,2,6,100,0,0
89847,-100,4,2,7,100,0,0
90316,-100,4,2,1,100,0,0
90691,-100,4,2,2,100,0,0
91066,-100,4,2,8,100,0,0
91628,-100,4,2,9,100,0,0
92003,-100,4,2,9,5,0,0
92191,-100,4,2,1,100,0,0
92566,-100,4,2,2,100,0,0
92941,-100,4,2,3,100,0,0
93503,-100,4,2,4,100,0,0
94347,-100,4,2,5,100,0,0
95097,-100,4,2,6,100,0,0
95941,-100,4,3,1,100,0,0
96597,-100,4,3,1,100,0,0
96691,-100,4,3,2,100,0,0
97066,-100,4,3,2,5,0,0
97160,-100,4,3,2,100,0,0
97441,-100,4,3,3,100,0,0
97722,-100,4,3,3,100,0,0
98191,-100,4,3,4,100,0,0
98566,-100,4,3,1,100,0,0
98941,-100,4,1,1,100,0,0
99316,-100,4,1,2,100,0,0
99691,-100,4,1,1,100,0,0
100066,-100,4,1,2,100,0,0
100441,-100,4,1,3,100,0,0
100816,-100,4,1,4,100,0,0
101003,-100,4,1,2,100,0,0
101191,-100,4,1,3,100,0,0
101566,-100,4,1,4,100,0,0
101753,-100,4,1,2,100,0,0
101941,-100,4,1,1,100,0,0
102316,-100,4,1,2,100,0,0
102691,-100,4,1,1,100,0,0
103066,-100,4,1,2,100,0,0
103441,-100,4,1,3,100,0,0
103816,-100,4,1,4,100,0,0
104003,-100,4,1,2,100,0,0
104191,-100,4,1,3,100,0,0
104566,-100,4,1,4,100,0,0
104753,-100,4,1,2,100,0,0
104941,-100,4,1,1,100,0,0
105316,-100,4,1,2,100,0,0
105691,-100,4,1,1,100,0,0
106066,-100,4,1,2,100,0,0
106441,-100,4,1,3,100,0,0
106816,-100,4,1,4,100,0,0
107003,-100,4,1,2,100,0,0
107191,-100,4,1,3,100,0,0
107566,-100,4,1,4,100,0,0
107753,-100,4,1,2,100,0,0
107941,-100,4,1,1,100,0,0
108316,-100,4,1,2,100,0,0
108691,-100,4,1,1,100,0,0
109066,-100,4,1,2,100,0,0
109441,-100,4,1,3,100,0,0
109816,-100,4,1,4,100,0,0
110003,-100,4,1,2,100,0,0
110191,-100,4,1,3,100,0,0
110566,-100,4,1,4,100,0,0
110941,-100,4,1,5,100,0,0
111316,-100,4,1,6,100,0,0
111691,-100,4,1,5,100,0,0
112066,-100,4,1,6,100,0,0
112441,-100,4,1,7,100,0,0
112628,-100,4,1,5,100,0,0
112816,-100,4,1,6,100,0,0
113191,-100,4,1,7,100,0,0
113378,-100,4,1,5,100,0,0
113566,-100,4,1,6,100,0,0
113941,-100,4,1,5,100,0,0
114316,-100,4,1,6,100,0,0
114691,-100,4,1,5,100,0,0
115066,-100,4,1,6,100,0,0
115441,-100,4,1,7,100,0,0
115628,-100,4,1,5,100,0,0
115816,-100,4,1,6,100,0,0
116191,-100,4,1,7,100,0,0
116378,-100,4,1,5,100,0,0
116566,-100,4,1,6,100,0,0
116941,-100,4,1,5,100,0,0
117316,-100,4,1,6,100,0,0
117691,-100,4,1,5,100,0,0
118066,-100,4,1,6,100,0,0
118441,-100,4,1,7,100,0,0
118628,-100,4,1,5,100,0,0
118816,-100,4,1,6,100,0,0
119191,-100,4,1,7,100,0,0
119378,-100,4,1,5,100,0,0
119566,-100,4,1,6,100,0,0
120035,769.230769230769,4,1,5,100,1,0
120227,789.473684210526,4,1,5,100,1,0
120424,810.810810810811,4,1,6,100,1,0
120626,833.333333333333,4,1,6,100,1,0
120834,857.142857142857,4,1,5,100,1,0
121048,882.352941176471,4,1,5,100,1,0
121268,909.090909090909,4,1,6,100,1,0
121495,937.5,4,1,6,100,1,0
121729,967.741935483871,4,1,7,100,1,0
121970,1000,4,1,5,100,1,0
122220,1034.48275862069,4,1,6,100,1,0
122478,1111.11111111111,4,1,6,100,1,0
122755,1250,4,1,8,100,1,0
123067,1500,4,1,8,100,1,0
123442,2000,4,1,8,100,1,0
123942,3000,4,1,9,100,1,0
124692,750,4,1,9,100,1,1
124785,-100,4,1,4,100,0,1
124973,-100,4,2,2,100,0,1
125160,-100,4,1,4,100,0,1
125348,-100,4,1,1,100,0,1
125535,-100,4,1,4,100,0,1
125723,-100,4,1,2,100,0,1
125910,-100,4,1,4,100,0,1
126098,-100,4,1,3,100,0,1
126473,-100,4,2,2,100,0,1
126660,-100,4,1,3,100,0,1
126848,-100,4,1,8,100,0,1
127035,-100,4,1,3,100,0,1
127223,-100,4,1,3,100,0,1
127598,-100,4,2,2,100,0,1
127785,-100,4,2,1,100,0,1
127973,-100,4,2,2,100,0,1
128160,-100,4,2,8,100,0,1
128348,-100,4,1,1,100,0,1
128535,-100,4,1,3,100,0,1
128723,-100,4,1,2,100,0,1
128910,-100,4,1,4,100,0,1
129285,-100,4,1,5,100,0,1
129848,-100,4,2,2,100,0,1
130035,-100,4,2,8,100,0,1
130223,-100,4,1,1,100,0,1
130410,-100,4,1,6,100,0,1
130692,-100,4,1,9,100,0,1
130785,-100,4,1,4,100,0,1
130973,-100,4,2,2,100,0,1
131160,-100,4,1,4,100,0,1
131348,-100,4,1,1,100,0,1
131535,-100,4,1,4,100,0,1
131723,-100,4,1,2,100,0,1
131910,-100,4,1,4,100,0,1
132098,-100,4,1,3,100,0,1
132473,-100,4,2,2,100,0,1
132660,-100,4,1,3,100,0,1
132848,-100,4,1,8,100,0,1
133035,-100,4,1,3,100,0,1
133223,-100,4,1,3,100,0,1
133598,-100,4,2,2,100,0,1
133785,-100,4,1,7,100,0,1
133973,-100,4,1,2,100,0,1
134160,-100,4,1,9,100,0,1
134348,-100,4,1,6,100,0,1
134535,-100,4,1,2,100,0,1
134723,-100,4,1,8,100,0,1
134910,-100,4,1,1,100,0,1
135098,-100,4,1,8,100,0,1
135473,-100,4,1,10,100,0,1
135848,-100,4,2,1,100,0,1
136035,-100,4,2,2,100,0,1
136223,-100,4,1,8,100,0,1
136692,-100,4,1,9,100,0,1
136785,-100,4,1,4,100,0,1
136973,-100,4,2,2,100,0,1
137160,-100,4,1,4,100,0,1
137348,-100,4,1,1,100,0,1
137535,-100,4,1,4,100,0,1
137723,-100,4,1,2,100,0,1
137910,-100,4,1,4,100,0,1
138098,-100,4,1,3,100,0,1
138473,-100,4,2,2,100,0,1
138660,-100,4,1,3,100,0,1
138848,-100,4,1,8,100,0,1
139035,-100,4,1,3,100,0,1
139223,-100,4,1,3,100,0,1
139598,-100,4,2,2,100,0,1
139785,-100,4,2,1,100,0,1
139973,-100,4,2,2,100,0,1
140160,-100,4,2,8,100,0,1
140348,-100,4,1,1,100,0,1
140535,-100,4,1,3,100,0,1
140723,-100,4,1,2,100,0,1
140910,-100,4,1,4,100,0,1
141285,-100,4,1,5,100,0,1
141848,-100,4,2,2,100,0,1
142035,-100,4,2,8,100,0,1
142223,-100,4,1,1,100,0,1
142410,-100,4,1,6,100,0,1
142692,-100,4,1,9,100,0,1
142785,-100,4,1,4,100,0,1
142973,-100,4,2,2,100,0,1
143160,-100,4,1,4,100,0,1
143348,-100,4,1,1,100,0,1
143535,-100,4,1,4,100,0,1
143723,-100,4,1,2,100,0,1
143910,-100,4,1,4,100,0,1
144098,-100,4,1,3,100,0,1
144473,-100,4,2,2,100,0,1
144660,-100,4,1,3,100,0,1
144848,-100,4,1,8,100,0,1
145035,-100,4,1,3,100,0,1
145223,-100,4,1,3,100,0,1
145410,-100,4,1,3,100,0,1
145598,-100,4,2,2,100,0,1
145785,-100,4,1,7,100,0,1
145973,-100,4,1,2,100,0,1
146160,-100,4,1,9,100,0,1
146348,-100,4,1,6,100,0,1
146535,-100,4,1,2,100,0,1
146723,-100,4,1,8,100,0,1
146910,-100,4,1,1,100,0,1
147098,-100,4,1,8,100,0,1
147452,-100,4,1,10,100,0,1
148692,-100,4,1,10,5,0,0

[HitObjects]
460,192,2285,5,2,0:0:0:0:
368,244,2660,1,2,0:0:0:0:
264,232,3035,2,0,P|220:184|224:104,1,140,2|2,0:0|0:0,0:0:0:0:
320,140,4160,5,2,0:0:0:0:
368,232,4535,1,2,0:0:0:0:
316,320,4910,2,0,L|328:344,3,23.3333333333333,2|2|2|2,0:0|0:0|0:0|0:0,0:0:0:0:
224,348,5660,1,2,0:0:0:0:
136,296,6035,6,0,L|64:308,1,70,2|2,0:0|0:0,0:0:0:0:
100,208,6785,2,0,L|16:192,1,70,2|2,0:0|0:0,0:0:0:0:
92,108,7535,2,0,P|144:100|212:100,1,105,2|0,0:0|0:0,0:0:0:0:
248,116,8285,5,2,0:0:0:0:
348,84,8660,1,2,0:0:0:0:
432,144,9035,2,0,P|460:208|460:288,1,140,2|2,0:0|0:0,0:0:0:0:
364,300,10160,5,2,0:0:0:0:
280,244,10535,1,2,0:0:0:0:
200,312,10910,2,0,L|172:336,3,23.3333333333333,2|2|2|2,0:0|0:0|0:0|0:0,0:0:0:0:
84,292,11660,1,2,0:0:0:0:
40,196,12035,6,0,L|112:172,1,70,2|2,0:0|0:0,0:0:0:0:
208,200,12785,2,0,L|288:224,1,70,2|2,0:0|0:0,0:0:0:0:
380,240,13535,2,0,P|396:192|392:132,1,105,2|0,0:0|0:0,0:0:0:0:
368,92,14285,5,2,0:0:0:0:
280,36,14660,1,2,0:0:0:0:
176,56,15035,2,0,P|156:120|168:192,1,140,2|2,0:0|0:0,0:0:0:0:
268,216,16160,5,2,0:0:0:0:
312,308,16535,1,2,0:0:0:0:
216,344,16910,2,0,L|192:352,3,23.3333333333333,2|2|2|2,0:0|0:0|0:0|0:0,0:0:0:0:
96,316,17660,1,2,0:0:0:0:
140,224,18035,6,0,L|132:148,1,70,2|2,0:0|0:0,0:0:0:0:
232,192,18785,2,0,L|240:116,1,70,2|2,0:0|0:0,0:0:0:0:
284,40,19535,2,0,P|332:28|388:36,1,105,2|0,0:0|0:0,0:0:0:0:
424,68,20285,5,2,0:0:0:0:
464,160,20660,1,2,0:0:0:0:
416,248,21035,2,0,P|336:236|272:256,1,140,2|2,0:0|0:0,0:0:0:0:
184,224,22160,5,2,0:0:0:0:
88,256,22535,1,2,0:0:0:0:
8,200,22910,2,0,L|20:176,3,23.3333333333333,2|2|2|2,0:0|0:0|0:0|0:0,0:0:0:0:
84,104,23660,1,2,0:0:0:0:
184,132,24035,6,0,P|220:132|256:120,1,70,2|2,0:0|0:0,0:0:0:0:
324,52,24785,2,0,P|360:52|400:64,1,70,2|2,0:0|0:0,0:0:0:0:
476,124,25535,2,0,P|492:172|488:236,1,105,2|0,0:0|0:0,0:0:0:0:
472,272,26285,5,2,0:0:0:0:
396,336,26660,1,2,0:0:0:0:
320,268,27035,2,0,P|264:264|208:284,1,105,2|0,0:0|0:0,0:0:0:0:
196,324,27785,6,0,L|120:316,1,70,2|2,0:0|0:0,0:0:0:0:
44,260,28535,1,2,0:0:0:0:
132,204,28910,2,0,L|160:200,3,23.3333333333333,2|2|2|2,0:0|0:0|0:0|0:0,0:0:0:0:
256,224,29660,1,2,0:0:0:0:
344,280,30035,6,0,P|356:244|356:204,1,70,2|2,0:0|0:0,0:0:0:0:
352,112,30785,2,0,P|344:80|324:40,1,70,2|2,0:0|0:0,0:0:0:0:
240,96,31535,2,0,P|192:100|136:92,1,105,2|0,0:0|0:0,0:0:0:0:
96,60,32285,5,2,0:0:0:0:
52,152,32660,1,2,0:0:0:0:
104,244,33035,2,0,P|156:248|212:280,1,105,2|0,0:0|0:0,0:0:0:0:
236,308,33785,6,0,L|312:304,1,70,2|2,0:0|0:0,0:0:0:0:
408,300,34535,1,2,0:0:0:0:
456,208,34910,2,0,L|468:184,3,23.3333333333333,2|2|2|2,0:0|0:0|0:0|0:0,0:0:0:0:
436,88,35660,1,2,0:0:0:0:
344,40,36035,6,0,L|264:36,1,70,2|2,0:0|0:0,0:0:0:0:
296,136,36785,2,0,L|224:132,1,70,2|2,0:0|0:0,0:0:0:0:
132,172,37535,2,0,P|120:224|120:276,1,105,2|0,0:0|0:0,0:0:0:0:
144,320,38285,5,2,0:0:0:0:
240,356,38660,1,2,0:0:0:0:
340,332,39035,2,0,L|444:304,1,105,2|0,0:0|0:0,0:0:0:0:
480,272,39785,6,0,P|484:236|476:192,1,70,2|2,0:0|0:0,0:0:0:0:
432,116,40535,1,2,0:0:0:0:
364,192,40910,2,0,L|344:216,3,23.3333333333333,2|2|2|2,0:0|0:0|0:0|0:0,0:0:0:0:
256,176,41660,1,2,0:0:0:0:
192,96,42035,6,0,L|180:20,1,70,2|2,0:0|0:0,0:0:0:0:
96,84,42785,2,0,L|108:164,1,70,2|2,0:0|0:0,0:0:0:0:
156,240,43535,2,0,P|104:256|52:236,1,105,2|0,0:0|0:0,0:0:0:0:
16,208,44285,5,2,0:0:0:0:
8,104,44660,1,2,0:0:0:0:
92,44,45035,2,0,L|200:36,1,105,2|0,0:0|0:0,0:0:0:0:
248,48,45785,5,2,0:0:0:0:
348,32,46160,1,2,0:0:0:0:
440,80,46535,1,2,0:0:0:0:
464,180,46910,2,0,L|472:216,3,23.3333333333333,2|2|2|2,0:0|0:0|0:0|0:0,0:0:0:0:
452,300,47660,1,2,0:0:0:0:
368,364,48035,6,0,P|332:368|296:360,1,70,2|2,0:0|0:0,0:0:0:0:
304,260,48785,2,0,P|340:256|376:264,1,70,2|2,0:0|0:0,0:0:0:0:
476,280,49535,2,0,P|484:228|460:156,1,105,2|0,0:0|0:0,0:0:0:0:
444,136,50285,6,0,L|452:96,3,35,4|8|4|8,0:0|0:0|0:0|0:0,0:0:0:0:
464,48,51035,5,4,0:0:0:0:
368,84,51410,1,8,0:0:0:0:
340,180,51785,2,0,L|352:260,1,70,4|8,0:0|0:0,0:0:0:0:
324,344,52535,5,4,0:0:0:0:
224,368,52910,1,8,0:0:0:0:
136,316,53285,2,0,P|116:288|104:248,1,70,4|8,0:0|0:0,0:0:0:0:
112,152,54035,6,0,L|132:72,1,70,4|4,0:0|0:0,0:0:0:0:
228,112,54785,2,0,L|211:180,1,70,4|4,0:0|0:0,0:0:0:0:
192,280,55535,2,0,B|188:320|226:338|226:338|267:333|278:295,1,140,8|4,0:0|0:0,0:0:0:0:
272,200,56660,1,4,0:0:0:0:
232,104,57035,6,0,P|200:88|160:80,1,70,4|8,0:0|0:0,0:0:0:0:
72,124,57785,2,0,L|40:196,1,70,4|8,0:0|0:0,0:0:0:0:
68,288,58535,5,4,0:0:0:0:
164,328,58910,1,8,0:0:0:0:
264,320,59285,1,4,0:0:0:0:
332,248,59660,1,8,0:0:0:0:
324,144,60035,6,0,L|312:76,1,70,4|4,0:0|0:0,0:0:0:0:
220,116,60785,2,0,L|212:196,1,70,4|8,0:0|0:0,0:0:0:0:
176,280,61535,2,0,P|144:288|96:288,1,70,8|4,0:0|0:0,0:0:0:0:
24,232,62285,6,0,L|40:192,3,35,8|8|4|8,0:0|0:0|0:0|0:0,0:0:0:0:
64,156,63035,5,4,0:0:0:0:
160,124,63410,1,8,0:0:0:0:
260,144,63785,1,4,0:0:0:0:
336,208,64160,1,8,0:0:0:0:
364,304,64535,6,0,B|332:380,1,70,4|8,0:0|0:0,0:0:0:0:
256,304,65285,2,0,L|224:236,1,70,4|8,0:0|0:0,0:0:0:0:
184,148,66035,5,4,0:0:0:0:
260,80,66410,1,4,0:0:0:0:
360,68,66785,1,4,0:0:0:0:
456,100,67160,1,4,0:0:0:0:
496,196,67535,2,0,P|496:228|488:272,1,70,8|0,0:0|0:0,0:0:0:0:
424,344,68285,6,0,L|384:336,3,35,4|8|4|8,0:0|0:0|0:0|0:0,0:0:0:0:
348,308,69035,6,0,P|340:276|340:240,1,70,4|8,0:0|0:0,0:0:0:0:
408,160,69785,2,0,B|412:128|404:88,1,70,4|8,0:0|0:0,0:0:0:0:
320,32,70535,5,4,0:0:0:0:
220,56,70910,1,8,0:0:0:0:
168,144,71285,1,4,0:0:0:0:
184,244,71660,1,8,0:0:0:0:
248,332,72035,6,0,P|280:336|320:328,1,70,2|0,0:0|0:0,0:0:0:0:
360,300,72597,2,0,P|380:272|388:232,1,70,8|0,0:0|0:0,0:0:0:0:
384,188,73160,2,0,P|372:152|340:124,1,70,4|0,0:0|0:0,0:0:0:0:
300,112,73722,2,0,L|256:116,1,35,2|4,0:0|0:0,0:0:0:0:
164,80,74285,6,0,L|148:164,1,70,2|8,0:0|0:0,0:0:0:0:
128,260,75035,6,0,P|160:276|200:280,1,70,4|8,0:0|0:0,0:0:0:0:
304,268,75785,1,4,0:0:0:0:
356,168,76160,1,8,0:0:0:0:
304,68,76535,6,0,B|232:88,1,70,4|8,0:0|0:0,0:0:0:0:
164,168,77285,1,4,0:0:0:0:
60,132,77660,1,8,0:0:0:0:
12,240,78035,6,0,P|44:260|88:264,1,70,4|4,0:0|0:0,0:0:0:0:
172,204,78785,2,0,L|184:132,1,70,4|4,0:0|0:0,0:0:0:0:
256,40,79535,5,8,0:0:0:0:
256,40,79722,2,0,P|292:36|328:44,1,70,4|0,0:0|0:0,0:0:0:0:
360,88,80285,6,0,L|352:132,3,35,4|8|4|8,0:0|0:0|0:0|0:0,0:0:0:0:
372,176,81035,6,0,L|388:256,1,70,4|8,0:0|0:0,0:0:0:0:
340,348,81785,1,4,0:0:0:0:
232,308,82160,1,8,0:0:0:0:
124,348,82535,6,0,P|88:348|52:332,1,70,4|8,0:0|0:0,0:0:0:0:
32,224,83285,1,4,0:0:0:0:
96,132,83660,1,8,0:0:0:0:
208,104,84035,6,0,L|280:96,1,70,4|4,0:0|0:0,0:0:0:0:
272,212,84785,2,0,L|344:204,1,70,4|8,0:0|0:0,0:0:0:0:
396,304,85535,2,0,P|344:312|288:296,1,105,8|0,0:0|0:0,0:0:0:0:
260,256,86285,6,0,L|264:216,3,35,8|8|4|8,0:0|0:0|0:0|0:0,0:0:0:0:
268,168,87035,6,0,L|252:100,1,70,4|8,0:0|0:0,0:0:0:0:
144,64,87785,2,0,L|128:144,1,70,4|8,0:0|0:0,0:0:0:0:
108,240,88535,5,4,0:0:0:0:
184,328,88910,1,8,0:0:0:0:
300,340,89285,1,4,0:0:0:0:
392,268,89660,1,8,0:0:0:0:
380,152,90035,6,0,L|368:80,1,70,4|4,0:0|0:0,0:0:0:0:
264,136,90785,2,0,L|272:56,1,70,4|4,0:0|0:0,0:0:0:0:
160,112,91535,5,8,0:0:0:0:
160,112,91722,2,0,L|172:192,1,70,4|0,0:0|0:0,0:0:0:0:
196,232,92285,6,0,L|184:276,3,35,4|8|4|8,0:0|0:0|0:0|0:0,0:0:0:0:
152,312,93035,6,0,L|232:336,1,70,4|8,0:0|0:0,0:0:0:0:
328,360,93785,2,0,B|348:332|352:284,1,70,4|8,0:0|0:0,0:0:0:0:
340,180,94535,6,0,P|304:168|268:168,1,70,4|8,0:0|0:0,0:0:0:0:
160,184,95285,2,0,P|152:152|156:112,1,70,4|8,0:0|0:0,0:0:0:0:
236,32,96035,6,0,L|312:44,1,70,2|0,0:0|0:0,0:0:0:0:
332,92,96597,2,0,L|252:112,1,70,8|0,0:0|0:0,0:0:0:0:
228,148,97160,2,0,P|224:180|228:228,1,70,4|0,0:0|0:0,0:0:0:0:
252,264,97722,2,0,L|284:276,1,35,2|4,0:0|0:0,0:0:0:0:
388,312,98285,6,0,P|400:280|400:236,1,70,2|8,0:0|0:0,0:0:0:0:
368,148,99035,6,0,L|352:116,3,35,2|4|2|4,0:0|0:0|0:0|0:0,0:0:0:0:
260,80,99785,2,0,L|252:116,3,35,2|4|2|4,0:0|0:0|0:0|0:0,0:0:0:0:
176,176,100535,6,0,L|183:210,3,35,2|4|2|4,0:0|0:0|0:0|0:0,0:0:0:0:
136,300,101285,2,0,L|164:324,3,35,2|4|2|4,0:0|0:0|0:0|0:0,0:0:0:0:
248,272,102035,6,0,L|288:260,3,35,2|4|2|4,0:0|0:0|0:0|0:0,0:0:0:0:
348,188,102785,2,0,L|380:204,3,35,2|4|2|4,0:0|0:0|0:0|0:0,0:0:0:0:
428,292,103535,6,0,L|392:316,3,35,2|4|2|4,0:0|0:0|0:0|0:0,0:0:0:0:
308,352,104285,2,0,L|272:340,3,35,2|4|2|2,0:0|0:0|0:0|0:0,0:0:0:0:
176,344,105035,6,0,L|172:308,3,35,2|4|2|4,0:0|0:0|0:0|0:0,0:0:0:0:
112,228,105785,2,0,L|140:208,3,35,2|4|2|4,0:0|0:0|0:0|0:0,0:0:0:0:
184,116,106535,6,0,L|180:76,3,35,2|4|2|4,0:0|0:0|0:0|0:0,0:0:0:0:
280,56,107285,2,0,L|276:100,3,35,2|4|2|4,0:0|0:0|0:0|0:0,0:0:0:0:
280,192,108035,6,0,L|292:228,3,35,2|4|2|4,0:0|0:0|0:0|0:0,0:0:0:0:
352,304,108785,2,0,L|396:328,3,35,2|4|2|4,0:0|0:0|0:0|0:0,0:0:0:0:
460,248,109535,6,0,L|472:200,1,35,2|4,0:0|0:0,0:0:0:0:
376,224,109910,2,0,L|380:184,1,35,2|4,0:0|0:0,0:0:0:0:
292,244,110285,2,0,B|288:204,1,35,2|4,0:0|0:0,0:0:0:0:
216,284,110660,2,0,B|204:248,1,35,2|4,0:0|0:0,0:0:0:0:
108,256,111035,6,0,L|116:212,3,35,2|4|2|4,0:0|0:0|0:0|0:0,0:0:0:0:
88,124,111785,2,0,L|116:100,3,35,2|4|2|4,0:0|0:0|0:0|0:0,0:0:0:0:
208,140,112535,6,0,L|244:152,3,35,2|4|2|4,0:0|0:0|0:0|0:0,0:0:0:0:
328,100,113285,2,0,L|368:96,3,35,2|4|2|4,0:0|0:0|0:0|0:0,0:0:0:0:
400,188,114035,6,0,L|364:184,3,35,2|4|2|4,0:0|0:0|0:0|0:0,0:0:0:0:
296,256,114785,2,0,L|252:268,3,35,2|4|2|4,0:0|0:0|0:0|0:0,0:0:0:0:
200,344,115535,6,0,L|160:328,3,35,2|4|2|4,0:0|0:0|0:0|0:0,0:0:0:0:
68,348,116285,2,0,L|64:292,3,35,2|4|2|4,0:0|0:0|0:0|0:0,0:0:0:0:
8,232,117035,6,0,L|28:188,3,35,2|4|2|4,0:0|0:0|0:0|0:0,0:0:0:0:
8,100,117785,2,0,L|48:96,3,35,2|4|2|4,0:0|0:0|0:0|0:0,0:0:0:0:
132,148,118535,6,0,L|168:160,3,35,2|4|2|4,0:0|0:0|0:0|0:0,0:0:0:0:
228,240,119285,2,0,L|240:288,3,35,2|4|2|4,0:0|0:0|0:0|0:0,0:0:0:0:
320,336,120035,6,0,L|356:332,1,35,2|4,0:0|0:0,0:0:0:0:
330,244,120424,2,0,L|366:240,1,35,2|4,0:0|0:0,0:0:0:0:
340,152,120834,2,0,L|376:148,1,35,2|4,0:0|0:0,0:0:0:0:
350,60,121268,6,0,L|386:56,1,35,2|4,0:0|0:0,0:0:0:0:
256,40,121729,6,0,L|216:16,1,35,2|4,0:0|0:0,0:0:0:0:
240,140,122220,6,0,L|192:152,1,35,2|4,0:0|0:0,0:0:0:0:
284,236,122755,6,0,L|256:272,1,35,2|4,0:0|0:0,0:0:0:0:
384,256,123442,6,0,L|388:304,1,35,8|2,0:0|0:0,0:0:0:0:
248,340,124692,6,0,L|212:324,1,35,4|2,0:0|0:0,0:0:0:0:
136,348,125067,2,0,L|104:332,1,35,8|2,0:0|0:0,0:0:0:0:
36,272,125442,2,0,L|40:228,1,35,8|2,0:0|0:0,0:0:0:0:
112,184,125817,2,0,L|120:148,1,35,8|2,0:0|0:0,0:0:0:0:
44,96,126192,2,0,L|40:60,1,35,8|4,0:0|0:0,0:0:0:0:
139,29,126567,6,0,L|136:64,1,35,4|4,0:0|0:0,0:0:0:0:
160,112,126942,1,4,0:0:0:0:
208,132,127129,1,4,0:0:0:0:
260,132,127317,1,8,0:0:0:0:
308,112,127504,1,4,0:0:0:0:
344,76,127692,6,0,L|384:72,3,35,8|4|8|4,0:0|0:0|0:0|0:0,0:0:0:0:
432,152,128442,2,0,L|388:164,3,35,8|8|8|8,0:0|0:0|0:0|0:0,0:0:0:0:
360,264,129192,1,8,0:0:0:0:
360,264,129379,2,0,P|396:276|432:280,1,70,8|0,0:0|0:0,0:0:0:0:
492,216,129942,6,0,L|484:164,1,35,8|4,0:0|0:0,0:0:0:0:
400,148,130317,2,0,L|392:96,1,35,8|8,0:0|0:0,0:0:0:0:
300,128,130692,6,0,L|296:172,1,35,4|2,0:0|0:0,0:0:0:0:
204,156,131067,2,0,L|200:116,1,35,8|2,0:0|0:0,0:0:0:0:
172,36,131442,2,0,L|132:44,1,35,8|2,0:0|0:0,0:0:0:0:
116,136,131817,2,0,L|76:144,1,35,8|2,0:0|0:0,0:0:0:0:
32,156,132192,5,8,0:0:0:0:
64,200,132379,1,4,0:0:0:0:
68,256,132567,1,4,0:0:0:0:
48,308,132754,1,4,0:0:0:0:
8,344,132942,2,0,L|52:356,1,35,4|4,0:0|0:0,0:0:0:0:
132,308,133317,6,0,L|172:304,1,35,8|4,0:0|0:0,0:0:0:0:
260,264,133692,2,0,L|268:220,3,35,8|8|8|8,0:0|0:0|0:0|0:0,0:0:0:0:
360,268,134442,2,0,L|368:312,3,35,8|8|4|8,0:0|0:0|0:0|0:0,0:0:0:0:
448,208,135192,6,0,P|452:176|448:136,1,70,4|8,0:0|0:0,0:0:0:0:
276,40,135942,6,0,L|280:88,1,35,4|4,0:0|0:0,0:0:0:0:
208,148,136317,2,0,L|212:196,1,35,8|4,0:0|0:0,0:0:0:0:
192,236,136692,5,4,0:0:0:0:
152,272,136879,1,2,0:0:0:0:
100,272,137067,1,8,0:0:0:0:
56,240,137254,1,2,0:0:0:0:
36,192,137442,6,0,L|40:156,1,35,8|2,0:0|0:0,0:0:0:0:
8,64,137817,2,0,L|44:48,1,35,8|2,0:0|0:0,0:0:0:0:
132,28,138192,6,0,L|140:68,1,35,8|4,0:0|0:0,0:0:0:0:
188,152,138567,2,0,L|220:120,1,35,4|4,0:0|0:0,0:0:0:0:
292,72,138942,2,0,L|328:68,1,35,4|4,0:0|0:0,0:0:0:0:
336,160,139317,2,0,L|372:156,1,35,8|4,0:0|0:0,0:0:0:0:
324,256,139692,6,0,L|276:252,3,35,8|4|8|4,0:0|0:0|0:0|0:0,0:0:0:0:
224,332,140442,2,0,L|192:312,3,35,8|8|8|8,0:0|0:0|0:0|0:0,0:0:0:0:
100,344,141192,5,8,0:0:0:0:
100,344,141379,2,0,L|96:272,1,70,8|0,0:0|0:0,0:0:0:0:
80,224,141942,5,8,0:0:0:0:
132,240,142129,1,4,0:0:0:0:
184,228,142317,1,8,0:0:0:0:
220,188,142504,1,8,0:0:0:0:
232,136,142692,6,0,L|224:88,1,35,4|2,0:0|0:0,0:0:0:0:
316,140,143067,2,0,L|320:96,1,35,8|2,0:0|0:0,0:0:0:0:
396,172,143442,2,0,L|408:132,3,35,8|2|8|2,0:0|0:0|0:0|0:0,0:0:0:0:
400,52,144192,6,0,L|352:40,1,35,8|4,0:0|0:0,0:0:0:0:
284,88,144567,2,0,L|236:76,1,35,4|4,0:0|0:0,0:0:0:0:
156,112,144942,2,0,L|116:116,1,35,4|4,0:0|0:0,0:0:0:0:
76,208,145317,2,0,L|124:224,1,35,8|4,0:0|0:0,0:0:0:0:
196,252,145692,6,0,L|232:248,1,35,8|8,0:0|0:0,0:0:0:0:
292,320,146067,2,0,L|324:296,1,35,8|8,0:0|0:0,0:0:0:0:
408,332,146442,2,0,L|420:296,1,35,8|8,0:0|0:0,0:0:0:0:
512,272,146817,2,0,L|504:232,1,35,4|8,0:0|0:0,0:0:0:0:
488,152,147192,1,4,0:0:0:0:
288,216,147567,6,0,B|252:232|240:264|240:264|272:252|320:256|320:256|352:268|384:252,1,210,8|0,0:0|0:0,0:0:0:0:
