osu file format v14

[General]
AudioFilename: sagashi mono.mp3
AudioLeadIn: 0
PreviewTime: 74625
Countdown: 0
SampleSet: Normal
StackLeniency: 0.7
Mode: 0
LetterboxInBreaks: 1
WidescreenStoryboard: 0
SamplesMatchPlaybackRate: 1

[Editor]
DistanceSpacing: 2
BeatDivisor: 8
GridSize: 4
TimelineZoom: 1.2

[Metadata]
Title:Sagashi Mono(BMS Edit)
TitleUnicode:探し物(BMS Edit)
Artist:onoken
ArtistUnicode:onoken
Creator:Ayakura Mei
Version:Insane
Source:BMS
Tags:
BeatmapID:426550
BeatmapSetID:177187

[Difficulty]
HPDrainRate:6
CircleSize:4.2
OverallDifficulty:7.5
ApproachRate:9.2
SliderMultiplier:1.8
SliderTickRate:1

[Events]
//Background and Video events
0,0,"BG.jpg",0,0
//Break Periods
//Storyboard Layer 0 (Background)
//Storyboard Layer 1 (Fail)
//Storyboard Layer 2 (Pass)
//Storyboard Layer 3 (Foreground)
//Storyboard Sound Samples

[TimingPoints]
35,750,4,1,0,100,1,0
2191,-100,4,2,1,100,0,0
2378,-100,4,2,2,100,0,0
3597,-100,4,2,2,5,0,0
3691,-100,4,2,1,100,0,0
3878,-100,4,2,2,100,0,0
4253,-100,4,2,3,100,0,0
4628,-100,4,2,4,100,0,0
5003,-100,4,2,3,100,0,0
5097,-100,4,2,4,100,0,0
5191,-100,4,2,5,100,0,0
5566,-100,4,2,6,100,0,0
5941,-100,4,2,1,100,0,0
6410,-100,4,2,4,100,0,0
6691,-100,4,2,5,100,0,0
7160,-100,4,2,6,100,0,0
7441,-100,4,2,7,100,0,0
8097,-100,4,2,7,5,0,0
8191,-100,4,2,1,100,0,0
8566,-100,4,2,2,100,0,0
9597,-100,4,2,2,5,0,0
9691,-100,4,2,1,100,0,0
10035,-100,4,2,2,100,0,0
10410,-100,4,2,3,100,0,0
10785,-100,4,2,4,100,0,0
11003,-100,4,2,3,100,0,0
11097,-100,4,2,4,100,0,0
11191,-100,4,2,5,100,0,0
11566,-100,4,2,6,100,0,0
11941,-100,4,2,1,100,0,0
12316,-100,4,2,4,100,0,0
12691,-100,4,2,5,100,0,0
13066,-100,4,2,6,100,0,0
13441,-100,4,2,8,100,0,0
14097,-100,4,2,8,5,0,0
14191,-100,4,2,1,100,0,0
14566,-100,4,2,2,100,0,0
15597,-100,4,2,2,5,0,0
15691,-100,4,2,1,100,0,0
16066,-100,4,2,2,100,0,0
16441,-100,4,2,3,100,0,0
16816,-100,4,2,4,100,0,0
17003,-100,4,2,3,100,0,0
17097,-100,4,2,4,100,0,0
17191,-100,4,2,5,100,0,0
17566,-100,4,2,6,100,0,0
17941,-100,4,2,1,100,0,0
18410,-100,4,2,4,100,0,0
18691,-100,4,2,5,100,0,0
19160,-100,4,2,6,100,0,0
19441,-100,4,2,7,100,0,0
20097,-100,4,2,7,5,0,0
20191,-100,4,2,1,100,0,0
20566,-100,4,2,2,100,0,0
21597,-100,4,2,2,5,0,0
21691,-100,4,2,1,100,0,0
22035,-100,4,2,2,100,0,0
22410,-100,4,2,3,100,0,0
22785,-100,4,2,4,100,0,0
23003,-100,4,2,3,100,0,0
23097,-100,4,2,4,100,0,0
23191,-100,4,2,5,100,0,0
23378,-100,4,2,6,100,0,0
23941,-100,4,2,1,100,0,0
24316,-100,4,2,4,100,0,0
24691,-100,4,2,5,100,0,0
25066,-100,4,2,6,100,0,0
25441,-100,4,2,8,100,0,0
26097,-100,4,2,8,5,0,0
26191,-100,4,2,1,100,0,0
26566,-100,4,2,2,100,0,0
27597,-100,4,2,2,5,0,0
27691,-100,4,2,1,100,0,0
28160,-100,4,2,2,100,0,0
28441,-100,4,2,3,100,0,0
28816,-100,4,2,4,100,0,0
29003,-100,4,2,3,100,0,0
29097,-100,4,2,4,100,0,0
29191,-100,4,2,5,100,0,0
29566,-100,4,2,6,100,0,0
29941,-100,4,2,1,100,0,0
30410,-100,4,2,4,100,0,0
30691,-100,4,2,5,100,0,0
31160,-100,4,2,6,100,0,0
31441,-100,4,2,7,100,0,0
32097,-100,4,2,7,5,0,0
32191,-100,4,2,1,100,0,0
32566,-100,4,2,2,100,0,0
33597,-100,4,2,2,5,0,0
33691,-100,4,2,1,100,0,0
34160,-100,4,2,2,100,0,0
34441,-100,4,2,3,100,0,0
34816,-100,4,2,4,100,0,0
35003,-100,4,2,3,100,0,0
35097,-100,4,2,4,100,0,0
35191,-100,4,2,5,100,0,0
35660,-100,4,2,6,100,0,0
35941,-100,4,2,1,100,0,0
36410,-100,4,2,4,100,0,0
36691,-100,4,2,5,100,0,0
37160,-100,4,2,6,100,0,0
37441,-100,4,2,8,100,0,0
38097,-100,4,2,8,5,0,0
38191,-100,4,2,1,100,0,0
38566,-100,4,2,2,100,0,0
39597,-100,4,2,2,5,0,0
39691,-100,4,2,1,100,0,0
40160,-100,4,2,2,100,0,0
40441,-100,4,2,3,100,0,0
40816,-100,4,2,4,100,0,0
41003,-100,4,2,3,100,0,0
41097,-100,4,2,4,100,0,0
41191,-100,4,2,5,100,0,0
41660,-100,4,2,6,100,0,0
41941,-100,4,2,1,100,0,0
42410,-100,4,2,4,100,0,0
42691,-100,4,2,5,100,0,0
43066,-100,4,2,6,100,0,0
43441,-100,4,2,7,100,0,0
44097,-100,4,2,7,5,0,0
44191,-100,4,2,1,100,0,0
44566,-100,4,2,2,100,0,0
45597,-100,4,2,2,5,0,0
45691,-100,4,2,1,100,0,0
46066,-100,4,2,2,100,0,0
46441,-100,4,2,3,100,0,0
46816,-100,4,2,4,100,0,0
47003,-100,4,2,3,100,0,0
47097,-100,4,2,4,100,0,0
47191,-100,4,2,5,100,0,0
47566,-100,4,2,6,100,0,0
47941,-100,4,2,1,100,0,0
48410,-100,4,2,4,100,0,0
48691,-100,4,2,5,100,0,0
49066,-100,4,2,6,100,0,0
49441,-100,4,2,8,100,0,0
50097,-100,4,2,8,5,0,0
50191,-100,4,2,1,100,0,0
50566,-100,4,2,2,100,0,0
50941,-100,4,2,3,100,0,0
51597,-100,4,2,4,100,0,0
52347,-100,4,2,5,100,0,0
53097,-100,4,2,6,100,0,0
53847,-100,4,2,7,100,0,0
54316,-100,4,2,1,100,0,0
54691,-100,4,2,2,100,0,0
55066,-100,4,2,8,100,0,0
55628,-100,4,2,9,100,0,0
56191,-100,4,2,1,100,0,0
56566,-100,4,2,2,100,0,0
56941,-100,4,2,3,100,0,0
57597,-100,4,2,4,100,0,0
58347,-100,4,2,5,100,0,0
59097,-100,4,2,6,100,0,0
59847,-100,4,2,7,100,0,0
60128,-100,4,2,9,100,0,0
60316,-100,4,2,8,100,0,0
60503,-100,4,2,10,100,0,0
60691,-100,4,2,5,100,0,0
60878,-100,4,2,8,100,0,0
61066,-100,4,2,10,100,0,0
61253,-100,4,2,2,100,0,0
61441,-100,4,2,1,100,0,0
61581,-100,4,2,2,100,0,0
61675,-100,4,2,1,100,0,0
61769,-100,4,2,11,100,0,0
62191,-100,4,2,7,100,0,0
62378,-100,4,2,11,100,0,0
62566,-100,4,2,12,100,0,0
62941,-100,4,2,3,100,0,0
63597,-100,4,2,4,100,0,0
64347,-100,4,2,5,100,0,0
65097,-100,4,2,6,100,0,0
65847,-100,4,2,7,100,0,0
66316,-100,4,2,1,100,0,0
66691,-100,4,2,2,100,0,0
67066,-100,4,2,8,100,0,0
67628,-100,4,2,9,100,0,0
68191,-100,4,2,1,100,0,0
68566,-100,4,2,2,100,0,0
68941,-100,4,2,3,100,0,0
69691,-100,4,2,4,100,0,0
70441,-100,4,2,5,100,0,0
71191,-100,4,2,6,100,0,0
71941,-100,4,3,1,100,0,0
72503,-100,4,3,1,5,0,0
72597,-100,4,3,1,100,0,0
72691,-100,4,3,2,100,0,0
73066,-100,4,3,2,5,0,0
73160,-100,4,3,2,100,0,0
73441,-50,4,3,3,100,0,0
73628,-50,4,3,3,5,0,0
73722,-50,4,3,3,100,0,0
74191,-200,4,3,4,100,0,0
74378,-100,4,3,1,100,0,0
74566,-100,4,3,1,5,0,0
74660,-100,4,3,1,100,0,0
74753,-100,4,3,2,100,0,0
75035,-100,4,2,3,100,0,0
75597,-100,4,2,4,100,0,0
76347,-100,4,2,5,100,0,0
77097,-100,4,2,6,100,0,0
77941,-100,4,2,7,5,0,0
78035,-100,4,2,7,100,0,0
78316,-100,4,2,1,100,0,0
78691,-100,4,2,2,100,0,0
79066,-100,4,2,8,100,0,0
79628,-100,4,2,9,100,0,0
80097,-100,4,2,9,5,0,0
80191,-100,4,2,1,100,0,0
80566,-100,4,2,2,100,0,0
80941,-100,4,2,3,100,0,0
81597,-100,4,2,4,100,0,0
82347,-100,4,2,5,100,0,0
83097,-100,4,2,6,100,0,0
83847,-100,4,2,7,100,0,0
84128,-100,4,2,9,100,0,0
84316,-100,4,2,8,100,0,0
84503,-100,4,2,10,100,0,0
84691,-100,4,2,5,100,0,0
84878,-100,4,2,8,100,0,0
85066,-100,4,2,10,100,0,0
85253,-100,4,2,2,100,0,0
85441,-100,4,2,1,100,0,0
85628,-100,4,2,2,100,0,0
85722,-100,4,2,1,100,0,0
85816,-100,4,2,11,100,0,0
86003,-100,4,2,7,100,0,0
86378,-100,4,2,11,100,0,0
86566,-100,4,2,12,100,0,0
87035,-100,4,2,3,100,0,0
87503,-100,4,2,4,100,0,0
88253,-100,4,2,5,100,0,0
89097,-100,4,2,6,100,0,0
89847,-100,4,2,7,100,0,0
90316,-100,4,2,1,100,0,0
90691,-100,4,2,2,100,0,0
91066,-100,4,2,8,100,0,0
91628,-100,4,2,9,100,0,0
92003,-100,4,2,9,5,0,0
92191,-100,4,2,1,100,0,0
92566,-100,4,2,2,100,0,0
92941,-100,4,2,3,100,0,0
93503,-100,4,2,4,100,0,0
94347,-100,4,2,5,100,0,0
95097,-100,4,2,6,100,0,0
95941,-100,4,3,1,100,0,0
96503,-100,4,3,1,5,0,0
96597,-100,4,3,1,100,0,0
96691,-100,4,3,2,100,0,0
97066,-100,4,3,2,5,0,0
97160,-100,4,3,2,100,0,0
97441,-100,4,3,3,100,0,0
97628,-100,4,3,3,5,0,0
97722,-100,4,3,3,100,0,0
98191,-100,4,3,4,100,0,0
98566,-100,4,3,1,100,0,0
98753,-100,4,3,2,100,0,0
98941,-100,4,1,1,100,0,0
99316,-100,4,1,2,100,0,0
99691,-100,4,1,1,100,0,0
100066,-100,4,1,2,100,0,0
100441,-100,4,1,3,100,0,0
100816,-100,4,1,4,100,0,0
101003,-100,4,1,2,100,0,0
101191,-100,4,1,3,100,0,0
101566,-100,4,1,4,100,0,0
101753,-100,4,1,2,100,0,0
101941,-100,4,1,1,100,0,0
102316,-100,4,1,2,100,0,0
102691,-100,4,1,1,100,0,0
103066,-100,4,1,2,100,0,0
103441,-100,4,1,3,100,0,0
103816,-100,4,1,4,100,0,0
104003,-100,4,1,2,100,0,0
104191,-100,4,1,3,100,0,0
104566,-100,4,1,4,100,0,0
104753,-100,4,1,2,100,0,0
104941,-100,4,1,1,100,0,0
105316,-100,4,1,2,100,0,0
105691,-100,4,1,1,100,0,0
106066,-100,4,1,2,100,0,0
106441,-100,4,1,3,100,0,0
106816,-100,4,1,4,100,0,0
107003,-100,4,1,2,100,0,0
107191,-100,4,1,3,100,0,0
107566,-100,4,1,4,100,0,0
107753,-100,4,1,2,100,0,0
107941,-100,4,1,1,100,0,0
108316,-100,4,1,2,100,0,0
108691,-100,4,1,1,100,0,0
109066,-100,4,1,2,100,0,0
109441,-100,4,1,3,100,0,0
109816,-100,4,1,4,100,0,0
110003,-100,4,1,2,100,0,0
110191,-100,4,1,3,100,0,0
110566,-100,4,1,4,100,0,0
110941,-100,4,1,5,100,0,0
111316,-100,4,1,6,100,0,0
111691,-100,4,1,5,100,0,0
112066,-100,4,1,6,100,0,0
112441,-100,4,1,7,100,0,0
112628,-100,4,1,5,100,0,0
112816,-100,4,1,6,100,0,0
113191,-100,4,1,7,100,0,0
113378,-100,4,1,5,100,0,0
113566,-100,4,1,6,100,0,0
113941,-100,4,1,5,100,0,0
114316,-100,4,1,6,100,0,0
114691,-100,4,1,5,100,0,0
115066,-100,4,1,6,100,0,0
115441,-100,4,1,7,100,0,0
115628,-100,4,1,5,100,0,0
115816,-100,4,1,6,100,0,0
116191,-100,4,1,7,100,0,0
116378,-100,4,1,5,100,0,0
116566,-100,4,1,6,100,0,0
116941,-100,4,1,5,100,0,0
117316,-100,4,1,6,100,0,0
117691,-100,4,1,5,100,0,0
118066,-100,4,1,6,100,0,0
118441,-100,4,1,7,100,0,0
118628,-100,4,1,5,100,0,0
118816,-100,4,1,6,100,0,0
119191,-100,4,1,7,100,0,0
119378,-100,4,1,5,100,0,0
119566,-100,4,1,6,100,0,0
120035,769.230769230769,4,1,5,100,1,0
120227,789.473684210526,4,1,5,100,1,0
120424,810.810810810811,4,1,6,100,1,0
120626,833.333333333333,4,1,6,100,1,0
120834,857.142857142857,4,1,5,100,1,0
121048,882.352941176471,4,1,5,100,1,0
121268,909.090909090909,4,1,6,100,1,0
121495,937.5,4,1,6,100,1,0
121729,967.741935483871,4,1,7,100,1,0
121970,1000,4,1,5,100,1,0
122220,1034.48275862069,4,1,6,100,1,0
122478,1111.11111111111,4,1,6,100,1,0
122755,1250,4,1,8,100,1,0
123067,1500,4,1,8,100,1,0
123442,2000,4,1,8,100,1,0
123942,3000,4,1,9,100,1,0
124692,750,4,1,9,100,1,1
124785,-100,4,1,4,100,0,1
124973,-100,4,2,2,100,0,1
125160,-100,4,1,4,100,0,1
125348,-100,4,1,1,100,0,1
125535,-100,4,1,4,100,0,1
125723,-100,4,1,2,100,0,1
125910,-100,4,1,4,100,0,1
126098,-100,4,1,3,100,0,1
126473,-100,4,2,2,100,0,1
126660,-100,4,1,3,100,0,1
126848,-100,4,1,8,100,0,1
127035,-100,4,1,3,100,0,1
127223,-100,4,1,3,100,0,1
127598,-100,4,2,2,100,0,1
127785,-100,4,2,1,100,0,1
127973,-100,4,2,2,100,0,1
128160,-100,4,2,8,100,0,1
128348,-100,4,1,1,100,0,1
128535,-100,4,1,3,100,0,1
128723,-100,4,1,2,100,0,1
128910,-100,4,1,4,100,0,1
129285,-100,4,1,5,100,0,1
129848,-100,4,2,2,100,0,1
130035,-100,4,2,8,100,0,1
130223,-100,4,1,1,100,0,1
130410,-100,4,1,6,100,0,1
130692,-100,4,1,9,100,0,1
130785,-100,4,1,4,100,0,1
130973,-100,4,2,2,100,0,1
131160,-100,4,1,4,100,0,1
131348,-100,4,1,1,100,0,1
131535,-100,4,1,4,100,0,1
131723,-100,4,1,2,100,0,1
131910,-100,4,1,4,100,0,1
132098,-100,4,1,3,100,0,1
132473,-100,4,2,2,100,0,1
132660,-100,4,1,3,100,0,1
132848,-100,4,1,8,100,0,1
133035,-100,4,1,3,100,0,1
133223,-100,4,1,3,100,0,1
133598,-100,4,2,2,100,0,1
133785,-100,4,1,7,100,0,1
133973,-100,4,1,2,100,0,1
134160,-100,4,1,9,100,0,1
134348,-100,4,1,6,100,0,1
134535,-100,4,1,2,100,0,1
134723,-100,4,1,8,100,0,1
134910,-100,4,1,1,100,0,1
135098,-100,4,1,8,100,0,1
135473,-100,4,1,10,100,0,1
135848,-100,4,2,1,100,0,1
136035,-100,4,2,2,100,0,1
136223,-100,4,1,8,100,0,1
136692,-100,4,1,9,100,0,1
136785,-100,4,1,4,100,0,1
136973,-100,4,2,2,100,0,1
137160,-100,4,1,4,100,0,1
137348,-100,4,1,1,100,0,1
137535,-100,4,1,4,100,0,1
137723,-100,4,1,2,100,0,1
137910,-100,4,1,4,100,0,1
138098,-100,4,1,3,100,0,1
138473,-100,4,2,2,100,0,1
138660,-100,4,1,3,100,0,1
138848,-100,4,1,8,100,0,1
139035,-100,4,1,3,100,0,1
139223,-100,4,1,3,100,0,1
139598,-100,4,2,2,100,0,1
139785,-100,4,2,1,100,0,1
139973,-100,4,2,2,100,0,1
140160,-100,4,2,8,100,0,1
140348,-100,4,1,1,100,0,1
140535,-100,4,1,3,100,0,1
140723,-100,4,1,2,100,0,1
140910,-100,4,1,4,100,0,1
141285,-100,4,1,5,100,0,1
141848,-100,4,2,2,100,0,1
142035,-100,4,2,8,100,0,1
142223,-100,4,1,1,100,0,1
142410,-100,4,1,6,100,0,1
142692,-100,4,1,9,100,0,1
142785,-100,4,1,4,100,0,1
142973,-100,4,2,2,100,0,1
143160,-100,4,1,4,100,0,1
143348,-100,4,1,1,100,0,1
143535,-100,4,1,4,100,0,1
143723,-100,4,1,2,100,0,1
143910,-100,4,1,4,100,0,1
144098,-100,4,1,3,100,0,1
144473,-100,4,2,2,100,0,1
144660,-100,4,1,3,100,0,1
144848,-100,4,1,8,100,0,1
145035,-100,4,1,3,100,0,1
145223,-100,4,1,3,100,0,1
145410,-100,4,1,3,100,0,1
145598,-100,4,2,2,100,0,1
145785,-100,4,1,7,100,0,1
145973,-100,4,1,2,100,0,1
146160,-100,4,1,9,100,0,1
146348,-100,4,1,6,100,0,1
146535,-100,4,1,2,100,0,1
146723,-100,4,1,8,100,0,1
146910,-100,4,1,1,100,0,1
147098,-100,4,1,8,100,0,1
147452,-100,4,1,10,100,0,1
148692,-100,4,1,10,5,0,0

[HitObjects]
136,96,2285,5,2,0:0:0:0:
240,60,2660,1,2,0:0:0:0:
220,184,3035,2,0,P|160:224|100:212,1,135,2|0,0:0|0:0,0:0:0:0:
136,96,3785,1,2,0:0:0:0:
340,36,4160,1,2,0:0:0:0:
136,212,4535,1,2,0:0:0:0:
240,32,4910,1,2,0:0:0:0:
248,56,5035,1,2,0:0:0:0:
256,80,5160,1,2,0:0:0:0:
264,104,5285,5,2,0:0:0:0:
192,328,5660,1,2,0:0:0:0:
368,208,6035,2,0,P|408:192|456:200,1,90,2|2,0:0|0:0,0:0:0:0:
184,112,6785,2,0,P|160:80|152:32,1,90,2|2,0:0|0:0,0:0:0:0:
216,280,7535,2,0,P|160:320|96:312,1,135,2|0,0:0|0:0,0:0:0:0:
40,208,8285,1,2,0:0:0:0:
192,176,8660,1,2,0:0:0:0:
336,312,9035,6,0,P|288:328|208:288,1,135,2|0,0:0|0:0,0:0:0:0:
192,176,9785,1,2,0:0:0:0:
416,56,10160,1,2,0:0:0:0:
192,312,10535,1,2,0:0:0:0:
32,120,10910,1,2,0:0:0:0:
40,144,11035,1,2,0:0:0:0:
48,168,11160,1,2,0:0:0:0:
56,192,11285,1,2,0:0:0:0:
232,296,11660,1,2,0:0:0:0:
432,144,12035,6,0,P|440:104|456:56,1,90,2|2,0:0|0:0,0:0:0:0:
216,264,12785,2,0,P|232:312|240:360,1,90,2|2,0:0|0:0,0:0:0:0:
168,64,13535,2,0,B|56:48|56:48|64:72,1,135,2|0,0:0|0:0,0:0:0:0:
112,176,14285,1,2,0:0:0:0:
368,152,14660,1,2,0:0:0:0:
216,208,15035,6,0,P|248:264|248:344,1,135,2|0,0:0|0:0,0:0:0:0:
120,168,15785,1,2,0:0:0:0:
416,288,16160,1,2,0:0:0:0:
176,80,16535,1,2,0:0:0:0:
304,328,16910,1,2,0:0:0:0:
312,304,17035,1,2,0:0:0:0:
320,280,17160,1,2,0:0:0:0:
328,256,17285,1,2,0:0:0:0:
456,168,17660,1,2,0:0:0:0:
248,56,18035,6,0,P|200:56|160:72,1,90,2|2,0:0|0:0,0:0:0:0:
264,328,18785,2,0,P|312:328|352:312,1,90,2|2,0:0|0:0,0:0:0:0:
264,24,19535,2,0,L|128:48,1,135,2|0,0:0|0:0,0:0:0:0:
40,144,20285,5,2,0:0:0:0:
256,192,20660,1,2,0:0:0:0:
472,240,21035,2,0,P|416:272|344:264,1,135,2|0,0:0|0:0,0:0:0:0:
256,192,21785,1,2,0:0:0:0:
400,32,22160,1,2,0:0:0:0:
312,296,22535,1,2,0:0:0:0:
288,72,22910,1,2,0:0:0:0:
280,88,23035,1,2,0:0:0:0:
264,88,23160,1,2,0:0:0:0:
248,80,23285,1,2,0:0:0:0:
424,288,23660,1,2,0:0:0:0:
208,208,24035,5,2,0:0:0:0:
24,352,24410,1,2,0:0:0:0:
304,272,24785,1,2,0:0:0:0:
224,32,25160,1,2,0:0:0:0:
0,216,25535,2,0,L|128:200,1,135,2|0,0:0|0:0,0:0:0:0:
224,280,26285,5,2,0:0:0:0:
328,88,26660,1,2,0:0:0:0:
144,80,27035,2,0,L|280:64,1,135,2|0,0:0|0:0,0:0:0:0:
352,192,27785,2,0,L|256:184,1,90,2|2,0:0|0:0,0:0:0:0:
192,336,28535,2,0,L|288:320,1,90,2|2,0:0|0:0,0:0:0:0:
336,336,29035,1,2,0:0:0:0:
392,320,29160,1,2,0:0:0:0:
448,336,29285,2,0,L|464:248,1,90,2|2,0:0|0:0,0:0:0:0:
360,64,30035,6,0,L|344:160,1,90,2|2,0:0|0:0,0:0:0:0:
184,336,30785,2,0,L|168:248,1,90,2|2,0:0|0:0,0:0:0:0:
32,64,31535,2,0,B|128:48|128:48|96:72,1,135,2|0,0:0|0:0,0:0:0:0:
48,152,32285,1,2,0:0:0:0:
200,312,32660,1,2,0:0:0:0:
360,56,33035,6,0,P|288:48|224:48,1,135,2|0,0:0|0:0,0:0:0:0:
152,176,33785,2,0,P|192:176|248:168,1,90,2|2,0:0|0:0,0:0:0:0:
360,304,34535,2,0,P|320:296|264:296,1,90,2|2,0:0|0:0,0:0:0:0:
216,328,35035,1,2,0:0:0:0:
160,312,35160,1,2,0:0:0:0:
104,328,35285,2,0,L|88:232,1,90,2|2,0:0|0:0,0:0:0:0:
96,56,36035,6,0,P|48:48|0:56,1,90,2|2,0:0|0:0,0:0:0:0:
312,88,36785,2,0,P|264:88|216:104,1,90,2|2,0:0|0:0,0:0:0:0:
504,48,37535,2,0,P|480:112|488:184,1,135,2|0,0:0|0:0,0:0:0:0:
432,296,38285,1,2,0:0:0:0:
264,344,38660,1,2,0:0:0:0:
112,256,39035,6,0,P|120:188|116:120,1,135,2|0,0:0|0:0,0:0:0:0:
44,224,39785,2,0,P|48:176|44:128,1,90,2|2,0:0|0:0,0:0:0:0:
48,328,40535,2,0,P|92:336|136:324,1,90,2|2,0:0|0:0,0:0:0:0:
184,280,41035,1,2,0:0:0:0:
192,216,41160,1,2,0:0:0:0:
176,152,41285,2,0,P|132:140|88:140,1,90,2|2,0:0|0:0,0:0:0:0:
364,140,42035,6,0,P|408:132|448:104,1,90,2|2,0:0|0:0,0:0:0:0:
152,288,42785,2,0,P|108:272|64:276,1,90,2|2,0:0|0:0,0:0:0:0:
448,288,43535,2,0,P|384:280|336:328,1,135,2|0,0:0|0:0,0:0:0:0:
500,348,44285,5,2,0:0:0:0:
364,64,44660,1,2,0:0:0:0:
328,368,45035,2,0,B|344:336|344:336|348:308|348:308|368:280|368:280|384:244,1,135,2|0,0:0|0:0,0:0:0:0:
328,128,45785,1,2,0:0:0:0:
244,344,46160,1,2,0:0:0:0:
460,88,46535,1,2,0:0:0:0:
152,256,46910,1,2,0:0:0:0:
120,176,47035,1,2,0:0:0:0:
200,144,47160,1,2,0:0:0:0:
232,224,47285,1,2,0:0:0:0:
336,336,47660,1,2,0:0:0:0:
440,48,48035,6,0,P|400:64|352:72,1,90,2|2,0:0|0:0,0:0:0:0:
72,48,48785,2,0,P|112:64|160:72,1,90,2|2,0:0|0:0,0:0:0:0:
280,328,49535,2,0,B|256:264|256:264|232:328,1,135,2|0,0:0|0:0,0:0:0:0:
152,340,50285,5,4,0:0:0:0:
128,228,50472,1,8,0:0:0:0:
220,124,50660,1,4,0:0:0:0:
356,92,50847,1,8,0:0:0:0:
468,168,51035,5,4,0:0:0:0:
168,304,51410,1,8,0:0:0:0:
472,176,51785,1,4,0:0:0:0:
104,240,52160,1,8,0:0:0:0:
344,40,52535,5,4,0:0:0:0:
288,352,52910,1,8,0:0:0:0:
336,32,53285,1,4,0:0:0:0:
368,376,53660,1,8,0:0:0:0:
144,72,54035,5,4,0:0:0:0:
128,264,54222,1,8,0:0:0:0:
160,64,54410,1,4,0:0:0:0:
144,280,54597,1,8,0:0:0:0:
176,56,54785,1,4,0:0:0:0:
160,296,54972,1,8,0:0:0:0:
344,160,55160,1,4,0:0:0:0:
200,192,55347,1,8,0:0:0:0:
392,328,55535,1,8,0:0:0:0:
504,64,55722,6,0,P|448:48|368:56,1,135,4|4,0:0|0:0,0:0:0:0:
308,128,56472,1,8,0:0:0:0:
192,160,56660,1,4,0:0:0:0:
56,104,56847,1,8,0:0:0:0:
224,48,57035,6,0,P|264:40|328:48,1,90,4|8,0:0|0:0,0:0:0:0:
144,272,57785,2,0,P|96:256|48:264,1,90,4|8,0:0|0:0,0:0:0:0:
304,344,58535,5,4,0:0:0:0:
352,40,58910,1,8,0:0:0:0:
312,352,59285,1,4,0:0:0:0:
304,16,59660,1,8,0:0:0:0:
176,296,60035,5,4,0:0:0:0:
408,240,60222,1,8,0:0:0:0:
240,360,60410,1,4,0:0:0:0:
272,112,60597,1,4,0:0:0:0:
320,312,60785,1,4,0:0:0:0:
112,192,60972,1,4,0:0:0:0:
240,360,61160,1,8,0:0:0:0:
392,120,61347,1,8,0:0:0:0:
176,48,61535,1,8,0:0:0:0:
184,64,61628,1,4,0:0:0:0:
192,80,61722,1,8,0:0:0:0:
264,232,61910,1,4,0:0:0:0:
272,240,62285,5,8,0:0:0:0:
368,272,62472,1,8,0:0:0:0:
472,216,62660,1,4,0:0:0:0:
472,80,62847,1,8,0:0:0:0:
328,24,63035,5,4,0:0:0:0:
208,320,63410,1,8,0:0:0:0:
336,352,63785,1,4,0:0:0:0:
184,64,64160,1,8,0:0:0:0:
72,312,64535,5,4,0:0:0:0:
416,256,64910,1,8,0:0:0:0:
40,176,65285,1,4,0:0:0:0:
336,344,65660,1,8,0:0:0:0:
424,120,66035,5,4,0:0:0:0:
192,168,66222,1,8,0:0:0:0:
456,232,66410,1,4,0:0:0:0:
384,16,66597,1,8,0:0:0:0:
304,280,66785,1,4,0:0:0:0:
88,192,66972,1,8,0:0:0:0:
208,336,67160,1,4,0:0:0:0:
152,80,67347,1,8,0:0:0:0:
336,256,67535,5,8,0:0:0:0:
428,36,67722,2,0,B|388:52|388:52|360:104,1,90,4|0,0:0|0:0,0:0:0:0:
404,196,68285,1,4,0:0:0:0:
368,308,68472,1,8,0:0:0:0:
232,352,68660,1,4,0:0:0:0:
88,316,68847,1,8,0:0:0:0:
64,172,69035,6,0,L|72:76,1,90,4|8,0:0|0:0,0:0:0:0:
272,352,69785,2,0,L|264:256,1,90,4|8,0:0|0:0,0:0:0:0:
464,48,70535,6,0,L|480:136,1,90,4|8,0:0|0:0,0:0:0:0:
152,312,71285,2,0,L|160:216,1,90,4|8,0:0|0:0,0:0:0:0:
108,64,72035,5,2,0:0:0:0:
156,324,72222,2,0,L|160:252,1,67.5,4|0,0:0|0:0,0:0:0:0:
160,48,72597,5,8,0:0:0:0:
180,344,72785,2,0,L|200:272,1,67.5,2|0,0:0|0:0,0:0:0:0:
240,44,73160,5,4,0:0:0:0:
200,364,73347,2,0,L|248:292,1,67.5,8|0,0:0|0:0,0:0:0:0:
372,136,73722,6,0,P|324:136|284:112,1,90,2|4,0:0|0:0,0:0:0:0:
212,24,74097,1,8,0:0:0:0:
340,236,74285,6,0,L|364:272,1,33.75,2|0,0:0|0:0,0:0:0:0:
372,136,74660,5,8,0:0:0:0:
176,296,74847,1,8,0:0:0:0:
8,112,75035,6,0,L|96:96,1,90,4|8,0:0|0:0,0:0:0:0:
240,344,75785,2,0,L|144:336,1,90,4|8,0:0|0:0,0:0:0:0:
424,344,76535,1,4,0:0:0:0:
256,40,76910,1,8,0:0:0:0:
176,296,77285,1,4,0:0:0:0:
432,40,77660,2,0,L|408:112,1,67.5,8|0,0:0|0:0,0:0:0:0:
312,152,78035,5,4,0:0:0:0:
104,112,78222,1,8,0:0:0:0:
288,256,78410,1,4,0:0:0:0:
336,40,78597,1,8,0:0:0:0:
192,184,78785,1,4,0:0:0:0:
328,360,78972,1,8,0:0:0:0:
200,192,79160,5,4,0:0:0:0:
448,216,79347,1,8,0:0:0:0:
184,192,79535,5,8,0:0:0:0:
360,40,79722,2,0,P|392:28|373:56,1,90,4|0,0:0|0:0,0:0:0:0:
312,144,80285,5,4,0:0:0:0:
184,104,80472,1,8,0:0:0:0:
128,320,80660,1,4,0:0:0:0:
360,272,80847,1,8,0:0:0:0:
96,176,81035,6,0,P|56:168|8:176,1,90,4|8,0:0|0:0,0:0:0:0:
416,208,81785,2,0,P|456:216|504:208,1,90,4|8,0:0|0:0,0:0:0:0:
368,48,82535,5,4,0:0:0:0:
72,344,82910,1,8,0:0:0:0:
440,344,83285,1,4,0:0:0:0:
144,48,83660,1,8,0:0:0:0:
456,208,84035,5,4,0:0:0:0:
296,304,84222,1,8,0:0:0:0:
336,96,84410,1,4,0:0:0:0:
400,312,84597,1,4,0:0:0:0:
196,140,84785,1,4,0:0:0:0:
488,180,84972,1,4,0:0:0:0:
232,340,85160,1,8,0:0:0:0:
328,48,85347,1,8,0:0:0:0:
472,264,85535,1,8,0:0:0:0:
448,272,85628,1,4,0:0:0:0:
424,280,85722,1,8,0:0:0:0:
280,264,85910,1,4,0:0:0:0:
272,256,86285,5,8,0:0:0:0:
432,160,86472,1,8,0:0:0:0:
312,352,86660,1,4,0:0:0:0:
80,272,86847,1,8,0:0:0:0:
120,32,87035,2,0,L|128:136,1,90,4|8,0:0|0:0,0:0:0:0:
392,32,87785,2,0,L|384:136,1,90,4|8,0:0|0:0,0:0:0:0:
144,336,88535,5,4,0:0:0:0:
312,36,88910,1,8,0:0:0:0:
200,48,89285,1,4,0:0:0:0:
376,360,89660,1,8,0:0:0:0:
460,128,90035,5,4,0:0:0:0:
320,100,90222,1,8,0:0:0:0:
264,320,90410,1,4,0:0:0:0:
380,164,90597,1,8,0:0:0:0:
176,36,90785,1,4,0:0:0:0:
320,224,90972,1,8,0:0:0:0:
452,40,91160,1,4,0:0:0:0:
184,184,91347,1,8,0:0:0:0:
404,360,91535,1,8,0:0:0:0:
288,100,91722,2,0,L|296:32,1,67.5,4|0,0:0|0:0,0:0:0:0:
408,116,92285,5,4,0:0:0:0:
388,224,92472,1,8,0:0:0:0:
272,308,92660,1,4,0:0:0:0:
96,292,92847,1,8,0:0:0:0:
8,104,93035,1,4,0:0:0:0:
360,32,93410,1,8,0:0:0:0:
4,280,93785,1,4,0:0:0:0:
428,352,94160,1,8,0:0:0:0:
116,140,94535,2,0,B|72:132|52:140|52:140|76:152,1,90,4|8,0:0|0:0,0:0:0:0:
437,151,95285,2,0,B|460:140|460:140|440:132|396:140,1,90,4|8,0:0|0:0,0:0:0:0:
32,128,96035,5,2,0:0:0:0:
112,180,96222,2,0,L|180:164,1,67.5,4|0,0:0|0:0,0:0:0:0:
456,200,96597,5,8,0:0:0:0:
372,240,96785,2,0,L|296:220,1,67.5,2|0,0:0|0:0,0:0:0:0:
100,288,97160,5,4,0:0:0:0:
184,332,97347,2,0,L|256:320,1,67.5,8|0,0:0|0:0,0:0:0:0:
408,324,97722,5,2,0:0:0:0:
440,116,97910,1,4,0:0:0:0:
324,356,98097,1,8,0:0:0:0:
392,48,98285,1,2,0:0:0:0:
392,48,98660,5,8,0:0:0:0:
176,296,98847,1,8,0:0:0:0:
56,104,99035,5,2,0:0:0:0:
160,48,99222,1,4,0:0:0:0:
276,76,99410,1,2,0:0:0:0:
324,184,99597,1,4,0:0:0:0:
152,248,99785,5,2,0:0:0:0:
168,132,99972,1,4,0:0:0:0:
276,76,100160,1,2,0:0:0:0:
392,104,100347,1,4,0:0:0:0:
440,276,100535,5,2,0:0:0:0:
336,192,100722,1,4,0:0:0:0:
212,204,100910,1,2,0:0:0:0:
136,312,101097,1,4,0:0:0:0:
244,328,101285,5,2,0:0:0:0:
212,204,101472,1,4,0:0:0:0:
96,168,101660,1,2,0:0:0:0:
0,232,101847,1,4,0:0:0:0:
64,64,102035,5,2,0:0:0:0:
168,128,102222,1,4,0:0:0:0:
288,120,102410,1,2,0:0:0:0:
360,24,102597,1,4,0:0:0:0:
208,28,102785,5,2,0:0:0:0:
168,128,102972,1,4,0:0:0:0:
216,232,103160,1,2,0:0:0:0:
332,260,103347,1,4,0:0:0:0:
408,88,103535,5,2,0:0:0:0:
296,48,103722,1,4,0:0:0:0:
204,128,103910,1,2,0:0:0:0:
216,272,104097,1,4,0:0:0:0:
320,176,104285,5,2,0:0:0:0:
244,80,104472,1,4,0:0:0:0:
112,72,104660,1,2,0:0:0:0:
28,164,104847,1,2,0:0:0:0:
196,344,105035,5,2,0:0:0:0:
84,304,105222,1,4,0:0:0:0:
56,184,105410,1,2,0:0:0:0:
108,64,105597,1,4,0:0:0:0:
236,24,105785,1,2,0:0:0:0:
356,80,105972,1,4,0:0:0:0:
404,216,106160,1,2,0:0:0:0:
328,320,106347,1,4,0:0:0:0:
192,264,106535,5,2,0:0:0:0:
88,300,106722,1,4,0:0:0:0:
224,156,106910,1,2,0:0:0:0:
376,216,107097,1,4,0:0:0:0:
288,72,107285,1,2,0:0:0:0:
280,244,107472,1,4,0:0:0:0:
380,116,107660,1,2,0:0:0:0:
224,156,107847,1,4,0:0:0:0:
92,100,108035,5,2,0:0:0:0:
56,228,108222,1,4,0:0:0:0:
124,344,108410,1,2,0:0:0:0:
252,364,108597,1,4,0:0:0:0:
372,312,108785,1,2,0:0:0:0:
404,184,108972,1,4,0:0:0:0:
336,60,109160,1,2,0:0:0:0:
204,24,109347,1,4,0:0:0:0:
124,136,109535,5,2,0:0:0:0:
148,272,109722,1,4,0:0:0:0:
388,248,109910,1,2,0:0:0:0:
364,112,110097,1,4,0:0:0:0:
244,80,110285,5,2,0:0:0:0:
268,288,110472,1,4,0:0:0:0:
280,92,110660,1,2,0:0:0:0:
240,296,110847,1,4,0:0:0:0:
88,184,111035,5,2,0:0:0:0:
216,88,111222,1,4,0:0:0:0:
88,200,111410,1,2,0:0:0:0:
232,92,111597,1,4,0:0:0:0:
100,52,111785,5,2,0:0:0:0:
168,264,111972,1,4,0:0:0:0:
120,56,112160,1,2,0:0:0:0:
192,268,112347,1,4,0:0:0:0:
416,112,112535,5,2,0:0:0:0:
256,184,112722,1,4,0:0:0:0:
416,132,112910,1,2,0:0:0:0:
236,176,113097,1,4,0:0:0:0:
176,60,113285,5,2,0:0:0:0:
348,68,113472,1,4,0:0:0:0:
408,224,113660,1,2,0:0:0:0:
280,360,113847,1,4,0:0:0:0:
100,300,114035,5,2,0:0:0:0:
152,88,114222,1,4,0:0:0:0:
92,304,114410,1,2,0:0:0:0:
160,96,114597,1,4,0:0:0:0:
32,176,114785,5,2,0:0:0:0:
188,244,114972,1,4,0:0:0:0:
304,124,115160,1,2,0:0:0:0:
464,168,115347,1,4,0:0:0:0:
336,304,115535,5,2,0:0:0:0:
376,72,115722,1,4,0:0:0:0:
168,32,115910,1,2,0:0:0:0:
200,240,116097,1,4,0:0:0:0:
416,208,116285,5,2,0:0:0:0:
432,16,116472,1,4,0:0:0:0:
288,184,116660,1,2,0:0:0:0:
420,344,116847,1,4,0:0:0:0:
452,160,117035,5,2,0:0:0:0:
268,128,117222,1,4,0:0:0:0:
456,152,117410,1,2,0:0:0:0:
264,116,117597,1,4,0:0:0:0:
100,200,117785,5,2,0:0:0:0:
272,140,117972,1,4,0:0:0:0:
344,296,118160,1,2,0:0:0:0:
164,344,118347,1,4,0:0:0:0:
88,124,118535,5,2,0:0:0:0:
264,216,118722,1,4,0:0:0:0:
104,288,118910,1,2,0:0:0:0:
240,104,119097,1,4,0:0:0:0:
474,235,119285,5,2,0:0:0:0:
207,267,119472,1,4,0:0:0:0:
409,87,119660,1,2,0:0:0:0:
352,348,119847,1,4,0:0:0:0:
228,352,120035,5,2,0:0:0:0:
132,332,120227,5,4,0:0:0:0:
80,240,120424,5,2,0:0:0:0:
84,120,120626,5,4,0:0:0:0:
160,44,120834,5,2,0:0:0:0:
272,40,121048,5,4,0:0:0:0:
364,108,121268,5,2,0:0:0:0:
376,228,121495,5,4,0:0:0:0:
360,332,121729,6,0,L|308:312,1,45,2|4,0:0|0:0,0:0:0:0:
474,189,122220,6,0,L|482:244,1,45,2|4,0:0|0:0,0:0:0:0:
293,162,122755,6,0,L|336:126,1,45,2|4,0:0|0:0,0:0:0:0:
240,72,123442,6,0,L|283:36,1,45,8|2,0:0|0:0,0:0:0:0:
424,308,124692,6,0,L|444:356,1,45,4|2,0:0|0:0,0:0:0:0:
316,80,125067,2,0,L|328:28,1,45,8|2,0:0|0:0,0:0:0:0:
272,248,125442,1,8,0:0:0:0:
45,289,125629,1,2,0:0:0:0:
204,122,125817,1,8,0:0:0:0:
173,351,126004,1,2,0:0:0:0:
64,149,126192,6,0,L|56:93,1,45,8|4,0:0|0:0,0:0:0:0:
432,48,126567,2,0,L|428:100,1,45,4|4,0:0|0:0,0:0:0:0:
407,337,126942,1,4,0:0:0:0:
276,129,127129,1,4,0:0:0:0:
505,221,127317,1,8,0:0:0:0:
266,281,127504,1,4,0:0:0:0:
160,152,127692,5,8,0:0:0:0:
312,108,127879,1,4,0:0:0:0:
380,320,128067,1,8,0:0:0:0:
160,272,128254,1,4,0:0:0:0:
240,56,128442,5,8,0:0:0:0:
280,272,128629,1,8,0:0:0:0:
32,316,128817,1,8,0:0:0:0:
112,64,129004,1,8,0:0:0:0:
204,344,129192,1,8,0:0:0:0:
436,228,129379,2,0,B|468:220|500:224|500:224|480:240,1,90,8|0,0:0|0:0,0:0:0:0:
336,296,129942,5,8,0:0:0:0:
388,124,130129,1,4,0:0:0:0:
192,80,130317,1,8,0:0:0:0:
216,264,130504,1,8,0:0:0:0:
448,208,130692,6,0,L|496:196,1,45,4|2,0:0|0:0,0:0:0:0:
196,284,131067,2,0,L|252:300,1,45,8|2,0:0|0:0,0:0:0:0:
360,252,131442,1,8,0:0:0:0:
168,124,131629,1,2,0:0:0:0:
204,364,131817,1,8,0:0:0:0:
304,116,132004,1,2,0:0:0:0:
96,280,132192,6,0,L|48:264,1,45,8|4,0:0|0:0,0:0:0:0:
384,296,132567,2,0,L|432:312,1,45,4|4,0:0|0:0,0:0:0:0:
232,240,132942,1,4,0:0:0:0:
412,204,133129,1,4,0:0:0:0:
168,148,133317,1,8,0:0:0:0:
444,108,133504,1,4,0:0:0:0:
224,32,133692,5,8,0:0:0:0:
272,232,133879,1,8,0:0:0:0:
108,72,134067,1,8,0:0:0:0:
344,8,134254,1,8,0:0:0:0:
96,184,134442,5,8,0:0:0:0:
416,192,134629,1,8,0:0:0:0:
152,296,134817,1,4,0:0:0:0:
216,8,135004,1,8,0:0:0:0:
280,288,135192,1,4,0:0:0:0:
276,304,135285,1,8,0:0:0:0:
272,320,135379,1,4,0:0:0:0:
440,88,135567,1,8,0:0:0:0:
448,96,135942,5,4,0:0:0:0:
432,248,136129,1,4,0:0:0:0:
296,336,136317,1,8,0:0:0:0:
136,320,136504,1,4,0:0:0:0:
64,160,136692,5,4,0:0:0:0:
256,200,136879,1,2,0:0:0:0:
380,40,137067,1,8,0:0:0:0:
260,212,137254,1,2,0:0:0:0:
136,36,137442,1,8,0:0:0:0:
264,224,137629,1,2,0:0:0:0:
456,144,137817,1,8,0:0:0:0:
268,236,138004,1,2,0:0:0:0:
48,168,138192,5,8,0:0:0:0:
280,72,138379,1,4,0:0:0:0:
324,292,138567,1,4,0:0:0:0:
284,60,138754,1,4,0:0:0:0:
156,276,138942,1,4,0:0:0:0:
288,48,139129,1,4,0:0:0:0:
468,216,139317,1,8,0:0:0:0:
292,36,139504,1,4,0:0:0:0:
104,188,139692,5,8,0:0:0:0:
284,140,139879,1,4,0:0:0:0:
112,60,140067,1,8,0:0:0:0:
180,280,140254,1,4,0:0:0:0:
364,76,140442,1,8,0:0:0:0:
176,172,140629,1,8,0:0:0:0:
296,348,140817,1,8,0:0:0:0:
248,48,141004,1,8,0:0:0:0:
112,280,141192,1,8,0:0:0:0:
408,320,141379,2,0,B|444:320|472:304|472:304|452:288,1,90,8|0,0:0|0:0,0:0:0:0:
440,120,141942,5,8,0:0:0:0:
252,228,142129,1,4,0:0:0:0:
453,289,142317,1,8,0:0:0:0:
304,92,142504,1,8,0:0:0:0:
192,312,142692,5,4,0:0:0:0:
64,216,142879,1,2,0:0:0:0:
188,320,143067,1,8,0:0:0:0:
140,128,143254,1,2,0:0:0:0:
184,328,143442,1,8,0:0:0:0:
256,112,143629,1,2,0:0:0:0:
180,336,143817,1,8,0:0:0:0:
360,184,144004,1,2,0:0:0:0:
184,32,144192,5,8,0:0:0:0:
248,224,144379,1,4,0:0:0:0:
192,28,144567,1,4,0:0:0:0:
144,248,144754,1,4,0:0:0:0:
200,24,144942,1,4,0:0:0:0:
44,208,145129,1,4,0:0:0:0:
208,20,145317,1,8,0:0:0:0:
0,108,145504,1,4,0:0:0:0:
64,304,145692,5,8,0:0:0:0:
292,284,145879,1,8,0:0:0:0:
120,360,146067,1,8,0:0:0:0:
280,204,146254,1,8,0:0:0:0:
60,64,146442,5,8,0:0:0:0:
184,280,146629,1,8,0:0:0:0:
384,168,146817,1,4,0:0:0:0:
120,176,147004,1,8,0:0:0:0:
336,280,147192,1,4,0:0:0:0:
328,304,147285,1,8,0:0:0:0:
320,328,147379,1,4,0:0:0:0:
192,84,147567,2,0,B|272:60|372:64|372:64|320:64|272:84,1,270,8|0,0:0|0:0,0:0:0:0:
