osu file format v14

[General]
AudioFilename: sagashi mono.mp3
AudioLeadIn: 0
PreviewTime: 74625
Countdown: 0
SampleSet: Normal
StackLeniency: 0.7
Mode: 0
LetterboxInBreaks: 1
WidescreenStoryboard: 1

[Editor]
DistanceSpacing: 2
BeatDivisor: 8
GridSize: 4
TimelineZoom: 2.4

[Metadata]
Title:Sagashi Mono(BMS Edit)
TitleUnicode:探し物(BMS Edit)
Artist:onoken
ArtistUnicode:onoken
Creator:Ayakura Mei
Version:Easy
Source:BMS
Tags:
BeatmapID:827925
BeatmapSetID:177187

[Difficulty]
HPDrainRate:2
CircleSize:3
OverallDifficulty:2
ApproachRate:3
SliderMultiplier:1.3
SliderTickRate:1

[Events]
//Background and Video events
0,0,"BG.jpg",0,0
//Break Periods
//Storyboard Layer 0 (Background)
//Storyboard Layer 1 (Fail)
//Storyboard Layer 2 (Pass)
//Storyboard Layer 3 (Foreground)
//Storyboard Sound Samples
Sample,2285,0,"soft-hitwhistle.wav",70
Sample,2660,0,"soft-hitwhistle2.wav",70
Sample,4160,0,"soft-hitwhistle2.wav",70
Sample,4910,0,"soft-hitwhistle4.wav",70
Sample,5035,0,"soft-hitwhistle3.wav",70
Sample,5160,0,"soft-hitwhistle4.wav",70
Sample,5660,0,"soft-hitwhistle6.wav",70
Sample,6410,0,"soft-hitwhistle4.wav",70
Sample,6785,0,"soft-hitwhistle5.wav",70
Sample,7160,0,"soft-hitwhistle6.wav",70
Sample,8285,0,"soft-hitwhistle.wav",70
Sample,8660,0,"soft-hitwhistle2.wav",70
Sample,10160,0,"soft-hitwhistle2.wav",70
Sample,10910,0,"soft-hitwhistle4.wav",70
Sample,11035,0,"soft-hitwhistle3.wav",70
Sample,11160,0,"soft-hitwhistle4.wav",70
Sample,11660,0,"soft-hitwhistle6.wav",70
Sample,12410,0,"soft-hitwhistle4.wav",70
Sample,12785,0,"soft-hitwhistle5.wav",70
Sample,13160,0,"soft-hitwhistle6.wav",70
Sample,14660,0,"soft-hitwhistle2.wav",70
Sample,16160,0,"soft-hitwhistle2.wav",70
Sample,16910,0,"soft-hitwhistle4.wav",70
Sample,17035,0,"soft-hitwhistle3.wav",70
Sample,17160,0,"soft-hitwhistle4.wav",70
Sample,17660,0,"soft-hitwhistle6.wav",70
Sample,18410,0,"soft-hitwhistle4.wav",70
Sample,18785,0,"soft-hitwhistle5.wav",70
Sample,19160,0,"soft-hitwhistle6.wav",70
Sample,20285,0,"soft-hitwhistle.wav",70
Sample,20660,0,"soft-hitwhistle2.wav",70
Sample,22160,0,"soft-hitwhistle2.wav",70
Sample,22910,0,"soft-hitwhistle4.wav",70
Sample,23035,0,"soft-hitwhistle3.wav",70
Sample,23160,0,"soft-hitwhistle4.wav",70
Sample,23660,0,"soft-hitwhistle6.wav",70
Sample,24410,0,"soft-hitwhistle4.wav",70
Sample,24785,0,"soft-hitwhistle5.wav",70
Sample,25160,0,"soft-hitwhistle6.wav",70
Sample,26660,0,"soft-hitwhistle2.wav",70
Sample,28160,0,"soft-hitwhistle2.wav",70
Sample,28910,0,"soft-hitwhistle4.wav",70
Sample,29035,0,"soft-hitwhistle3.wav",70
Sample,29160,0,"soft-hitwhistle4.wav",70
Sample,29660,0,"soft-hitwhistle6.wav",70
Sample,30410,0,"soft-hitwhistle4.wav",70
Sample,30785,0,"soft-hitwhistle5.wav",70
Sample,31160,0,"soft-hitwhistle6.wav",70
Sample,32660,0,"soft-hitwhistle2.wav",70
Sample,34160,0,"soft-hitwhistle2.wav",70
Sample,34910,0,"soft-hitwhistle4.wav",70
Sample,35035,0,"soft-hitwhistle3.wav",70
Sample,35160,0,"soft-hitwhistle4.wav",70
Sample,35660,0,"soft-hitwhistle6.wav",70
Sample,36410,0,"soft-hitwhistle4.wav",70
Sample,36785,0,"soft-hitwhistle5.wav",70
Sample,37160,0,"soft-hitwhistle6.wav",70
Sample,38660,0,"soft-hitwhistle2.wav",70
Sample,40160,0,"soft-hitwhistle2.wav",70
Sample,40910,0,"soft-hitwhistle4.wav",70
Sample,41035,0,"soft-hitwhistle3.wav",70
Sample,41160,0,"soft-hitwhistle4.wav",70
Sample,41660,0,"soft-hitwhistle6.wav",70
Sample,42410,0,"soft-hitwhistle4.wav",70
Sample,42785,0,"soft-hitwhistle5.wav",70
Sample,43160,0,"soft-hitwhistle6.wav",70
Sample,44660,0,"soft-hitwhistle2.wav",70
Sample,46160,0,"soft-hitwhistle2.wav",70
Sample,46910,0,"soft-hitwhistle4.wav",70
Sample,47035,0,"soft-hitwhistle3.wav",70
Sample,47160,0,"soft-hitwhistle4.wav",70
Sample,47660,0,"soft-hitwhistle6.wav",70
Sample,48410,0,"soft-hitwhistle4.wav",70
Sample,48785,0,"soft-hitwhistle5.wav",70
Sample,49160,0,"soft-hitwhistle6.wav",70
Sample,50462,0,"soft-hitclap.wav",70
Sample,50660,0,"soft-hitfinish2.wav",70
Sample,50847,0,"soft-hitclap2.wav",70
Sample,51410,0,"soft-hitclap3.wav",70
Sample,52160,0,"soft-hitclap4.wav",70
Sample,52910,0,"soft-hitclap5.wav",70
Sample,53660,0,"soft-hitclap6.wav",70
Sample,54222,0,"soft-hitclap7.wav",70
Sample,54410,0,"soft-hitfinish.wav",70
Sample,54597,0,"soft-hitclap.wav",70
Sample,54972,0,"soft-hitclap2.wav",70
Sample,55160,0,"soft-hitfinish8.wav",70
Sample,55347,0,"soft-hitclap8.wav",70
Sample,55722,0,"soft-hitclap9.wav",70
Sample,56472,0,"soft-hitclap.wav",70
Sample,56660,0,"soft-hitfinish2.wav",70
Sample,56847,0,"soft-hitclap2.wav",70
Sample,57410,0,"soft-hitclap3.wav",70
Sample,58160,0,"soft-hitclap4.wav",70
Sample,58910,0,"soft-hitclap5.wav",70
Sample,59660,0,"soft-hitclap6.wav",70
Sample,60222,0,"soft-hitclap9.wav",70
Sample,60410,0,"soft-hitfinish8.wav",70
Sample,60597,0,"soft-hitfinish10.wav",70
Sample,60972,0,"soft-hitfinish8.wav",70
Sample,61160,0,"soft-hitclap10.wav",70
Sample,61347,0,"soft-hitclap2.wav",70
Sample,61628,0,"soft-hitfinish2.wav",70
Sample,61722,0,"soft-hitclap.wav",70
Sample,61910,0,"soft-hitfinish11.wav",70
Sample,62472,0,"soft-hitclap11.wav",70
Sample,62660,0,"soft-hitfinish12.wav",70
Sample,62847,0,"soft-hitclap12.wav",70
Sample,63410,0,"soft-hitclap3.wav",70
Sample,64160,0,"soft-hitclap4.wav",70
Sample,64910,0,"soft-hitclap5.wav",70
Sample,65660,0,"soft-hitclap6.wav",70
Sample,66222,0,"soft-hitclap7.wav",70
Sample,66410,0,"soft-hitfinish.wav",70
Sample,66597,0,"soft-hitclap.wav",70
Sample,66972,0,"soft-hitclap2.wav",70
Sample,67160,0,"soft-hitfinish8.wav",70
Sample,67347,0,"soft-hitclap8.wav",70
Sample,67722,0,"soft-hitfinish9.wav",70
Sample,68472,0,"soft-hitclap.wav",70
Sample,68660,0,"soft-hitfinish2.wav",70
Sample,68847,0,"soft-hitclap2.wav",70
Sample,69410,0,"soft-hitclap3.wav",70
Sample,70160,0,"soft-hitclap4.wav",70
Sample,70910,0,"soft-hitclap5.wav",70
Sample,71660,0,"soft-hitclap6.wav",70
Sample,72035,0,"drum-hitwhistle.wav",70
Sample,72222,0,"drum-hitfinish.wav",70
Sample,72597,0,"drum-hitclap.wav",70
Sample,72785,0,"drum-hitwhistle2.wav",70
Sample,73160,0,"drum-hitfinish2.wav",70
Sample,73347,0,"drum-hitclap2.wav",70
Sample,73722,0,"drum-hitwhistle3.wav",70
Sample,73910,0,"drum-hitclap3.wav",70
Sample,74097,0,"drum-hitclap3.wav",70
Sample,74660,0,"drum-hitclap.wav",70
Sample,74847,0,"drum-hitclap2.wav",70
Sample,75410,0,"soft-hitclap3.wav",70
Sample,76910,0,"soft-hitclap5.wav",70
Sample,78222,0,"soft-hitclap7.wav",70
Sample,78410,0,"soft-hitfinish.wav",70
Sample,78597,0,"soft-hitclap.wav",70
Sample,78785,0,"soft-hitfinish2.wav",70
Sample,78972,0,"soft-hitclap2.wav",70
Sample,79160,0,"normal-hitfinish8.wav",70
Sample,79347,0,"soft-hitclap8.wav",70
Sample,79722,0,"soft-hitfinish9.wav",70
Sample,80472,0,"soft-hitclap.wav",70
Sample,80660,0,"soft-hitfinish2.wav",70
Sample,80847,0,"soft-hitclap2.wav",70
Sample,81410,0,"soft-hitclap3.wav",70
Sample,82910,0,"soft-hitclap5.wav",70
Sample,84222,0,"soft-hitclap9.wav",70
Sample,84410,0,"soft-hitfinish8.wav",70
Sample,84597,0,"soft-hitfinish10.wav",70
Sample,84972,0,"soft-hitfinish8.wav",70
Sample,85347,0,"soft-hitclap2.wav",70
Sample,85535,0,"soft-hitclap.wav",70
Sample,85628,0,"soft-hitfinish2.wav",70
Sample,85722,0,"soft-hitclap.wav",70
Sample,86472,0,"soft-hitclap11.wav",70
Sample,86660,0,"soft-hitfinish12.wav",70
Sample,86847,0,"soft-hitclap12.wav",70
Sample,87410,0,"soft-hitclap3.wav",70
Sample,88910,0,"soft-hitclap5.wav",70
Sample,88910,0,"soft-hitclap5.wav",70
Sample,90222,0,"soft-hitclap7.wav",70
Sample,90410,0,"soft-hitfinish.wav",70
Sample,90597,0,"soft-hitclap.wav",70
Sample,90785,0,"soft-hitfinish2.wav",70
Sample,90972,0,"soft-hitclap2.wav",70
Sample,91160,0,"soft-hitfinish8.wav",70
Sample,91347,0,"soft-hitclap8.wav",70
Sample,91722,0,"soft-hitfinish9.wav",70
Sample,92472,0,"soft-hitclap.wav",70
Sample,92660,0,"soft-hitfinish2.wav",70
Sample,92847,0,"soft-hitclap2.wav",70
Sample,93410,0,"soft-hitclap3.wav",70
Sample,94910,0,"soft-hitclap5.wav",70
Sample,96222,0,"drum-hitfinish.wav",70
Sample,96597,0,"drum-hitclap.wav",70
Sample,97347,0,"drum-hitclap2.wav",70
Sample,97722,0,"drum-hitwhistle3.wav",70
Sample,98097,0,"drum-hitclap3.wav",70
Sample,98847,0,"drum-hitclap2.wav",70
Sample,99222,0,"normal-hitfinish.wav",70
Sample,99597,0,"normal-hitfinish2.wav",70
Sample,99972,0,"normal-hitfinish.wav",70
Sample,100347,0,"normal-hitfinish2.wav",70
Sample,100722,0,"normal-hitfinish3.wav",70
Sample,101097,0,"normal-hitfinish2.wav",70
Sample,101472,0,"normal-hitfinish3.wav",70
Sample,101847,0,"normal-hitfinish2.wav",70
Sample,102222,0,"normal-hitfinish.wav",70
Sample,102597,0,"normal-hitfinish2.wav",70
Sample,102972,0,"normal-hitfinish.wav",70
Sample,103347,0,"normal-hitfinish2.wav",70
Sample,103722,0,"normal-hitfinish3.wav",70
Sample,104097,0,"normal-hitfinish2.wav",70
Sample,104472,0,"normal-hitfinish3.wav",70
Sample,104847,0,"normal-hitfinish2.wav",70
Sample,105222,0,"normal-hitfinish.wav",70
Sample,105597,0,"normal-hitfinish2.wav",70
Sample,105972,0,"normal-hitfinish.wav",70
Sample,106347,0,"normal-hitfinish2.wav",70
Sample,106722,0,"normal-hitfinish3.wav",70
Sample,107097,0,"normal-hitfinish2.wav",70
Sample,107472,0,"normal-hitfinish3.wav",70
Sample,107847,0,"normal-hitfinish2.wav",70
Sample,108222,0,"normal-hitfinish.wav",70
Sample,108597,0,"normal-hitfinish2.wav",70
Sample,108972,0,"normal-hitfinish.wav",70
Sample,109347,0,"normal-hitfinish2.wav",70
Sample,109722,0,"normal-hitfinish3.wav",70
Sample,110097,0,"normal-hitfinish2.wav",70
Sample,110472,0,"normal-hitfinish3.wav",70
Sample,110847,0,"normal-hitfinish4.wav",70
Sample,111222,0,"normal-hitfinish5.wav",70
Sample,111597,0,"normal-hitfinish6.wav",70
Sample,111972,0,"normal-hitfinish5.wav",70
Sample,112222,0,"normal-hitfinish5.wav",70
Sample,112347,0,"normal-hitfinish6.wav",70
Sample,112910,0,"normal-hitwhistle6.wav",70
Sample,113097,0,"normal-hitfinish6.wav",70
Sample,113472,0,"normal-hitfinish5.wav",70
Sample,113660,0,"normal-hitwhistle6.wav",70
Sample,113847,0,"normal-hitfinish6.wav",70
Sample,114222,0,"normal-hitfinish5.wav",70
Sample,114597,0,"normal-hitfinish6.wav",70
Sample,114972,0,"normal-hitfinish5.wav",70
Sample,115347,0,"normal-hitfinish6.wav",70
Sample,115722,0,"normal-hitfinish5.wav",70
Sample,115910,0,"normal-hitwhistle6.wav",70
Sample,116097,0,"normal-hitfinish6.wav",70
Sample,116472,0,"normal-hitfinish5.wav",70
Sample,116660,0,"normal-hitwhistle6.wav",70
Sample,116847,0,"normal-hitfinish6.wav",70
Sample,117222,0,"normal-hitfinish5.wav",70
Sample,117597,0,"normal-hitfinish6.wav",70
Sample,117972,0,"normal-hitfinish5.wav",70
Sample,118347,0,"normal-hitfinish6.wav",70
Sample,118722,0,"normal-hitfinish5.wav",70
Sample,119097,0,"normal-hitfinish6.wav",70
Sample,119472,0,"normal-hitfinish5.wav",70
Sample,119847,0,"normal-hitfinish6.wav",70
Sample,120222,0,"normal-hitfinish5.wav",70
Sample,120424,0,"normal-hitwhistle6.wav",70
Sample,120621,0,"normal-hitfinish6.wav",70
Sample,121040,0,"normal-hitfinish5.wav",70
Sample,121042,0,"normal-hitfinish5.wav",70
Sample,121268,0,"normal-hitwhistle6.wav",70
Sample,121489,0,"normal-hitfinish6.wav",70
Sample,121489,0,"normal-hitfinish6.wav",70
Sample,121970,0,"normal-hitfinish5.wav",70
Sample,122220,0,"normal-hitwhistle6.wav",70
Sample,122478,0,"normal-hitfinish6.wav",70
Sample,123068,0,"normal-hitfinish8.wav",70
Sample,123442,0,"normal-hitclap8.wav",70
Sample,123942,0,"normal-hitwhistle9.wav",70
Sample,124879,0,"normal-hitwhistle4.wav",70
Sample,125068,0,"soft-hitclap2.wav",70
Sample,125254,0,"normal-hitwhistle4.wav",70
Sample,125629,0,"normal-hitwhistle4.wav",70
Sample,125817,0,"normal-hitclap2.wav",70
Sample,126004,0,"normal-hitwhistle4.wav",70
Sample,126379,0,"normal-hitfinish3.wav",70
Sample,126567,0,"soft-hitfinish2.wav",70
Sample,126754,0,"normal-hitfinish3.wav",70
Sample,127129,0,"normal-hitfinish3.wav",70
Sample,127317,0,"normal-hitclap3.wav",70
Sample,127504,0,"normal-hitfinish3.wav",70
Sample,127879,0,"soft-hitfinish.wav",70
Sample,128067,0,"soft-hitclap2.wav",70
Sample,128254,0,"soft-hitfinish8.wav",70
Sample,128629,0,"normal-hitclap3.wav",70
Sample,128817,0,"normal-hitclap2.wav",70
Sample,129004,0,"normal-hitclap4.wav",70
Sample,129379,0,"normal-hitclap5.wav",70
Sample,130129,0,"soft-hitfinish8.wav",70
Sample,130504,0,"normal-hitclap6.wav",70
Sample,130879,0,"normal-hitwhistle4.wav",70
Sample,131067,0,"soft-hitclap2.wav",70
Sample,131254,0,"normal-hitwhistle4.wav",70
Sample,131629,0,"normal-hitwhistle4.wav",70
Sample,131817,0,"normal-hitclap2.wav",70
Sample,132004,0,"normal-hitwhistle4.wav",70
Sample,132379,0,"normal-hitfinish3.wav",70
Sample,132567,0,"soft-hitfinish2.wav",70
Sample,132754,0,"normal-hitfinish3.wav",70
Sample,133129,0,"normal-hitfinish3.wav",70
Sample,133317,0,"normal-hitclap3.wav",70
Sample,133504,0,"normal-hitfinish3.wav",70
Sample,133879,0,"normal-hitclap7.wav",70
Sample,134254,0,"normal-hitclap9.wav",70
Sample,134629,0,"normal-hitclap2.wav",70
Sample,135004,0,"normal-hitclap.wav",70
Sample,135285,0,"normal-hitclap8.wav",70
Sample,135379,0,"normal-hitfinish8.wav",70
Sample,135567,0,"normal-hitclap10.wav",70
Sample,136129,0,"soft-hitfinish2.wav",70
Sample,136504,0,"normal-hitfinish8.wav",70
Sample,136879,0,"normal-hitwhistle4.wav",70
Sample,137067,0,"soft-hitclap2.wav",70
Sample,137254,0,"normal-hitwhistle4.wav",70
Sample,137629,0,"normal-hitwhistle4.wav",70
Sample,137817,0,"normal-hitclap2.wav",70
Sample,138004,0,"normal-hitwhistle4.wav",70
Sample,138379,0,"normal-hitfinish3.wav",70
Sample,138567,0,"soft-hitfinish2.wav",70
Sample,138754,0,"normal-hitfinish3.wav",70
Sample,139129,0,"normal-hitfinish3.wav",70
Sample,139317,0,"normal-hitclap3.wav",70
Sample,139504,0,"normal-hitfinish3.wav",70
Sample,139879,0,"soft-hitfinish.wav",70
Sample,140067,0,"soft-hitclap2.wav",70
Sample,140254,0,"soft-hitfinish8.wav",70
Sample,140629,0,"normal-hitclap3.wav",70
Sample,140817,0,"normal-hitclap2.wav",70
Sample,141004,0,"normal-hitclap4.wav",70
Sample,141379,0,"normal-hitclap5.wav",70
Sample,142129,0,"soft-hitfinish8.wav",70
Sample,142504,0,"normal-hitclap6.wav",70
Sample,142879,0,"normal-hitwhistle4.wav",70
Sample,143067,0,"soft-hitclap2.wav",70
Sample,143254,0,"normal-hitwhistle4.wav",70
Sample,143629,0,"normal-hitwhistle4.wav",70
Sample,143817,0,"normal-hitclap2.wav",70
Sample,144004,0,"normal-hitwhistle4.wav",70
Sample,144379,0,"normal-hitfinish3.wav",70
Sample,144567,0,"soft-hitfinish2.wav",70
Sample,144754,0,"normal-hitfinish3.wav",70
Sample,145129,0,"normal-hitfinish3.wav",70
Sample,145317,0,"soft-hitclap3.wav",70
Sample,145504,0,"normal-hitfinish3.wav",70
Sample,145879,0,"normal-hitclap7.wav",70
Sample,146254,0,"normal-hitclap9.wav",70
Sample,146629,0,"normal-hitclap2.wav",70
Sample,147004,0,"normal-hitclap.wav",70
Sample,147291,0,"normal-hitclap8.wav",70
Sample,147379,0,"normal-hitfinish8.wav",70

[TimingPoints]
35,750,4,1,0,100,1,0
2378,-100,4,2,2,100,0,0
3691,-100,4,2,1,100,0,0
4253,-100,4,2,3,100,0,0
5191,-100,4,2,5,100,0,0
5941,-100,4,2,1,100,0,0
7441,-100,4,2,7,100,0,0
8566,-100,4,2,2,100,0,0
9691,-100,4,2,1,100,0,0
10410,-100,4,2,3,100,0,0
11191,-100,4,2,5,100,0,0
11941,-100,4,2,1,100,0,0
13441,-100,4,2,8,100,0,0
14191,-100,4,2,1,100,0,0
14566,-100,4,2,2,100,0,0
15691,-100,4,2,1,100,0,0
16441,-100,4,2,3,100,0,0
17191,-100,4,2,5,100,0,0
17941,-100,4,2,1,100,0,0
19441,-100,4,2,7,100,0,0
20566,-100,4,2,2,100,0,0
21691,-100,4,2,1,100,0,0
22410,-100,4,2,3,100,0,0
23191,-100,4,2,5,100,0,0
23941,-100,4,2,1,100,0,0
25441,-100,4,2,8,100,0,0
26191,-100,4,2,1,100,0,0
26566,-100,4,2,2,100,0,0
27691,-100,4,2,1,100,0,0
28441,-100,4,2,3,100,0,0
29191,-100,4,2,5,100,0,0
29941,-100,4,2,1,100,0,0
31441,-100,4,2,7,100,0,0
32191,-100,4,2,1,100,0,0
32566,-100,4,2,2,100,0,0
33691,-100,4,2,1,100,0,0
34441,-100,4,2,3,100,0,0
35191,-100,4,2,5,100,0,0
35941,-100,4,2,1,100,0,0
37441,-100,4,2,8,100,0,0
38191,-100,4,2,1,100,0,0
38566,-100,4,2,2,100,0,0
39691,-100,4,2,1,100,0,0
40441,-100,4,2,3,100,0,0
41191,-100,4,2,5,100,0,0
41941,-100,4,2,1,100,0,0
43441,-100,4,2,7,100,0,0
44191,-100,4,2,1,100,0,0
44566,-100,4,2,2,100,0,0
45691,-100,4,2,1,100,0,0
46441,-100,4,2,3,100,0,0
47191,-100,4,2,5,100,0,0
47566,-100,4,2,6,100,0,0
47941,-100,4,2,1,100,0,0
49441,-100,4,2,8,100,0,0
50191,-100,4,2,1,100,0,0
50941,-100,4,2,3,100,0,0
51597,-100,4,2,4,100,0,0
52347,-100,4,2,5,100,0,0
53097,-100,4,2,6,100,0,0
53847,-100,4,2,7,100,0,0
54691,-100,4,2,2,100,0,0
55066,-100,4,2,8,100,0,0
56191,-100,4,2,1,100,0,0
56941,-100,4,2,3,100,0,0
57597,-100,4,2,4,100,0,0
58347,-100,4,2,5,100,0,0
59097,-100,4,2,6,100,0,0
59847,-100,4,2,7,100,0,0
60691,-100,4,2,5,100,0,0
61441,-100,4,2,1,100,0,0
62191,-100,4,2,7,100,0,0
62941,-100,4,2,3,100,0,0
63597,-100,4,2,4,100,0,0
64347,-100,4,2,5,100,0,0
65097,-100,4,2,6,100,0,0
65847,-100,4,2,7,100,0,0
66691,-100,4,2,2,100,0,0
67066,-100,4,2,8,100,0,0
68191,-100,4,2,1,100,0,0
68941,-100,4,2,3,100,0,0
69691,-100,4,2,4,100,0,0
70441,-100,4,2,5,100,0,0
71191,-100,4,2,6,100,0,0
74191,-100,4,3,4,100,0,0
75035,-100,4,2,3,100,0,0
75597,-100,4,2,4,100,0,0
76347,-100,4,2,5,100,0,0
77097,-100,4,2,6,100,0,0
77941,-100,4,2,7,100,0,0
79066,-100,4,2,8,100,0,0
80191,-100,4,2,1,100,0,0
80941,-100,4,2,3,100,0,0
81597,-100,4,2,4,100,0,0
82347,-100,4,2,5,100,0,0
83097,-100,4,2,6,100,0,0
83847,-100,4,2,7,100,0,0
84691,-100,4,2,5,100,0,0
85066,-100,4,2,10,100,0,0
85441,-100,4,2,11,100,0,0
86191,-100,4,2,7,100,0,0
86847,-100,4,2,3,100,0,0
87503,-100,4,2,4,100,0,0
88253,-100,4,2,5,100,0,0
89097,-100,4,2,6,100,0,0
89847,-100,4,2,7,100,0,0
91066,-100,4,2,8,100,0,0
91628,-100,4,2,9,100,0,0
92191,-100,4,2,1,100,0,0
92941,-100,4,2,3,100,0,0
93503,-100,4,2,4,100,0,0
94347,-100,4,2,5,100,0,0
95097,-100,4,2,6,100,0,0
95941,-100,4,3,1,100,0,0
96691,-100,4,3,2,100,0,0
97066,-100,4,3,2,100,0,0
97628,-100,4,3,3,100,0,0
98191,-100,4,3,4,100,0,0
98566,-100,4,3,1,100,0,0
98941,-100,4,1,1,100,0,0
99316,-100,4,1,2,100,0,0
99691,-100,4,1,1,100,0,0
100066,-100,4,1,2,100,0,0
100441,-100,4,1,3,100,0,0
100816,-100,4,1,4,100,0,0
101191,-100,4,1,3,100,0,0
101566,-100,4,1,4,100,0,0
101941,-100,4,1,1,100,0,0
102316,-100,4,1,2,100,0,0
102691,-100,4,1,1,100,0,0
103066,-100,4,1,2,100,0,0
103441,-100,4,1,3,100,0,0
103816,-100,4,1,4,100,0,0
104191,-100,4,1,3,100,0,0
104566,-100,4,1,4,100,0,0
104941,-100,4,1,1,100,0,0
105316,-100,4,1,2,100,0,0
105691,-100,4,1,1,100,0,0
106066,-100,4,1,2,100,0,0
106441,-100,4,1,3,100,0,0
106816,-100,4,1,4,100,0,0
107191,-100,4,1,3,100,0,0
107566,-100,4,1,4,100,0,0
107941,-100,4,1,1,100,0,0
108316,-100,4,1,2,100,0,0
108691,-100,4,1,1,100,0,0
109066,-100,4,1,2,100,0,0
109441,-100,4,1,3,100,0,0
109816,-100,4,1,4,100,0,0
110191,-100,4,1,3,100,0,0
110566,-100,4,1,4,100,0,0
110941,-100,4,1,5,100,0,0
111316,-100,4,1,6,100,0,0
111691,-100,4,1,5,100,0,0
112066,-100,4,1,6,100,0,0
112441,-100,4,1,7,100,0,0
113191,-100,4,1,7,100,0,0
113941,-100,4,1,5,100,0,0
114316,-100,4,1,6,100,0,0
114691,-100,4,1,5,100,0,0
115066,-100,4,1,6,100,0,0
115441,-100,4,1,7,100,0,0
116191,-100,4,1,7,100,0,0
116941,-100,4,1,5,100,0,0
117316,-100,4,1,6,100,0,0
117691,-100,4,1,5,100,0,0
118066,-100,4,1,6,100,0,0
118441,-100,4,1,7,100,0,0
118816,-100,4,1,6,100,0,0
119191,-100,4,1,7,100,0,0
119566,-100,4,1,6,100,0,0
120035,769.230769230769,4,1,5,100,1,0
120227,789.473684210526,4,1,5,100,1,0
120424,810.810810810811,4,1,6,100,1,0
120626,833.333333333333,4,1,6,100,1,0
120834,857.142857142857,4,1,5,100,1,0
121048,882.352941176471,4,1,6,100,1,0
121268,909.090909090909,4,1,6,100,1,0
121495,937.5,4,1,6,100,1,0
121729,967.741935483871,4,1,7,100,1,0
121970,1000,4,1,6,100,1,0
122220,1034.48275862069,4,1,6,100,1,0
122478,1111.11111111111,4,1,6,100,1,0
122755,1250,4,1,8,100,1,0
123067,1500,4,1,8,100,1,0
123442,2000,4,1,8,100,1,0
123942,3000,4,1,9,100,1,0
124692,750,4,1,9,100,1,1
125348,-100,4,1,1,100,0,1
126098,-100,4,1,3,100,0,1
126848,-100,4,1,8,100,0,1
127598,-100,4,2,2,100,0,1
128348,-100,4,1,1,100,0,1
128910,-100,4,1,4,100,0,1
129285,-100,4,1,5,100,0,1
129848,-100,4,2,2,100,0,1
130223,-100,4,1,1,100,0,1
130692,-100,4,1,9,100,0,1
131348,-100,4,1,1,100,0,1
132098,-100,4,1,3,100,0,1
132848,-100,4,1,8,100,0,1
133598,-100,4,2,2,100,0,1
133973,-100,4,1,2,100,0,1
134348,-100,4,1,6,100,0,1
134723,-100,4,1,8,100,0,1
135098,-100,4,1,8,100,0,1
135848,-100,4,2,1,100,0,1
136223,-100,4,1,8,100,0,1
136692,-100,4,1,9,100,0,1
137348,-100,4,1,1,100,0,1
138098,-100,4,1,3,100,0,1
138848,-100,4,1,8,100,0,1
139598,-100,4,2,2,100,0,1
140348,-100,4,1,1,100,0,1
140535,-100,4,1,4,100,0,1
141285,-100,4,1,5,100,0,1
141848,-100,4,2,2,100,0,1
142223,-100,4,1,1,100,0,1
142692,-100,4,1,9,100,0,1
143348,-100,4,1,1,100,0,1
144098,-100,4,1,3,100,0,1
144848,-100,4,1,8,100,0,1
145598,-100,4,2,2,100,0,1
145973,-100,4,1,2,100,0,1
146348,-100,4,1,6,100,0,1
146723,-100,4,1,8,100,0,1
147098,-100,4,1,8,100,0,1
147452,-100,4,1,10,100,0,1
148692,-100,4,1,10,5,0,0

[HitObjects]
384,120,3035,6,0,P|328:88|268:112,1,130,2|2,0:0|0:0,0:0:0:0:
264,240,4535,2,0,P|320:272|380:248,1,130,2|2,0:0|0:0,0:0:0:0:
328,136,6035,6,0,P|208:120|140:236,1,260,2|2,0:0|0:0,0:0:0:0:
388,320,9035,6,0,B|412:264|412:264|420:192,1,130,2|2,0:0|0:0,0:0:0:0:
288,160,10535,2,0,B|264:216|264:216|256:288,1,130,2|2,0:0|0:0,0:0:0:0:
132,348,12035,2,0,B|112:260|112:260|140:192|140:192|124:88,1,260,2|2,0:0|0:0,0:0:0:0:
240,36,14285,5,2,0:0:0:0:
344,116,15035,2,0,B|320:248,1,130,2|2,0:0|0:0,0:0:0:0:
212,316,16535,2,0,L|192:172,1,130,2|2,0:0|0:0,0:0:0:0:
268,80,18035,6,0,P|380:124|376:248,1,260,2|2,0:0|0:0,0:0:0:0:
168,192,21035,6,0,L|196:64,1,130,2|2,0:0|0:0,0:0:0:0:
320,28,22535,2,0,P|349:85|348:149,1,130,2|2,0:0|0:0,0:0:0:0:
268,252,24035,2,0,P|204:224|24:264,1,260,2|2,0:0|0:0,0:0:0:0:
48,136,26285,5,2,0:0:0:0:
136,48,27035,2,0,P|192:52|260:24,1,130,2|2,0:0|0:0,0:0:0:0:
292,148,28535,2,0,P|357:156|422:135,1,130,2|2,0:0|0:0,0:0:0:0:
336,36,30035,2,0,P|212:52|172:168,1,260,2|2,0:0|0:0,0:0:0:0:
208,292,32285,5,2,0:0:0:0:
336,264,33035,2,0,L|372:140,1,130,2|2,0:0|0:0,0:0:0:0:
256,80,34535,2,0,L|220:204,1,130,2|2,0:0|0:0,0:0:0:0:
192,332,36035,2,0,B|312:388|312:264|440:332,1,260,2|2,0:0|0:0,0:0:0:0:
496,216,38285,5,2,0:0:0:0:
436,100,39035,2,0,L|288:84,1,130,2|2,0:0|0:0,0:0:0:0:
232,192,40535,2,0,L|96:216,1,130,2|2,0:0|0:0,0:0:0:0:
84,340,42035,2,0,P|208:360|316:280,1,260,2|2,0:0|0:0,0:0:0:0:
360,168,44285,1,2,0:0:0:0:
320,44,45035,6,0,L|184:28,1,130,2|2,0:0|0:0,0:0:0:0:
164,156,46535,2,0,L|300:172,1,130,2|2,0:0|0:0,0:0:0:0:
404,240,48035,2,0,P|428:304|304:280,1,260,2|2,0:0|0:0,0:0:0:0:
328,160,50285,1,4,0:0:0:0:
436,88,51035,5,4,0:0:0:0:
476,212,51785,1,4,0:0:0:0:
416,328,52535,1,4,0:0:0:0:
288,352,53285,1,4,0:0:0:0:
164,312,54035,2,0,P|96:312|36:336,2,130,4|4|8,0:0|0:0|0:0,0:0:0:0:
264,228,56285,1,4,0:0:0:0:
140,188,57035,5,4,0:0:0:0:
212,80,57785,1,4,0:0:0:0:
336,40,58535,1,4,0:0:0:0:
460,80,59285,1,4,0:0:0:0:
510,200,60035,2,0,L|489:341,1,130,4|4,0:0|0:0,0:0:0:0:
404,232,61535,1,8,0:0:0:0:
444,108,62285,1,8,0:0:0:0:
336,180,63035,5,4,0:0:0:0:
208,160,63785,1,4,0:0:0:0:
108,76,64535,1,4,0:0:0:0:
236,96,65285,1,4,0:0:0:0:
360,136,66035,2,0,P|408:176|432:248,1,130,4|4,0:0|0:0,0:0:0:0:
400,364,67535,1,8,0:0:0:0:
272,344,68285,5,4,0:0:0:0:
321,223,69035,2,0,P|329:159|321:87,1,130,4|4,0:0|0:0,0:0:0:0:
189,94,70535,2,0,P|182:158|191:223,1,130,4|4,0:0|0:0,0:0:0:0:
256,192,72035,12,2,74285,0:0:0:0:
64,308,75035,6,0,P|126:330|192:321,1,130,4|4,0:0|0:0,0:0:0:0:
248,264,76160,1,8,0:0:0:0:
296,196,76535,2,0,P|356:172|424:180,1,130,4|4,0:0|0:0,0:0:0:0:
476,116,77660,1,8,0:0:0:0:
412,64,78035,6,0,P|324:92|172:36,1,260,4|8,0:0|0:0,0:0:0:0:
64,108,80285,1,4,0:0:0:0:
148,208,81035,6,0,P|156:272|148:344,1,130,4|4,0:0|0:0,0:0:0:0:
224,376,82160,1,8,0:0:0:0:
304,352,82535,2,0,L|324:224,1,130,4|4,0:0|0:0,0:0:0:0:
296,144,83660,1,8,0:0:0:0:
220,176,84035,6,0,P|196:240|200:320,1,130,4|4,0:0|0:0,0:0:0:0:
124,344,85160,2,0,P|100:280|104:200,1,130,8|4,0:0|0:0,0:0:0:0:
136,144,86285,1,4,0:0:0:0:
228,236,87035,6,0,P|288:256|360:240,1,130,4|4,0:0|0:0,0:0:0:0:
396,172,88160,1,8,0:0:0:0:
372,92,88535,2,0,P|312:68|248:72,1,130,4|4,0:0|0:0,0:0:0:0:
192,132,89660,1,8,0:0:0:0:
168,212,90035,2,0,B|148:296|180:336|180:336|232:340|288:264,1,260,4|8,0:0|0:0,0:0:0:0:
336,112,92285,1,4,0:0:0:0:
188,40,93035,6,0,L|56:80,1,130,4|4,0:0|0:0,0:0:0:0:
16,144,94160,1,8,0:0:0:0:
36,224,94535,2,0,L|192:252,1,130,4|4,0:0|0:0,0:0:0:0:
240,216,95660,1,8,0:0:0:0:
316,184,96035,6,0,P|384:172|456:180,1,130,4|2,0:0|0:0,0:0:0:0:
496,112,97160,2,0,P|436:84|368:76,1,130,4|4,0:0|0:0,0:0:0:0:
308,128,98285,2,0,L|288:208,1,65,2|8,0:0|0:0,0:0:0:0:
216,156,99035,6,0,L|208:92,1,65,2|2,0:0|0:0,0:0:0:0:
136,48,99785,2,0,L|68:56,1,65,2|2,0:0|0:0,0:0:0:0:
16,120,100535,2,0,L|20:192,1,65,2|2,0:0|0:0,0:0:0:0:
88,232,101285,2,0,L|164:224,1,65,2|2,0:0|0:0,0:0:0:0:
236,212,102035,6,0,L|304:220,1,65,2|2,0:0|0:0,0:0:0:0:
376,180,102785,2,0,L|384:104,1,65,2|2,0:0|0:0,0:0:0:0:
328,52,103535,2,0,L|252:40,1,65,2|2,0:0|0:0,0:0:0:0:
192,84,104285,2,0,L|176:160,1,65,2|2,0:0|0:0,0:0:0:0:
160,228,105035,6,0,L|164:296,1,65,2|2,0:0|0:0,0:0:0:0:
248,292,105785,2,0,L|252:360,1,65,2|2,0:0|0:0,0:0:0:0:
336,356,106535,2,0,L|340:288,1,65,2|2,0:0|0:0,0:0:0:0:
424,292,107285,2,0,L|428:224,1,65,2|2,0:0|0:0,0:0:0:0:
432,144,108035,6,0,L|424:76,1,65,2|2,0:0|0:0,0:0:0:0:
340,88,108785,2,0,L|332:16,1,65,2|2,0:0|0:0,0:0:0:0:
248,24,109535,2,0,L|240:88,1,65,2|2,0:0|0:0,0:0:0:0:
156,88,110285,2,0,L|148:156,1,65,2|2,0:0|0:0,0:0:0:0:
120,232,111035,6,0,L|40:224,1,65,2|2,0:0|0:0,0:0:0:0:
40,308,111785,2,0,L|120:316,1,65,2|2,0:0|0:0,0:0:0:0:
188,332,112535,1,2,0:0:0:0:
348,276,113285,1,2,0:0:0:0:
196,204,114035,2,0,L|128:200,1,65,2|2,0:0|0:0,0:0:0:0:
136,116,114785,2,0,L|204:120,1,65,2|2,0:0|0:0,0:0:0:0:
284,100,115535,1,2,0:0:0:0:
444,160,116285,1,2,0:0:0:0:
376,316,117035,6,0,L|308:304,1,65,2|2,0:0|0:0,0:0:0:0:
228,328,117785,2,0,L|148:312,1,65,2|2,0:0|0:0,0:0:0:0:
80,332,118535,2,0,L|92:256,1,65,2|2,0:0|0:0,0:0:0:0:
48,192,119285,2,0,L|56:128,1,65,2|2,0:0|0:0,0:0:0:0:
104,56,120035,5,2,0:0:0:0:
216,120,120834,5,2,0:0:0:0:
360,112,121729,5,2,0:0:0:0:
264,216,122755,5,2,0:0:0:0:
288,364,124692,5,4,0:0:0:0:
372,216,125442,1,8,0:0:0:0:
312,56,126192,1,8,0:0:0:0:
168,148,126942,1,4,0:0:0:0:
216,312,127692,6,0,P|272:340|340:328,1,130,8|8,0:0|0:0,0:0:0:0:
432,188,129192,2,0,L|424:120,1,65,8|0,0:0|0:0,0:0:0:0:
340,148,129942,2,0,L|352:236,1,65,8|8,0:0|0:0,0:0:0:0:
312,288,130692,5,4,0:0:0:0:
148,336,131442,1,8,0:0:0:0:
36,208,132192,1,8,0:0:0:0:
124,56,132942,1,4,0:0:0:0:
296,100,133692,6,0,L|364:92,1,65,8|8,0:0|0:0,0:0:0:0:
336,180,134442,2,0,L|404:172,1,65,8|4,0:0|0:0,0:0:0:0:
376,256,135192,2,0,P|300:272|240:260,1,130,4|4,0:0|0:0,0:0:0:0:
196,196,136317,1,8,0:0:0:0:
204,112,136692,5,4,0:0:0:0:
368,64,137442,1,8,0:0:0:0:
472,200,138192,1,8,0:0:0:0:
368,336,138942,1,4,0:0:0:0:
212,260,139692,6,0,P|144:248|80:268,1,130,8|8,0:0|0:0,0:0:0:0:
236,360,141192,2,0,L|304:348,1,65,8|0,0:0|0:0,0:0:0:0:
320,264,141942,2,0,L|388:252,1,65,8|8,0:0|0:0,0:0:0:0:
468,272,142692,5,4,0:0:0:0:
420,108,143442,1,8,0:0:0:0:
248,80,144192,1,8,0:0:0:0:
96,156,144942,1,4,0:0:0:0:
120,324,145692,2,0,L|184:344,1,65,8|8,0:0|0:0,0:0:0:0:
220,268,146442,2,0,L|157:248,2,65,8|4|4,0:0|0:0|0:0,0:0:0:0:
292,224,147567,6,8,P|312:156|208:136,1,195
