osu file format v14

[General]
AudioFilename: sagashi mono.mp3
AudioLeadIn: 0
PreviewTime: 74250
Countdown: 0
SampleSet: Normal
StackLeniency: 0.7
Mode: 1
LetterboxInBreaks: 0
WidescreenStoryboard: 1

[Editor]
DistanceSpacing: 2
BeatDivisor: 2
GridSize: 4
TimelineZoom: 1.2

[Metadata]
Title:Sagashi Mono
TitleUnicode:探し物
Artist:onoken
ArtistUnicode:onoken
Creator:sing216
Version:Futsuu
Source:BMS
Tags:
BeatmapID:1278415
BeatmapSetID:604886

[Difficulty]
HPDrainRate:7
CircleSize:5
OverallDifficulty:4
ApproachRate:5
SliderMultiplier:1.4
SliderTickRate:1

[Events]
//Background and Video events
0,0,"BG.jpg",0,-100
//Break Periods
//Storyboard Layer 0 (Background)
//Storyboard Layer 1 (Fail)
//Storyboard Layer 2 (Pass)
//Storyboard Layer 3 (Foreground)
//Storyboard Sound Samples

[TimingPoints]
2250,750,4,1,0,70,1,0
50250,-98.0392156862745,4,1,0,70,0,0
50437,-96.1538461538461,4,1,0,70,0,0
50625,-94.3396226415094,4,1,0,70,0,0
50812,-92.5925925925926,4,1,0,70,0,0
51000,-90.9090909090909,4,1,0,70,0,0
74250,-89.2857142857143,4,1,0,70,0,0
74437,-87.719298245614,4,1,0,70,0,0
74625,-86.2068965517241,4,1,0,70,0,0
74812,-84.7457627118644,4,1,0,70,0,0
75000,-83.3333333333333,4,1,0,70,0,1
98250,-86.2068965517241,4,1,0,70,0,1
98437,-89.2857142857143,4,1,0,70,0,1
98625,-92.5925925925926,4,1,0,70,0,1
98812,-96.1538461538461,4,1,0,70,0,1
99000,-100,4,1,0,70,0,0
111000,-90.9090909090909,4,1,0,70,0,0
120000,800,4,1,0,70,1,0
120000,-91.743119266055,4,1,0,70,0,0
120192,-92.5925925925926,4,1,0,70,0,0
120389,-93.4579439252336,4,1,0,70,0,0
120591,-94.3396226415094,4,1,0,70,0,0
120800,895.522388059701,4,1,0,70,1,0
120800,-95.2380952380952,4,1,0,70,0,0
121013,-96.1538461538461,4,1,0,70,0,0
121233,-97.0873786407767,4,1,0,70,0,0
121460,-98.0392156862745,4,1,0,70,0,0
121695,1025.64102564103,4,1,0,70,1,0
121695,-99.009900990099,4,1,0,70,0,0
122720,1224.48979591837,4,1,0,70,1,0
123032,1500,4,1,0,70,1,0
123407,2000,4,1,0,70,1,0
123907,3000,4,1,0,70,1,0
124657,750,4,1,0,70,1,1
124657,-83.3333333333333,4,1,0,70,0,1
124844,-83.3333333333333,4,1,0,70,0,1
147907,-86.2068965517241,4,1,0,70,0,1
148094,-89.2857142857143,4,1,0,70,0,1
148282,-92.5925925925926,4,1,0,70,0,1
148469,-96.1538461538461,4,1,0,70,0,1
148657,-100,4,1,0,70,0,0

[HitObjects]
256,192,2250,5,0,0:0:0:0:
256,192,3000,5,8,0:0:0:0:
256,192,3750,1,0,0:0:0:0:
256,192,4125,1,8,0:0:0:0:
256,192,4500,1,0,0:0:0:0:
256,192,5250,1,8,0:0:0:0:
256,192,5625,1,0,0:0:0:0:
256,192,6000,1,0,0:0:0:0:
256,192,6750,1,8,0:0:0:0:
256,192,7500,1,0,0:0:0:0:
256,196,8250,1,0,0:0:0:0:
256,196,9000,1,8,0:0:0:0:
256,196,9750,1,0,0:0:0:0:
256,196,10125,1,8,0:0:0:0:
256,196,10500,1,0,0:0:0:0:
256,196,11250,1,8,0:0:0:0:
256,196,11625,1,0,0:0:0:0:
256,196,12000,1,0,0:0:0:0:
256,196,12750,1,8,0:0:0:0:
256,196,13500,1,8,0:0:0:0:
256,192,14250,5,0,0:0:0:0:
256,192,15000,5,8,0:0:0:0:
256,192,15750,1,0,0:0:0:0:
256,192,16125,1,8,0:0:0:0:
256,192,16500,1,0,0:0:0:0:
256,192,17250,1,8,0:0:0:0:
256,192,17625,1,0,0:0:0:0:
256,192,18000,1,0,0:0:0:0:
256,192,18750,1,8,0:0:0:0:
256,192,19500,1,0,0:0:0:0:
256,196,20250,1,0,0:0:0:0:
256,196,21000,1,8,0:0:0:0:
256,196,21750,1,0,0:0:0:0:
256,196,22125,1,8,0:0:0:0:
256,196,22500,1,0,0:0:0:0:
256,196,23250,1,8,0:0:0:0:
256,196,23625,1,0,0:0:0:0:
256,196,24000,1,0,0:0:0:0:
256,196,24750,1,8,0:0:0:0:
256,196,25500,1,8,0:0:0:0:
256,192,26250,5,0,0:0:0:0:
256,192,27000,5,12,0:0:0:0:
256,192,27750,1,0,0:0:0:0:
256,192,28125,1,8,0:0:0:0:
256,192,28500,1,0,0:0:0:0:
256,192,29250,1,0,0:0:0:0:
256,192,30750,1,0,0:0:0:0:
256,196,32250,1,0,0:0:0:0:
256,196,33000,1,12,0:0:0:0:
256,196,33750,1,0,0:0:0:0:
256,196,34125,1,8,0:0:0:0:
256,196,34500,1,0,0:0:0:0:
256,196,35250,1,8,0:0:0:0:
256,196,35625,1,8,0:0:0:0:
256,196,36000,1,0,0:0:0:0:
256,196,36750,1,8,0:0:0:0:
256,196,37500,1,8,0:0:0:0:
248,192,38250,1,0,0:0:0:0:
248,192,39000,1,12,0:0:0:0:
256,196,39750,1,0,0:0:0:0:
256,196,40125,1,8,0:0:0:0:
256,192,40500,12,8,42750,0:0:0:0:
256,192,44250,5,0,0:0:0:0:
256,192,45000,1,8,0:0:0:0:
256,192,45750,1,0,0:0:0:0:
256,192,46125,1,8,0:0:0:0:
256,192,46500,1,0,0:0:0:0:
256,192,47250,1,8,0:0:0:0:
256,192,47625,1,0,0:0:0:0:
256,192,48000,1,8,0:0:0:0:
256,192,48750,1,0,0:0:0:0:
256,192,49500,1,8,0:0:0:0:
256,192,50250,1,0,0:0:0:0:
256,192,51000,1,12,0:0:0:0:
260,192,51750,1,8,0:0:0:0:
256,200,52125,1,8,0:0:0:0:
256,200,52500,1,0,0:0:0:0:
256,200,53250,1,8,0:0:0:0:
256,200,53625,1,8,0:0:0:0:
256,200,54000,1,0,0:0:0:0:
244,196,54750,1,8,0:0:0:0:
256,192,55500,1,0,0:0:0:0:
256,192,56250,1,0,0:0:0:0:
256,192,57000,1,12,0:0:0:0:
260,192,57750,1,8,0:0:0:0:
256,200,58125,1,8,0:0:0:0:
256,200,58500,1,0,0:0:0:0:
256,200,59250,1,8,0:0:0:0:
256,200,59625,1,8,0:0:0:0:
256,192,60000,1,0,0:0:0:0:
256,192,60750,1,8,0:0:0:0:
256,192,61500,1,0,0:0:0:0:
260,188,61875,1,8,0:0:0:0:
256,192,62250,1,0,0:0:0:0:
256,192,63000,1,12,0:0:0:0:
260,192,63750,1,8,0:0:0:0:
256,200,64125,1,8,0:0:0:0:
256,200,64500,1,0,0:0:0:0:
256,200,65250,1,8,0:0:0:0:
256,200,65625,1,8,0:0:0:0:
256,200,66000,1,0,0:0:0:0:
244,196,66750,1,8,0:0:0:0:
256,192,67500,1,0,0:0:0:0:
256,192,68250,1,0,0:0:0:0:
256,192,69000,1,12,0:0:0:0:
260,192,69750,1,8,0:0:0:0:
256,200,70125,1,8,0:0:0:0:
256,200,70500,1,0,0:0:0:0:
256,200,71250,1,8,0:0:0:0:
256,200,71625,1,8,0:0:0:0:
256,192,72000,1,0,0:0:0:0:
256,192,72750,1,8,0:0:0:0:
256,192,73500,1,0,0:0:0:0:
260,188,73875,1,8,0:0:0:0:
256,192,74250,1,0,0:0:0:0:
256,192,75000,1,12,0:0:0:0:
256,196,75750,1,0,0:0:0:0:
256,196,76125,1,8,0:0:0:0:
256,196,76500,1,8,0:0:0:0:
256,196,77250,1,0,0:0:0:0:
256,196,77625,1,8,0:0:0:0:
256,196,78000,1,8,0:0:0:0:
256,196,78750,1,8,0:0:0:0:
256,196,79499,1,0,0:0:0:0:
248,192,80250,1,0,0:0:0:0:
248,192,81000,1,12,0:0:0:0:
256,196,81750,1,8,0:0:0:0:
256,192,82125,1,8,0:0:0:0:
256,196,82500,1,0,0:0:0:0:
256,196,83250,1,8,0:0:0:0:
256,192,83625,1,8,0:0:0:0:
256,196,84000,1,0,0:0:0:0:
256,196,84750,1,8,0:0:0:0:
256,192,85500,1,0,0:0:0:0:
256,196,85875,1,8,0:0:0:0:
248,196,86250,1,0,0:0:0:0:
248,196,87000,1,12,0:0:0:0:
256,196,87750,1,0,0:0:0:0:
256,196,88125,1,8,0:0:0:0:
256,196,88500,1,8,0:0:0:0:
256,196,89250,1,0,0:0:0:0:
256,196,89625,1,8,0:0:0:0:
256,196,90000,1,8,0:0:0:0:
256,196,90750,1,8,0:0:0:0:
256,196,91499,1,0,0:0:0:0:
248,192,92250,1,0,0:0:0:0:
248,192,93000,1,12,0:0:0:0:
256,196,93750,1,8,0:0:0:0:
256,192,94125,1,8,0:0:0:0:
256,196,94500,1,0,0:0:0:0:
256,196,95250,1,8,0:0:0:0:
256,192,95625,1,8,0:0:0:0:
256,196,96000,1,0,0:0:0:0:
256,196,96750,1,8,0:0:0:0:
256,192,97500,1,0,0:0:0:0:
256,196,97875,1,8,0:0:0:0:
256,192,98250,1,0,0:0:0:0:
256,192,99000,1,8,0:0:0:0:
256,192,99750,1,8,0:0:0:0:
256,192,100500,1,0,0:0:0:0:
256,192,100875,1,8,0:0:0:0:
256,192,101250,1,0,0:0:0:0:
256,192,102000,1,8,0:0:0:0:
256,192,102750,1,8,0:0:0:0:
256,192,103500,1,0,0:0:0:0:
252,184,103875,1,8,0:0:0:0:
256,192,104250,1,0,0:0:0:0:
256,184,105000,1,8,0:0:0:0:
256,184,105375,1,0,0:0:0:0:
256,184,105750,1,8,0:0:0:0:
256,184,106500,1,0,0:0:0:0:
256,184,107250,1,0,0:0:0:0:
256,200,108000,1,8,0:0:0:0:
252,196,108375,1,0,0:0:0:0:
256,200,108750,1,8,0:0:0:0:
256,200,109500,1,0,0:0:0:0:
256,200,110250,1,0,0:0:0:0:
256,200,111000,1,12,0:0:0:0:
256,192,111750,1,8,0:0:0:0:
252,200,112125,1,0,0:0:0:0:
256,192,112500,1,0,0:0:0:0:
256,184,113250,1,0,0:0:0:0:
256,200,113625,1,0,0:0:0:0:
256,192,114000,1,8,0:0:0:0:
252,196,114375,1,0,0:0:0:0:
256,192,114750,1,8,0:0:0:0:
256,192,115500,1,0,0:0:0:0:
256,192,116250,1,0,0:0:0:0:
252,196,116625,1,0,0:0:0:0:
256,192,117000,1,8,0:0:0:0:
260,204,117375,1,0,0:0:0:0:
256,192,117750,1,8,0:0:0:0:
256,192,118500,1,0,0:0:0:0:
256,192,119250,1,0,0:0:0:0:
256,192,119625,1,0,0:0:0:0:
256,192,120000,1,8,0:0:0:0:
260,200,120800,1,8,0:0:0:0:
260,200,121695,1,0,0:0:0:0:
256,192,122720,12,0,123907,0:0:0:0:
248,192,124657,5,12,0:0:0:0:
256,192,125407,1,0,0:0:0:0:
256,196,125782,1,8,0:0:0:0:
256,192,126157,1,0,0:0:0:0:
256,192,126907,1,0,0:0:0:0:
256,192,127282,1,8,0:0:0:0:
256,196,127657,1,0,0:0:0:0:
256,196,128407,1,8,0:0:0:0:
260,200,129157,1,0,0:0:0:0:
252,192,129907,1,0,0:0:0:0:
252,192,130657,1,12,0:0:0:0:
252,200,131407,1,0,0:0:0:0:
252,200,131782,1,8,0:0:0:0:
252,200,132157,1,0,0:0:0:0:
252,200,132907,1,8,0:0:0:0:
252,200,133282,1,8,0:0:0:0:
252,192,133657,1,0,0:0:0:0:
252,192,134407,1,0,0:0:0:0:
260,200,135157,1,8,0:0:0:0:
260,200,135532,1,0,0:0:0:0:
256,192,135907,1,0,0:0:0:0:
256,192,136657,1,12,0:0:0:0:
256,192,137407,1,0,0:0:0:0:
256,196,137782,1,8,0:0:0:0:
256,192,138157,1,0,0:0:0:0:
256,192,138907,1,0,0:0:0:0:
256,192,139282,1,8,0:0:0:0:
256,196,139657,1,0,0:0:0:0:
256,196,140407,1,8,0:0:0:0:
260,200,141157,1,0,0:0:0:0:
252,192,141907,1,0,0:0:0:0:
252,192,142657,1,12,0:0:0:0:
252,200,143407,1,0,0:0:0:0:
252,200,143782,1,8,0:0:0:0:
252,200,144157,1,0,0:0:0:0:
252,200,144907,1,8,0:0:0:0:
252,200,145282,1,8,0:0:0:0:
252,192,145657,1,0,0:0:0:0:
252,192,146407,1,0,0:0:0:0:
260,200,147157,1,8,0:0:0:0:
260,200,147532,1,0,0:0:0:0:
256,200,147907,1,0,0:0:0:0:
256,200,148657,1,12,0:0:0:0:
