osu file format v14

[General]
AudioFilename: audio.mp3
AudioLeadIn: 0
PreviewTime: 29099
Countdown: 0
SampleSet: Soft
StackLeniency: 0.2
Mode: 0
LetterboxInBreaks: 0
WidescreenStoryboard: 1

[Editor]
DistanceSpacing: 1.7
BeatDivisor: 4
GridSize: 32
TimelineZoom: 2.500005

[Metadata]
Title:Quinine -A2D SIDE-
TitleUnicode:Quinine -A2D SIDE-
Artist:onoken
ArtistUnicode:onoken
Creator:Matrix
Version:Hard
Source:
Tags:keigoclear unko jace best cd ever17 bms
BeatmapID:2003965
BeatmapSetID:932298

[Difficulty]
HPDrainRate:4
CircleSize:4
OverallDifficulty:6.5
ApproachRate:7.5
SliderMultiplier:0.899999999999999
SliderTickRate:1

[Events]
//Background and Video events
0,0,"quinine.png",0,0
Video,-120,"video.mp4"
//Break Periods
//Storyboard Layer 0 (Background)
//Storyboard Layer 1 (Fail)
//Storyboard Layer 2 (Pass)
//Storyboard Layer 3 (Foreground)
//Storyboard Layer 4 (Overlay)
//Storyboard Sound Samples

[TimingPoints]
1100,333.333333333333,4,2,1,70,1,0
1100,-125,4,2,1,20,0,0
1766,-125,4,2,1,20,0,0
2433,-100,4,2,1,30,0,0
18433,-80,4,2,1,80,0,0
29099,-117.647058823529,4,2,1,55,0,0
39766,-80,4,2,1,65,0,0
40433,-66.6666666666667,4,2,1,65,0,0
40766,-80,4,2,1,65,0,0
41766,-66.6666666666667,4,2,1,65,0,0
42099,-80,4,2,1,65,0,0
43099,-66.6666666666667,4,2,1,65,0,0
43433,-80,4,2,1,65,0,0
44433,-66.6666666666667,4,2,1,65,0,0
45099,-80,4,2,1,65,0,0
47099,-66.6666666666667,4,2,1,65,0,0
47433,-80,4,2,1,65,0,0
50433,266.666666666667,4,2,1,40,1,0
50566,340.909090909091,4,2,1,40,1,0
50906,324.324324324324,4,2,1,40,1,0
51230,333.333333333333,4,2,1,40,1,0
51730,375,4,2,1,40,1,0
52105,333.333333333333,4,2,1,23,1,0
52438,324.324324324324,4,2,1,44,1,0
52762,342.857142857143,4,2,1,50,1,0
53104,335.195530726257,4,2,1,70,1,0
53104,-80,4,2,3,85,0,0
54444,333.333333333333,4,2,3,85,1,0
54444,-80,4,2,3,85,0,0
62444,-80,4,2,3,85,0,0
63777,-80,4,2,3,85,0,0
73110,-80,4,2,3,85,0,0
74443,-66.6666666666667,4,2,4,85,0,1
85110,-100,4,2,3,70,0,0
95777,-100,4,2,1,60,0,0

[Colours]
Combo1 : 176,184,255
Combo2 : 0,128,255
Combo3 : 0,255,255
Combo4 : 0,196,152

[HitObjects]
257,119,1100,6,0,P|301:115|307:113,1,36,0|2,0:0|0:0,0:0:0:0:
354,153,1433,2,0,P|358:197|360:203,1,36,0|2,0:0|0:0,0:0:0:0:
325,254,1766,2,0,P|281:258|275:260,1,36,0|2,0:0|0:0,0:0:0:0:
225,222,2099,2,0,P|221:178|219:172,1,36,0|2,0:0|0:0,0:0:0:0:
146,152,2433,2,0,L|110:116,3,45,0|2|0|2,0:0|0:0|0:0|0:0,0:0:0:0:
495,151,3766,6,0,L|446:129,1,45,0|2,0:0|0:0,0:0:0:0:
394,84,4099,2,0,L|345:62,1,45,0|2,0:0|0:0,0:0:0:0:
279,88,4433,2,0,L|230:66,1,45,0|2,0:0|0:0,0:0:0:0:
180,18,4766,2,0,L|131:-4,1,45,0|2,0:0|0:0,0:0:0:0:
78,53,5099,2,0,L|119:71,3,45,0|2|2|2,0:0|0:0|0:0|0:0,0:0:0:0:
394,340,6433,5,0,0:0:0:0:
335,291,6599,2,0,L|281:293,2,45,2|0|2,0:0|0:0|0:0,0:0:0:0:
406,263,7099,1,0,0:0:0:0:
471,224,7266,2,0,L|509:198,2,45,2|0|2,0:0|0:0|0:0,0:0:0:0:
404,185,7766,2,0,L|361:159,3,45,0|2|0|2,0:0|0:0|0:0|0:0,0:0:0:0:
99,318,9099,6,0,L|72:360,1,45,0|2,0:0|0:0,0:0:0:0:
0,340,9433,2,0,L|27:298,1,45,0|2,0:0|0:0,0:0:0:0:
71,240,9766,2,0,L|33:201,2,45,0|2|0,0:0|0:0|0:0,0:0:0:0:
147,252,10266,1,2,0:0:0:0:
126,178,10433,2,0,L|113:134,3,45,0|2|2|2,0:0|0:0|0:0|0:0,0:0:0:0:
500,52,11766,6,0,L|468:11,1,45,0|2,0:0|0:0,0:0:0:0:
419,88,12099,2,0,L|402:38,3,45,0|2|0|2,0:0|0:0|0:0|0:0,0:0:0:0:
331,97,12766,2,0,L|332:45,1,45,0|2,0:0|0:0,0:0:0:0:
244,73,13099,2,0,L|263:24,3,45,0|2|0|2,0:0|0:0|0:0|0:0,0:0:0:0:
37,337,14433,5,0,0:0:0:0:
106,305,14599,2,0,L|136:248,1,45,2|0,0:0|0:0,0:0:0:0:
187,217,14933,1,2,0:0:0:0:
118,185,15099,2,0,L|88:128,1,45,0|2,0:0|0:0,0:0:0:0:
32,102,15433,1,0,0:0:0:0:
100,68,15599,1,2,0:0:0:0:
170,38,15766,2,0,L|200:-19,3,45,0|2|2|2,0:0|0:0|0:0|0:0,0:0:0:0:
256,192,16766,12,0,18099,1:0:0:0:
271,62,18433,6,0,P|225:84|202:87,1,56.2499999999999,4|0,1:0|0:0,0:0:0:0:
129,116,18766,1,8,0:0:0:0:
80,198,18933,2,0,P|107:203|182:256,1,112.5,0|0,0:0|0:0,0:0:0:0:
239,321,19433,1,8,0:0:0:0:
333,334,19599,1,0,0:0:0:0:
426,291,19766,6,0,P|389:251|379:232,1,56.2499999999999,0|0,0:0|0:0,0:0:0:0:
292,256,20099,2,8,P|294:201|300:181,1,56.2499999999999,8|0,0:0|0:0,0:0:0:0:
210,153,20433,2,0,P|249:116|269:106,1,56.2499999999999,0|0,0:0|0:0,0:0:0:0:
234,26,20766,2,0,P|288:28|308:34,1,56.2499999999999,8|0,0:0|0:0,0:0:0:0:
380,82,21099,6,0,P|356:107|336:146,2,56.2499999999999,0|0|8,0:0|0:0|0:0,0:0:0:0:
472,40,21599,2,0,P|465:84|465:116,1,56.2499999999999
504,185,21933,1,0,0:0:0:0:
407,177,22099,1,8,0:0:0:0:
454,271,22266,1,0,0:0:0:0:
454,271,22349,1,0,0:0:0:0:
454,271,22433,6,2,L|396:285,1,56.2499999999999,0|2,0:0|0:0,0:0:0:0:
341,355,22766,2,0,L|285:333,1,56.2499999999999,8|2,0:0|0:0,0:0:0:0:
193,320,23099,2,0,L|238:282,1,56.2499999999999,0|2,0:0|0:0,0:0:0:0:
298,210,23433,2,0,L|306:268,1,56.2499999999999,8|8,0:0|0:0,0:0:0:0:
213,203,23766,5,4,1:0:0:0:
134,203,23933,2,0,P|137:230|134:258,1,56.2499999999999,0|8,0:0|0:0,0:0:0:0:
57,243,24266,2,0,P|24:304|10:365,1,112.5
95,350,24766,1,8,0:0:0:0:
184,335,24933,1,0,0:0:0:0:
189,238,25099,6,0,B|231:200,1,56.2499999999999
272,290,25433,1,8,0:0:0:0:
333,216,25599,1,0,0:0:0:0:
363,306,25766,2,0,L|378:365,1,56.2499999999999,0|0,0:0|0:0,0:0:0:0:
435,241,26099,2,8,L|419:180,1,56.2499999999999,8|0,0:0|0:0,0:0:0:0:
507,153,26433,5,0,0:0:0:0:
472,55,26599,2,0,L|477:-7,2,56.2499999999999,0|8|0,0:0|0:0|0:0,0:0:0:0:
382,107,27099,1,0,0:0:0:0:
382,107,27183,1,0,0:0:0:0:
382,107,27266,1,0,0:0:0:0:
303,59,27433,1,8,0:0:0:0:
231,107,27599,6,0,L|206:71,2,28.125,0|0|0,0:0|0:0|1:0,0:0:0:0:
237,189,27933,1,2,0:0:0:0:
155,153,28099,2,0,P|113:148|83:155,1,56.2499999999999,8|2,0:0|1:2,0:0:0:0:
9,141,28433,2,0,P|34:107|43:77,1,56.2499999999999,2|10,1:2|0:0,0:0:0:0:
96,17,28766,2,0,P|113:54|134:77,1,56.2499999999999,8|2,0:0|1:2,0:0:0:0:
259,84,29099,6,0,P|312:76|350:63,1,76.5000014591216,4|2,0:0|0:0,0:0:0:0:
409,27,29766,2,0,P|411:80|405:119,1,76.5000014591216,0|2,0:0|0:0,0:0:0:0:
383,185,30433,2,0,P|438:189|467:200,1,76.5000014591216,0|2,0:0|0:0,0:0:0:0:
509,280,31099,2,0,L|479:318,1,38.2500007295608,2|0,0:0|0:0,0:0:0:0:
431,314,31433,2,0,L|408:344,1,38.2500007295608,2|0,0:0|0:0,0:0:0:0:
357,362,31766,5,0,0:0:0:0:
254,242,32099,2,0,L|305:305,1,76.5000014591216,2|0,0:0|0:0,0:0:0:0:
222,328,32766,2,0,L|143:340,1,76.5000014591216,2|0,0:0|0:0,0:0:0:0:
164,256,33433,2,0,L|194:180,2,76.5000014591216,2|0|2,0:0|0:0|0:0,0:0:0:0:
0,152,34433,5,0,0:0:0:0:
22,27,34766,1,2,0:0:0:0:
148,47,35099,1,0,0:0:0:0:
125,173,35433,1,2,0:0:0:0:
148,47,35766,2,0,P|191:48|234:70,1,76.5000014591216,0|2,0:0|0:0,0:0:0:0:
125,173,36433,2,0,P|160:186|198:187,1,76.5000014591216,2|2,0:0|0:0,0:0:0:0:
377,76,37099,5,0,0:0:0:0:
512,45,37433,1,2,0:0:0:0:
477,170,37766,5,0,0:0:0:0:
342,139,38099,1,2,0:0:0:0:
252,44,38433,5,0,0:0:0:0:
387,17,38766,1,2,0:0:0:0:
252,44,39099,2,0,L|164:35,1,76.5000014591216,0|2,0:0|0:0,0:0:0:0:
372,39,39766,6,0,P|355:87|340:103,1,56.2499999999999,4|0,1:0|0:0,0:0:0:0:
346,167,40099,1,2,0:0:0:0:
507,372,40433,2,4,L|425:330,1,67.5000025749207,8|0,1:2|0:0,0:0:0:0:
365,348,40766,2,0,P|332:354|297:348,1,56.2499999999999,2|0,0:0|0:0,0:0:0:0:
274,277,41099,2,0,P|246:275|219:281,1,56.2499999999999,0|2,1:0|0:0,0:0:0:0:
176,356,41433,1,0,1:0:0:0:
28,282,41766,2,4,L|75:216,1,67.5000025749207,8|0,1:2|0:0,0:0:0:0:
143,202,42099,2,0,P|119:170|87:145,1,56.2499999999999,2|2,0:0|0:0,0:0:0:0:
32,129,42433,6,0,P|60:96|81:81,1,56.2499999999999,0|0,1:0|0:0,0:0:0:0:
145,79,42766,1,2,0:0:0:0:
294,45,43099,2,4,L|324:117,1,67.5000025749207,8|0,1:2|0:0,0:0:0:0:
387,158,43433,2,0,L|396:91,1,56.2499999999999,2|0,0:0|0:0,0:0:0:0:
474,75,43766,2,0,L|465:142,1,56.2499999999999,0|2,1:0|0:0,0:0:0:0:
454,208,44099,1,0,1:0:0:0:
385,331,44433,2,4,L|281:227,1,135.000005149841,8|2,1:2|1:2,0:0:0:0:
219,326,45099,6,0,P|162:347|106:346,1,112.5,4|2,1:0|0:0,0:0:0:0:
145,240,45766,1,8,1:2:0:0:
73,154,46099,2,0,P|130:133|186:134,1,112.5,2|0,0:0|1:0,0:0:0:0:
273,203,46766,1,0,1:0:0:0:
375,216,47099,2,4,L|339:156,1,67.5000025749207,8|0,1:2|0:0,0:0:0:0:
449,190,47433,2,0,P|455:224|451:256,1,56.2499999999999,2|2,0:0|0:0,0:0:0:0:
362,324,47766,6,0,P|355:290|384:205,1,112.5,0|2,1:0|0:0,0:0:0:0:
197,192,48433,2,4,P|229:203|289:270,1,112.5,8|2,1:2|0:0,0:0:0:0:
317,151,49099,1,0,1:0:0:0:
203,100,49433,1,0,1:0:0:0:
317,46,49766,1,8,1:2:0:0:
431,97,50099,1,2,0:0:0:0:
256,192,50433,12,4,52762,0:0:0:0:
474,39,53104,6,0,P|409:55|365:95,1,112.5,4|8,0:3|0:0,0:0:0:0:
453,133,53606,1,0,0:0:0:0:
512,233,53774,2,0,L|389:206,1,112.5,0|8,0:0|0:0,0:0:0:0:
330,264,54277,2,0,L|310:218,2,28.125
415,293,54610,1,0,0:0:0:0:
497,328,54777,2,0,L|450:380,1,56.2499999999999,8|0,0:0|0:0,0:0:0:0:
369,366,55110,2,0,P|303:364|251:337,1,112.5,2|2,0:0|0:0,0:0:0:0:
206,281,55610,1,10,0:0:0:0:
161,352,55777,6,0,P|101:345|48:375,1,112.5,4|8,0:0|0:0,0:0:0:0:
12,295,56277,2,0,L|-11:251,2,28.125
53,221,56610,2,0,L|27:170,1,56.2499999999999,0|8,0:0|0:0,0:0:0:0:
98,146,56944,2,0,L|85:121,2,28.125,0|0|2,0:0|0:0|0:0,0:0:0:0:
8,92,57277,1,0,0:0:0:0:
75,39,57444,2,0,P|158:46|190:70,1,112.5,8|2,0:0|0:0,0:0:0:0:
254,23,57944,1,8,0:0:0:0:
256,100,58110,1,2,0:0:0:0:
210,163,58277,1,10,0:0:0:0:
136,191,58443,6,0,P|167:247|160:311,1,112.5,4|8,0:3|0:0,0:0:0:0:
88,266,58943,1,0,0:0:0:0:
0,304,59110,2,0,P|42:340|97:349,1,112.5,0|8,0:0|0:0,0:0:0:0:
166,293,59610,2,0,L|200:322,2,28.125
266,279,59943,1,0,0:0:0:0:
265,362,60110,2,0,P|308:350|338:329,1,56.2499999999999,8|0,0:0|0:0,0:0:0:0:
391,317,60443,2,0,L|462:365,2,74.9999999999999,2|10|10,0:0|0:0|0:0,0:0:0:0:
469,263,61110,5,4,0:0:0:0:
378,221,61277,2,0,L|347:188,2,28.125,0|0|8,0:0|0:0|0:0,0:0:0:0:
456,171,61610,2,0,L|438:129,2,28.125
483,69,61943,1,0,0:0:0:0:
483,69,62027,1,0,0:0:0:0:
483,69,62110,1,8,0:0:0:0:
387,79,62277,2,0,L|358:61,2,28.125,8|0|6,0:0|0:0|0:0,0:0:0:0:
282,83,62610,6,0,P|282:37|290:20,2,56.2499999999999,0|8|0,0:0|0:0|0:0,0:0:0:0:
202,53,63110,1,6,0:0:0:0:
118,66,63277,1,8,0:0:0:0:
39,33,63443,2,0,L|36:93,1,56.2499999999999,2|10,0:0|0:0,0:0:0:0:
38,170,63777,6,0,P|87:215|113:261,1,112.5,4|8,0:3|0:0,0:0:0:0:
165,320,64277,1,0,0:0:0:0:
233,270,64443,1,0,0:0:0:0:
181,203,64610,2,0,P|153:166|146:142,1,56.2499999999999,0|8,0:0|0:0,0:0:0:0:
244,107,64943,2,0,L|226:133,2,28.125
256,23,65277,2,0,P|300:35|334:34,1,56.2499999999999,0|8,0:0|0:0,0:0:0:0:
332,117,65610,1,0,0:0:0:0:
391,57,65777,2,0,P|433:33|455:14,2,74.9999999999999,2|10|10,0:0|0:0|0:0,0:0:0:0:
492,106,66443,6,0,P|469:139|442:216,1,112.5,4|8,0:0|0:0,0:0:0:0:
454,290,66943,2,0,L|440:319,2,28.125
364,297,67277,1,0,0:0:0:0:
274,304,67443,1,8,0:0:0:0:
184,312,67610,2,0,P|156:304|119:301,1,56.2499999999999,0|2,0:0|0:0,0:0:0:0:
52,337,67943,1,0,0:0:0:0:
43,253,68110,2,0,P|82:221|90:201,1,56.2499999999999,8|0,0:0|0:0,0:0:0:0:
130,145,68443,2,0,L|179:196,1,56.2499999999999,2|8,0:0|0:0,0:0:0:0:
224,249,68777,2,0,L|279:196,1,56.2499999999999,2|10,0:0|0:0,0:0:0:0:
335,163,69110,6,0,P|384:153|454:186,1,112.5,4|8,0:0|0:0,0:0:0:0:
486,252,69610,1,0,0:0:0:0:
420,296,69777,2,0,L|371:248,1,56.2499999999999,0|0,0:0|0:0,0:0:0:0:
315,302,70110,1,8,0:0:0:0:
315,302,70193,1,0,0:0:0:0:
315,302,70277,1,0,0:0:0:0:
196,268,70443,6,0,L|236:308,1,56.2499999999999
155,334,70777,1,8,0:0:0:0:
80,307,70943,1,0,0:0:0:0:
7,276,71110,2,0,P|40:241|68:227,2,74.9999999999999,10|10|10,0:0|0:0|0:0,0:0:0:0:
69,114,71777,6,0,P|107:119|145:107,1,56.2499999999999,6|0,0:0|0:0,0:0:0:0:
187,68,72110,1,10,0:0:0:0:
235,130,72277,2,0,L|293:176,1,56.2499999999999,0|2,0:0|0:0,0:0:0:0:
322,99,72610,2,0,L|363:123,2,28.125,2|0|10,0:0|0:0|0:0,0:0:0:0:
410,59,72943,2,0,L|385:44,2,28.125,10|0|6,0:0|0:0|0:0,0:0:0:0:
459,128,73277,5,0,0:0:0:0:
431,213,73443,2,0,P|365:249|333:279,1,112.5,8|6,0:0|0:0,0:0:0:0:
279,220,73943,1,8,0:0:0:0:
261,143,74110,1,10,0:0:0:0:
293,71,74277,1,10,0:0:0:0:
415,102,74443,6,0,P|386:135|376:172,1,67.5000025749207,4|0,0:3|0:0,0:0:0:0:
366,250,74777,2,0,P|333:221|296:211,1,67.5000025749207,2|2,0:0|0:0,0:0:0:0:
288,135,75110,1,8,0:0:0:0:
212,104,75277,1,0,0:0:0:0:
136,74,75443,1,2,0:0:0:0:
57,92,75610,1,0,0:0:0:0:
112,151,75777,6,0,P|120:202|113:225,1,67.5000025749207,0|2,0:0|0:0,0:0:0:0:
130,310,76110,2,0,P|170:277|193:272,1,67.5000025749207,0|2,0:0|0:0,0:0:0:0:
259,215,76443,2,4,P|210:196|194:178,1,67.5000025749207,8|2,0:0|0:0,0:0:0:0:
264,136,76777,1,0,0:0:0:0:
328,87,76943,1,2,0:0:0:0:
343,166,77110,6,0,L|365:240,1,67.5000025749207
445,256,77443,2,0,L|423:182,1,67.5000025749207,2|2,0:0|0:0,0:0:0:0:
470,123,77777,2,4,P|423:99|395:74,1,67.5000025749207,8|0,0:0|0:0,0:0:0:0:
343,46,78110,1,2,0:0:0:0:
276,92,78277,1,0,0:0:0:0:
213,40,78443,6,0,L|150:69,1,67.5000025749207,0|2,0:0|0:0,0:0:0:0:
76,99,78777,2,0,L|141:158,2,67.5000025749207,0|2|8,0:0|0:0|0:0,0:0:0:0:
18,42,79277,1,2,0:0:0:0:
98,35,79443,1,2,0:0:0:0:
178,28,79610,1,2,0:0:0:0:
206,103,79777,6,0,L|269:45,1,67.5000025749207,4|0,0:1|0:0,0:0:0:0:
320,24,80110,2,0,L|340:88,1,67.5000025749207,2|2,0:0|0:0,0:0:0:0:
416,117,80443,2,4,P|381:153|369:196,1,67.5000025749207,8|0,0:0|0:0,0:0:0:0:
450,196,80777,1,2,0:0:0:0:
482,270,80943,1,0,0:0:0:0:
466,349,81110,6,0,P|431:333|387:331,1,67.5000025749207,0|2,0:0|0:0,0:0:0:0:
323,348,81443,2,0,P|289:343|259:328,1,67.5000025749207,0|2,0:0|0:0,0:0:0:0:
206,267,81777,2,4,P|171:251|127:249,1,67.5000025749207,8|2,0:0|0:0,0:0:0:0:
63,266,82110,2,0,P|29:261|0:246,1,67.5000025749207,0|2,0:0|0:0,0:0:0:0:
50,183,82443,6,0,L|23:120,1,67.5000025749207
95,83,82777,2,0,P|129:102|168:106,1,67.5000025749207,2|2,0:0|0:0,0:0:0:0:
305,104,83110,2,4,L|230:73,1,67.5000025749207,8|0,0:0|0:0,0:0:0:0:
183,134,83443,1,2,0:0:0:0:
148,207,83610,1,0,0:0:0:0:
154,287,83777,6,0,P|226:276|237:268,1,67.5000025749207,0|2,0:0|0:0,0:0:0:0:
297,257,84110,2,0,P|285:192|291:166,1,67.5000025749207,0|2,0:0|0:0,0:0:0:0:
366,193,84443,2,4,P|378:128|372:102,1,67.5000025749207,8|2,0:0|0:0,0:0:0:0:
297,115,84777,2,0,P|285:50|291:24,1,67.5000025749207,10|2,0:0|0:0,0:0:0:0:
164,81,85110,6,0,L|178:131,1,45,4|0,0:3|0:0,0:0:0:0:
117,180,85443,2,0,L|103:130,1,45,2|0,0:0|0:0,0:0:0:0:
42,186,85777,2,0,L|67:274,1,89.9999999999999,8|2,0:0|0:0,0:0:0:0:
174,265,86443,1,0,0:0:0:0:
264,206,86777,1,2,0:0:0:0:
320,297,87110,2,0,L|404:232,1,89.9999999999999,8|2,0:0|0:0,0:0:0:0:
468,166,87777,5,0,0:0:0:0:
382,100,88110,1,2,0:0:0:0:
319,188,88443,1,8,0:0:0:0:
304,80,88777,1,2,0:0:0:0:
197,95,89110,1,0,0:0:0:0:
263,8,89443,5,2,0:0:0:0:
197,95,89777,1,2,0:0:0:0:
89,110,90110,1,10,0:0:0:0:
7,48,90443,6,0,P|31:75|63:133,1,89.9999999999999,4|2,0:1|0:0,0:0:0:0:
12,202,91110,2,0,P|43:219|93:262,1,89.9999999999999,8|2,0:0|0:0,0:0:0:0:
89,344,91777,2,0,P|124:349|186:373,1,89.9999999999999,0|2,0:0|0:0,0:0:0:0:
260,323,92443,2,0,L|220:236,1,89.9999999999999,8|2,0:0|0:0,0:0:0:0:
329,251,93110,5,0,0:0:0:0:
406,189,93443,1,2,0:0:0:0:
374,94,93777,1,8,0:0:0:0:
275,95,94110,1,2,0:0:0:0:
240,187,94443,2,0,P|204:165|171:119,1,89.9999999999999,0|2,0:0|0:0,0:0:0:0:
88,168,95110,2,0,P|92:213|76:258,1,89.9999999999999,10|2,0:0|0:0,0:0:0:0:
310,250,95777,6,0,L|347:284,1,45,0|2,0:0|0:0,0:0:0:0:
414,249,96110,2,0,L|377:215,1,45,0|2,0:0|0:0,0:0:0:0:
208,79,97110,6,0,L|169:117,1,45,0|2,0:0|0:0,0:0:0:0:
119,164,97443,2,0,L|157:203,1,45,0|2,0:0|0:0,0:0:0:0:
205,252,97777,2,0,L|244:214,1,45,0|2,0:0|0:0,0:0:0:0:
294,167,98110,2,0,L|256:128,1,45,0|2,0:0|0:0,0:0:0:0:
332,78,98443,5,0,0:0:0:0:
381,138,98610,1,2,0:0:0:0:
411,65,98777,2,0,L|457:38,1,45,2|2,0:0|0:0,0:0:0:0:
198,142,99777,5,0,0:0:0:0:
145,191,99943,1,2,0:0:0:0:
93,241,100110,2,0,L|134:283,1,45,0|2,0:0|0:0,0:0:0:0:
180,318,100443,1,0,0:0:0:0:
233,269,100610,1,2,0:0:0:0:
285,219,100777,2,0,L|244:177,1,45,0|2,0:0|0:0,0:0:0:0:
205,132,101110,6,0,P|216:97|217:78,1,45,0|2,0:0|0:0,0:0:0:0:
144,81,101443,2,0,P|140:35|143:26,1,45,0|2,0:0|0:0,0:0:0:0:
431,248,102443,6,0,L|431:305,1,45,0|2,0:0|0:0,0:0:0:0:
360,308,102777,1,0,0:0:0:0:
358,235,102943,1,2,0:0:0:0:
282,238,103110,2,0,L|282:193,1,45,0|2,0:0|0:0,0:0:0:0:
209,180,103443,1,0,0:0:0:0:
211,253,103610,1,2,0:0:0:0:
142,215,103777,6,0,L|98:177,1,45,0|2,0:0|0:0,0:0:0:0:
46,143,104110,2,0,L|84:99,1,45,2|2,0:0|0:0,0:0:0:0:
393,148,105110,6,0,L|344:145,1,45,0|2,0:0|0:0,0:0:0:0:
249,221,105443,2,0,L|298:224,1,45,0|2,0:0|0:0,0:0:0:0:
356,256,105777,2,0,L|359:207,1,45,0|2,0:0|0:0,0:0:0:0:
283,112,106110,2,0,L|280:161,2,45,2|2|4,0:0|0:0|1:3,0:0:0:0:
