osu file format v14

[General]
AudioFilename: audio.mp3
AudioLeadIn: 0
PreviewTime: 250313
Countdown: 0
SampleSet: Normal
StackLeniency: 0.3
Mode: 0
LetterboxInBreaks: 0
WidescreenStoryboard: 0

[Editor]
Bookmarks: 16979,38313,48979,68979,90646,112979,134313,155646,176979,187813,198146,230313,293646,335646
DistanceSpacing: 0.5
BeatDivisor: 4
GridSize: 4
TimelineZoom: 4.499998

[Metadata]
Title:P8107
TitleUnicode:P8107
Artist:onoken
ArtistUnicode:onoken
Creator:Vert
Version:L0I8d
Source:
Tags:hello boss diverse electronic instrumental system digital hardcore naoki remix acid drum n and bass dnb 2003 bms rave ddr dance dance revolution: paranoia/180 dancedancerevolution atlust necho
BeatmapID:1521274
BeatmapSetID:710143

[Difficulty]
HPDrainRate:6.5
CircleSize:3
OverallDifficulty:8.5
ApproachRate:9.5
SliderMultiplier:3.2
SliderTickRate:1

[Events]
//Background and Video events
0,0,"36.png",0,0
//Break Periods
2,177179,186013
2,231263,231954
2,236346,237288
2,239679,240454
2,246346,249788
//Storyboard Layer 0 (Background)
//Storyboard Layer 1 (Fail)
//Storyboard Layer 2 (Pass)
//Storyboard Layer 3 (Foreground)
//Storyboard Layer 4 (Overlay)
//Storyboard Sound Samples

[TimingPoints]
980,333.333333333333,4,3,0,65,1,0
6313,-66.6666666666667,4,3,0,65,0,0
6979,-200,4,3,0,65,0,0
9313,-100,4,3,0,65,0,0
10313,-200,4,3,0,65,0,0
10979,-100,4,3,0,65,0,0
11646,-66.6666666666667,4,3,0,65,0,0
12313,-100,4,3,0,65,0,0
12646,-200,4,3,0,65,0,0
13479,-100,4,3,0,65,0,0
13813,-200,4,3,0,65,0,0
15396,-66.6666666666667,4,1,0,40,0,0
15646,-66.6666666666667,4,1,0,50,0,0
15896,-66.6666666666667,4,1,0,60,0,0
16146,-200,4,1,0,70,0,0
16479,-66.6666666666667,4,3,0,80,0,0
16979,-66.6666666666667,4,1,0,65,0,0
26313,-100,4,1,0,65,0,0
27646,-66.6666666666667,4,1,0,65,0,0
38313,-200,4,1,0,65,0,0
48354,-200,4,2,0,5,0,0
48438,-200,4,1,0,65,0,0
48979,-66.6666666666667,4,1,0,65,0,1
90646,-100,4,3,0,65,0,0
90979,-200,4,3,0,65,0,0
91313,-100,4,3,0,65,0,0
91479,-66.6666666666667,4,3,0,65,0,0
91646,-200,4,3,0,65,0,0
92313,-133.333333333333,4,3,0,65,0,0
92479,-100,4,3,0,65,0,0
92646,-200,4,3,0,65,0,0
93646,-133.333333333333,4,3,0,65,0,0
93813,-100,4,3,0,65,0,0
94313,-200,4,3,0,65,0,0
94979,-133.333333333333,4,3,0,65,0,0
95146,-100,4,3,0,65,0,0
96979,-200,4,3,0,65,0,0
97646,-133.333333333333,4,3,0,65,0,0
97813,-100,4,3,0,65,0,0
97979,-200,4,3,0,65,0,0
98646,-133.333333333333,4,3,0,65,0,0
98813,-100,4,3,0,65,0,0
99646,-200,4,3,0,65,0,0
99979,-50,4,3,0,65,0,0
100479,-100,4,3,0,65,0,0
103313,-133.333333333333,4,3,0,65,0,0
103646,-100,4,3,0,65,0,0
103813,-200,4,3,0,65,0,0
104146,-100,4,3,0,65,0,0
104979,-200,4,3,0,65,0,0
105313,-100,4,3,0,65,0,0
105479,-133.333333333333,4,3,0,65,0,0
105813,-100,4,3,0,65,0,0
107646,-200,4,3,0,65,0,0
107979,-100,4,3,0,65,0,0
112313,-200,4,3,0,65,0,0
112979,-100,4,3,0,65,0,0
132979,-133.333333333333,4,2,0,65,0,0
133313,-133.333333333333,4,3,0,40,0,0
134313,-66.6666666666667,4,1,2,65,0,1
155646,-66.6666666666667,4,1,2,65,0,1
176979,-100,4,1,2,65,0,0
187813,-100,4,2,2,45,0,0
190313,-100,4,2,2,55,0,0
192979,-100,4,2,2,65,0,0
198146,-333.333333333333,4,1,2,65,0,0
199021,-333.333333333333,4,2,2,5,0,0
199104,-333.333333333333,4,1,2,65,0,0
201354,-333.333333333333,4,2,2,5,0,0
201396,-333.333333333333,4,1,2,65,0,0
202188,-333.333333333333,4,2,2,5,0,0
202271,-333.333333333333,4,1,2,65,0,0
202854,-333.333333333333,4,2,2,5,0,0
202938,-333.333333333333,4,1,2,65,0,0
204354,-333.333333333333,4,2,2,5,0,0
204438,-333.333333333333,4,1,2,65,0,0
206688,-333.333333333333,4,2,2,5,0,0
206729,-333.333333333333,4,1,2,65,0,0
207521,-333.333333333333,4,2,2,5,0,0
207604,-333.333333333333,4,1,2,65,0,0
208188,-333.333333333333,4,2,2,5,0,0
208271,-333.333333333333,4,1,2,65,0,0
209688,-333.333333333333,4,2,2,5,0,0
209771,-333.333333333333,4,1,2,65,0,0
212021,-333.333333333333,4,2,2,5,0,0
212146,-333.333333333333,4,1,2,65,0,0
212854,-333.333333333333,4,2,2,5,0,0
212938,-333.333333333333,4,1,2,65,0,0
213354,-333.333333333333,4,2,2,5,0,0
213438,-333.333333333333,4,1,2,65,0,0
213521,-333.333333333333,4,2,2,5,0,0
213604,-333.333333333333,4,1,2,65,0,0
214021,-333.333333333333,4,2,2,5,0,0
214063,-333.333333333333,4,1,2,65,0,0
215021,-333.333333333333,4,2,2,5,0,0
215104,-333.333333333333,4,1,2,65,0,0
217396,-333.333333333333,4,2,2,5,0,0
217479,-333.333333333333,4,1,2,65,0,0
218021,-333.333333333333,4,2,2,5,0,0
218104,-333.333333333333,4,1,2,65,0,0
218854,-333.333333333333,4,2,2,5,0,0
218938,-333.333333333333,4,1,2,65,0,0
220354,-333.333333333333,4,2,2,5,0,0
220438,-333.333333333333,4,1,2,65,0,0
222688,-333.333333333333,4,2,2,5,0,0
222729,-333.333333333333,4,1,2,65,0,0
223521,-333.333333333333,4,2,2,5,0,0
223604,-333.333333333333,4,1,2,65,0,0
224188,-333.333333333333,4,2,2,5,0,0
224271,-333.333333333333,4,1,2,65,0,0
225688,-333.333333333333,4,2,2,5,0,0
225771,-333.333333333333,4,1,2,65,0,0
228021,-333.333333333333,4,2,2,5,0,0
228063,-333.333333333333,4,1,2,65,0,0
228854,-333.333333333333,4,2,2,5,0,0
228938,-333.333333333333,4,1,2,65,0,0
229521,-333.333333333333,4,2,2,5,0,0
229604,-333.333333333333,4,1,2,65,0,0
230979,-333.333333333333,4,2,2,5,0,0
231146,-333.333333333333,4,1,2,65,0,0
238438,-333.333333333333,4,2,2,5,0,0
238521,-333.333333333333,4,1,2,65,0,0
239438,-333.333333333333,4,2,2,5,0,0
239521,-333.333333333333,4,1,2,65,0,0
240979,-133.333333333333,4,2,2,65,0,0
250313,-66.6666666666667,4,1,0,65,0,1
250688,-200,4,2,0,5,0,1
250771,-100,4,1,0,65,0,1
251646,-66.6666666666667,4,1,0,65,0,1
251979,-100,4,1,0,65,0,1
254313,-66.6666666666667,4,1,0,65,0,1
254646,-100,4,1,0,65,0,1
255646,-66.6666666666667,4,1,0,65,0,1
256146,-100,4,1,0,65,0,1
256979,-66.6666666666667,4,1,0,65,0,1
257479,-100,4,1,0,65,0,1
260979,-66.6666666666667,4,1,0,65,0,1
261479,-100,4,1,0,65,0,1
264979,-66.6666666666667,4,1,0,65,0,1
266313,-100,4,1,0,65,0,1
268646,-133.333333333333,4,1,0,65,0,1
268979,-100,4,1,0,65,0,1
271646,-66.6666666666667,4,1,0,65,0,1
271979,-100,4,1,0,65,0,1
272979,-66.6666666666667,4,1,0,65,0,1
273313,-100,4,1,0,65,0,1
275646,-66.6666666666667,4,1,0,65,0,1
275979,-100,4,1,0,65,0,1
276979,-66.6666666666667,4,1,0,65,0,1
277479,-100,4,1,0,65,0,1
278396,-66.6666666666667,4,1,0,65,0,1
278813,-100,4,1,0,65,0,1
282313,-66.6666666666667,4,1,0,65,0,1
282813,-100,4,1,0,65,0,1
286313,-66.6666666666667,4,1,0,65,0,1
287646,-100,4,1,0,65,0,1
289979,-133.333333333333,4,1,0,65,0,1
290313,-100,4,1,0,65,0,1
292313,-200,4,1,0,65,0,1
292979,-66.6666666666667,4,1,2,65,0,1
293646,-83.3333333333333,4,1,0,65,0,1
294646,-100,4,1,0,65,0,1
294813,-66.6666666666667,4,1,0,65,0,1
295646,-83.3333333333333,4,1,0,65,0,1
296479,-66.6666666666667,4,1,0,65,0,1
296979,-83.3333333333333,4,1,0,65,0,1
297313,-100,4,1,0,65,0,1
297646,-66.6666666666667,4,1,0,65,0,1
297979,-83.3333333333333,4,1,0,65,0,1
298313,-66.6666666666667,4,1,0,65,0,1
299146,-83.3333333333333,4,1,0,65,0,1
299646,-100,4,1,0,65,0,1
299979,-66.6666666666667,4,1,0,65,0,1
300646,-83.3333333333333,4,1,0,65,0,1
302313,-66.6666666666667,4,1,0,65,0,1
303479,-83.3333333333333,4,1,0,65,0,1
304979,-66.6666666666667,4,1,0,65,0,1
305313,-100,4,1,0,65,0,1
305479,-66.6666666666667,4,1,0,65,0,1
306313,-83.3333333333333,4,1,0,65,0,1
307646,-66.6666666666667,4,1,0,65,0,1
308313,-83.3333333333333,4,1,0,65,0,1
308646,-100,4,1,0,65,0,1
308979,-83.3333333333333,4,1,0,65,0,1
309313,-66.6666666666667,4,1,0,65,0,1
309813,-100,4,1,0,65,0,1
309979,-83.3333333333333,4,1,0,65,0,1
310646,-66.6666666666667,4,1,0,65,0,1
311313,-100,4,1,0,65,0,1
311646,-83.3333333333333,4,1,0,65,0,1
312479,-100,4,1,0,65,0,1
312979,-83.3333333333333,4,1,0,65,0,1
313313,-66.6666666666667,4,1,0,65,0,1
313646,-133.333333333333,4,1,0,65,0,1
314313,-66.6666666666667,4,1,2,65,0,1
315646,-83.3333333333333,4,1,0,65,0,1
315979,-100,4,1,0,65,0,1
316146,-66.6666666666667,4,1,0,65,0,1
316979,-83.3333333333333,4,1,0,65,0,1
317813,-66.6666666666667,4,1,0,65,0,1
318646,-100,4,1,0,65,0,1
318979,-66.6666666666667,4,1,0,65,0,1
319313,-100,4,1,0,65,0,1
319646,-83.3333333333333,4,1,0,65,0,1
320646,-100,4,1,0,65,0,1
321146,-83.3333333333333,4,1,0,65,0,1
321313,-66.6666666666667,4,1,0,65,0,1
321979,-100,4,1,0,65,0,1
322313,-83.3333333333333,4,1,0,65,0,1
323146,-100,4,1,0,65,0,1
323646,-83.3333333333333,4,1,0,65,0,1
323979,-66.6666666666667,4,1,0,65,0,1
324313,-133.333333333333,4,1,0,65,0,1
324979,-66.6666666666667,4,1,2,65,0,1
325646,-83.3333333333333,4,1,0,65,0,1
326646,-66.6666666666667,4,1,0,65,0,1
326979,-100,4,1,0,65,0,1
327646,-83.3333333333333,4,1,0,65,0,1
328479,-66.6666666666667,4,1,0,65,0,1
328979,-100,4,1,0,65,0,1
329313,-83.3333333333333,4,1,0,65,0,1
330313,-66.6666666666667,4,1,0,65,0,1
330479,-83.3333333333333,4,1,0,65,0,1
330646,-100,4,1,0,65,0,1
331646,-66.6666666666667,4,1,0,65,0,1
331813,-83.3333333333333,4,1,0,65,0,1
332979,-66.6666666666667,4,1,0,65,0,1
333146,-100,4,1,0,65,0,1
333646,-66.6666666666667,4,1,0,65,0,1
333813,-100,4,1,0,65,0,1
335646,-188.679245283019,4,1,0,65,0,0
336146,-133.333333333333,4,1,0,40,0,0
336979,-200,4,1,0,35,0,0
340979,-100,4,1,0,65,0,0
341646,-200,4,1,0,35,0,0
344479,-66.6666666666667,4,1,0,35,0,0
344979,-200,4,1,0,35,0,0
345646,-100,4,1,0,40,0,0
346313,-133.333333333333,4,1,0,60,0,0
346479,-133.333333333333,4,1,0,30,0,0
349979,-200,4,1,0,40,0,0
350313,-100,4,1,0,40,0,0
351646,-100,4,1,0,50,0,0
351813,-100,4,1,0,40,0,0
352979,-200,4,1,0,40,0,0
353646,-100,4,1,0,25,0,0
353729,-100,4,1,0,35,0,0
354979,-100,4,1,0,45,0,0
355313,-100,4,1,0,55,0,0
355479,-200,4,1,0,65,0,0
355854,-200,4,2,0,5,0,0
355938,-200,4,1,0,65,0,0
355979,-200,4,1,0,65,0,1
356021,-200,4,1,0,50,0,0
356313,-200,4,1,0,45,0,0
356646,-200,4,1,0,40,0,0
356979,-200,4,1,0,35,0,0
357313,-200,4,1,0,30,0,0
357646,-200,4,1,0,25,0,0
357979,-200,4,1,0,20,0,0
358313,-200,4,1,0,15,0,0
358646,-200,4,1,0,10,0,0
358979,-200,4,2,0,5,0,0

[Colours]
Combo1 : 128,0,255
Combo2 : 201,41,41
Combo3 : 252,228,150
Combo4 : 128,128,192

[HitObjects]
256,192,979,5,4,0:0:0:0:
256,192,1063,12,0,3896,0:0:0:0:
256,192,3979,12,0,6146,0:0:0:0:
96,52,6313,6,0,L|86:171,1,120.000004577637,14|0,0:0|0:0,0:0:0:0:
52,312,6813,1,0,0:0:0:0:
48,324,6979,2,0,B|168:304|168:304|205:313,1,160,8|0,0:0|0:0,0:0:0:0:
336,252,7479,1,2,0:0:0:0:
344,272,7646,2,0,L|337:351,1,80,2|0,0:0|0:0,0:0:0:0:
338,351,8146,6,0,B|344:272|344:272|336:252|336:252|341:193,1,160,8|0,0:0|0:0,0:0:0:0:
407,99,8646,2,0,P|352:79|294:89,1,120
294,89,8979,6,0,L|299:9,1,80,8|0,0:0|0:0,0:0:0:0:
166,51,9313,2,0,L|154:210,1,160,8|0,0:0|0:0,0:0:0:0:
76,332,9813,1,0,0:0:0:0:
96,316,9979,2,0,L|255:330,1,160
440,236,10313,1,6,0:0:0:0:
440,236,10479,2,0,B|348:256|348:256|324:224|295:218,1,160,2|0,0:0|0:0,0:0:0:0:
11,193,10979,6,0,B|103:173|103:173|127:205|155:210,1,160,4|10,0:0|0:0,0:0:0:0:
192,0,11646,6,2,L|188:119,1,120.000004577637,2|2,1:0|0:0,0:0:0:0:
307,58,12146,1,0,0:0:0:0:
307,58,12313,2,0,B|303:162|303:162|328:180|340:203,1,160,8|0,0:0|0:0,0:0:0:0:
243,256,12646,6,0,P|186:308|108:302,1,160
155,210,13146,1,6,0:0:0:0:
155,210,13479,6,0,B|88:112|88:112|43:224,1,240
108,302,13813,2,0,P|185:308|245:257,1,160
354,155,14313,5,0,0:0:0:0:
341,139,14396,1,0,0:0:0:0:
339,120,14479,1,0,0:0:0:0:
347,101,14563,1,0,0:0:0:0:
364,91,14646,1,0,0:0:0:0:
384,91,14729,1,0,0:0:0:0:
401,101,14813,1,0,0:0:0:0:
409,120,14896,1,0,0:0:0:0:
406,139,14979,1,0,0:0:0:0:
393,155,15063,1,0,0:0:0:0:
374,159,15146,2,0,L|362:238,1,80,8|0,0:0|0:0,0:0:0:0:
304,220,15396,5,0,0:0:0:0:
266,173,15479,1,0,0:0:0:0:
257,115,15563,1,0,0:0:0:0:
279,58,15646,1,0,0:0:0:0:
325,20,15729,1,0,0:0:0:0:
384,10,15813,1,0,0:0:0:0:
442,31,15896,1,0,0:0:0:0:
478,79,15979,1,0,0:0:0:0:
488,138,16063,1,0,0:0:0:0:
466,193,16146,1,0,0:0:0:0:
420,233,16229,1,0,0:0:0:0:
362,238,16313,2,0,L|367:277,1,40,8|0,0:0|0:0,0:0:0:0:
163,277,16479,6,2,B|362:240|362:240|368:279,1,240.000009155274,6|0,1:0|3:0,1:0:0:0:
82,331,16979,38,0,B|42:347|27:382|27:382|63:278|17:186|17:186|40:222|88:231,1,360.000013732911,6|0,0:0|0:0,0:0:0:0:
365,339,17313,2,0,B|482:317,1,120.000004577637,8|0,0:0|0:0,0:0:0:0:
282,255,17479,2,0,B|165:277,1,120.000004577637
458,18,17646,5,0,0:0:0:0:
441,59,17729,1,0,0:0:0:0:
462,107,17813,2,0,P|491:157|479:215,1,120.000004577637,8|0,0:0|0:0,0:0:0:0:
230,51,17979,2,0,P|282:78|340:68,1,120.000004577637,8|0,0:0|0:0,0:0:0:0:
100,28,18146,1,0,0:0:0:0:
131,64,18229,5,0,0:0:0:0:
134,107,18313,2,0,P|90:201|12:133,1,240.000009155274
51,364,18646,2,0,B|64:244,1,120.000004577637,8|0,0:0|0:0,0:0:0:0:
239,167,18813,1,0,0:0:0:0:
235,204,18896,5,0,0:0:0:0:
230,244,18979,1,0,0:0:0:0:
226,282,19063,1,0,0:0:0:0:
223,323,19146,2,0,P|280:337|338:323,1,120.000004577637,8|0,0:0|0:0,0:0:0:0:
512,217,19313,2,0,B|393:237,1,120.000004577637,8|0,0:0|0:0,0:0:0:0:
86,166,19479,1,0,0:0:0:0:
76,125,19563,1,0,0:0:0:0:
62,83,19646,102,0,B|107:39|107:39|280:73,1,240.000009155274
508,98,19896,1,0,0:0:0:0:
477,120,19979,2,0,L|359:141,1,120.000004577637,8|0,0:0|0:0,0:0:0:0:
72,318,20146,1,0,0:0:0:0:
84,279,20229,1,0,0:0:0:0:
119,254,20313,1,0,0:0:0:0:
163,257,20396,1,0,0:0:0:0:
205,285,20479,2,0,L|323:266,1,120.000004577637,8|0,0:0|0:0,0:0:0:0:
506,368,20646,2,0,L|388:345,1,120.000004577637,8|0,0:0|0:0,0:0:0:0:
423,48,20813,1,0,0:0:0:0:
432,79,20896,1,0,0:0:0:0:
439,121,20979,102,0,B|414:178|414:178|425:290|425:290|388:344,1,240.000009155274,8|0,0:0|0:0,0:0:0:0:
24,320,21313,2,0,L|143:311,1,120.000004577637,8|0,0:0|0:0,0:0:0:0:
285,116,21479,1,0,0:0:0:0:
281,149,21563,1,0,0:0:0:0:
278,183,21646,2,0,L|267:303,1,120.000004577637
95,57,21896,5,8,0:0:0:0:
192,69,21979,1,8,0:0:0:0:
289,81,22063,1,8,0:0:0:0:
387,94,22146,1,8,0:3:0:0:
487,106,22229,1,8,0:3:0:0:
429,185,22313,2,0,B|409:357|409:357|447:302,2,240.000009155274,10|0|0,0:0|0:0|0:0,0:0:0:0:
136,56,22813,1,0,0:0:0:0:
130,95,22896,5,0,0:0:0:0:
127,129,22979,2,0,L|133:248,2,120.000004577637,8|0|0,0:3|0:0|0:0,0:0:0:0:
299,384,23313,2,0,L|286:144,1,240.000009155274,10|0,0:0|0:0,0:0:0:0:
436,26,23563,5,0,0:0:0:0:
469,53,23646,2,0,B|349:67,1,120.000004577637
133,248,23813,2,0,L|252:234,1,120.000004577637
512,371,23979,2,0,L|392:384,1,120.000004577637,8|0,0:0|0:0,0:0:0:0:
69,328,24146,1,0,0:0:0:0:
38,290,24229,1,0,0:0:0:0:
29,255,24313,1,0,0:0:0:0:
37,207,24396,1,0,0:0:0:0:
59,178,24479,2,0,L|65:58,1,120.000004577637,8|0,0:0|0:0,0:0:0:0:
411,61,24646,6,0,L|174:99,1,240.000009155274,8|0,0:0|0:0,0:0:0:0:
201,67,24896,1,0,0:0:0:0:
229,37,24979,2,0,L|240:157,1,120.000004577637
346,371,25146,5,0,0:0:0:0:
342,329,25229,1,0,0:0:0:0:
339,293,25313,2,0,L|348:173,1,120.000004577637,12|0,0:0|0:0,0:0:0:0:
469,240,25479,2,0,L|478:359,1,120.000004577637
229,369,25646,2,0,L|220:249,1,120.000004577637
452,108,25813,1,8,0:0:0:0:
248,52,25979,2,0,L|368:42,1,120.000004577637,8|0,0:0|0:0,0:0:0:0:
95,25,26146,1,0,0:0:0:0:
119,75,26229,1,0,0:0:0:0:
101,122,26313,22,0,L|22:115,1,80
71,222,26479,2,0,L|150:228,1,80
95,25,26646,22,0,L|15:16,1,80
25,318,26813,2,0,L|104:325,1,80
279,362,26979,5,2,0:2:0:0:
271,327,27063,1,2,0:2:0:0:
267,290,27146,1,2,0:2:0:0:
262,254,27229,1,2,0:2:0:0:
258,218,27313,101,8,0:3:0:0:
298,144,27396,1,8,0:3:0:0:
379,113,27479,2,0,L|418:118,1,40,2|0,0:0|0:0,0:0:0:0:
460,128,27563,2,0,L|484:159,1,40,2|0,0:0|0:0,0:0:0:0:
511,193,27646,86,0,P|351:182|371:22,1,360.000013732911,6|0,0:0|0:0,0:0:0:0:
391,247,27979,2,0,L|412:365,1,120.000004577637,8|0,0:0|0:0,0:0:0:0:
194,345,28146,5,0,0:0:0:0:
156,317,28229,1,0,0:0:0:0:
107,307,28313,1,0,0:0:0:0:
62,323,28396,1,0,0:0:0:0:
33,356,28479,2,0,L|20:236,1,120.000004577637,8|0,0:0|0:0,0:0:0:0:
21,119,28646,2,0,L|33:-1,1,120.000004577637,8|0,0:0|0:0,0:0:0:0:
228,37,28813,1,0,0:0:0:0:
182,54,28896,5,0,0:0:0:0:
151,89,28979,2,0,P|160:203|263:254,1,240.000009155274
306,242,29229,1,0,0:0:0:0:
347,221,29313,2,0,L|359:340,1,120.000004577637,8|0,0:0|0:0,0:0:0:0:
435,144,29479,5,0,0:0:0:0:
393,111,29563,1,0,0:0:0:0:
339,101,29646,1,0,0:0:0:0:
295,112,29729,1,0,0:0:0:0:
257,140,29813,2,0,P|202:161|143:152,1,120.000004577637,8|0,0:0|0:0,0:0:0:0:
0,0,29979,2,0,P|46:37|67:92,1,120.000004577637,8|0,0:0|0:0,0:0:0:0:
51,366,30146,1,0,0:0:0:0:
23,329,30229,1,0,0:0:0:0:
9,290,30313,6,0,P|18:232|55:185,2,120.000004577637
292,337,30646,2,0,L|351:332,1,60.0000022888184,10|0,0:0|0:0,0:0:0:0:
193,277,30813,2,0,L|134:279,1,60.0000022888184,2|0,0:0|0:0,0:0:0:0:
310,355,30979,2,0,L|369:352,1,60.0000022888184,2|0,0:0|0:0,0:0:0:0:
171,257,31146,2,0,L|111:258,1,60.0000022888184,2|0,0:0|0:0,0:0:0:0:
320,215,31313,6,0,L|379:221,1,60.0000022888184,8|0,0:0|0:0,0:0:0:0:
344,183,31396,2,0,L|403:189,1,60.0000022888184
334,144,31479,2,0,L|275:140,1,60.0000022888184
354,107,31563,2,0,L|294:101,1,60.0000022888184
375,72,31646,6,0,L|494:87,2,120.000004577637
156,16,31896,1,0,0:0:0:0:
180,60,31979,2,0,P|184:118|152:168,1,120.000004577637,8|0,0:0|0:0,0:0:0:0:
56,355,32146,2,0,P|23:307|26:248,1,120.000004577637
141,279,32313,1,0,0:0:0:0:
174,313,32396,1,0,0:0:0:0:
209,334,32479,6,0,P|239:337|269:333,1,60.0000022888184,8|0,0:0|0:0,0:0:0:0:
296,330,32563,1,0,0:0:0:0:
375,298,32646,2,0,P|395:275|409:248,1,60.0000022888184,8|0,0:0|0:0,0:0:0:0:
424,227,32729,1,0,0:0:0:0:
446,145,32813,2,0,P|451:115|449:85,1,60.0000022888184,8|0,0:0|0:0,0:0:0:0:
449,59,32896,1,0,0:0:0:0:
388,0,32979,6,0,L|268:5,2,120.000004577637
22,48,33313,2,0,L|141:41,1,120.000004577637,8|0,0:0|0:0,0:0:0:0:
254,116,33479,1,0,0:0:0:0:
278,153,33563,1,0,0:0:0:0:
283,196,33646,1,0,0:0:0:0:
271,236,33729,1,0,0:0:0:0:
245,271,33813,2,0,L|364:271,1,120.000004577637,8|0,0:0|0:0,0:0:0:0:
178,185,33979,1,8,0:0:0:0:
138,173,34063,1,0,0:0:0:0:
95,178,34146,1,0,0:0:0:0:
58,202,34229,1,0,0:0:0:0:
44,239,34313,6,0,L|61:357,1,120.000004577637,2|0,0:2|0:0,0:0:0:0:
110,33,34479,2,0,L|126:151,1,120.000004577637,2|0,0:2|0:0,0:0:0:0:
152,308,34646,2,0,L|93:320,2,60.0000022888184,8|0|0,0:0|0:0|0:0,0:0:0:0:
278,328,34813,1,0,0:0:0:0:
318,305,34896,1,0,0:0:0:0:
358,306,34979,1,0,0:0:0:0:
393,326,35063,1,0,0:0:0:0:
409,362,35146,2,0,L|417:242,1,120.000004577637,8|0,0:0|0:0,0:0:0:0:
200,120,35313,2,0,B|369:151|369:151|434:132,1,240.000009155274,8|0,0:0|0:0,0:0:0:0:
340,23,35646,6,0,L|329:144,1,120.000004577637,2|0,0:0|0:0,0:0:0:0:
97,171,35813,2,0,L|107:47,1,120.000004577637,2|0,0:0|0:0,0:0:0:0:
220,114,35979,1,8,0:0:0:0:
264,364,36146,1,0,0:0:0:0:
277,328,36229,1,0,0:0:0:0:
279,284,36313,1,0,0:0:0:0:
267,243,36396,1,0,0:0:0:0:
243,207,36479,1,8,0:0:0:0:
23,296,36646,6,0,L|143:303,1,120.000004577637,8|0,0:0|0:0,0:0:0:0:
389,316,36813,1,0,0:0:0:0:
424,308,36896,1,0,0:0:0:0:
460,290,36979,1,0,0:0:0:0:
476,258,37063,1,0,0:0:0:0:
477,219,37146,2,0,L|471:338,1,120.000004577637,4|0,0:0|0:0,0:0:0:0:
382,219,37313,5,8,0:0:0:0:
422,142,37396,1,0,0:0:0:0:
415,56,37479,1,0,0:0:0:0:
343,11,37563,1,0,0:0:0:0:
261,34,37646,1,0,0:0:0:0:
207,101,37729,1,0,0:0:0:0:
125,129,37813,1,0,0:0:0:0:
44,98,37896,1,0,0:0:0:0:
13,17,37979,5,8,3:0:0:0:
19,61,38063,1,8,3:0:0:0:
26,102,38146,1,8,3:0:0:0:
32,146,38229,1,8,3:0:0:0:
40,187,38313,6,0,L|199:199,1,160,6|0,0:0|0:0,0:0:0:0:
440,78,38813,1,0,0:0:0:0:
18,320,38979,1,8,0:0:0:0:
18,320,39479,5,0,0:0:0:0:
237,341,39646,2,0,L|158:358,1,80,8|0,0:0|0:0,0:0:0:0:
81,170,39979,1,0,0:0:0:0:
75,217,40146,1,0,0:0:0:0:
159,359,40313,2,0,L|161:319,1,40,8|0,0:0|0:0,0:0:0:0:
164,283,40479,1,0,0:0:0:0:
312,235,40646,1,0,0:0:0:0:
306,272,40813,1,0,0:0:0:0:
380,107,40979,5,8,0:0:0:0:
38,38,41146,1,0,0:0:0:0:
167,271,41313,2,0,L|162:310,1,40
159,359,41479,1,0,0:0:0:0:
43,195,41646,1,0,0:0:0:0:
49,152,41813,2,2,L|53:132,2,20
156,42,41979,1,8,0:0:0:0:
163,0,42146,5,0,0:0:0:0:
392,149,42313,1,0,0:0:0:0:
367,323,42479,1,0,0:0:0:0:
330,343,42563,1,0,0:0:0:0:
292,332,42646,2,0,L|212:332,1,80,8|0,0:0|0:0,0:0:0:0:
34,317,42979,2,0,L|37:356,1,40
133,267,43146,2,0,L|139:227,1,40
43,56,43313,2,0,P|33:114|58:167,1,120,8|0,0:0|0:0,0:0:0:0:
146,100,43646,5,4,0:0:0:0:
178,91,43729,1,0,0:0:0:0:
207,83,43813,1,0,0:0:0:0:
239,74,43896,1,0,0:0:0:0:
273,65,43979,1,0,0:0:0:0:
301,59,44063,1,0,0:0:0:0:
332,52,44146,2,0,L|371:53,1,40
415,95,44313,2,0,L|410:15,1,80,8|0,0:0|0:0,0:0:0:0:
364,284,44646,2,0,L|371:204,1,80
222,331,44979,6,0,L|261:322,1,40,2|0,0:0|0:0,0:0:0:0:
127,280,45146,2,0,L|87:288,1,40,2|0,0:0|0:0,0:0:0:0:
210,126,45313,5,0,0:0:0:0:
210,126,45396,1,0,0:0:0:0:
259,135,45479,1,0,0:0:0:0:
259,135,45563,1,0,0:0:0:0:
305,128,45646,1,8,0:0:0:0:
305,128,45729,1,0,0:0:0:0:
352,109,45813,1,0,0:0:0:0:
352,109,45896,1,0,0:0:0:0:
396,75,45979,5,0,0:0:0:0:
396,75,46063,1,0,0:0:0:0:
345,40,46146,1,0,0:0:0:0:
345,40,46229,1,0,0:0:0:0:
286,27,46313,1,8,0:0:0:0:
286,27,46396,1,0,0:0:0:0:
231,43,46479,1,8,0:0:0:0:
231,43,46563,1,0,0:0:0:0:
183,80,46646,1,0,0:0:0:0:
183,80,46729,1,0,0:0:0:0:
157,126,46813,1,0,0:0:0:0:
157,126,46896,1,0,0:0:0:0:
171,214,46979,5,8,0:0:0:0:
171,214,47063,1,0,0:0:0:0:
209,298,47146,1,0,0:0:0:0:
209,298,47229,1,0,0:0:0:0:
149,363,47313,1,0,0:0:0:0:
149,363,47396,1,0,0:0:0:0:
58,317,47479,1,0,0:0:0:0:
49,303,47563,1,0,0:0:0:0:
58,207,47646,5,8,0:3:0:0:
67,195,47729,1,8,0:3:0:0:
143,129,47813,1,8,0:3:0:0:
157,126,47896,1,8,0:3:0:0:
254,125,47979,1,10,0:3:0:0:
267,130,48063,1,10,0:3:0:0:
349,189,48146,1,10,0:3:0:0:
361,200,48229,1,10,0:3:0:0:
420,295,48313,2,0,L|415:334,1,40,10|0,0:0|0:0,0:0:0:0:
503,377,48479,6,0,L|303:358,1,200,6|0,0:0|0:0,0:0:0:0:
28,98,48979,2,0,L|147:87,1,120.000004577637,8|0,0:3|0:0,0:0:0:0:
245,77,49146,2,0,L|364:66,1,120.000004577637
459,106,49313,2,0,B|493:152|493:152|456:331,1,240.000009155274,8|0,0:0|0:0,0:0:0:0:
363,276,49563,1,0,0:0:0:0:
267,342,49646,6,0,L|253:222,2,120.000004577637,0|0|8,0:0|0:0|0:3,0:0:0:0:
336,158,49979,2,0,P|230:119|149:199,1,240.000009155274,8|0,0:0|0:0,0:0:0:0:
32,43,50313,6,0,B|116:81|116:81|90:347,1,360.000013732911,8|0,0:3|0:0,0:0:0:0:
196,329,50646,6,0,L|314:307,1,120.000004577637,8|0,0:0|0:0,0:0:0:0:
421,371,50813,2,0,L|377:13,1,360.000013732911,8|0,0:0|0:0,0:0:0:0:
478,44,51146,1,0,0:0:0:0:
440,141,51229,2,0,L|320:132,2,120.000004577637,0|8|0,0:0|0:0|0:0,0:0:0:0:
265,217,51479,1,0,0:0:0:0:
160,212,51563,1,0,0:0:0:0:
55,205,51646,6,0,L|72:324,1,120.000004577637,12|0,0:3|0:0,0:0:0:0:
111,118,51813,2,0,L|94:0,1,120.000004577637,8|0,0:3|0:0,0:0:0:0:
265,217,51979,2,0,L|503:189,1,240.000009155274,8|0,0:0|0:0,0:0:0:0:
165,344,52313,2,0,L|45:334,2,120.000004577637,0|0|8,0:0|0:0|0:3,0:0:0:0:
256,134,52646,2,0,L|286:372,1,240.000009155274,8|0,0:0|0:0,0:0:0:0:
167,237,52979,5,8,0:3:0:0:
457,89,53146,2,0,L|337:80,1,120.000004577637
146,132,53313,2,0,L|28:152,2,120.000004577637,8|0|0,0:0|0:0|0:0,0:0:0:0:
335,333,53646,2,0,P|354:278|337:221,1,120.000004577637
258,22,53813,2,0,P|239:77|256:134,1,120.000004577637,8|0,0:3|0:0,0:0:0:0:
452,169,53979,5,2,0:0:0:0:
455,129,54063,1,2,0:0:0:0:
457,89,54146,1,2,0:0:0:0:
395,85,54229,1,2,0:0:0:0:
337,80,54313,2,0,L|217:92,1,120.000004577637,6|0,0:3|0:0,0:0:0:0:
119,266,54479,2,0,L|0:253,1,120.000004577637,8|0,0:3|0:0,0:0:0:0:
397,331,54646,6,0,L|160:363,1,240.000009155274,8|0,0:0|0:0,0:0:0:0:
63,162,54979,2,0,L|72:42,2,120.000004577637
232,259,55313,2,0,L|196:21,1,240.000009155274,8|0,0:0|0:0,0:0:0:0:
332,78,55646,6,0,L|324:197,1,120.000004577637,4|0,0:0|0:0,0:0:0:0:
117,143,55813,2,0,L|101:262,1,120.000004577637
46,378,55979,2,0,L|283:345,1,240.000009155274,8|0,0:0|0:0,0:0:0:0:
318,328,56229,1,0,0:0:0:0:
271,328,56313,2,0,L|151:322,1,120.000004577637
53,328,56479,2,0,L|92:91,1,240.000009155274,8|8,0:3|0:0,0:0:0:0:
287,258,56813,1,0,0:0:0:0:
304,293,56896,1,0,0:0:0:0:
318,327,56979,6,0,P|377:320|436:331,1,120.000004577637,4|0,0:0|0:0,0:0:0:0:
184,343,57146,2,0,L|64:342,1,120.000004577637,8|0,0:3|0:0,0:0:0:0:
4,134,57313,2,0,B|482:98,1,480.000018310548,8|0,0:0|0:0,0:0:0:0:
389,23,57729,1,0,0:0:0:0:
368,61,57813,2,0,P|364:120|391:173,1,120.000004577637
501,341,57979,2,0,P|469:292|416:266,1,120.000004577637,8|0,0:0|0:0,0:0:0:0:
394,376,58146,5,0,0:0:0:0:
361,374,58229,1,0,0:0:0:0:
321,370,58313,1,4,0:0:0:0:
286,367,58396,1,0,0:0:0:0:
227,357,58479,1,0,0:0:0:0:
170,350,58563,1,0,0:0:0:0:
107,344,58646,1,8,0:0:0:0:
45,338,58729,1,0,0:0:0:0:
2,265,58813,5,6,0:0:0:0:
45,184,58896,1,0,0:0:0:0:
0,110,58979,1,2,0:0:0:0:
46,36,59063,1,2,0:0:0:0:
131,40,59146,1,10,0:3:0:0:
176,111,59229,1,2,0:0:0:0:
260,116,59313,1,8,0:0:0:0:
322,57,59396,1,8,0:0:0:0:
409,67,59479,1,8,0:0:0:0:
458,137,59563,1,8,0:0:0:0:
413,210,59646,6,0,P|407:268|437:319,1,120.000004577637,4|0,0:0|0:0,0:0:0:0:
308,242,59813,2,0,P|261:207|202:207,1,120.000004577637
0,344,59979,2,0,B|60:364|60:364|227:307,1,240.000009155274,8|0,0:0|0:0,0:0:0:0:
59,253,60229,1,0,0:0:0:0:
62,217,60313,2,0,L|74:97,2,120.000004577637,0|0|8,0:0|0:0|0:3,0:0:0:0:
20,4,60646,6,0,P|133:6|180:109,1,240.000009155274,8|0,0:0|0:0,0:0:0:0:
340,343,60979,6,0,B|256:305|256:305|282:39,1,360.000013732911,4|0,0:0|0:0,0:0:0:0:
496,44,61313,2,0,L|377:65,1,120.000004577637,8|0,0:0|0:0,0:0:0:0:
179,108,61479,6,0,P|51:204|156:325,1,360.000013732911
362,242,61813,1,0,0:0:0:0:
394,237,61896,2,0,L|512:216,2,120.000004577637,0|8|0,0:0|0:0|0:0,0:0:0:0:
265,217,62146,1,0,0:0:0:0:
160,212,62229,1,0,0:0:0:0:
55,205,62313,6,0,L|72:324,1,120.000004577637,4|0,0:0|0:0,0:0:0:0:
111,117,62479,2,0,P|98:60|54:20,1,120.000004577637,0|0,0:3|0:0,0:0:0:0:
0,118,62646,2,0,L|238:90,1,240.000009155274,8|0,0:0|0:0,0:0:0:0:
490,29,62896,1,0,0:0:0:0:
512,62,62979,2,0,L|392:52,2,120.000004577637,0|0|8,0:0|0:0|0:3,0:0:0:0:
353,384,63313,2,0,L|333:144,1,240.000009155274,8|0,0:0|0:0,0:0:0:0:
460,334,63646,5,4,0:0:0:0:
227,223,63813,2,0,L|107:214,1,120.000004577637,0|0,0:0|0:0,0:0:0:0:
0,384,63979,2,0,L|118:364,2,120.000004577637,8|0|2,0:0|0:0|0:0,0:0:0:0:
322,283,64313,2,0,P|341:228|324:171,1,120.000004577637
18,154,64479,2,8,P|0:209|16:266,1,120.000004577637,8|0,0:3|0:0,0:0:0:0:
217,365,64646,5,10,0:0:0:0:
220,325,64729,1,2,0:0:0:0:
224,273,64813,1,2,0:0:0:0:
227,223,64896,1,2,0:0:0:0:
230,170,64979,2,0,L|219:50,1,120.000004577637,4|0,0:0|0:0,0:0:0:0:
330,344,65146,2,0,L|339:224,1,120.000004577637,8|0,0:3|0:0,0:0:0:0:
104,379,65313,6,0,P|7:320|22:207,1,240.000009155274,8|0,0:0|0:0,0:0:0:0:
224,273,65646,2,0,L|104:274,2,120.000004577637,0|0|8,0:0|0:0|0:3,0:0:0:0:
348,104,65979,2,0,L|330:344,1,240.000009155274,8|0,0:0|0:0,0:0:0:0:
451,147,66313,6,0,L|446:27,1,120.000004577637,4|0,0:0|0:0,0:0:0:0:
240,180,66479,2,0,L|236:61,1,120.000004577637,8|0,0:3|0:0,0:0:0:0:
33,274,66646,2,0,L|25:34,1,240.000009155274,8|2,0:0|0:0,0:0:0:0:
0,5,66896,1,0,0:0:0:0:
35,0,66979,2,0,L|154:8,1,120.000004577637
119,174,67146,2,0,L|0:185,1,120.000004577637,8|0,0:3|0:0,0:0:0:0:
0,362,67313,2,0,L|239:382,1,240.000009155274,8|0,0:0|0:0,0:0:0:0:
511,235,67646,6,0,P|470:277|414:298,1,120.000004577637,4|0,0:0|0:0,0:0:0:0:
119,174,67813,2,0,L|238:185,1,120.000004577637,8|0,0:0|0:0,0:0:0:0:
346,5,67979,2,0,B|320:311|320:311|334:367,1,360.000013732911,8|0,0:0|0:0,0:0:0:0:
186,362,68313,1,0,0:0:0:0:
177,325,68396,1,0,0:0:0:0:
166,290,68479,2,0,L|46:299,1,120.000004577637,8|0,0:0|0:0,0:0:0:0:
139,153,68646,2,0,L|258:162,1,120.000004577637,8|0,0:0|0:0,0:0:0:0:
0,102,68813,1,0,0:0:0:0:
9,66,68896,1,0,0:0:0:0:
18,30,68979,6,0,L|137:32,1,120.000004577637,4|0,0:0|0:0,0:0:0:0:
139,153,69146,1,0,0:0:0:0:
128,191,69229,1,0,0:0:0:0:
116,226,69313,2,0,L|-3:221,1,120.000004577637,8|0,0:0|0:0,0:0:0:0:
0,102,69479,1,0,0:0:0:0:
9,66,69563,1,0,0:0:0:0:
18,30,69646,5,8,0:3:0:0:
76,0,69729,1,0,0:0:0:0:
137,32,69813,1,0,0:0:0:0:
190,104,69896,1,0,0:0:0:0:
249,130,69979,1,8,0:0:0:0:
309,106,70063,1,0,0:0:0:0:
375,40,70146,1,0,0:0:0:0:
435,21,70229,1,0,0:0:0:0:
494,42,70313,6,0,L|486:161,1,120.000004577637,4|0,0:0|0:0,0:0:0:0:
438,265,70479,2,0,L|429:384,1,120.000004577637,0|0,0:3|0:0,0:0:0:0:
262,330,70646,2,0,B|436:303|436:303|496:325,1,240.000009155274,8|0,0:0|0:0,0:0:0:0:
353,216,70896,1,0,0:0:0:0:
260,229,70979,2,0,L|141:248,2,120.000004577637,0|0|2,0:0|0:0|0:0,0:0:0:0:
67,162,71313,6,0,P|29:269|105:354,1,240.000009155274,8|0,0:0|0:0,0:0:0:0:
316,7,71646,6,0,B|266:84|266:84|0:58,1,360.000013732911,4|0,0:0|0:0,0:0:0:0:
258,189,71979,2,0,L|376:171,1,120.000004577637,8|0,0:0|0:0,0:0:0:0:
434,24,72146,6,0,B|381:107|381:107|433:363,1,360.000013732911,0|0,0:0|0:0,0:0:0:0:
362,282,72479,1,0,0:0:0:0:
272,349,72563,2,0,L|152:340,2,120.000004577637,0|8|0,0:0|0:0|0:0,0:0:0:0:
261,244,72813,1,0,0:0:0:0:
160,234,72896,1,0,0:0:0:0:
66,280,72979,6,0,L|49:161,1,120.000004577637,4|0,0:0|0:0,0:0:0:0:
216,151,73146,2,0,L|199:32,1,120.000004577637,8|0,0:3|0:0,0:0:0:0:
414,346,73313,2,0,L|379:108,1,240.000009155274,8|0,0:0|0:0,0:0:0:0:
160,234,73563,1,0,0:0:0:0:
176,246,73646,2,0,P|234:252|288:225,2,120.000004577637,0|0|8,0:0|0:0|0:3,0:0:0:0:
31,42,73979,2,0,L|66:280,1,240.000009155274,8|0,0:0|0:0,0:0:0:0:
216,151,74313,5,8,0:3:0:0:
455,94,74479,2,0,L|335:85,1,120.000004577637
149,22,74646,2,0,L|31:42,2,120.000004577637,8|0|0,0:0|0:0|0:0,0:0:0:0:
158,239,74979,6,0,P|213:258|270:241,1,120.000004577637
433,315,75146,2,0,P|391:275|378:217,1,120.000004577637
348,48,75313,5,10,0:0:0:0:
387,40,75396,1,2,0:0:0:0:
432,42,75479,1,2,0:0:0:0:
488,66,75563,1,2,0:0:0:0:
512,113,75646,2,0,P|513:172|482:222,1,120.000004577637
303,138,75813,2,0,L|183:129,1,120.000004577637,8|0,0:3|0:0,0:0:0:0:
0,260,75979,6,0,L|238:233,1,240.000009155274,8|0,0:0|0:0,0:0:0:0:
76,158,76229,1,0,0:0:0:0:
79,123,76313,2,0,L|88:3,2,120.000004577637,0|0|8,0:0|0:0|0:3,0:0:0:0:
198,368,76646,2,0,L|182:128,1,240.000009155274,8|0,0:0|0:0,0:0:0:0:
51,292,76979,6,0,L|170:278,1,120.000004577637
356,356,77146,2,0,L|475:351,1,120.000004577637,0|0,0:3|0:0,0:0:0:0:
288,269,77313,2,0,L|273:29,1,240.000009155274,8|0,0:0|0:0,0:0:0:0:
372,82,77563,1,0,0:0:0:0:
340,112,77646,2,0,P|286:135|227:128,1,120.000004577637
0,13,77813,2,0,P|109:40|120:152,1,240.000009155274,8|8,0:3|0:0,0:0:0:0:
19,377,78146,1,0,0:0:0:0:
103,319,78229,1,0,0:0:0:0:
195,362,78313,6,0,P|202:304|179:249,1,120.000004577637
22,118,78479,2,0,P|10:175|32:230,1,120.000004577637,8|0,0:3|0:0,0:0:0:0:
119,152,78646,2,0,P|309:79|307:283,1,480.000018310548,8|0,0:0|0:0,0:0:0:0:
383,384,79063,1,0,0:0:0:0:
406,345,79146,2,0,P|453:310|512:308,1,120.000004577637,8|0,0:3|0:0,0:0:0:0:
195,363,79313,5,8,0:0:0:0:
197,337,79396,1,0,0:0:0:0:
199,308,79479,1,0,0:0:0:0:
201,281,79563,1,0,0:0:0:0:
259,211,79646,5,8,0:3:0:0:
273,171,79729,1,0,0:0:0:0:
271,130,79813,1,0,0:0:0:0:
245,95,79896,1,0,0:0:0:0:
166,53,79979,5,8,0:0:0:0:
129,67,80063,1,0,0:0:0:0:
89,63,80146,1,0,0:0:0:0:
55,42,80229,1,0,0:0:0:0:
4,117,80313,5,2,0:2:0:0:
69,179,80396,1,2,0:2:0:0:
96,262,80479,1,2,0:2:0:0:
89,351,80563,1,2,0:2:0:0:
171,310,80646,5,8,0:3:0:0:
260,311,80729,1,8,0:3:0:0:
348,333,80813,2,10,L|397:367,1,60.0000022888184,2|0,0:0|0:0,0:0:0:0:
424,384,80896,2,10,L|482:370,1,60.0000022888184,2|0,0:0|0:0,0:0:0:0:
511,358,80979,6,0,L|502:238,1,120.000004577637,4|0,0:0|0:0,0:0:0:0:
316,237,81146,2,0,P|309:178|329:122,1,120.000004577637,8|0,0:3|0:0,0:0:0:0:
490,75,81313,2,0,B|250:69,1,240.000009155274,8|0,0:0|0:0,0:0:0:0:
416,191,81563,1,0,0:0:0:0:
339,268,81646,2,0,L|219:279,2,120.000004577637,0|0|10,0:0|0:0|0:3,0:0:0:0:
83,372,81979,6,0,P|122:266|36:183,1,240.000009155274,8|0,0:0|0:0,0:0:0:0:
0,66,82313,6,0,B|76:98|76:98|356:51,1,360.000013732911,4|0,0:0|0:0,0:0:0:0:
479,17,82646,2,0,P|447:66|458:123,1,120.000004577637,8|0,0:0|0:0,0:0:0:0:
464,233,82813,6,0,B|388:201|388:201|113:244,1,360.000013732911
351,364,83146,1,8,0:0:0:0:
366,326,83229,2,0,L|350:205,2,120.000004577637
214,329,83479,1,0,0:0:0:0:
117,343,83563,1,0,0:0:0:0:
27,308,83646,6,0,P|1:256|15:198,1,120.000004577637
104,137,83813,2,0,L|88:18,1,120.000004577637,8|0,0:3|0:0,0:0:0:0:
113,244,83979,2,0,L|352:207,1,240.000009155274,8|0,0:0|0:0,0:0:0:0:
158,352,84229,1,0,0:0:0:0:
121,348,84313,2,0,L|1:336,2,120.000004577637,0|0|8,0:0|0:0|0:3,0:0:0:0:
432,297,84646,2,0,B|460:230|460:230|431:65,1,240.000009155274,8|0,0:0|0:0,0:0:0:0:
189,30,84979,5,8,0:3:0:0:
397,91,85146,2,0,L|277:82,1,120.000004577637
0,120,85313,2,0,L|118:104,2,120.000004577637,10|0|2,0:2|0:0|0:2,0:0:0:0:
78,353,85646,2,0,P|97:298|80:241,1,120.000004577637
210,163,85813,2,0,P|192:219|207:276,1,120.000004577637,0|0,0:3|0:0,0:0:0:0:
386,228,85979,5,10,0:0:0:0:
346,226,86063,1,2,0:0:0:0:
306,223,86146,1,2,0:0:0:0:
302,172,86229,1,2,0:0:0:0:
298,119,86313,2,0,L|285:0,1,120.000004577637,4|0,0:0|0:0,0:0:0:0:
459,291,86479,2,0,P|483:238|471:180,1,120.000004577637,8|0,0:3|0:0,0:0:0:0:
410,19,86646,6,0,L|172:50,1,240.000009155274,8|0,0:0|0:0,0:0:0:0:
380,262,86896,1,0,0:0:0:0:
386,228,86979,2,0,L|399:108,2,120.000004577637,0|0|8,0:0|0:0|0:3,0:0:0:0:
136,373,87313,2,0,L|110:133,1,240.000009155274,8|0,0:0|0:0,0:0:0:0:
386,228,87646,6,0,L|370:346,1,120.000004577637
239,119,87813,2,0,L|223:238,1,120.000004577637
30,342,87979,1,8,0:0:0:0:
62,140,88146,2,0,L|80:21,1,120.000004577637
30,342,88313,1,0,0:0:0:0:
111,377,88396,1,0,0:0:0:0:
184,328,88479,2,0,L|202:209,1,120.000004577637,8|0,0:3|0:0,0:0:0:0:
425,118,88646,2,0,L|185:114,1,240.000009155274,8|0,0:0|0:0,0:0:0:0:
317,322,88979,6,0,P|299:266|310:208,1,120.000004577637
83,114,89146,2,0,L|96:233,1,120.000004577637,8|0,0:3|0:0,0:0:0:0:
413,258,89313,1,8,0:0:0:0:
503,10,89479,1,0,0:0:0:0:
461,10,89563,1,0,0:0:0:0:
426,13,89646,1,8,0:3:0:0:
387,16,89729,1,0,0:0:0:0:
349,19,89813,1,0,0:0:0:0:
311,21,89896,1,0,0:0:0:0:
273,25,89979,5,10,0:0:0:0:
230,51,90063,1,2,0:0:0:0:
185,30,90146,1,2,0:0:0:0:
142,56,90229,1,2,0:0:0:0:
97,31,90313,5,8,3:0:0:0:
22,53,90396,1,8,3:0:0:0:
0,129,90479,1,8,3:0:0:0:
49,190,90563,1,8,3:0:0:0:
122,164,90646,6,0,B|161:154|188:125|188:125|238:143|238:143|276:121|276:121|311:148|335:146,1,240,4|0,0:0|0:0,0:0:0:0:
428,170,90979,6,0,P|429:131|413:94,1,80,4|0,0:0|0:0,0:0:0:0:
361,238,91229,1,0,0:0:0:0:
344,263,91313,6,0,L|367:339,1,80
428,171,91479,6,2,B|439:126|439:126|433:100|433:100|445:54,1,120.000004577637,2|0,1:0|0:0,0:0:0:0:
334,146,91646,2,0,L|214:160,1,120,12|0,0:0|0:0,0:0:0:0:
188,139,91979,5,10,0:0:0:0:
153,227,92146,1,8,0:0:0:0:
264,308,92313,6,0,L|247:250,1,60.0000022888184,2|0,0:0|0:0,0:0:0:0:
126,303,92479,6,0,L|153:228,1,80,2|0,0:0|0:0,0:0:0:0:
188,139,92646,6,0,P|148:97|152:39,1,120
179,28,92979,6,0,L|218:35,2,40,6|0|0,0:0|0:0|0:0,0:0:0:0:
81,169,93313,1,8,0:0:0:0:
285,113,93479,1,8,0:0:0:0:
364,26,93646,6,0,L|377:84,1,60.0000022888184,8|0,0:0|0:0,0:0:0:0:
478,60,93813,2,0,L|461:138,1,80,8|0,0:0|0:0,0:0:0:0:
354,356,93979,6,0,P|390:253|496:277,1,240,8|0,0:0|0:0,0:0:0:0:
459,230,94313,2,0,P|401:228|352:262,1,120,4|0,0:0|0:0,0:0:0:0:
339,286,94646,5,8,0:0:0:0:
249,240,94813,1,8,0:0:0:0:
252,339,94979,6,0,P|223:335|196:321,1,60.0000022888184,2|0,0:0|0:0,0:0:0:0:
102,223,95146,2,0,L|24:242,1,80,2|0,0:0|0:0,0:0:0:0:
57,139,95313,6,0,B|219:101|219:101|182:136|184:163,1,240,8|0,0:0|0:0,0:0:0:0:
286,180,95646,1,4,0:0:0:0:
324,171,95729,1,0,0:0:0:0:
363,162,95813,2,0,L|441:144,1,80
330,276,95979,2,0,L|408:293,2,80
448,64,96313,6,0,B|440:143,1,80,8|0,0:0|0:0,0:0:0:0:
232,344,96479,2,0,B|224:264,1,80,8|0,0:0|0:0,0:0:0:0:
148,86,96646,2,0,B|142:56|125:37|125:37|195:44|215:143|170:179,1,240,8|0,0:0|0:0,0:0:0:0:
27,252,96979,2,0,B|4:221|4:221|83:237,1,120,4|0,0:0|0:0,0:0:0:0:
105,261,97313,5,8,0:0:0:0:
59,349,97479,1,8,0:0:0:0:
219,357,97646,6,0,L|160:345,1,60.0000022888184,10|0,0:0|0:0,0:0:0:0:
300,294,97813,6,0,L|259:225,1,80,2|0,0:0|0:0,0:0:0:0:
426,173,97979,2,0,L|400:290,1,120,8|0,0:0|0:0,0:0:0:0:
416,319,98313,5,4,0:0:0:0:
506,274,98479,1,8,0:0:0:0:
411,114,98646,6,0,L|425:172,1,60.0000022888184,2|0,0:0|0:0,0:0:0:0:
332,60,98813,6,0,L|301:133,1,80,2|0,0:0|0:0,0:0:0:0:
253,1,98979,5,8,0:0:0:0:
213,9,99146,5,8,0:0:0:0:
173,16,99313,6,0,B|14:45|14:45|58:64|68:98,1,240,8|0,0:0|0:0,0:0:0:0:
163,114,99646,6,0,L|149:234,1,120,4|0,0:0|0:0,0:0:0:0:
137,255,99979,6,0,L|215:238,1,80,10|0,0:0|0:0,0:0:0:0:
53,198,100146,1,8,0:0:0:0:
333,299,100479,6,0,L|316:220,1,80,2|0,0:0|0:0,0:0:0:0:
433,281,100646,5,8,0:0:0:0:
442,319,100813,5,8,0:0:0:0:
477,104,100979,2,0,L|460:182,1,80,2|0,0:0|0:0,0:0:0:0:
374,82,101146,1,8,0:0:0:0:
224,240,101313,1,8,0:0:0:0:
249,146,101479,6,0,L|170:129,1,80,2|0,0:0|0:0,0:0:0:0:
276,52,101646,5,8,0:0:0:0:
249,46,101813,5,8,0:0:0:0:
223,40,101979,5,8,0:0:0:0:
197,35,102146,5,8,0:0:0:0:
120,96,102313,6,0,L|155:333,1,240,4|0,0:0|0:0,0:0:0:0:
248,364,102646,2,0,L|326:347,1,80
499,275,102813,2,0,P|417:199|317:251,1,240,2|0,0:0|0:0,0:0:0:0:
420,367,103146,2,0,P|421:328|404:292,1,80,2|0,0:0|0:0,0:0:0:0:
224,216,103313,6,0,B|204:164|204:164|233:43,1,180.000006866455,8|0,0:0|0:0,0:0:0:0:
312,116,103646,6,0,L|391:104,1,80,4|0,0:0|0:0,0:0:0:0:
104,136,103813,6,0,B|32:112|32:112|52:136|52:150,1,120
44,244,104146,6,0,L|123:232,1,80,2|0,0:0|0:0,0:0:0:0:
276,300,104313,5,8,0:0:0:0:
272,332,104479,5,8,0:0:0:0:
268,361,104646,6,0,B|280:296|340:280|340:280|268:248|278:183,1,240,8|0,0:0|0:0,0:0:0:0:
348,108,104979,6,0,B|392:116|392:116|400:152|376:188,1,120,4|0,0:0|0:0,0:0:0:0:
278,183,105313,6,0,L|199:169,1,80,10|0,0:0|0:0,0:0:0:0:
116,336,105479,6,0,L|94:157,1,180.000006866455,8|0,0:0|0:0,0:0:0:0:
160,72,105813,6,0,L|81:58,1,80,2|0,0:0|0:0,0:0:0:0:
16,225,105979,6,0,P|125:255|199:169,1,240,8|0,0:0|0:0,0:0:0:0:
300,180,106313,1,2,0:0:0:0:
340,172,106396,1,0,0:0:0:0:
380,164,106479,2,0,L|458:147,1,80
296,48,106646,2,0,L|374:64,2,80,0|0|2,0:0|0:0|0:0,0:0:0:0:
443,226,106979,2,0,L|458:147,1,80,8|0,0:0|0:0,0:0:0:0:
188,28,107146,2,0,L|203:106,1,80,8|0,0:0|0:0,0:0:0:0:
424,320,107313,6,0,L|471:84,1,240,8|0,0:0|0:0,0:0:0:0:
362,124,107646,6,0,B|324:144|324:144|356:184|349:213,1,120,4|0,0:0|0:0,0:0:0:0:
308,300,107979,6,0,L|229:313,1,80,2|0,0:0|0:0,0:0:0:0:
424,320,108146,2,0,B|472:256|420:176|420:176|395:215|348:215,1,240,2|0,0:0|0:0,0:0:0:0:
252,212,108479,6,0,L|173:225,1,80,2|0,0:0|0:0,0:0:0:0:
0,76,108646,2,0,L|236:114,1,240,8|0,0:0|0:0,0:0:0:0:
331,95,108979,2,0,P|317:59|287:33,1,80,4|0,0:0|0:0,0:0:0:0:
72,248,109146,2,0,B|88:144|88:144|112:120|112:120|126:20,1,240,8|0,0:0|0:0,0:0:0:0:
212,92,109479,2,0,P|229:127|230:167,1,80,2|0,0:0|0:0,0:0:0:0:
128,344,109646,2,0,L|49:357,1,80,2|0,0:0|0:0,0:0:0:0:
312,224,109813,2,0,L|390:210,1,80,8|0,0:0|0:0,0:0:0:0:
285,318,109979,2,0,L|48:357,1,240,8|0,0:0|0:0,0:0:0:0:
66,251,110313,6,0,B|-16:208|32:88|32:88|29:135|38:139,1,240
164,28,110646,2,0,P|154:66|129:97,1,80,2|0,0:0|0:0,0:0:0:0:
188,176,110813,1,0,0:0:0:0:
211,149,110896,1,0,0:0:0:0:
242,133,110979,1,0,0:0:0:0:
277,127,111063,1,0,0:0:0:0:
312,134,111146,1,0,0:0:0:0:
342,152,111229,1,0,0:0:0:0:
365,180,111313,1,0,0:0:0:0:
377,213,111396,1,0,0:0:0:0:
377,248,111479,1,0,0:0:0:0:
365,282,111563,1,0,0:0:0:0:
296,352,111646,5,2,0:0:0:0:
216,347,111729,1,2,0:0:0:0:
136,342,111813,1,2,0:0:0:0:
56,337,111896,1,2,0:0:0:0:
12,256,111979,5,8,0:0:0:0:
92,251,112063,1,8,0:0:0:0:
171,246,112146,1,8,0:0:0:0:
251,241,112229,1,8,0:0:0:0:
340,236,112313,6,0,B|416:160|375:56|375:56|378:104|367:139,1,280,8|0,0:0|0:0,0:0:0:0:
272,92,112979,6,0,B|160:52|160:52|40:69,1,240,4|0,0:0|0:0,0:0:0:0:
24,164,113313,6,0,L|33:243,1,80,8|0,0:0|0:0,0:0:0:0:
104,347,113479,2,0,P|174:258|125:155,1,240,2|0,0:0|0:0,0:0:0:0:
8,208,113813,2,0,L|17:287,1,80,2|0,0:0|0:0,0:0:0:0:
248,352,113979,2,0,B|356:341|356:341|392:348|392:348|486:338,1,240,8|0,0:0|0:0,0:0:0:0:
479,243,114313,6,0,P|441:236|403:247,1,80,2|0,0:0|0:0,0:0:0:0:
292,247,114479,2,0,P|316:138|221:77,1,240,8|0,0:0|0:0,0:0:0:0:
144,184,114813,2,0,L|223:175,1,80,2|0,0:0|0:0,0:0:0:0:
424,136,114979,1,8,0:0:0:0:
436,104,115146,1,8,0:0:0:0:
448,72,115313,6,0,L|368:79,1,80,8|0,0:0|0:0,0:0:0:0:
64,104,115479,1,0,0:0:0:0:
47,136,115646,2,0,P|54:249|159:290,1,240,4|0,0:0|0:0,0:0:0:0:
255,263,115979,2,0,P|237:228|205:205,1,80,2|0,0:0|0:0,0:0:0:0:
228,360,116146,6,0,L|467:367,1,240,8|0,0:0|0:0,0:0:0:0:
512,280,116479,2,0,L|498:201,1,80,2|0,0:0|0:0,0:0:0:0:
392,252,116646,2,0,B|420:72|420:72|462:111,1,240,8|0,0:0|0:0,0:0:0:0:
312,136,116979,6,0,L|325:57,1,80,2|0,0:0|0:0,0:0:0:0:
224,192,117146,1,8,0:0:0:0:
184,200,117229,1,0,0:0:0:0:
144,212,117313,2,0,L|157:133,1,80,8|0,0:0|0:0,0:0:0:0:
68,36,117479,2,0,L|54:114,1,80
268,352,117646,6,0,L|281:273,1,80,2|0,0:0|0:0,0:0:0:0:
48,44,117813,2,0,L|34:122,1,80,2|0,0:0|0:0,0:0:0:0:
292,336,117979,2,0,L|319:178,1,160,8|0,0:0|0:0,0:0:0:0:
432,312,118313,6,0,B|488:328|488:328|454:149,1,240
435,56,118646,2,0,P|398:68|373:99,1,80,10|0,0:0|0:0,0:0:0:0:
244,248,118813,2,0,L|4:240,1,240,2|0,0:0|0:0,0:0:0:0:
0,148,119146,2,0,L|79:151,1,80,2|0,0:0|0:0,0:0:0:0:
312,176,119313,2,0,P|339:285|247:351,1,240,8|0,0:0|0:0,0:0:0:0:
152,340,119646,6,0,L|72:336,1,80,2|0,0:0|0:0,0:0:0:0:
216,260,119813,2,0,B|204:72|204:72|241:107,1,240
408,144,120146,2,0,P|447:137|482:118,1,80,2|0,0:0|0:0,0:0:0:0:
200,40,120313,2,0,L|120:36,1,80,8|0,0:0|0:0,0:0:0:0:
312,176,120479,2,0,L|391:172,1,80,8|0,0:0|0:0,0:0:0:0:
96,132,120646,2,0,L|16:128,2,80,8|0|0,0:0|0:0|0:0,0:0:0:0:
152,375,120979,6,0,P|229:292|191:184,1,240,4|0,0:0|0:0,0:0:0:0:
72,228,121313,2,0,P|98:257|135:271,1,80,2|0,0:0|0:0,0:0:0:0:
308,368,121479,2,0,B|496:336|496:336|453:311,1,240,8|0,0:0|0:0,0:0:0:0:
368,256,121813,2,0,L|381:177,1,80,2|0,0:0|0:0,0:0:0:0:
452,44,121979,2,0,L|465:122,1,80
484,220,122146,5,0,0:0:0:0:
287,135,122313,2,0,P|249:125|209:124,1,80,6|0,0:0|0:0,0:0:0:0:
112,160,122479,1,8,0:0:0:0:
80,168,122646,1,8,0:0:0:0:
271,235,122813,2,0,P|233:225|193:224,1,80,10|0,0:0|0:0,0:0:0:0:
104,268,122979,5,8,0:0:0:0:
72,276,123146,5,8,0:0:0:0:
376,367,123313,2,0,P|375:328|361:290,1,80,10|0,0:0|0:0,0:0:0:0:
214,84,123479,1,8,0:0:0:0:
196,324,123646,6,0,L|214:84,1,240,4|0,0:0|0:0,0:0:0:0:
290,22,123979,2,0,P|328:30|361:54,1,80,10|0,0:0|0:0,0:0:0:0:
446,220,124146,2,0,P|406:327|293:345,1,240,2|0,1:0|0:0,0:0:0:0:
196,324,124479,2,0,L|116:316,1,80
51,48,124646,2,0,L|289:21,1,240,8|0,0:0|0:0,0:0:0:0:
378,61,124979,6,0,P|386:99|383:139,1,80,2|0,0:0|0:0,0:0:0:0:
116,316,125146,2,0,B|82:316|55:340|55:340|88:170,1,240,8|0,0:0|0:0,0:0:0:0:
195,157,125479,2,0,L|274:147,1,80,2|0,0:0|0:0,0:0:0:0:
383,139,125646,1,2,0:0:0:0:
413,136,125813,5,8,0:0:0:0:
438,134,125979,2,0,L|425:213,1,80,8|0,0:0|0:0,0:0:0:0:
291,360,126146,1,0,0:0:0:0:
116,316,126313,2,0,L|89:77,1,240
180,27,126646,2,0,L|190:106,1,80,2|0,0:0|0:0,0:0:0:0:
291,360,126813,2,0,P|400:325|423:213,1,240,8|0,0:0|0:0,0:0:0:0:
473,130,127146,2,0,P|436:118|396:121,1,80
88,205,127313,2,0,B|193:192|193:192|228:204|228:204|324:189,1,240,8|0,0:0|0:0,0:0:0:0:
352,32,127646,6,0,P|320:55|300:89,1,80,4|0,0:0|0:0,0:0:0:0:
409,337,127813,2,0,P|374:320|348:290,1,80,8|0,0:0|0:0,0:0:0:0:
214,40,127979,2,0,P|182:63|162:97,2,80,8|0|0,0:0|0:0|0:0,0:0:0:0:
254,300,128313,2,0,L|174:308,1,80,2|0,0:0|0:0,0:0:0:0:
83,106,128479,6,0,L|162:97,1,80,2|0,0:0|0:0,0:0:0:0:
369,179,128646,6,0,L|130:208,1,240,12|0,0:0|0:0,0:0:0:0:
64,285,128979,2,0,P|153:354|253:299,1,240,4|0,0:0|0:0,0:0:0:0:
267,99,129313,2,0,L|257:19,1,80,2|0,0:0|0:0,0:0:0:0:
367,305,129479,2,0,L|370:65,1,240,8|0,0:0|0:0,0:0:0:0:
464,22,129813,2,0,B|483:59|483:59|472:95,1,80,2|0,0:0|0:0,0:0:0:0:
223,199,129979,2,0,L|143:195,3,80,8|0|0|0,0:0|0:0|0:0|0:0,0:0:0:0:
314,256,130313,5,0,0:0:0:0:
325,256,130396,1,0,0:0:0:0:
336,257,130479,1,0,0:0:0:0:
348,257,130563,1,0,0:0:0:0:
359,258,130646,1,0,0:0:0:0:
371,258,130729,1,0,0:0:0:0:
382,259,130813,1,0,0:0:0:0:
393,259,130896,1,0,0:0:0:0:
405,261,130979,5,2,0:0:0:0:
456,237,131063,1,2,0:0:0:0:
486,190,131146,1,2,0:0:0:0:
487,133,131229,1,2,0:0:0:0:
460,83,131313,5,8,0:0:0:0:
398,33,131396,1,8,0:0:0:0:
320,34,131479,1,8,0:0:0:0:
259,84,131563,1,8,0:0:0:0:
244,161,131646,5,4,0:0:0:0:
244,184,131813,5,0,0:0:0:0:
243,207,131979,1,0,0:0:0:0:
340,336,132313,6,0,L|340:256,2,80,8|0|0,0:0|0:0|0:0,0:0:0:0:
138,107,132646,6,0,L|137:186,2,80,8|0|0,0:0|0:0|0:0,0:0:0:0:
430,210,132979,2,4,B|460:126|460:126|373:153,1,180.000006866455,0|0,0:0|0:0,0:0:0:0:
243,207,133313,5,4,0:0:0:0:
245,177,133396,1,8,0:0:0:0:
248,147,133479,1,8,0:0:0:0:
250,114,133563,1,8,0:0:0:0:
243,207,133646,5,4,0:0:0:0:
245,177,133729,1,8,0:0:0:0:
248,147,133813,1,8,0:0:0:0:
250,114,133896,1,8,0:0:0:0:
243,207,133979,5,4,0:0:0:0:
245,177,134063,1,8,0:0:0:0:
248,147,134146,1,8,0:0:0:0:
250,114,134229,1,8,0:0:0:0:
252,80,134313,6,0,L|370:61,1,120.000004577637,4|0,0:0|0:0,0:0:0:0:
150,188,134479,2,0,L|31:205,1,120.000004577637
30,73,134646,2,0,B|-1:135|-1:135|22:304,1,240.000009155274,8|0,0:0|0:0,0:0:0:0:
399,334,134979,5,0,0:0:0:0:
432,316,135063,2,0,L|440:196,2,120.000004577637
300,269,135313,2,0,L|290:29,1,240.000009155274,8|0,0:0|0:0,0:0:0:0:
512,106,135646,2,0,L|392:94,1,120.000004577637
185,41,135813,2,0,L|65:52,1,120.000004577637
105,255,135979,6,0,P|198:320|299:268,1,240.000009155274,8|0,0:0|0:0,0:0:0:0:
424,331,136313,6,0,L|411:211,2,120.000004577637
431,91,136646,2,0,L|423:330,1,240.000009155274,8|0,0:0|0:0,0:0:0:0:
338,30,136979,6,0,L|219:46,1,120.000004577637
76,69,137146,2,0,L|194:85,1,120.000004577637
270,294,137313,2,0,B|326:311|326:311|296:132,1,240.000009155274,8|0,0:0|0:0,0:0:0:0:
160,232,137646,2,0,L|154:351,2,120.000004577637
58,276,137979,2,0,P|3:177|67:83,1,240.000009155274,8|0,0:0|0:0,0:0:0:0:
256,300,138313,2,0,L|374:282,1,120.000004577637
459,214,138479,2,0,P|474:158|455:102,1,120.000004577637
307,65,138646,6,0,B|354:36|354:36|169:33,1,240.000009155274,8|0,0:0|0:0,0:0:0:0:
0,276,138979,5,0,0:0:0:0:
39,270,139063,1,0,0:0:0:0:
79,264,139146,1,0,0:0:0:0:
118,259,139229,1,0,0:0:0:0:
214,270,139313,5,8,3:1:0:0:
309,279,139396,1,8,3:0:0:0:
404,289,139479,1,8,3:0:0:0:
500,298,139563,1,8,3:0:0:0:
504,203,139646,2,0,L|507:83,2,120.000004577637,4|0|0,0:0|0:0|0:0,0:0:0:0:
401,30,139896,1,0,0:0:0:0:
376,50,139979,2,0,L|403:288,1,240.000009155274,8|0,0:0|0:0,0:0:0:0:
286,156,140313,2,0,L|166:140,1,120.000004577637
58,274,140479,2,0,L|177:258,1,120.000004577637
493,257,140646,2,0,P|463:365|351:370,1,240.000009155274,8|0,0:0|0:0,0:0:0:0:
51,145,140979,6,0,L|62:25,1,120.000004577637
166,140,141146,2,0,L|177:259,1,120.000004577637
76,384,141313,2,0,L|51:145,1,240.000009155274,8|0,0:0|0:0,0:0:0:0:
276,247,141646,6,0,L|394:227,2,120.000004577637
165,30,141979,2,0,B|234:-5|234:-5|395:15,1,240.000009155274,8|0,0:0|0:0,0:0:0:0:
300,369,142313,2,0,L|180:359,1,120.000004577637
72,382,142479,2,0,L|61:262,1,120.000004577637
312,177,142646,6,0,B|360:183|396:148|396:148|333:209|359:282,1,240.000009155274,8|0,0:0|0:0,0:0:0:0:
173,175,142896,1,0,0:0:0:0:
129,169,142979,6,0,L|9:156,2,120.000004577637
491,63,143313,2,0,P|402:-1|323:77,1,240.000009155274,8|0,0:0|0:0,0:0:0:0:
481,384,143646,5,0,0:0:0:0:
464,381,143729,1,0,0:0:0:0:
447,379,143813,1,0,0:0:0:0:
430,377,143896,1,0,0:0:0:0:
413,375,143979,1,8,0:0:0:0:
396,372,144063,1,0,0:0:0:0:
379,370,144146,1,0,0:0:0:0:
362,368,144229,5,0,0:0:0:0:
277,367,144313,1,0,0:0:0:0:
193,365,144396,1,0,0:0:0:0:
109,364,144479,1,0,0:0:0:0:
24,360,144563,1,0,0:0:0:0:
42,271,144646,5,8,0:3:0:0:
61,183,144729,1,8,0:3:0:0:
79,95,144813,6,2,L|91:37,1,60.0000022888184,2|0,0:0|0:0,0:0:0:0:
96,6,144896,2,2,L|104:65,1,60.0000022888184,2|0,0:0|0:0,0:0:0:0:
113,95,144979,2,0,B|167:121|223:70,1,120.000004577637,4|0,0:0|0:0,0:0:0:0:
236,292,145146,2,0,P|199:247|142:231,1,120.000004577637
339,370,145313,2,0,L|357:131,1,240.000009155274,8|0,0:0|0:0,0:0:0:0:
512,150,145646,6,0,L|491:31,2,120.000004577637
495,290,145896,1,0,0:0:0:0:
473,270,145979,2,0,L|491:31,1,240.000009155274,8|0,0:0|0:0,0:0:0:0:
257,146,146313,2,0,L|137:133,1,120.000004577637
351,197,146479,2,0,L|470:209,1,120.000004577637
258,250,146646,6,0,B|96:231|96:231|31:272,1,240.000009155274,8|0,0:0|0:0,0:0:0:0:
356,308,146979,6,0,P|371:251|350:196,1,120.000004577637
250,33,147146,2,0,P|235:90|256:145,1,120.000004577637
454,364,147313,2,0,P|476:248|440:135,1,240.000009155274,8|0,0:0|0:0,0:0:0:0:
165,313,147646,6,0,L|45:325,2,120.000004577637
0,237,147979,2,0,B|65:189|65:189|221:216,1,240.000009155274,8|0,0:0|0:0,0:0:0:0:
505,39,148313,2,0,L|386:57,1,120.000004577637
190,101,148479,2,0,L|71:82,1,120.000004577637
280,314,148646,6,0,P|391:333|451:236,1,240.000009155274,8|0,0:0|0:0,0:0:0:0:
288,13,148979,6,0,L|299:132,1,120.000004577637
167,361,149146,2,0,L|178:241,1,120.000004577637
55,59,149313,2,0,P|5:160|76:248,1,240.000009155274,8|0,0:0|0:0,0:0:0:0:
512,200,149646,6,0,L|392:185,2,120.000004577637
358,274,149896,1,0,0:0:0:0:
274,232,149979,6,0,L|511:199,1,240.000009155274,8|0,0:0|0:0,0:0:0:0:
247,83,150229,1,0,0:0:0:0:
155,31,150313,2,0,L|512:73,1,360.000013732911,4|0,0:0|0:0,0:0:0:0:
409,163,150646,2,0,L|401:282,2,120.000004577637,8|0|0,0:0|0:0|0:0,0:0:0:0:
263,185,150979,6,0,L|279:303,1,120.000004577637
31,137,151146,2,0,L|47:18,1,120.000004577637
172,340,151313,2,0,L|144:101,1,240.000009155274,10|0,0:0|0:0,0:0:0:0:
17,254,151646,2,0,L|136:238,1,120.000004577637
263,185,151813,2,0,L|382:169,1,120.000004577637
440,304,151979,6,0,B|510:326|510:326|483:161,1,240.000009155274,8|0,0:0|0:0,0:0:0:0:
178,19,152313,6,0,L|167:138,2,120.000004577637
302,281,152563,1,0,0:0:0:0:
337,289,152646,2,0,L|309:50,1,240.000009155274,8|0,0:0|0:0,0:0:0:0:
230,351,152979,6,0,L|110:336,1,120.000004577637
21,248,153146,2,0,L|140:233,1,120.000004577637
413,360,153313,2,0,P|500:290|463:184,1,240.000009155274,8|0,0:0|0:0,0:0:0:0:
511,83,153646,6,0,L|392:98,2,120.000004577637
176,35,153979,6,0,L|295:50,2,120.000004577637,8|0|0,0:0|0:0|0:0,0:0:0:0:
70,60,154229,1,0,0:0:0:0:
47,86,154313,2,0,L|66:204,1,120.000004577637
170,147,154479,2,0,L|189:265,1,120.000004577637
293,208,154646,5,8,0:3:0:0:
295,224,154729,1,8,0:3:0:0:
298,241,154813,1,8,0:3:0:0:
301,258,154896,1,8,0:3:0:0:
304,275,154979,5,4,0:0:0:0:
411,260,155146,1,0,0:0:0:0:
391,162,155313,1,8,0:0:0:0:
186,188,155479,1,0,0:0:0:0:
490,71,155646,6,0,L|370:58,1,120.000004577637,4|0,1:0|0:0,0:0:0:0:
72,286,155813,2,0,L|191:298,1,120.000004577637,0|0,0:3|0:0,0:0:0:0:
284,2,155979,2,0,L|45:28,1,240.000009155274,8|0,0:0|0:0,0:0:0:0:
11,128,156229,1,0,0:0:0:0:
107,176,156313,2,0,L|226:161,2,120.000004577637,0|0|8,0:0|0:0|0:3,0:0:0:0:
416,227,156563,5,0,0:0:0:0:
512,265,156646,2,0,L|273:241,1,240.000009155274,8|0,0:0|0:0,0:0:0:0:
2,353,156979,6,0,L|21:234,1,120.000004577637
226,161,157146,2,0,L|206:42,1,120.000004577637
102,33,157313,2,0,L|121:151,1,120.000004577637,8|0,0:0|0:0,0:0:0:0:
356,264,157479,2,0,B|309:333|309:333|340:58,1,360.000013732911,2|0,0:0|0:0,0:0:0:0:
512,147,157813,2,0,L|393:168,1,120.000004577637
214,273,157979,2,0,L|95:251,2,120.000004577637,8|0|0,0:0|0:0|0:0,0:0:0:0:
24,134,158229,1,0,0:0:0:0:
10,165,158313,2,0,L|129:152,1,120.000004577637,4|0,0:0|0:0,0:0:0:0:
316,299,158479,2,0,L|435:286,1,120.000004577637,8|0,0:3|0:0,0:0:0:0:
512,50,158646,6,0,L|272:39,1,240.000009155274,8|0,0:0|0:0,0:0:0:0:
238,235,158979,6,0,L|221:116,2,120.000004577637,0|0|8,0:0|0:0|0:3,0:0:0:0:
165,327,159229,1,0,0:0:0:0:
188,353,159313,2,0,L|221:115,1,240.000009155274,8|0,0:0|0:0,0:0:0:0:
304,338,159646,5,0,0:0:0:0:
487,153,159813,2,0,L|470:34,1,120.000004577637
134,55,159979,5,8,0:0:0:0:
50,265,160146,2,2,L|66:383,1,120.000004577637
168,270,160313,2,0,L|184:151,1,120.000004577637
303,324,160479,1,8,0:3:0:0:
406,337,160563,1,0,0:0:0:0:
477,268,160646,6,0,P|426:171|320:204,1,240.000009155274,8|0,0:0|0:0,0:0:0:0:
306,81,160896,1,0,0:0:0:0:
278,99,160979,6,0,L|158:110,1,120.000004577637,4|0,0:0|0:0,0:0:0:0:
48,306,161146,2,0,L|167:317,1,120.000004577637,8|0,0:3|0:0,0:0:0:0:
398,125,161313,2,0,L|158:109,1,240.000009155274,8|0,0:0|0:0,0:0:0:0:
277,272,161563,1,0,0:0:0:0:
372,318,161646,6,0,L|490:298,2,120.000004577637,0|0|8,0:0|0:0|0:3,0:0:0:0:
429,16,161979,2,0,B|359:57|359:57|365:215,1,240.000009155274,8|0,0:0|0:0,0:0:0:0:
48,306,162313,2,0,L|63:186,1,120.000004577637
463,116,162479,2,0,L|466:235,1,120.000004577637
63,186,162646,2,0,L|78:66,1,120.000004577637,8|0,0:0|0:0,0:0:0:0:
407,332,162813,6,0,L|47:305,1,360.000013732911,2|0,0:0|0:0,0:0:0:0:
243,218,163146,2,0,L|362:204,1,120.000004577637,8|0,0:3|0:0,0:0:0:0:
197,80,163313,2,0,L|77:66,2,120.000004577637,8|0|0,0:0|0:0|0:0,0:0:0:0:
459,249,163646,6,0,L|440:9,1,240.000009155274,8|0,0:3|0:0,0:0:0:0:
226,320,163896,1,0,0:0:0:0:
127,297,163979,2,0,L|145:178,2,120.000004577637,8|0|0,0:0|0:0|0:0,0:0:0:0:
315,64,164313,6,0,L|196:79,2,120.000004577637,0|0|8,0:0|0:0|0:3,0:0:0:0:
75,46,164646,2,0,L|314:63,1,240.000009155274,8|0,0:0|0:0,0:0:0:0:
484,132,164896,1,0,0:0:0:0:
469,158,164979,2,0,L|350:175,1,120.000004577637
245,197,165146,2,0,L|126:214,1,120.000004577637
47,305,165313,5,0,0:0:0:0:
63,307,165396,1,0,0:0:0:0:
80,309,165479,1,0,0:0:0:0:
97,312,165563,1,0,0:0:0:0:
114,314,165646,5,0,3:0:0:0:
131,317,165729,1,0,3:0:0:0:
148,319,165813,1,0,3:0:0:0:
165,322,165896,1,0,3:0:0:0:
260,307,165979,5,8,0:0:0:0:
355,292,166063,1,0,0:0:0:0:
449,279,166146,2,2,L|456:171,1,60.0000022888184,2|0,0:0|0:0,0:0:0:0:
456,176,166229,2,2,L|463:68,1,60.0000022888184,2|0,0:0|0:0,0:0:0:0:
504,58,166313,6,2,L|385:76,1,120.000004577637,6|2,0:0|0:0,0:0:0:0:
72,200,166479,2,0,L|190:218,1,120.000004577637,8|0,0:3|0:0,0:0:0:0:
320,384,166646,2,0,L|291:145,1,240.000009155274,8|0,0:0|0:0,0:0:0:0:
211,0,166979,6,0,L|200:119,2,120.000004577637,0|0|8,0:0|0:0|0:3,0:0:0:0:
122,308,167313,2,0,L|98:69,1,240.000009155274,8|0,0:0|0:0,0:0:0:0:
218,343,167646,6,0,L|337:327,1,120.000004577637
512,147,167813,2,0,L|392:131,1,120.000004577637
217,53,167979,2,0,L|97:68,1,120.000004577637,8|0,0:0|0:0,0:0:0:0:
29,343,168146,6,0,B|75:30|75:30|97:67,1,360.000013732911,8|0,0:3|0:0,0:0:0:0:
260,226,168479,2,0,L|142:242,1,120.000004577637,8|0,0:3|0:0,0:0:0:0:
372,297,168646,6,0,L|358:177,2,120.000004577637,8|0|0,0:0|0:0|0:0,0:0:0:0:
456,18,168979,6,0,L|447:137,1,120.000004577637,8|0,0:3|0:0,0:0:0:0:
150,361,169146,2,0,L|141:241,1,120.000004577637
480,256,169313,2,0,L|455:17,1,240.000009155274,8|0,0:0|0:0,0:0:0:0:
455,365,169646,6,0,L|335:351,2,120.000004577637,0|0|8,0:0|0:0|0:3,0:0:0:0:
258,60,169979,2,0,L|246:299,1,240.000009155274,8|0,0:0|0:0,0:0:0:0:
477,146,170313,5,8,0:3:0:0:
447,149,170396,1,0,0:0:0:0:
417,152,170479,1,0,0:0:0:0:
387,155,170563,1,0,0:0:0:0:
356,159,170646,6,2,L|296:165,1,60.0000022888184,2|0,0:0|0:0,0:0:0:0:
190,178,170813,6,2,L|130:184,1,60.0000022888184,2|0,0:0|0:0,0:0:0:0:
403,266,170979,5,0,0:0:0:0:
398,295,171063,1,0,0:0:0:0:
394,325,171146,1,0,0:0:0:0:
390,355,171229,1,0,0:0:0:0:
385,384,171313,5,8,0:0:0:0:
289,375,171396,1,0,0:0:0:0:
193,365,171479,1,4,0:0:0:0:
96,355,171563,1,0,0:0:0:0:
0,346,171646,6,0,L|118:325,1,120.000004577637,4|0,0:0|0:0,0:0:0:0:
352,173,171813,2,0,L|470:152,1,120.000004577637,8|0,0:3|0:0,0:0:0:0:
279,98,171979,2,0,B|4:71|4:71|83:96,1,360.000013732911,8|0,0:0|0:0,0:0:0:0:
349,292,172313,5,0,0:0:0:0:
349,262,172396,1,0,0:0:0:0:
350,232,172479,1,0,0:0:0:0:
350,202,172563,1,0,0:0:0:0:
351,172,172646,5,8,0:0:0:0:
256,182,172729,1,0,0:0:0:0:
159,193,172813,1,0,0:0:0:0:
64,204,172896,1,0,0:0:0:0:
76,109,172979,6,0,B|86:21|86:21|103:47,1,120.000004577637,4|0,0:0|0:0,0:0:0:0:
249,287,173146,1,0,0:0:0:0:
41,333,173229,5,0,0:0:0:0:
70,336,173313,1,8,0:0:0:0:
100,340,173396,1,0,0:0:0:0:
130,344,173479,1,0,0:0:0:0:
160,348,173563,1,0,0:0:0:0:
145,252,173646,1,8,0:3:0:0:
125,158,173729,1,0,0:0:0:0:
108,62,173813,6,0,L|225:84,1,120.000004577637
512,174,173979,2,0,L|394:196,1,120.000004577637,8|0,0:0|0:0,0:0:0:0:
160,348,174146,2,0,L|277:370,1,120.000004577637
392,99,174313,6,0,B|372:15|372:15|361:47,1,120.000004577637,4|0,0:0|0:0,0:0:0:0:
277,370,174479,1,8,0:3:0:0:
180,240,174646,1,8,0:0:0:0:
209,234,174729,1,0,0:0:0:0:
238,228,174813,1,0,0:0:0:0:
268,223,174896,1,0,0:0:0:0:
297,217,174979,6,0,B|277:133|277:133|266:165,1,120.000004577637,4|0,0:0|0:0,0:0:0:0:
381,374,175146,1,8,0:3:0:0:
174,122,175313,5,8,0:0:0:0:
144,119,175396,1,0,0:0:0:0:
114,117,175479,1,0,0:0:0:0:
84,114,175563,1,0,0:0:0:0:
54,112,175646,6,0,L|74:230,1,120.000004577637,4|0,0:0|0:0,0:0:0:0:
180,19,175813,1,8,0:3:0:0:
174,122,175979,6,0,L|194:240,1,120.000004577637,12|0,0:0|0:0,0:0:0:0:
300,29,176146,1,8,0:3:0:0:
291,134,176313,5,4,0:0:0:0:
297,173,176396,1,0,0:0:0:0:
304,212,176479,1,8,0:3:0:0:
311,252,176563,1,0,0:0:0:0:
435,365,176646,5,8,0:0:0:0:
419,274,176729,1,0,0:0:0:0:
403,183,176813,1,0,0:0:0:0:
387,93,176896,1,0,0:0:0:0:
478,57,176979,5,4,1:0:0:0:
74,61,187813,5,0,0:0:0:0:
78,85,188146,1,0,0:0:0:0:
82,113,188479,1,0,0:0:0:0:
86,137,188813,1,0,0:0:0:0:
198,193,189146,5,2,0:0:0:0:
110,277,189479,1,0,0:0:0:0:
114,301,189813,1,0,0:0:0:0:
118,329,190146,1,0,0:0:0:0:
124,355,190479,5,0,0:0:0:0:
148,351,190813,1,0,0:0:0:0:
176,347,191146,1,0,0:0:0:0:
200,343,191479,1,0,0:0:0:0:
256,231,191813,5,2,0:0:0:0:
340,319,192146,1,0,0:0:0:0:
364,315,192479,1,0,0:0:0:0:
392,311,192813,1,0,0:0:0:0:
418,307,193146,5,0,0:0:0:0:
414,283,193479,1,0,0:0:0:0:
410,255,193813,1,0,0:0:0:0:
406,231,194146,1,0,0:0:0:0:
294,175,194479,5,2,0:0:0:0:
382,91,194813,1,0,0:0:0:0:
378,67,195146,1,0,0:0:0:0:
374,39,195479,1,0,0:0:0:0:
369,9,195813,5,0,0:0:0:0:
256,192,195896,12,0,197979,0:0:0:0:
82,351,198146,6,2,L|93:348,2,11.9999996337891
206,324,198313,1,0,0:0:0:0:
206,324,198646,1,0,0:0:0:0:
206,324,198813,2,0,L|275:305,1,71.9999978027344
376,284,199313,1,2,0:2:0:0:
373,83,200479,1,0,0:0:0:0:
373,83,200646,1,2,0:2:0:0:
373,83,200813,5,0,0:0:0:0:
373,83,200979,1,0,0:0:0:0:
406,180,201313,2,0,L|402:191,1,11.9999996337891,2|0,0:2|0:0,0:0:0:0:
372,284,201479,1,0,0:0:0:0:
275,341,201979,2,0,L|260:270,1,71.9999978027344,8|0,0:0|0:0,0:0:0:0:
192,130,202646,2,0,L|183:201,1,71.9999978027344
58,326,203646,5,4,0:0:0:0:
58,326,203979,1,2,0:2:0:0:
58,326,204146,2,0,L|127:307,1,71.9999978027344
232,285,204646,1,2,0:2:0:0:
80,65,205813,1,0,0:0:0:0:
80,65,205979,1,2,0:2:0:0:
80,65,206146,1,0,0:0:0:0:
80,65,206313,5,0,0:0:0:0:
185,74,206646,2,0,L|196:74,1,11.9999996337891,2|0,0:2|0:0,0:0:0:0:
300,87,206813,1,8,0:0:0:0:
488,50,207313,2,0,L|417:62,1,71.9999978027344,2|0,0:2|0:0,0:0:0:0:
247,176,207979,2,0,L|318:187,1,71.9999978027344,2|0,0:2|0:0,0:0:0:0:
435,334,208813,2,2,L|446:331,2,11.9999996337891
336,324,208979,5,4,0:0:0:0:
232,307,209313,1,2,0:2:0:0:
232,307,209479,2,0,L|160:296,1,71.9999978027344
53,277,209979,1,2,0:2:0:0:
53,277,210646,1,2,0:2:0:0:
292,180,211146,1,0,0:0:0:0:
292,180,211313,1,2,0:2:0:0:
292,180,211479,1,0,0:0:0:0:
292,180,211646,5,4,0:0:0:0:
314,89,211979,2,0,L|310:100,1,11.9999996337891,2|0,0:2|0:0,0:0:0:0:
334,0,212146,1,0,0:0:0:0:
410,66,212646,2,0,L|481:54,1,71.9999978027344,2|0,0:2|0:0,0:0:0:0:
239,27,213313,2,0,L|215:23,1,23.9999992675781,2|0,0:2|0:0,0:0:0:0:
85,43,213479,2,0,L|108:46,1,23.9999992675781
187,113,213646,1,0,0:0:0:0:
187,113,213813,1,0,0:0:0:0:
187,113,213979,6,0,L|184:124,1,11.9999996337891,2|0,0:2|0:0,0:0:0:0:
173,214,214313,1,4,0:0:0:0:
162,318,214646,1,2,0:2:0:0:
162,318,214813,2,0,L|91:331,1,71.9999978027344
267,303,215313,1,2,0:2:0:0:
367,354,215979,1,2,0:2:0:0:
467,307,216479,1,0,0:0:0:0:
467,307,216646,1,2,0:2:0:0:
467,307,216813,1,0,0:0:0:0:
467,307,216979,5,0,0:0:0:0:
467,307,217146,1,0,0:0:0:0:
467,307,217313,2,0,L|463:283,1,23.9999992675781,2|0,0:2|0:0,0:0:0:0:
444,197,217479,1,0,0:0:0:0:
406,10,217979,2,0,L|403:33,1,23.9999992675781,2|0,0:2|0:0,0:0:0:0:
391,120,218146,1,0,0:0:0:0:
241,71,218646,2,0,L|312:60,1,71.9999978027344,2|0,0:2|0:0,0:0:0:0:
134,13,219146,1,0,0:0:0:0:
134,13,219313,1,0,0:0:0:0:
134,13,219479,2,2,L|132:24,2,11.9999996337891
114,119,219646,5,4,0:0:0:0:
114,119,219979,1,2,0:2:0:0:
94,228,220146,2,0,L|102:299,1,71.9999978027344
215,258,220646,1,2,0:2:0:0:
307,330,221813,1,0,0:0:0:0:
307,330,221979,1,2,0:2:0:0:
307,330,222146,1,0,0:0:0:0:
307,330,222313,5,0,0:0:0:0:
426,347,222646,2,0,L|422:358,1,11.9999996337891,2|0,0:2|0:0,0:0:0:0:
450,239,222813,5,0,0:0:0:0:
385,138,223313,2,0,P|354:121|319:114,1,71.9999978027344,2|0,0:2|0:0,0:0:0:0:
185,55,223979,2,0,P|220:49|251:31,1,71.9999978027344
321,218,224979,1,4,0:0:0:0:
321,218,225313,1,2,0:2:0:0:
321,218,225479,2,0,L|315:289,1,71.9999978027344
203,246,225979,1,2,0:2:0:0:
140,338,227146,1,0,0:0:0:0:
140,338,227313,1,2,0:2:0:0:
38,296,227646,5,0,0:0:0:0:
38,296,227813,1,0,0:0:0:0:
38,296,227979,2,0,L|40:284,1,11.9999996337891,2|0,0:2|0:0,0:0:0:0:
53,194,228146,1,0,0:0:0:0:
154,162,228646,2,0,P|159:197|151:232,1,71.9999978027344
91,82,229313,2,0,P|123:67|158:60,1,71.9999978027344
250,117,230146,2,2,L|261:114,2,11.9999996337891
357,101,230313,5,4,0:0:0:0:
357,101,230646,1,2,0:2:0:0:
357,101,230813,2,0,L|428:91,1,71.9999978027344
413,196,232479,5,0,0:0:0:0:
413,196,232646,1,2,0:2:0:0:
413,196,232979,5,4,0:0:0:0:
431,297,233479,1,0,0:0:0:0:
91,63,234813,1,0,0:0:0:0:
91,63,234979,1,0,0:0:0:0:
91,63,235146,1,0,0:0:0:0:
123,339,235646,5,4,0:0:0:0:
123,339,236146,1,0,0:0:0:0:
255,192,237813,5,0,0:0:0:0:
255,192,238313,6,0,L|251:239,1,47.9999985351563,4|0,0:0|0:0,0:0:0:0:
247,38,238813,1,0,0:0:0:0:
247,38,239313,2,0,L|251:85,1,47.9999985351563,2|0,0:2|0:0,0:0:0:0:
256,23,240979,6,2,L|256:143,1,120.000004577637,2|2,2:0|0:0,0:0:0:0:
315,294,241313,1,10,0:0:0:0:
135,190,241479,1,2,0:0:0:0:
315,86,241646,5,2,0:0:0:0:
195,293,241813,1,2,0:0:0:0:
255,192,241979,1,10,0:0:0:0:
255,192,242146,1,10,0:0:0:0:
375,190,242313,1,2,0:0:0:0:
195,86,242479,1,2,0:0:0:0:
178,318,242646,1,10,0:0:0:0:
179,59,242813,1,2,0:0:0:0:
404,189,242979,1,2,0:0:0:0:
104,189,243146,1,2,0:0:0:0:
329,59,243313,1,10,0:0:0:0:
328,319,243479,1,2,0:0:0:0:
36,190,243646,6,2,L|155:189,1,120.000004577637,2|2,0:0|0:0,0:0:0:0:
256,250,243979,1,10,0:0:0:0:
256,142,244146,1,2,0:0:0:0:
288,267,244313,1,2,0:0:0:0:
287,125,244479,1,2,0:0:0:0:
321,285,244646,1,10,0:0:0:0:
321,111,244813,1,2,0:0:0:0:
415,192,244979,1,2,0:0:0:0:
256,351,245146,5,2,0:0:0:0:
96,191,245313,1,10,0:0:0:0:
256,32,245479,1,2,0:0:0:0:
347,245,245646,1,2,0:0:0:0:
164,138,245813,1,2,0:0:0:0:
309,100,245979,1,10,0:0:0:0:
202,283,246146,1,2,0:0:0:0:
420,148,250313,38,0,B|468:96|468:96|256:92|256:92|310:146,1,360.000013732911,6|0,0:0|2:0,0:0:0:0:
360,240,250646,2,0,B|372:304|372:304|361:357,1,120.000004577637,8|0,0:0|0:0,0:0:0:0:
464,340,250813,2,0,B|472:301|472:301|461:262,1,80
272,300,250979,5,2,1:2:0:0:
236,304,251063,1,2,1:2:0:0:
200,308,251146,1,2,1:2:0:0:
164,312,251229,1,2,1:2:0:0:
128,316,251313,5,8,0:0:0:0:
128,232,251396,1,0,0:0:0:0:
184,168,251479,1,0,0:0:0:0:
268,164,251563,1,0,0:0:0:0:
340,212,251646,6,0,P|406:132|312:90,1,240.000009155274,8|0,0:3|0:0,0:0:0:0:
276,84,251896,1,0,0:0:0:0:
240,80,251979,2,0,B|234:0,1,80,8|0,0:0|0:0,0:0:0:0:
12,0,252146,1,0,0:0:0:0:
60,72,252229,1,0,0:0:0:0:
44,156,252313,2,0,L|47:235,2,80
152,80,252563,1,0,0:0:0:0:
152,112,252646,2,0,B|158:191,1,80,8|0,0:0|0:0,0:0:0:0:
48,348,252813,1,0,0:0:0:0:
116,296,252896,1,0,0:0:0:0:
200,312,252979,102,0,B|256:336|256:336|354:330,1,160
428,200,253229,1,0,0:0:0:0:
404,224,253313,2,0,L|324:228,1,80,8|0,0:0|0:0,0:0:0:0:
168,0,253479,5,0,0:0:0:0:
128,76,253563,1,0,0:0:0:0:
168,152,253646,2,0,L|247:148,1,80
384,104,253813,2,0,L|463:100,1,80
404,224,253979,2,0,L|324:227,1,80,8|0,0:0|0:0,0:0:0:0:
199,311,254146,2,0,L|120:315,1,80
84,87,254313,102,0,P|190:47|270:127,1,240.000009155274,8|0,0:3|0:0,0:0:0:0:
119,315,254646,2,0,L|39:319,1,80,8|0,0:0|0:0,0:0:0:0:
20,148,254813,5,0,0:0:0:0:
100,172,254896,1,0,0:0:0:0:
162,231,254979,2,0,L|167:151,1,80
76,28,255146,1,0,0:0:0:0:
44,44,255229,1,0,0:0:0:0:
15,62,255313,2,0,B|6:221,1,160,8|0,0:0|0:0,0:0:0:0:
72,352,255563,5,0,0:0:0:0:
100,336,255646,2,0,B|156:304|156:304|260:308|260:308|317:350,1,240.000009155274,8|0,0:3|0:0,0:0:0:0:
208,272,255896,1,0,0:0:0:0:
212,224,255979,2,0,L|219:104,1,120.000004577637,8|0,0:0|0:0,0:0:0:0:
408,4,256146,5,2,0:2:0:0:
380,88,256229,1,2,0:2:0:0:
436,156,256313,2,0,L|429:235,1,80
412,384,256479,2,0,L|345:340,1,80,8|0,0:3|0:0,0:0:0:0:
156,292,256646,2,0,L|299:221,1,160,8|0,0:0|0:0,0:0:0:0:
16,104,256979,6,0,B|170:155|170:155|241:123,1,240.000009155274,8|0,0:3|0:0,0:0:0:0:
160,36,257313,2,0,L|168:156,1,120.000004577637,8|0,0:0|0:0,0:0:0:0:
48,344,257479,1,2,0:2:0:0:
96,272,257563,1,2,0:2:0:0:
176,240,257646,1,2,0:2:0:0:
260,268,257729,1,2,0:2:0:0:
312,336,257813,2,0,L|392:336,1,80
504,236,257979,6,0,L|344:245,1,160,8|0,0:0|0:0,0:0:0:0:
260,268,258229,1,0,0:0:0:0:
284,184,258313,2,0,L|276:104,1,80
80,44,258479,5,0,0:0:0:0:
132,112,258563,1,0,0:0:0:0:
100,192,258646,2,0,L|95:271,1,80,8|0,0:0|0:0,0:0:0:0:
312,336,258813,1,0,0:0:0:0:
260,268,258896,1,0,0:0:0:0:
284,184,258979,2,0,L|288:104,1,80
296,0,259146,1,8,0:3:0:0:
412,180,259313,2,0,L|419:259,1,80,8|0,0:0|0:0,0:0:0:0:
212,140,259479,1,0,0:0:0:0:
288,104,259563,1,0,0:0:0:0:
368,76,259646,6,0,L|447:78,1,80,10|0,0:3|0:0,0:0:0:0:
212,140,259813,2,0,L|132:137,1,80,2|0,0:0|0:0,0:0:0:0:
8,0,259979,2,0,L|5:79,1,80,2|0,0:0|0:0,0:0:0:0:
32,288,260146,2,0,L|34:208,1,80,2|0,0:0|0:0,0:0:0:0:
204,32,260313,5,2,0:2:0:0:
206,68,260396,1,2,0:2:0:0:
209,104,260479,1,2,0:2:0:0:
212,140,260563,1,2,0:2:0:0:
216,176,260646,101,0,0:0:0:0:
272,240,260729,1,0,0:0:0:0:
356,252,260813,2,2,L|391:233,1,40,2|0,0:0|0:0,0:0:0:0:
428,208,260896,2,2,L|439:169,1,40,2|0,0:0|0:0,0:0:0:0:
452,128,260979,86,0,L|444:8,1,120.000004577637,4|0,0:0|0:0,0:0:0:0:
288,76,261146,2,0,L|293:135,1,60.0000022888184,2|0,0:0|0:0,0:0:0:0:
294,161,261229,2,0,L|279:219,1,60.0000022888184,2|0,0:0|0:0,0:0:0:0:
272,240,261313,2,0,L|279:359,1,120.000004577637,8|0,0:0|0:0,0:0:0:0:
96,356,261479,5,2,0:2:0:0:
124,276,261563,1,2,0:2:0:0:
76,204,261646,1,2,0:2:0:0:
111,124,261729,1,2,0:2:0:0:
64,48,261813,2,0,L|143:50,1,80,8|0,0:3|0:0,0:0:0:0:
248,0,261979,2,0,L|323:25,1,80,8|0,0:0|0:0,0:0:0:0:
444,8,262146,2,0,L|501:63,1,80
504,200,262313,6,0,P|480:273|407:298,1,160,8|0,0:3|0:0,0:0:0:0:
376,288,262563,1,0,0:0:0:0:
344,276,262646,2,0,L|353:355,1,80,8|0,0:0|0:0,0:0:0:0:
412,204,262813,5,0,0:0:0:0:
332,176,262896,1,0,0:0:0:0:
260,224,262979,2,0,L|180:233,1,80
48,244,263146,1,0,0:0:0:0:
304,80,263313,2,0,L|383:83,1,80,8|0,0:0|0:0,0:0:0:0:
180,232,263479,1,0,0:0:0:0:
148,152,263563,1,0,0:0:0:0:
200,84,263646,102,0,L|40:91,1,160,8|0,0:3|0:0,0:0:0:0:
56,124,263896,1,0,0:0:0:0:
68,155,263979,2,0,L|147:151,1,80,8|0,0:0|0:0,0:0:0:0:
60,328,264146,5,2,0:2:0:0:
124,268,264229,1,2,0:2:0:0:
208,284,264313,2,0,L|287:287,1,80
496,336,264479,2,0,L|416:341,1,80
384,240,264646,5,8,0:0:0:0:
448,180,264729,1,0,0:0:0:0:
436,96,264813,1,0,0:0:0:0:
364,48,264896,1,0,0:0:0:0:
287,88,264979,2,0,P|179:114|128:15,1,240.000009155274,8|0,0:3|0:0,0:0:0:0:
0,216,265229,1,0,0:0:0:0:
44,191,265313,2,0,P|102:187|152:219,1,120.000004577637,8|0,0:0|0:0,0:0:0:0:
72,368,265479,5,0,0:0:0:0:
124,300,265563,1,0,0:0:0:0:
208,284,265646,1,0,0:0:0:0:
284,328,265729,1,0,0:0:0:0:
368,336,265813,6,0,L|427:328,1,60.0000022888184,2|0,0:2|2:0,0:0:0:0:
308,184,265979,2,0,L|284:239,1,60.0000022888184,10|0,0:2|2:0,0:0:0:0:
476,212,266146,2,0,L|439:164,1,60.0000022888184,2|0,0:2|2:0,0:0:0:0:
384,240,266313,5,4,0:3:0:0:
360,44,266479,1,0,0:0:0:0:
340,72,266563,1,0,0:0:0:0:
320,100,266646,2,0,L|240:94,1,80,8|0,0:0|0:0,0:0:0:0:
36,220,266813,5,0,0:0:0:0:
112,180,266896,1,0,0:0:0:0:
184,228,266979,2,0,P|220:244|260:244,1,80
427,80,267146,2,0,P|394:101|373:134,1,80
296,335,267313,2,0,P|331:317|352:284,1,80,8|0,0:0|0:0,0:0:0:0:
464,172,267479,2,0,P|479:208|509:233,1,80
512,20,267646,101,8,0:3:0:0:
280,0,267813,1,0,0:0:0:0:
292,32,267896,1,0,0:0:0:0:
304,64,267979,2,0,L|224:68,1,80,8|0,0:0|0:0,0:0:0:0:
5,0,268146,5,0,0:0:0:0:
81,40,268229,1,0,0:0:0:0:
113,120,268313,1,0,0:0:0:0:
85,204,268396,1,0,0:0:0:0:
9,244,268479,2,0,L|15:323,1,80
100,384,268646,2,0,B|85:204,1,180.000006866455,8|0,0:0|0:0,0:0:0:0:
216,296,268979,6,0,L|374:314,1,160,12|0,0:3|0:0,0:0:0:0:
480,164,269229,1,0,0:0:0:0:
460,192,269313,2,0,L|380:199,1,80,8|0,0:0|0:0,0:0:0:0:
164,60,269479,1,0,0:0:0:0:
172,92,269563,1,0,0:0:0:0:
180,124,269646,2,0,L|259:133,1,80
460,0,269813,5,0,0:0:0:0:
452,32,269896,1,0,0:0:0:0:
444,64,269979,2,0,L|364:73,1,80,10|0,0:0|0:0,0:0:0:0:
192,240,270146,2,0,L|271:249,1,80
496,324,270313,5,4,0:0:0:0:
464,328,270396,1,0,0:0:0:0:
432,332,270479,1,0,0:0:0:0:
400,336,270563,1,0,0:0:0:0:
368,340,270646,1,8,0:0:0:0:
336,344,270729,1,0,0:0:0:0:
304,348,270813,1,0,0:0:0:0:
272,352,270896,1,0,0:0:0:0:
240,356,270979,5,0,0:0:0:0:
156,336,271063,1,0,0:0:0:0:
100,272,271146,1,0,0:0:0:0:
96,184,271229,1,0,0:0:0:0:
148,112,271313,1,8,0:0:0:0:
232,88,271396,1,0,0:0:0:0:
312,120,271479,2,0,P|340:147|354:184,1,80
268,260,271646,70,0,B|352:288|352:288|428:268|428:268|498:285,1,240.000009155274,4|0,0:0|0:0,0:0:0:0:
176,296,271979,2,0,B|168:256|168:256|179:218,1,80,8|0,0:0|0:0,0:0:0:0:
356,16,272146,2,0,B|364:56|364:56|352:93,1,80
192,124,272313,5,0,0:0:0:0:
272,152,272396,1,0,0:0:0:0:
352,180,272479,1,0,0:0:0:0:
432,152,272563,1,0,0:0:0:0:
512,124,272646,5,8,0:0:0:0:
512,156,272729,1,0,0:0:0:0:
512,188,272813,1,0,0:0:0:0:
512,220,272896,1,0,0:0:0:0:
512,252,272979,102,0,B|392:228|392:228|277:255,1,240.000009155274,8|0,0:3|0:0,0:0:0:0:
244,264,273229,1,0,0:0:0:0:
212,272,273313,2,0,B|206:192,1,80,8|0,0:0|0:0,0:0:0:0:
240,376,273479,5,2,0:2:0:0:
320,356,273563,1,2,0:2:0:0:
400,336,273646,2,0,L|478:351,2,80
384,228,273896,1,0,0:0:0:0:
352,236,273979,2,0,B|274:256,1,80,8|0,0:0|0:0,0:0:0:0:
48,348,274146,1,0,0:0:0:0:
70,266,274229,1,0,0:0:0:0:
28,192,274313,6,0,B|45:32,1,160,8|0,0:3|0:0,0:0:0:0:
240,112,274563,1,0,0:0:0:0:
216,136,274646,2,0,L|136:140,1,80,8|0,0:0|0:0,0:0:0:0:
324,32,274813,5,0,0:0:0:0:
356,112,274896,1,0,0:0:0:0:
324,192,274979,2,0,L|329:271,1,80
224,312,275146,2,0,L|219:233,1,80
428,152,275313,2,0,L|432:231,1,80,8|0,0:0|0:0,0:0:0:0:
116,348,275479,2,0,L|112:268,1,80
3,32,275646,102,0,P|22:143|133:165,1,240.000009155274,8|0,0:3|0:0,0:0:0:0:
4,380,275979,2,0,L|1:300,1,80,8|0,0:0|0:0,0:0:0:0:
96,72,276146,5,2,0:2:0:0:
180,80,276229,1,2,0:2:0:0:
244,26,276313,2,0,L|323:32,1,80
462,91,276479,1,0,0:0:0:0:
446,123,276563,1,0,0:0:0:0:
428,152,276646,2,0,B|268:160,1,160,8|0,0:0|0:0,0:0:0:0:
44,228,276896,1,0,0:0:0:0:
16,208,276979,6,0,B|-16:180|-16:180|132:188|132:188|171:218,1,240.000009155274,8|0,0:3|0:0,0:0:0:0:
364,356,277229,1,0,0:0:0:0:
340,332,277313,2,0,L|352:212,1,120.000004577637,8|0,0:0|0:0,0:0:0:0:
478,7,277479,5,2,0:2:0:0:
462,91,277563,1,2,0:2:0:0:
508,156,277646,2,0,L|499:235,1,80
324,68,277813,2,0,L|397:35,1,80
352,260,277979,2,0,L|287:212,1,80,8|0,0:0|0:0,0:0:0:0:
400,160,278146,1,0,0:0:0:0:
244,300,278313,6,0,B|204:264|204:264|192:208|192:208|211:147,1,160,8|0,0:3|0:0,0:0:0:0:
76,8,278563,1,0,0:0:0:0:
96,36,278646,2,0,B|128:88|128:88|108:143,1,120.000004577637,8|0,0:0|0:0,0:0:0:0:
4,352,278813,1,2,0:2:0:0:
84,384,278896,1,2,0:2:0:0:
164,356,278979,1,2,0:2:0:0:
244,384,279063,1,2,0:2:0:0:
324,356,279146,2,0,L|403:359,1,80,8|0,0:3|0:0,0:0:0:0:
312,188,279313,6,0,L|153:209,1,160,8|0,0:0|0:0,0:0:0:0:
72,192,279563,1,0,0:0:0:0:
153,208,279646,2,0,L|231:222,1,80,8|0,0:3|0:0,0:0:0:0:
475,209,279813,5,0,0:0:0:0:
439,285,279896,1,0,0:0:0:0:
403,361,279979,2,0,L|324:356,1,80,8|0,0:0|0:0,0:0:0:0:
36,267,280146,1,0,0:0:0:0:
72,192,280229,1,0,0:0:0:0:
108,115,280313,2,0,L|188:119,1,80
348,36,280479,2,0,L|304:103,1,80,8|0,0:0|0:0,0:0:0:0:
323,355,280646,2,0,L|262:207,1,160,10|0,0:0|0:0,0:0:0:0:
296,216,280896,1,0,0:0:0:0:
328,224,280979,22,0,L|359:297,1,80
152,352,281146,2,0,L|172:274,1,80
408,144,281313,22,0,L|438:217,1,80,8|0,0:0|0:0,0:0:0:0:
64,288,281479,2,0,L|83:210,1,80
220,0,281646,5,2,0:2:0:0:
236,28,281729,1,2,0:2:0:0:
244,60,281813,1,2,0:2:0:0:
244,92,281896,1,2,0:2:0:0:
236,124,281979,101,8,0:0:0:0:
180,188,282063,1,0,0:0:0:0:
172,274,282146,1,2,0:0:0:0:
228,340,282229,1,2,0:0:0:0:
312,360,282313,86,0,B|496:344|496:344|450:312,1,240.000009155274,4|0,0:0|0:0,0:0:0:0:
380,268,282563,1,0,0:0:0:0:
456,228,282646,2,0,L|448:108,1,120.000004577637,8|0,0:0|0:0,0:0:0:0:
304,40,282813,5,0,0:0:0:0:
297,73,282896,1,0,0:0:0:0:
290,106,282979,1,0,0:0:0:0:
283,140,283063,1,0,0:0:0:0:
276,173,283146,2,0,L|355:167,1,80
148,256,283313,2,0,L|227:267,1,80,8|0,0:0|0:0,0:0:0:0:
0,304,283479,2,0,L|72:337,1,80
0,155,283646,6,0,P|23:82|96:57,1,160,8|0,0:3|0:0,0:0:0:0:
128,68,283896,1,0,0:0:0:0:
160,80,283979,2,0,L|150:0,1,80,8|0,0:0|0:0,0:0:0:0:
96,152,284146,5,0,0:0:0:0:
68,232,284229,1,0,0:0:0:0:
116,304,284313,1,0,0:0:0:0:
200,308,284396,1,0,0:0:0:0:
252,240,284479,2,0,L|243:160,1,80
336,0,284646,2,0,L|326:79,1,80,8|0,0:0|0:0,0:0:0:0:
360,296,284813,1,0,0:0:0:0:
436,264,284896,1,0,0:0:0:0:
512,232,284979,102,0,L|504:72,1,160,8|0,0:3|0:0,0:0:0:0:
472,88,285229,1,0,0:0:0:0:
440,100,285313,2,0,L|444:179,1,80,8|0,0:0|0:0,0:0:0:0:
388,376,285479,5,2,0:2:0:0:
360,296,285563,1,2,0:2:0:0:
332,216,285646,2,0,L|328:137,1,80
200,300,285813,2,0,L|195:220,1,80,8|0,0:3|0:0,0:0:0:0:
64,380,285979,1,8,0:0:0:0:
56,296,286063,1,0,0:0:0:0:
48,212,286146,1,0,0:0:0:0:
40,128,286229,1,0,0:0:0:0:
32,43,286313,6,0,P|120:110|67:207,1,240.000009155274,8|0,0:3|0:0,0:0:0:0:
201,351,286563,1,0,0:0:0:0:
200,299,286646,2,0,P|222:245|274:216,1,120.000004577637,8|0,0:0|0:0,0:0:0:0:
464,364,286813,5,2,0:2:0:0:
396,312,286896,1,2,0:2:0:0:
380,228,286979,1,2,0:2:0:0:
424,152,287063,1,2,0:2:0:0:
504,120,287146,2,0,L|496:60,1,60.0000022888184,2|0,1:2|2:0,0:0:0:0:
340,152,287313,2,0,L|332:92,1,60.0000022888184,10|0,1:2|2:0,0:0:0:0:
172,180,287479,2,0,L|164:120,1,60.0000022888184,2|0,1:2|2:0,0:0:0:0:
8,208,287646,5,8,0:3:0:0:
116,0,287813,1,0,0:0:0:0:
144,20,287896,1,0,0:0:0:0:
170,40,287979,2,0,L|164:119,1,80,8|0,0:0|0:0,0:0:0:0:
24,315,288146,5,2,0:2:0:0:
105,340,288229,1,2,0:2:0:0:
184,307,288313,2,0,P|200:271|200:231,1,80
8,112,288479,2,0,P|29:145|62:166,1,80,8|0,0:3|0:0,0:0:0:0:
291,191,288646,2,0,P|270:158|235:138,1,80,8|0,0:0|0:0,0:0:0:0:
115,0,288813,2,0,P|99:36|99:76,1,80
272,0,288979,101,8,0:3:0:0:
200,231,289146,1,0,0:0:0:0:
192,272,289229,1,0,0:0:0:0:
184,308,289313,2,0,L|104:310,1,80,8|0,0:0|0:0,0:0:0:0:
120,136,289479,5,2,0:2:0:0:
202,110,289563,1,2,0:2:0:0:
281,144,289646,1,2,0:2:0:0:
320,223,289729,1,2,0:2:0:0:
295,305,289813,2,0,L|300:384,1,80,8|0,0:3|0:0,0:0:0:0:
377,381,289979,2,0,B|369:269|369:269|319:222,1,180.000006866455,8|0,0:0|0:0,0:0:0:0:
184,308,290313,6,0,L|24:316,1,160,8|0,0:3|0:0,0:0:0:0:
64,148,290563,1,0,0:0:0:0:
92,168,290646,2,0,L|101:247,1,80,8|0,0:0|0:0,0:0:0:0:
266,126,290813,1,0,0:0:0:0:
234,118,290896,1,0,0:0:0:0:
202,110,290979,2,0,L|192:30,1,80
383,206,291146,5,0,0:0:0:0:
351,214,291229,1,0,0:0:0:0:
319,222,291313,2,0,L|309:301,1,80,8|0,0:0|0:0,0:0:0:0:
368,80,291479,6,0,L|357:0,1,80
508,96,291646,1,0,0:0:0:0:
504,128,291729,1,0,0:0:0:0:
501,160,291813,1,0,0:0:0:0:
498,192,291896,1,0,0:0:0:0:
494,224,291979,1,0,0:0:0:0:
491,256,292063,1,0,0:0:0:0:
488,288,292146,1,0,0:0:0:0:
484,320,292229,1,0,0:0:0:0:
480,352,292313,6,0,L|424:346,1,40,0|0,0:3|0:0,0:0:0:0:
316,348,292479,2,0,L|262:341,1,40,0|0,0:3|0:0,0:0:0:0:
120,268,292646,2,0,L|174:260,1,40,8|0,0:0|0:0,0:0:0:0:
279,226,292813,2,0,L|333:219,1,40,0|0,0:3|0:0,0:0:0:0:
180,136,292979,6,0,B|237:43|237:43|147:-11|147:-11|96:88|96:88|176:133|176:133|231:44|231:44|148:-12|148:-12|88:84|88:84|179:135,1,840.000032043458,4|0,0:0|0:0,0:0:0:0:
432,68,293646,5,2,0:2:0:0:
436,104,293729,1,2,0:2:0:0:
440,140,293813,1,2,0:2:0:0:
444,176,293896,1,2,0:2:0:0:
448,212,293979,5,8,0:0:0:0:
368,184,294063,1,0,0:0:0:0:
300,236,294146,1,0,0:0:0:0:
220,204,294229,1,0,0:0:0:0:
152,256,294313,102,0,B|54:244|54:244|135:198,1,191.999994140625,8|0,0:3|0:0,0:0:0:0:
212,336,294563,1,0,0:0:0:0:
180,360,294646,2,0,B|100:351,1,80,8|0,0:0|0:0,0:0:0:0:
28,144,294813,5,0,0:0:0:0:
104,108,294896,1,0,0:0:0:0:
92,24,294979,2,0,B|211:37,1,120.000004577637
424,0,295146,1,0,0:0:0:0:
460,80,295229,1,0,0:0:0:0:
408,148,295313,2,0,B|288:154,1,120.000004577637
88,300,295479,1,0,0:0:0:0:
48,312,295563,1,0,0:0:0:0:
12,324,295646,102,0,B|23:228,1,95.9999970703126,0|0,0:3|0:0,0:0:0:0:
196,304,295813,2,0,L|207:208,1,95.9999970703126,8|0,0:3|0:0,0:0:0:0:
393,286,295979,2,0,L|423:0,1,287.999991210938,8|0,0:0|0:0,0:0:0:0:
224,72,296313,1,0,0:0:0:0:
304,44,296396,1,0,0:0:0:0:
380,84,296479,2,0,P|438:93|491:67,1,120.000004577637,8|0,0:3|0:0,0:0:0:0:
503,268,296646,2,0,P|445:259|392:285,1,120.000004577637,8|0,0:0|0:0,0:0:0:0:
80,344,296813,1,0,0:0:0:0:
112,264,296896,1,0,0:0:0:0:
40,220,296979,102,0,B|64:148|64:148|52:100|52:100|69:35,1,191.999994140625,8|0,0:3|0:0,0:0:0:0:
296,148,297229,1,0,0:0:0:0:
316,184,297313,2,0,L|300:262,1,80,8|0,0:0|0:0,0:0:0:0:
224,72,297479,5,0,0:0:0:0:
304,44,297563,1,0,0:0:0:0:
380,84,297646,2,0,L|499:73,1,120.000004577637
452,308,297813,1,0,0:0:0:0:
416,308,297896,1,0,0:0:0:0:
383,324,297979,2,0,P|300:364|217:323,1,191.999994140625,8|0,0:0|0:0,0:0:0:0:
180,60,298229,1,0,0:0:0:0:
140,52,298313,6,0,B|80:45,1,60.0000022888184,2|0,0:2|0:2,0:0:0:0:
292,136,298479,2,0,L|233:146,1,60.0000022888184,2|0,0:2|0:2,0:0:0:0:
460,140,298646,2,0,L|416:181,1,60.0000022888184,10|0,0:2|0:2,0:0:0:0:
144,364,298813,1,2,0:2:0:0:
60,340,298896,1,2,0:2:0:0:
40,256,298979,1,2,0:2:0:0:
92,184,299063,1,2,0:2:0:0:
60,104,299146,2,0,L|71:8,1,95.9999970703126
217,323,299313,2,0,L|241:132,1,191.999994140625,8|0,0:0|0:0,0:0:0:0:
396,344,299646,6,0,B|316:350,1,80
336,96,299813,2,0,L|415:90,1,80
124,224,299979,2,0,L|4:234,1,120.000004577637,8|0,0:0|0:0,0:0:0:0:
264,228,300146,1,0,0:0:0:0:
293,225,300229,1,0,0:0:0:0:
322,224,300313,2,0,L|441:214,1,120.000004577637
192,128,300479,1,0,0:0:0:0:
148,56,300563,1,0,0:0:0:0:
212,0,300646,2,0,L|20:12,1,191.999994140625,8|0,0:0|0:0,0:0:0:0:
4,256,300896,1,0,0:0:0:0:
28,232,300979,6,0,L|123:223,1,95.9999970703126,4|0,0:0|0:0,0:0:0:0:
352,32,301146,2,0,L|447:23,1,95.9999970703126,8|0,0:3|0:0,0:0:0:0:
192,128,301313,1,8,0:0:0:0:
276,120,301396,1,0,0:0:0:0:
352,160,301479,1,0,0:0:0:0:
372,244,301563,1,0,0:0:0:0:
340,324,301646,1,0,0:0:0:0:
260,356,301729,1,0,0:0:0:0:
176,336,301813,2,0,L|80:344,1,95.9999970703126
123,224,301979,2,0,L|28:232,1,95.9999970703126,8|0,0:0|0:0,0:0:0:0:
316,0,302146,1,0,0:0:0:0:
248,52,302229,1,0,0:0:0:0:
180,104,302313,22,0,L|60:112,1,120.000004577637,8|0,0:3|0:0,0:0:0:0:
252,228,302479,1,0,0:0:0:0:
320,176,302563,1,0,0:0:0:0:
392,128,302646,22,0,L|512:116,1,120.000004577637,8|0,0:0|0:0,0:0:0:0:
356,280,302813,2,0,L|475:268,1,120.000004577637
259,373,302979,5,0,0:0:0:0:
258,336,303063,1,0,0:0:0:0:
256,300,303146,1,0,0:0:0:0:
254,264,303229,1,0,0:0:0:0:
252,228,303313,101,8,0:0:0:0:
198,162,303396,1,0,0:0:0:0:
115,157,303479,2,0,L|70:175,1,47.9999985351563,2|0,0:0|0:0,0:0:0:0:
40,192,303563,2,0,L|23:236,1,47.9999985351563,2|0,0:0|0:0,0:0:0:0:
20,272,303646,2,0,L|26:367,1,95.9999970703126,4|0,0:0|0:0,0:0:0:0:
252,228,303813,2,0,L|259:323,1,95.9999970703126
472,96,303979,2,0,L|494:383,1,287.999991210938,8|0,0:0|0:0,0:0:0:0:
259,323,304313,5,2,0:2:0:0:
223,327,304396,1,2,0:2:0:0:
187,331,304479,1,2,0:2:0:0:
151,335,304563,1,2,0:2:0:0:
115,339,304646,5,8,0:0:0:0:
164,268,304729,1,0,0:0:0:0:
152,184,304813,1,0,0:0:0:0:
84,132,304896,1,0,0:0:0:0:
0,148,304979,102,0,B|48:152|48:152|80:132|80:132|233:144,1,240.000009155274,8|0,0:3|0:0,0:0:0:0:
256,168,305229,1,0,0:0:0:0:
284,192,305313,2,0,B|363:197,1,80
512,308,305479,5,0,0:0:0:0:
440,356,305563,1,0,0:0:0:0:
356,340,305646,2,0,L|236:350,1,120.000004577637
312,150,305813,1,0,0:0:0:0:
335,174,305896,1,0,0:0:0:0:
363,197,305979,2,0,B|482:184,1,120.000004577637,8|0,0:0|0:0,0:0:0:0:
320,36,306146,1,0,0:0:0:0:
252,88,306229,1,0,0:0:0:0:
172,60,306313,102,0,B|76:51,1,95.9999970703126,0|0,0:3|0:0,0:0:0:0:
244,216,306479,2,0,L|148:210,1,95.9999970703126,8|0,0:3|0:0,0:0:0:0:
316,372,306646,2,0,L|28:354,1,287.999991210938,8|0,0:0|0:0,0:0:0:0:
16,180,306979,1,0,0:0:0:0:
88,136,307063,1,0,0:0:0:0:
76,51,307146,2,0,L|171:59,1,95.9999970703126,8|0,0:0|0:0,0:0:0:0:
400,132,307313,2,0,L|495:140,1,95.9999970703126,8|0,0:0|0:0,0:0:0:0:
268,0,307479,1,0,0:0:0:0:
304,76,307563,1,0,0:0:0:0:
252,144,307646,102,0,B|276:224|276:224|256:288|256:288|279:374,1,240.000009155274,8|0,0:3|0:0,0:0:0:0:
172,224,307896,1,0,0:0:0:0:
148,216,307979,2,0,L|88:226,1,60.0000022888184,10|0,0:2|0:2,0:0:0:0:
160,328,308146,2,0,L|100:338,1,60.0000022888184,2|0,0:2|0:2,0:0:0:0:
136,104,308313,2,0,L|41:119,1,95.9999970703126
356,292,308479,1,0,0:0:0:0:
368,320,308563,1,0,0:0:0:0:
380,348,308646,2,0,B|428:352|428:352|452:336|452:336|512:340|512:340|493:353,1,160,8|0,0:0|0:0,0:0:0:0:
440,228,308896,1,0,0:0:0:0:
428,196,308979,6,0,B|436:100,1,95.9999970703126
277,236,309146,2,0,B|355:291,1,95.9999970703126,8|0,0:3|0:0,0:0:0:0:
308,84,309313,2,0,B|198:133,1,120.000004577637,8|0,0:0|0:0,0:0:0:0:
40,0,309479,1,2,0:2:0:0:
12,80,309563,1,2,0:2:0:0:
56,152,309646,1,2,0:2:0:0:
28,232,309729,1,2,0:2:0:0:
76,304,309813,2,0,L|66:383,1,80
364,376,309979,2,0,L|173:356,1,191.999994140625,8|0,0:0|0:0,0:0:0:0:
396,268,310313,6,0,P|438:290|467:328,1,95.9999970703126,4|0,0:0|0:0,0:0:0:0:
172,248,310479,2,0,P|219:240|259:215,1,95.9999970703126,8|0,0:0|0:0,0:0:0:0:
399,24,310646,2,0,P|370:75|369:135,1,120.000004577637,8|0,0:0|0:0,0:0:0:0:
184,144,310813,1,0,0:0:0:0:
104,112,310896,1,0,0:0:0:0:
25,148,310979,2,0,L|31:267,1,120.000004577637
231,350,311146,1,0,0:0:0:0:
255,362,311229,1,0,0:0:0:0:
279,374,311313,2,0,L|259:215,1,160,8|0,0:0|0:0,0:0:0:0:
12,352,311563,5,0,0:0:0:0:
0,376,311646,2,0,P|47:377|92:361,1,95.9999970703126,8|0,0:3|0:0,0:0:0:0:
259,215,311813,2,0,L|354:220,1,95.9999970703126,8|0,0:3|0:0,0:0:0:0:
508,376,311979,1,8,0:0:0:0:
452,312,312063,1,0,0:0:0:0:
456,228,312146,1,0,0:0:0:0:
512,164,312229,1,0,0:0:0:0:
512,80,312313,1,0,0:0:0:0:
456,16,312396,5,0,0:0:0:0:
372,20,312479,2,0,L|292:30,1,80
92,80,312646,2,0,L|12:74,1,80,8|0,0:0|0:0,0:0:0:0:
164,0,312813,1,0,0:0:0:0:
180,24,312896,5,0,0:0:0:0:
196,44,312979,2,0,L|192:139,1,95.9999970703126
136,204,313146,5,0,0:3:0:0:
52,188,313229,1,0,0:3:0:0:
0,380,313313,2,0,L|6:260,1,120.000004577637
52,188,313479,1,0,0:3:0:0:
136,204,313563,1,0,0:3:0:0:
252,336,313646,6,0,L|311:342,1,60.0000022888184,0|0,0:3|0:0,0:0:0:0:
440,304,313813,2,0,L|499:310,1,60.0000022888184,0|0,0:3|0:0,0:0:0:0:
264,320,313979,2,0,L|323:326,1,60.0000022888184,8|0,0:0|0:0,0:0:0:0:
452,288,314146,2,0,L|511:294,1,60.0000022888184,0|0,0:3|0:0,0:0:0:0:
360,216,314313,6,0,B|148:4|624:67|360:216|360:216|148:4|624:67|360:216,1,840.000032043458,4|0,0:0|0:0,0:0:0:0:
48,320,314979,5,2,0:2:0:0:
44,284,315063,1,2,0:2:0:0:
40,248,315146,1,2,0:2:0:0:
36,212,315229,1,2,0:2:0:0:
32,176,315313,5,8,0:0:0:0:
104,132,315396,1,0,0:0:0:0:
180,172,315479,1,0,0:0:0:0:
256,128,315563,1,0,0:0:0:0:
336,160,315646,2,0,B|480:144|480:144|453:183,1,191.999994140625,8|0,0:3|0:0,0:0:0:0:
440,208,315896,1,0,0:0:0:0:
424,232,315979,2,0,B|503:226,1,80,8|0,0:0|0:0,0:0:0:0:
306,323,316146,5,2,0:2:0:0:
222,319,316229,1,2,0:2:0:0:
266,247,316313,2,0,L|255:127,1,120.000004577637
123,319,316479,1,10,0:2:0:0:
119,283,316563,1,2,0:2:0:0:
115,251,316646,2,0,B|103:131,1,120.000004577637,8|0,0:0|0:0,0:0:0:0:
248,40,316813,1,0,0:0:0:0:
326,79,316896,1,0,0:0:0:0:
400,32,316979,6,0,B|495:40,1,95.9999970703126
366,167,317146,2,0,B|326:79,1,95.9999970703126,8|0,0:3|0:0,0:0:0:0:
508,129,317313,2,0,B|448:198|448:198|484:238|484:238|456:266|456:266|513:306|504:357,1,287.999991210938,8|0,0:0|0:0,0:0:0:0:
240,224,317646,1,0,0:0:0:0:
224,308,317729,1,0,0:0:0:0:
279,374,317813,2,0,L|398:362,1,120.000004577637,8|0,0:0|0:0,0:0:0:0:
144,336,317979,2,0,L|24:349,1,120.000004577637,8|0,0:0|0:0,0:0:0:0:
8,136,318146,1,0,0:0:0:0:
80,184,318229,1,0,0:0:0:0:
160,155,318313,102,0,P|265:115|341:198,1,240.000009155274,8|0,0:3|0:0,0:0:0:0:
92,292,318563,1,0,0:0:0:0:
88,264,318646,2,0,L|80:184,1,80,8|0,0:0|0:0,0:0:0:0:
212,68,318813,1,2,0:2:0:0:
260,140,318896,1,2,0:2:0:0:
240,224,318979,6,0,L|249:343,1,120.000004577637
444,344,319146,2,0,L|437:284,1,60.0000022888184,2|0,0:0|0:0,0:0:0:0:
436,268,319229,2,0,L|443:208,1,60.0000022888184,2|0,0:0|0:0,0:0:0:0:
444,188,319313,2,0,L|425:29,1,160,8|0,0:0|0:0,0:0:0:0:
324,200,319563,5,0,0:0:0:0:
335,233,319646,2,0,B|239:223,1,95.9999970703126,8|0,0:3|0:0,0:0:0:0:
48,312,319813,2,0,L|142:297,1,95.9999970703126,8|0,0:3|0:0,0:0:0:0:
345,354,319979,2,0,L|249:343,1,95.9999970703126,8|0,0:0|0:0,0:0:0:0:
128,180,320146,1,0,0:0:0:0:
82,187,320229,1,0,0:0:0:0:
34,195,320313,1,2,0:2:0:0:
48,112,320396,1,2,0:2:0:0:
108,52,320479,1,2,0:2:0:0:
192,48,320563,1,2,0:2:0:0:
264,96,320646,2,0,L|343:87,1,80,8|0,0:0|0:0,0:0:0:0:
208,328,320813,1,0,0:0:0:0:
168,324,320896,1,0,0:0:0:0:
127,321,320979,6,0,B|48:312,1,80
284,196,321146,2,0,L|188:207,1,95.9999970703126,8|0,0:3|0:0,0:0:0:0:
457,48,321313,2,0,L|343:86,1,120.000004577637,8|0,0:0|0:0,0:0:0:0:
0,40,321479,1,2,0:2:0:0:
48,112,321563,1,2,0:2:0:0:
33,194,321646,2,0,L|47:313,1,120.000004577637
325,307,321813,1,8,0:3:0:0:
313,331,321896,1,0,0:0:0:0:
301,355,321979,2,0,L|283:195,1,160,8|0,0:0|0:0,0:0:0:0:
124,72,322229,1,0,0:0:0:0:
152,60,322313,6,0,L|247:67,1,95.9999970703126,8|0,0:3|0:0,0:0:0:0:
480,216,322479,2,0,L|385:229,1,95.9999970703126
199,348,322646,1,10,0:0:0:0:
114,367,322729,1,2,0:2:0:0:
47,313,322813,1,2,0:2:0:0:
47,226,322896,1,2,0:2:0:0:
114,173,322979,1,0,0:0:0:0:
199,192,323063,1,0,0:0:0:0:
236,270,323146,2,0,L|222:348,1,80,8|0,0:3|0:0,0:0:0:0:
376,192,323313,2,0,L|364:271,1,80,8|0,0:0|0:0,0:0:0:0:
480,68,323479,1,0,0:0:0:0:
496,92,323563,1,0,0:0:0:0:
512,112,323646,6,0,L|498:207,1,95.9999970703126,8|0,0:3|0:0,0:0:0:0:
372,88,323813,1,0,0:0:0:0:
288,72,323896,1,0,0:0:0:0:
211,118,323979,6,0,L|229:0,1,120.000004577637,8|0,0:0|0:0,0:0:0:0:
288,163,324146,1,0,0:0:0:0:
372,179,324229,1,0,0:0:0:0:
368,266,324313,22,0,L|361:325,1,60.0000022888184,0|0,0:0|2:0,0:0:0:0:
120,313,324479,2,0,L|126:253,1,60.0000022888184,0|0,0:0|2:0,0:0:0:0:
243,290,324646,22,0,L|236:349,1,60.0000022888184,8|0,0:0|2:0,0:0:0:0:
0,356,324813,2,2,L|7:297,1,60.0000022888184,2|2,0:0|2:0,0:0:0:0:
152,152,324979,6,0,B|76:136|51:66|51:66|76:136|29:199|29:199|76:136|152:152|152:152|76:136|51:67|51:67|76:136|29:199|29:199|76:136|152:152,1,840.000032043458,4|0,0:0|0:0,0:0:0:0:
316,236,325646,5,2,0:2:0:0:
352,232,325729,1,2,0:2:0:0:
388,228,325813,1,10,0:2:0:0:
424,224,325896,1,2,0:2:0:0:
460,220,325979,5,8,0:0:0:0:
460,304,326063,1,0,0:0:0:0:
407,369,326146,1,0,0:0:0:0:
340,318,326229,1,0,0:0:0:0:
316,236,326313,102,0,L|125:257,1,191.999994140625,8|0,0:3|0:0,0:0:0:0:
96,244,326563,1,0,0:0:0:0:
60,228,326646,2,0,B|66:347,1,120.000004577637,8|0,0:0|0:0,0:0:0:0:
216,216,326813,5,0,0:0:0:0:
160,148,326896,1,0,0:0:0:0:
212,80,326979,2,0,L|204:0,1,80
60,228,327146,1,8,0:3:0:0:
56,188,327229,1,0,0:0:0:0:
52,148,327313,2,0,B|45:68,1,80,8|0,0:0|0:0,0:0:0:0:
266,146,327479,1,0,0:0:0:0:
316,76,327563,1,0,0:0:0:0:
360,1,327646,102,0,B|455:7,1,95.9999970703126,0|0,0:3|0:0,0:0:0:0:
352,156,327813,2,0,L|409:232,1,95.9999970703126,8|0,0:3|0:0,0:0:0:0:
212,80,327979,2,0,L|195:367,1,287.999991210938,8|0,0:0|0:0,0:0:0:0:
0,256,328313,1,0,0:0:0:0:
64,312,328396,1,0,0:0:0:0:
140,271,328479,2,0,P|198:259|255:274,1,120.000004577637,8|0,0:3|0:0,0:0:0:0:
467,332,328646,2,0,P|409:344|352:329,1,120.000004577637,8|0,0:0|0:0,0:0:0:0:
228,164,328813,1,0,0:0:0:0:
212,80,328896,1,0,0:0:0:0:
280,27,328979,102,0,P|357:19|419:66,1,160,8|0,0:3|0:0,0:0:0:0:
120,148,329229,1,0,0:0:0:0:
108,112,329313,2,0,L|123:17,1,95.9999970703126,8|0,0:0|0:0,0:0:0:0:
328,124,329479,5,0,0:0:0:0:
332,148,329563,1,0,0:0:0:0:
336,168,329646,1,0,0:0:0:0:
340,188,329729,1,0,0:0:0:0:
344,208,329813,1,0,0:0:0:0:
348,224,329896,1,0,0:0:0:0:
352,240,329979,5,8,0:3:0:0:
268,236,330063,1,8,0:3:0:0:
176,224,330146,1,8,0:3:0:0:
88,212,330229,1,8,0:3:0:0:
0,200,330313,6,0,B|12:80,1,120.000004577637,4|0,0:0|0:0,0:0:0:0:
168,128,330479,2,0,L|214:44,1,95.9999970703126,8|0,0:0|0:0,0:0:0:0:
328,124,330646,2,0,L|398:86,1,80,8|0,0:0|0:0,0:0:0:0:
456,232,330813,5,0,0:0:0:0:
460,256,330896,1,0,0:0:0:0:
464,276,330979,1,0,0:0:0:0:
468,296,331063,1,0,0:0:0:0:
472,316,331146,1,0,0:0:0:0:
476,332,331229,1,0,0:0:0:0:
480,348,331313,5,8,0:3:0:0:
396,344,331396,1,8,0:3:0:0:
304,332,331479,1,8,0:3:0:0:
216,320,331563,1,8,0:3:0:0:
128,308,331646,6,0,B|9:327,1,120.000004577637,4|0,0:0|0:0,0:0:0:0:
176,176,331813,2,0,L|80:176,1,95.9999970703126,8|0,0:0|0:0,0:0:0:0:
256,52,331979,2,0,L|163:26,1,95.9999970703126,8|0,0:0|0:0,0:0:0:0:
384,40,332146,5,0,0:0:0:0:
408,36,332229,1,0,0:0:0:0:
428,32,332313,1,0,0:0:0:0:
448,28,332396,1,0,0:0:0:0:
468,24,332479,1,0,0:0:0:0:
484,20,332563,1,0,0:0:0:0:
500,16,332646,5,8,0:3:0:0:
496,100,332729,1,8,0:3:0:0:
484,192,332813,1,8,0:3:0:0:
472,280,332896,1,8,0:3:0:0:
456,368,332979,2,0,L|336:354,1,120.000004577637,6|0,0:0|0:0,0:0:0:0:
216,340,333146,2,0,L|136:329,1,80,10|0,0:0|0:0,0:0:0:0:
384,140,333313,5,8,0:0:0:0:
380,168,333396,1,0,0:0:0:0:
376,200,333479,1,0,0:0:0:0:
372,232,333563,1,0,0:0:0:0:
368,256,333646,2,0,L|248:242,1,120.000004577637,6|0,0:0|0:0,0:0:0:0:
120,224,333813,2,0,L|40:214,1,80,10|0,0:0|0:0,0:0:0:0:
300,28,333979,5,8,0:0:0:0:
296,56,334063,1,0,0:0:0:0:
292,88,334146,1,0,0:0:0:0:
288,120,334229,1,0,0:0:0:0:
284,144,334313,2,0,L|204:134,1,80,6|0,0:0|0:0,0:0:0:0:
80,116,334479,2,0,L|0:105,1,80,8|0,0:0|0:0,0:0:0:0:
81,289,334646,22,0,P|108:261|119:223,1,80,10|0,0:0|0:0,0:0:0:0:
145,33,334813,2,0,P|172:61|182:99,1,80,2|0,0:0|0:0,0:0:0:0:
182,326,334979,2,0,P|220:317|258:327,1,80,4|0,0:0|0:0,0:0:0:0:
285,113,335146,2,0,P|273:152|245:180,1,80
52,368,335313,101,0,0:0:0:0:
62,284,335396,1,0,0:0:0:0:
71,200,335479,1,0,0:0:0:0:
80,116,335563,1,0,0:0:0:0:
89,30,335646,6,0,L|52:368,1,339.200000517578,4|0,0:0|0:0,0:0:0:0:
104,48,336813,1,0,0:0:0:0:
124,64,336979,2,0,L|283:56,2,160,0|0|8,0:0|0:0|0:0,0:0:0:0:
32,140,337813,1,0,0:0:0:0:
36,164,337979,1,0,0:0:0:0:
40,188,338146,1,0,0:0:0:0:
44,208,338313,5,0,0:0:0:0:
72,328,338479,2,0,L|-8:340,2,80
204,308,338979,2,0,L|243:302,1,40,8|0,0:0|0:0,0:0:0:0:
344,344,339146,5,0,0:0:0:0:
348,320,339313,1,0,0:0:0:0:
352,296,339479,1,0,0:0:0:0:
356,276,339646,2,0,L|379:352,1,80
436,212,339979,1,0,0:0:0:0:
276,120,340146,1,0,0:0:0:0:
424,56,340313,2,0,L|417:95,1,40,8|0,0:0|0:0,0:0:0:0:
436,212,340479,5,0,0:0:0:0:
416,236,340646,2,0,B|392:224|392:224|348:248|301:233,1,120
216,160,340979,6,0,B|144:176|96:120|96:120|96:172|48:208|48:208|104:252|104:316|104:316|140:248|194:257,1,480,4|0,0:0|2:0,0:0:0:0:
432,340,341646,2,0,B|384:375|384:375|204:363,1,240,8|0,0:0|0:0,0:0:0:0:
352,272,342313,5,0,0:0:0:0:
504,264,342479,2,0,L|510:184,2,80
388,132,342979,6,0,L|427:126,1,40,8|0,0:0|0:0,0:0:0:0:
320,240,343146,1,0,0:0:0:0:
344,244,343313,1,0,0:0:0:0:
368,248,343479,1,0,0:0:0:0:
388,252,343646,2,0,L|310:270,1,80
200,296,343979,2,0,L|180:300,1,20
68,324,344146,2,0,L|48:328,1,20
120,180,344313,2,0,L|113:219,1,40
16,140,344479,6,0,P|29:21|16:140,1,240.000009155274
113,219,344813,1,0,0:0:0:0:
211,134,344979,2,0,L|290:127,1,80
428,277,345313,1,0,0:0:0:0:
418,317,345479,1,0,0:0:0:0:
379,109,345646,5,0,0:0:0:0:
372,72,345813,1,0,0:0:0:0:
243,211,345979,1,0,0:0:0:0:
233,251,346146,1,0,0:0:0:0:
112,117,346313,6,0,L|102:57,1,60.0000022888184,4|0,0:0|0:0,0:0:0:0:
0,41,346479,2,0,B|239:31,1,240.000009155274
34,204,346979,2,0,L|152:220,1,120.000004577637,8|0,0:0|0:0,0:0:0:0:
429,287,347313,1,0,0:0:0:0:
343,353,347479,2,0,L|283:356,1,60.0000022888184
183,353,347646,6,0,L|209:235,1,120.000004577637
62,45,347979,1,0,0:0:0:0:
49,91,348146,5,0,0:0:0:0:
39,326,348313,2,0,L|57:269,1,60.0000022888184,8|0,0:0|0:0,0:0:0:0:
96,258,348479,1,0,0:0:0:0:
235,92,348646,1,0,0:0:0:0:
221,138,348813,1,0,0:0:0:0:
291,343,348979,2,0,L|304:284,1,60.0000022888184
428,211,349146,2,0,L|401:328,1,120.000004577637
453,106,349479,5,0,0:0:0:0:
283,28,349646,2,0,L|264:84,1,60.0000022888184,8|0,0:0|0:0,0:0:0:0:
236,114,349813,5,0,0:0:0:0:
77,181,349979,1,0,0:0:0:0:
57,144,350146,2,0,L|64:104,1,40
15,15,350313,6,0,P|81:56|158:42,1,160,4|0,0:0|0:0,0:0:0:0:
101,278,350646,1,0,0:0:0:0:
56,269,350813,1,0,0:0:0:0:
259,332,350979,2,0,L|338:320,1,80,8|0,0:0|0:0,0:0:0:0:
376,314,351146,1,0,0:0:0:0:
330,105,351313,1,0,0:0:0:0:
302,134,351479,2,0,P|286:169|289:209,1,80
392,190,351646,6,0,L|471:199,1,80,4|0,0:0|0:0,0:0:0:0:
261,235,351813,2,0,L|102:215,1,160
60,57,352146,1,0,0:0:0:0:
89,89,352313,2,0,L|168:99,1,80,8|0,0:0|0:0,0:0:0:0:
310,71,352479,1,0,0:0:0:0:
392,190,352646,1,0,0:0:0:0:
311,313,352813,1,0,0:0:0:0:
410,220,352979,6,0,L|405:259,1,40,6|0,0:0|0:0,0:0:0:0:
328,99,353146,2,0,L|322:138,1,40
484,8,353313,2,0,L|474:87,1,80
402,236,353646,6,0,P|364:244|325:236,1,80,8|0,0:0|0:0,0:0:0:0:
141,332,353813,2,0,P|179:324|218:333,1,80
82,206,353979,5,0,0:0:0:0:
90,160,354063,1,0,0:0:0:0:
110,125,354146,1,0,0:0:0:0:
142,98,354229,1,0,0:0:0:0:
184,88,354313,1,0,0:0:0:0:
224,92,354396,1,0,0:0:0:0:
261,110,354479,1,0,0:0:0:0:
290,142,354563,1,0,0:0:0:0:
306,180,354646,1,0,0:0:0:0:
294,217,354729,1,0,0:0:0:0:
271,258,354813,5,0,0:0:0:0:
194,304,354896,1,0,0:0:0:0:
106,302,354979,1,8,0:0:0:0:
34,255,355063,1,0,0:0:0:0:
0,172,355146,1,0,0:0:0:0:
17,87,355229,1,0,0:0:0:0:
76,21,355313,1,0,0:0:0:0:
161,2,355396,1,0,0:0:0:0:
245,30,355479,1,0,0:0:0:0:
298,98,355563,6,0,P|353:118|449:75,1,160
361,6,355979,1,4,0:0:0:0:
256,192,356063,12,0,358979,0:0:0:0:
