osu file format v14

[General]
AudioFilename: audio.mp3
AudioLeadIn: 0
PreviewTime: 248979
Countdown: 1
SampleSet: Normal
StackLeniency: 0.7
Mode: 1
LetterboxInBreaks: 0
WidescreenStoryboard: 0

[Editor]
DistanceSpacing: 1.2
BeatDivisor: 4
GridSize: 32
TimelineZoom: 1.9

[Metadata]
Title:P8107
TitleUnicode:P8107
Artist:onoken
ArtistUnicode:onoken
Creator:ExtreIce
Version:Futsuu
Source:
Tags:P8107,onoken,hello,boss,diverse,system
BeatmapID:1174595
BeatmapSetID:554891

[Difficulty]
HPDrainRate:3
CircleSize:4
OverallDifficulty:5
ApproachRate:4
SliderMultiplier:1.4
SliderTickRate:1

[Events]
//Background and Video events
0,0,"BG.png",0,0
//Break Periods
2,177179,186493
//Storyboard Layer 0 (Background)
//Storyboard Layer 1 (Fail)
//Storyboard Layer 2 (Pass)
//Storyboard Layer 3 (Foreground)
//Storyboard Sound Samples

[TimingPoints]
980,333.333333333333,4,1,0,70,1,0
14413,-100,4,1,0,30,0,0
14979,-100,4,1,0,60,0,0
15646,-100,4,1,0,80,0,0
16313,-100,4,1,0,100,0,0
16979,-100,4,1,0,70,0,0
38313,-100,4,1,0,100,0,0
38396,-100,4,1,0,40,0,0
43646,-100,4,1,0,70,0,0
46313,-100,4,1,0,30,0,0
46979,-100,4,1,0,60,0,0
47646,-100,4,1,0,80,0,0
48313,-100,4,1,0,100,0,0
48979,-100,4,1,0,100,0,1
91646,-100,4,1,0,50,0,0
134313,-100,4,1,0,70,0,0
155646,-100,4,1,0,100,0,1
176979,-100,4,1,0,90,0,0
177063,-100,4,1,0,10,0,0
190479,-100,4,1,0,20,0,0
193146,-100,4,1,0,30,0,0
195813,-100,4,1,0,50,0,0
197164,-100,4,1,0,70,0,0
198313,-100,4,1,0,60,0,0
219646,-100,4,1,0,70,0,0
231313,-100,4,1,0,80,0,0
239646,-100,4,1,0,90,0,0
246646,-100,4,1,0,50,0,0
250313,-100,4,1,0,100,0,1
292313,-100,4,1,0,70,0,0
292979,-100,4,1,0,100,0,1
335646,-100,4,1,0,50,0,0
354313,-100,4,1,0,30,0,0
354979,-100,4,1,0,60,0,0
355646,-100,4,1,0,100,0,0
355979,-100,4,1,0,70,0,0

[HitObjects]
256,192,979,5,0,0:0:0:0:
256,192,4021,1,2,0:0:0:0:
256,192,6313,1,0,0:0:0:0:
256,192,6979,1,2,0:0:0:0:
256,192,7646,1,0,0:0:0:0:
256,192,8979,1,0,0:0:0:0:
256,192,9979,1,0,0:0:0:0:
256,192,10313,1,2,0:0:0:0:
256,192,11313,1,0,0:0:0:0:
256,192,11646,1,0,0:0:0:0:
256,192,12979,1,2,0:0:0:0:
256,192,14313,1,0,0:0:0:0:
256,192,15146,1,2,0:0:0:0:
256,192,15646,1,0,0:0:0:0:
256,192,16479,1,2,0:0:0:0:
256,192,16979,1,4,0:0:0:0:
256,192,17646,1,2,0:0:0:0:
256,192,18313,1,0,0:0:0:0:
256,192,19646,1,0,0:0:0:0:
256,192,20979,1,0,0:0:0:0:
256,192,21646,1,0,0:0:0:0:
256,192,22313,1,0,0:0:0:0:
256,192,23646,1,0,0:0:0:0:
256,192,24979,1,0,0:0:0:0:
256,192,26313,1,0,0:0:0:0:
256,192,26979,1,2,0:0:0:0:
256,192,27646,1,0,0:0:0:0:
256,192,28979,1,0,0:0:0:0:
256,192,30313,1,0,0:0:0:0:
256,192,30979,1,2,0:0:0:0:
256,192,31313,1,2,0:0:0:0:
256,192,31646,1,0,0:0:0:0:
256,192,32979,1,0,0:0:0:0:
256,192,34313,1,2,0:0:0:0:
256,192,35646,1,2,0:0:0:0:
256,192,36979,1,0,0:0:0:0:
256,192,37646,1,2,0:0:0:0:
256,192,38313,1,4,0:0:0:0:
256,192,40979,1,2,0:0:0:0:
256,192,43646,1,4,0:0:0:0:
256,192,44979,1,2,0:0:0:0:
256,192,46313,1,0,0:0:0:0:
256,192,46979,1,2,0:0:0:0:
256,192,47646,1,0,0:0:0:0:
256,192,48479,1,2,0:0:0:0:
256,192,48979,1,6,0:0:0:0:
256,192,50313,1,0,0:0:0:0:
256,192,51146,1,2,0:0:0:0:
256,192,51646,1,0,0:0:0:0:
256,192,52979,1,0,0:0:0:0:
256,192,54313,1,2,0:0:0:0:
256,192,56146,1,2,0:0:0:0:
256,192,56979,1,0,0:0:0:0:
256,192,58313,1,0,0:0:0:0:
256,192,59313,1,2,0:0:0:0:
256,192,59646,1,0,0:0:0:0:
256,192,60979,1,0,0:0:0:0:
256,192,61479,1,2,0:0:0:0:
256,192,62313,1,0,0:0:0:0:
256,192,63646,1,0,0:0:0:0:
256,192,64979,1,2,0:0:0:0:
256,192,66313,1,0,0:0:0:0:
256,192,66813,1,2,0:0:0:0:
256,192,67646,1,0,0:0:0:0:
256,192,68979,1,0,0:0:0:0:
256,192,69646,1,0,0:0:0:0:
256,192,69979,1,2,0:0:0:0:
256,192,70313,1,4,0:0:0:0:
256,192,71646,1,0,0:0:0:0:
256,192,72146,1,2,0:0:0:0:
256,192,72979,1,0,0:0:0:0:
256,192,74313,1,0,0:0:0:0:
256,192,75646,1,2,0:0:0:0:
256,192,76979,1,0,0:0:0:0:
256,192,77479,1,2,0:0:0:0:
256,192,78313,1,0,0:0:0:0:
256,192,79646,1,0,0:0:0:0:
256,192,80313,1,0,0:0:0:0:
256,192,80646,1,2,0:0:0:0:
256,192,80979,1,4,0:0:0:0:
256,192,82313,1,0,0:0:0:0:
256,192,82813,1,2,0:0:0:0:
256,192,83146,1,2,0:0:0:0:
256,192,83646,1,0,0:0:0:0:
256,192,84979,1,0,0:0:0:0:
256,192,86313,1,2,0:0:0:0:
256,192,87646,1,0,0:0:0:0:
256,192,88146,1,2,0:0:0:0:
256,192,88479,1,2,0:0:0:0:
256,192,88979,1,0,0:0:0:0:
256,192,90646,1,0,0:0:0:0:
256,192,90979,1,0,0:0:0:0:
256,192,91313,1,2,0:0:0:0:
256,192,91646,1,0,0:0:0:0:
256,192,92646,1,0,0:0:0:0:
256,192,93646,1,0,0:0:0:0:
256,192,94313,1,2,0:0:0:0:
256,192,95313,1,2,0:0:0:0:
256,192,96313,1,2,0:0:0:0:
256,192,96979,1,0,0:0:0:0:
256,192,97979,1,0,0:0:0:0:
256,192,98979,1,0,0:0:0:0:
256,192,99646,1,0,0:0:0:0:
256,192,100646,1,2,0:0:0:0:
256,192,101646,1,0,0:0:0:0:
256,192,102313,1,0,0:0:0:0:
256,192,103313,1,0,0:0:0:0:
256,192,104313,1,0,0:0:0:0:
256,192,104979,1,2,0:0:0:0:
256,192,105979,1,2,0:0:0:0:
256,192,106979,1,0,0:0:0:0:
256,192,107646,1,0,0:0:0:0:
256,192,108646,1,2,0:0:0:0:
256,192,109646,1,2,0:0:0:0:
256,192,110313,1,2,0:0:0:0:
256,192,111313,1,2,0:0:0:0:
256,192,112313,1,0,0:0:0:0:
256,192,112979,1,0,0:0:0:0:
256,192,113979,1,0,0:0:0:0:
256,192,114979,1,0,0:0:0:0:
256,192,115646,1,2,0:0:0:0:
256,192,116646,1,2,0:0:0:0:
256,192,117646,1,2,0:0:0:0:
256,192,118313,1,0,0:0:0:0:
256,192,119313,1,0,0:0:0:0:
256,192,120313,1,0,0:0:0:0:
256,192,120979,1,2,0:0:0:0:
256,192,121979,1,2,0:0:0:0:
256,192,122979,1,2,0:0:0:0:
256,192,123646,1,0,0:0:0:0:
256,192,124146,1,0,0:0:0:0:
256,192,124646,1,0,0:0:0:0:
256,192,126313,1,2,0:0:0:0:
256,192,126813,1,2,0:0:0:0:
256,192,127313,1,2,0:0:0:0:
256,192,128979,1,0,0:0:0:0:
256,192,129479,1,2,0:0:0:0:
256,192,129979,1,2,0:0:0:0:
256,192,131646,1,0,0:0:0:0:
256,192,132313,1,0,0:0:0:0:
256,192,132646,1,0,0:0:0:0:
256,192,132979,1,0,0:0:0:0:
256,192,133646,1,0,0:0:0:0:
256,192,133979,1,0,0:0:0:0:
256,192,134313,1,4,0:0:0:0:
256,192,134979,1,0,0:0:0:0:
256,192,135646,1,0,0:0:0:0:
256,192,136979,1,0,0:0:0:0:
256,192,137646,1,0,0:0:0:0:
256,192,138313,1,2,0:0:0:0:
256,192,139646,1,0,0:0:0:0:
256,192,140313,1,0,0:0:0:0:
256,192,140979,1,0,0:0:0:0:
256,192,142313,1,0,0:0:0:0:
256,192,142979,1,2,0:0:0:0:
256,192,143646,1,2,0:0:0:0:
256,192,144979,1,0,0:0:0:0:
256,192,145646,1,2,0:0:0:0:
256,192,146313,1,2,0:0:0:0:
256,192,147646,1,0,0:0:0:0:
256,192,148313,1,0,0:0:0:0:
256,192,148979,1,0,0:0:0:0:
256,192,150313,1,2,0:0:0:0:
256,192,151313,1,2,0:0:0:0:
256,192,152979,1,0,0:0:0:0:
256,192,154313,1,0,0:0:0:0:
256,192,154979,1,2,0:0:0:0:
256,192,155646,1,6,0:0:0:0:
256,192,156979,1,0,0:0:0:0:
256,192,157479,1,2,0:0:0:0:
256,192,158313,1,0,0:0:0:0:
256,192,159646,1,0,0:0:0:0:
256,192,160313,1,0,0:0:0:0:
256,192,160979,1,2,0:0:0:0:
256,192,162813,1,2,0:0:0:0:
256,192,163646,1,2,0:0:0:0:
256,192,164979,1,0,0:0:0:0:
256,192,165646,1,2,0:0:0:0:
256,192,166313,1,2,0:0:0:0:
256,192,166813,1,2,0:0:0:0:
256,192,167646,1,0,0:0:0:0:
256,192,168146,1,2,0:0:0:0:
256,192,168479,1,2,0:0:0:0:
256,192,168979,1,0,0:0:0:0:
256,192,169479,1,2,0:0:0:0:
256,192,170313,1,0,0:0:0:0:
256,192,171646,1,2,0:0:0:0:
256,192,172146,1,2,0:0:0:0:
256,192,172646,1,0,0:0:0:0:
256,192,173479,1,2,0:0:0:0:
256,192,173813,1,2,0:0:0:0:
256,192,174313,1,4,0:0:0:0:
256,192,174979,1,4,0:0:0:0:
256,192,175646,1,4,0:0:0:0:
256,192,175979,1,4,0:0:0:0:
256,192,176313,1,4,0:0:0:0:
256,192,176646,1,4,0:0:0:0:
256,192,176979,1,6,0:0:0:0:
256,192,187813,5,0,0:0:0:0:
256,192,189146,1,2,0:0:0:0:
256,192,190479,1,0,0:0:0:0:
256,192,191813,1,2,0:0:0:0:
256,192,193146,1,0,0:0:0:0:
256,192,194479,1,2,0:0:0:0:
256,192,195813,1,0,0:0:0:0:
256,192,197146,1,2,0:0:0:0:
256,192,198313,1,0,0:0:0:0:
256,192,199313,1,2,0:0:0:0:
256,192,200979,1,0,0:0:0:0:
256,192,201979,1,2,0:0:0:0:
256,192,203646,1,0,0:0:0:0:
256,192,204646,1,2,0:0:0:0:
256,192,206313,1,0,0:0:0:0:
256,192,207313,1,0,0:0:0:0:
256,192,208979,1,2,0:0:0:0:
256,192,209979,1,2,0:0:0:0:
256,192,210979,1,2,0:0:0:0:
256,192,211646,1,0,0:0:0:0:
256,192,212646,1,0,0:0:0:0:
256,192,213313,1,0,0:0:0:0:
256,192,214313,1,2,0:0:0:0:
256,192,215313,1,0,0:0:0:0:
256,192,215979,1,2,0:0:0:0:
256,192,216979,1,0,0:0:0:0:
256,192,217979,1,0,0:0:0:0:
256,192,218646,1,0,0:0:0:0:
256,192,219646,1,0,0:0:0:0:
256,192,220646,1,2,0:0:0:0:
256,192,222313,1,0,0:0:0:0:
256,192,223313,1,0,0:0:0:0:
256,192,223979,1,0,0:0:0:0:
256,192,224979,1,2,0:0:0:0:
256,192,225979,1,0,0:0:0:0:
256,192,227646,1,0,0:0:0:0:
256,192,228646,1,2,0:0:0:0:
256,192,229313,1,0,0:0:0:0:
256,192,230313,1,2,0:0:0:0:
256,192,231313,1,0,0:0:0:0:
256,192,232979,1,0,0:0:0:0:
256,192,234313,1,2,0:0:0:0:
256,192,235646,1,2,0:0:0:0:
256,192,236979,1,0,0:0:0:0:
256,192,238313,1,0,0:0:0:0:
256,192,239646,1,2,0:0:0:0:
256,192,240979,1,0,0:0:0:0:
256,192,242313,1,2,0:0:0:0:
256,192,243646,5,2,0:0:0:0:
256,192,244979,1,2,0:0:0:0:
256,192,246979,5,0,0:0:0:0:
256,192,247979,1,2,0:0:0:0:
256,192,250313,5,4,0:0:0:0:
256,192,250646,1,0,0:0:0:0:
256,192,250979,1,2,0:0:0:0:
256,192,251646,1,0,0:0:0:0:
256,192,251979,1,0,0:0:0:0:
256,192,252312,1,0,0:0:0:0:
256,192,252979,1,0,0:0:0:0:
256,192,253312,1,0,0:0:0:0:
256,192,253645,1,2,0:0:0:0:
256,192,254313,1,0,0:0:0:0:
256,192,254646,1,0,0:0:0:0:
256,192,254979,1,0,0:0:0:0:
256,192,255646,1,0,0:0:0:0:
256,192,255979,1,0,0:0:0:0:
256,192,256312,1,2,0:0:0:0:
256,192,256979,1,0,0:0:0:0:
256,192,257312,1,0,0:0:0:0:
256,192,257645,1,0,0:0:0:0:
256,192,258313,1,0,0:0:0:0:
256,192,258646,1,2,0:0:0:0:
256,192,258979,1,2,0:0:0:0:
256,192,259646,1,0,0:0:0:0:
256,192,259979,1,0,0:0:0:0:
256,192,260313,1,2,0:0:0:0:
256,192,260646,1,2,0:0:0:0:
256,192,260979,1,0,0:0:0:0:
256,192,261646,1,2,0:0:0:0:
256,192,262313,1,0,0:0:0:0:
256,192,262646,1,0,0:0:0:0:
256,192,262979,1,2,0:0:0:0:
256,192,263646,1,0,0:0:0:0:
256,192,263979,1,0,0:0:0:0:
256,192,264313,1,2,0:0:0:0:
256,192,264979,1,0,0:0:0:0:
256,192,265312,1,0,0:0:0:0:
256,192,265645,1,0,0:0:0:0:
256,192,265979,1,2,0:0:0:0:
256,192,266312,1,0,0:0:0:0:
256,192,267313,1,2,0:0:0:0:
256,192,268979,1,0,0:0:0:0:
256,192,269312,1,0,0:0:0:0:
256,192,269645,1,0,0:0:0:0:
256,192,270313,1,2,0:0:0:0:
256,192,270646,1,2,0:0:0:0:
256,192,270979,1,2,0:0:0:0:
256,192,271312,1,0,0:0:0:0:
256,192,271645,1,2,0:0:0:0:
256,192,272313,1,2,0:0:0:0:
256,192,272979,1,2,0:0:0:0:
256,192,273312,1,0,0:0:0:0:
256,192,273645,1,2,0:0:0:0:
256,192,273979,1,2,0:0:0:0:
256,192,274312,1,0,0:0:0:0:
256,192,274979,1,2,0:0:0:0:
256,192,275646,1,0,0:0:0:0:
256,192,275979,1,0,0:0:0:0:
256,192,276312,1,2,0:0:0:0:
256,192,276646,1,2,0:0:0:0:
256,192,276979,1,2,0:0:0:0:
256,192,277646,1,2,0:0:0:0:
256,192,278313,1,0,0:0:0:0:
256,192,278979,1,2,0:0:0:0:
256,192,279646,1,0,0:0:0:0:
256,192,280313,1,0,0:0:0:0:
256,192,280979,1,0,0:0:0:0:
256,192,281313,1,2,0:0:0:0:
256,192,281646,1,2,0:0:0:0:
256,192,281979,1,2,0:0:0:0:
256,192,282313,1,6,0:0:0:0:
256,192,282979,1,2,0:0:0:0:
256,192,283646,1,0,0:0:0:0:
256,192,284313,1,2,0:0:0:0:
256,192,284646,1,2,0:0:0:0:
256,192,284979,1,0,0:0:0:0:
256,192,285646,1,2,0:0:0:0:
256,192,286313,1,0,0:0:0:0:
256,192,287313,1,2,0:0:0:0:
256,192,288646,1,0,0:0:0:0:
256,192,290313,1,0,0:0:0:0:
256,192,290646,1,2,0:0:0:0:
256,192,290979,1,2,0:0:0:0:
256,192,291646,1,0,0:0:0:0:
256,192,292313,2,0,P|416:192|416:192,1,140
256,192,292979,1,6,0:0:0:0:
256,192,293479,1,2,0:0:0:0:
256,192,294313,1,0,0:0:0:0:
256,192,294813,1,2,0:0:0:0:
256,192,295146,1,2,0:0:0:0:
256,192,295646,1,0,0:0:0:0:
256,192,296979,1,0,0:0:0:0:
256,192,297646,1,2,0:0:0:0:
256,192,298313,1,2,0:0:0:0:
256,192,298813,1,2,0:0:0:0:
256,192,299646,1,0,0:0:0:0:
256,192,300146,1,2,0:0:0:0:
256,192,300479,1,2,0:0:0:0:
256,192,300979,1,0,0:0:0:0:
256,192,302313,1,0,0:0:0:0:
256,192,302646,1,2,0:0:0:0:
256,192,302979,1,2,0:0:0:0:
256,192,303313,1,2,0:0:0:0:
256,192,303646,1,4,0:0:0:0:
256,192,304146,1,2,0:0:0:0:
256,192,304979,1,0,0:0:0:0:
256,192,305479,1,2,0:0:0:0:
256,192,305812,1,2,0:0:0:0:
256,192,306313,1,0,0:0:0:0:
256,192,307646,1,0,0:0:0:0:
256,192,307979,1,2,0:0:0:0:
256,192,308979,1,2,0:0:0:0:
256,192,309479,1,2,0:0:0:0:
256,192,309979,1,2,0:0:0:0:
256,192,310313,1,0,0:0:0:0:
256,192,310813,1,2,0:0:0:0:
256,192,311146,1,2,0:0:0:0:
256,192,311646,1,0,0:0:0:0:
256,192,312146,1,2,0:0:0:0:
256,192,312979,1,0,0:0:0:0:
256,192,313313,1,2,0:0:0:0:
256,192,313646,1,2,0:0:0:0:
256,192,313979,1,2,0:0:0:0:
256,192,314312,1,6,0:0:0:0:
256,192,314813,1,2,0:0:0:0:
256,192,315646,1,0,0:0:0:0:
256,192,316146,1,2,0:0:0:0:
256,192,316479,1,2,0:0:0:0:
256,192,316979,1,0,0:0:0:0:
256,192,317479,1,2,0:0:0:0:
256,192,318313,1,0,0:0:0:0:
256,192,318979,1,2,0:0:0:0:
256,192,319646,1,2,0:0:0:0:
256,192,320146,1,2,0:0:0:0:
256,192,320979,1,0,0:0:0:0:
256,192,321479,1,2,0:0:0:0:
256,192,321812,1,2,0:0:0:0:
256,192,322313,1,0,0:0:0:0:
256,192,322813,1,2,0:0:0:0:
256,192,323646,1,0,0:0:0:0:
256,192,323979,1,0,0:0:0:0:
256,192,324312,1,0,0:0:0:0:
256,192,324646,1,2,0:0:0:0:
256,192,324979,1,4,0:0:0:0:
256,192,325479,1,2,0:0:0:0:
256,192,326313,1,0,0:0:0:0:
256,192,326813,1,2,0:0:0:0:
256,192,327146,1,2,0:0:0:0:
256,192,327646,1,0,0:0:0:0:
256,192,328313,1,2,0:0:0:0:
256,192,328979,1,0,0:0:0:0:
256,192,329646,1,0,0:0:0:0:
256,192,329979,1,0,0:0:0:0:
256,192,330313,1,4,0:0:0:0:
256,192,330979,1,6,0:0:0:0:
256,192,331646,1,4,0:0:0:0:
256,192,332313,1,6,0:0:0:0:
256,192,332979,1,4,0:0:0:0:
256,192,333646,1,4,0:0:0:0:
256,192,334313,1,4,0:0:0:0:
256,192,334646,1,4,0:0:0:0:
256,192,334979,1,4,0:0:0:0:
256,192,335313,1,4,0:0:0:0:
256,192,335646,1,4,0:0:0:0:
256,192,336313,1,2,0:0:0:0:
256,192,336979,1,0,0:0:0:0:
256,192,337646,1,2,0:0:0:0:
256,192,338313,1,0,0:0:0:0:
256,192,339313,1,0,0:0:0:0:
256,192,339646,1,0,0:0:0:0:
256,192,340313,1,2,0:0:0:0:
256,192,340979,1,4,0:0:0:0:
256,192,341979,1,2,0:0:0:0:
256,192,342313,1,0,0:0:0:0:
256,192,343646,1,0,0:0:0:0:
256,192,344646,1,2,0:0:0:0:
256,192,344979,1,0,0:0:0:0:
256,192,345646,1,2,0:0:0:0:
256,192,346313,1,4,0:0:0:0:
256,192,347646,1,0,0:0:0:0:
256,192,348646,1,2,0:0:0:0:
256,192,348979,1,0,0:0:0:0:
256,192,350313,1,0,0:0:0:0:
256,192,351646,1,4,0:0:0:0:
256,192,352646,1,0,0:0:0:0:
256,192,352979,1,2,0:0:0:0:
256,192,353646,1,0,0:0:0:0:
256,192,354313,1,0,0:0:0:0:
256,192,354979,1,0,0:0:0:0:
256,192,355479,1,2,0:0:0:0:
256,192,355979,1,4,0:0:0:0:
