osu file format v14

[General]
AudioFilename: audio.mp3
AudioLeadIn: 0
PreviewTime: 249774
Countdown: 0
SampleSet: Soft
StackLeniency: 0.3
Mode: 0
LetterboxInBreaks: 0
WidescreenStoryboard: 0

[Editor]
Bookmarks: 91646,155646,250313,292979
DistanceSpacing: 1.1
BeatDivisor: 4
GridSize: 8
TimelineZoom: 2

[Metadata]
Title:P8107
TitleUnicode:P8107
Artist:onoken
ArtistUnicode:onoken
Creator:Camocratic
Version:DEFCON 1
Source:
Tags:hello boss diverse electronic instrumental system digital hardcore dance dance revolution naoki paranoia remix acid drum n and bass dnb 2003 bms rave dancedancerevolution ddr 180
BeatmapID:2783766
BeatmapSetID:1344083

[Difficulty]
HPDrainRate:5.5
CircleSize:4.5
OverallDifficulty:9
ApproachRate:9.4
SliderMultiplier:1.8
SliderTickRate:1

[Events]
//Background and Video events
0,0,"source_by_tacosauceninja_dcomp39-fullview.jpg",0,0
//Break Periods
2,41391,42651
2,177724,186818
2,246474,249318
2,338724,339984
2,344058,345318
//Storyboard Layer 0 (Background)
//Storyboard Layer 1 (Fail)
//Storyboard Layer 2 (Pass)
//Storyboard Layer 3 (Foreground)
//Storyboard Layer 4 (Overlay)
//Storyboard Sound Samples

[TimingPoints]
525,333.333333333333,4,2,1,80,1,0
1191,-100,4,2,1,60,0,0
1858,-100,4,2,1,50,0,0
2524,-100,4,2,1,40,0,0
3191,-100,4,2,1,50,0,0
3858,-100,4,2,1,60,0,0
4524,-100,4,2,1,70,0,0
5191,-100,4,2,1,80,0,0
5858,-66.6666666666667,4,2,3,60,0,0
5941,-66.6666666666667,4,2,1,5,0,0
6024,-66.6666666666667,4,2,1,60,0,0
6358,-142.857142857143,4,2,1,60,0,0
11191,-66.6666666666667,4,2,3,90,0,0
11274,-66.6666666666667,4,2,1,5,0,0
11358,-142.857142857143,4,2,1,60,0,0
13774,-142.857142857143,4,2,1,5,0,0
13858,-142.857142857143,4,2,1,40,0,0
14524,-142.857142857143,4,2,1,60,0,0
15191,-142.857142857143,4,2,1,80,0,0
16024,-66.6666666666667,4,2,3,90,0,0
16108,-66.6666666666667,4,2,1,5,0,0
16524,-100,4,2,1,70,0,0
24524,-100,4,2,1,40,0,0
25858,-100,4,2,1,60,0,0
26524,-100,4,2,1,80,0,0
27191,-100,4,2,1,70,0,0
36524,-100,4,2,1,60,0,0
37191,-100,4,2,1,80,0,0
37858,-100,4,2,1,90,0,0
39191,-100,4,2,1,70,0,0
40524,-100,4,2,1,50,0,0
43191,-100,4,2,1,90,0,0
44524,-100,4,2,1,70,0,0
45191,-100,4,2,1,50,0,0
46524,-100,4,2,1,70,0,0
47191,-100,4,2,1,90,0,0
48024,-250,4,2,3,80,0,0
48441,-250,4,2,1,5,0,0
48524,-83.3333333333333,4,2,1,75,0,0
50858,-66.6666666666667,4,2,1,75,0,0
51191,-83.3333333333333,4,2,1,75,0,0
56191,-66.6666666666667,4,2,1,75,0,0
56524,-83.3333333333333,4,2,1,75,0,0
57858,-83.3333333333333,4,2,1,60,0,0
58524,-83.3333333333333,4,2,1,80,0,0
59191,-83.3333333333333,4,2,1,75,0,0
61524,-66.6666666666667,4,2,1,75,0,0
61858,-83.3333333333333,4,2,1,75,0,0
66858,-66.6666666666667,4,2,1,75,0,0
67191,-83.3333333333333,4,2,1,75,0,0
68524,-83.3333333333333,4,2,1,60,0,0
69191,-83.3333333333333,4,2,1,80,0,0
69858,-76.9230769230769,4,2,1,75,0,0
72191,-62.5,4,2,1,75,0,0
72524,-76.9230769230769,4,2,1,75,0,0
73858,-58.8235294117647,4,2,1,75,0,0
74191,-76.9230769230769,4,2,1,75,0,0
77524,-62.5,4,2,1,75,0,0
77858,-76.9230769230769,4,2,1,75,0,0
79191,-76.9230769230769,4,2,1,60,0,0
79858,-76.9230769230769,4,2,1,80,0,0
80524,-76.9230769230769,4,2,1,75,0,0
82858,-62.5,4,2,1,75,0,0
83191,-76.9230769230769,4,2,1,75,0,0
84524,-58.8235294117647,4,2,1,75,0,0
84858,-76.9230769230769,4,2,1,75,0,0
88191,-62.5,4,2,1,75,0,0
88524,-76.9230769230769,4,2,1,75,0,0
88858,-76.9230769230769,4,2,1,60,0,0
89358,-76.9230769230769,4,2,1,80,0,0
91191,-100,4,2,1,70,0,0
109858,-100,4,2,1,60,0,0
110524,-100,4,2,1,80,0,0
111858,-250,4,2,1,60,0,0
112441,-250,4,2,1,5,0,0
112524,-90.9090909090909,4,2,1,70,0,0
129524,-90.9090909090909,4,2,1,40,0,0
129858,-90.9090909090909,4,2,1,60,0,0
130524,-90.9090909090909,4,2,1,80,0,0
131191,-125,4,2,1,60,0,0
132524,-66.6666666666667,4,2,3,90,0,0
132608,-66.6666666666667,4,2,1,5,0,0
132858,-76.9230769230769,4,2,1,80,0,0
133858,-90.9090909090909,4,2,1,70,0,0
137858,-90.9090909090909,4,2,1,60,0,0
138524,-90.9090909090909,4,2,1,80,0,0
139191,-90.9090909090909,4,2,1,70,0,0
143191,-90.9090909090909,4,2,1,60,0,0
143858,-90.9090909090909,4,2,1,80,0,0
144524,-90.9090909090909,4,2,1,70,0,0
153191,-90.9090909090909,4,2,1,60,0,0
153858,-90.9090909090909,4,2,1,80,0,0
154524,-250,4,2,1,60,0,0
155108,-250,4,2,1,5,0,0
155191,-83.3333333333333,4,2,1,75,0,0
157524,-66.6666666666667,4,2,1,75,0,0
157858,-83.3333333333333,4,2,1,75,0,0
162858,-66.6666666666667,4,2,1,75,0,0
163191,-83.3333333333333,4,2,1,75,0,0
164524,-83.3333333333333,4,2,1,60,0,0
165191,-83.3333333333333,4,2,1,80,0,0
165858,-83.3333333333333,4,2,1,75,0,0
168191,-66.6666666666667,4,2,1,75,0,0
168524,-83.3333333333333,4,2,1,75,0,0
169858,-83.3333333333333,4,2,1,60,0,0
170524,-83.3333333333333,4,2,1,60,0,0
171191,-76.9230769230769,4,2,1,70,0,1
171858,-76.9230769230769,4,2,1,90,0,1
172524,-71.4285714285714,4,2,1,70,0,1
173191,-71.4285714285714,4,2,1,90,0,1
173858,-66.6666666666667,4,2,1,90,0,1
176524,-66.6666666666667,4,2,2,60,0,0
187358,-166.666666666667,4,2,0,50,0,0
188733,-166.666666666667,4,2,0,5,0,0
189024,-166.666666666667,4,2,0,50,0,0
191399,-166.666666666667,4,2,0,5,0,0
191691,-166.666666666667,4,2,0,50,0,0
194066,-166.666666666667,4,2,0,5,0,0
194358,-166.666666666667,4,2,0,50,0,0
195858,-166.666666666667,4,2,0,60,0,0
196524,-166.666666666667,4,2,0,70,0,0
197191,-166.666666666667,4,2,0,80,0,0
197858,-142.857142857143,4,2,1,60,0,0
208441,-142.857142857143,4,2,1,5,0,0
208524,-142.857142857143,4,2,1,60,0,0
219191,-125,4,2,1,60,0,0
230108,-125,4,2,1,5,0,0
230191,-125,4,2,1,60,0,0
232774,-125,4,2,1,5,0,0
232858,-125,4,2,1,60,0,0
235441,-125,4,2,1,5,0,0
235524,-125,4,2,1,60,0,0
237858,-166.666666666667,4,2,1,60,0,0
238108,-166.666666666667,4,2,1,5,0,0
238191,-166.666666666667,4,2,1,60,0,0
240524,-200,4,2,1,60,0,0
240774,-200,4,2,1,5,0,0
240858,-200,4,2,1,70,0,0
243191,-250.000000000001,4,2,1,70,0,0
243441,-250.000000000001,4,2,1,5,0,0
243524,-250.000000000001,4,2,1,80,0,0
246274,-66.6666666666667,4,2,0,50,0,0
246441,-66.6666666666667,4,2,0,5,0,0
249858,-76.9230769230769,4,2,1,75,0,0
259191,-76.9230769230769,4,2,1,90,0,0
260524,-76.9230769230769,4,2,1,75,0,0
269858,-76.9230769230769,4,2,1,60,0,0
270524,-76.9230769230769,4,2,1,80,0,0
271191,-76.9230769230769,4,2,1,75,0,0
280524,-76.9230769230769,4,2,1,60,0,0
281191,-76.9230769230769,4,2,1,80,0,0
281858,-76.9230769230769,4,2,1,75,0,0
290524,-76.9230769230769,4,2,1,60,0,0
291191,-76.9230769230769,4,2,1,80,0,0
291858,-250,4,2,1,60,0,0
292441,-250,4,2,1,5,0,0
292524,-76.9230769230769,4,2,1,85,0,0
294858,-58.8235294117647,4,2,1,85,0,0
295191,-76.9230769230769,4,2,1,85,0,0
300191,-58.8235294117647,4,2,1,85,0,0
300524,-76.9230769230769,4,2,1,85,0,0
301858,-76.9230769230769,4,2,1,70,0,0
302524,-76.9230769230769,4,2,1,90,0,0
303191,-76.9230769230769,4,2,1,85,0,0
305524,-58.8235294117647,4,2,1,85,0,0
305858,-76.9230769230769,4,2,1,85,0,0
310858,-58.8235294117647,4,2,1,85,0,0
311191,-76.9230769230769,4,2,1,85,0,0
312524,-76.9230769230769,4,2,1,70,0,0
313191,-76.9230769230769,4,2,1,90,0,0
313858,-76.9230769230769,4,2,1,85,0,0
316191,-58.8235294117647,4,2,1,85,0,0
316524,-76.9230769230769,4,2,1,85,0,0
321524,-58.8235294117647,4,2,1,85,0,0
321858,-76.9230769230769,4,2,1,85,0,0
323191,-76.9230769230769,4,2,1,70,0,0
323858,-76.9230769230769,4,2,1,80,0,0
324524,-76.9230769230769,4,2,1,85,0,0
326858,-58.8235294117647,4,2,1,85,0,0
327191,-76.9230769230769,4,2,1,85,0,0
328524,-76.9230769230769,4,2,1,70,0,0
329191,-76.9230769230769,4,2,1,90,0,0
329858,-76.9230769230769,4,2,1,75,0,1
330524,-76.9230769230769,4,2,1,95,0,1
331191,-71.4285714285714,4,2,1,75,0,1
331858,-71.4285714285714,4,2,1,95,0,1
332524,-66.6666666666667,4,2,1,95,0,1
335191,-125,4,2,2,90,0,0
336524,-125,4,2,1,70,0,0
337858,-125,4,2,1,50,0,0
340524,-125,4,2,1,90,0,0
341858,-125,4,2,1,70,0,0
343191,-125,4,2,1,50,0,0
345858,-125,4,2,1,70,0,0
353358,-125,4,2,1,40,0,0
353858,-125,4,2,1,60,0,0
354524,-125,4,2,1,80,0,0
355024,-58.8235294117647,4,2,3,80,0,0
355108,-58.8235294117647,4,2,1,5,0,0
355524,-100,4,2,2,90,0,0
356024,-100,4,2,2,80,0,0
356524,-100,4,2,2,60,0,0
357024,-100,4,2,2,50,0,0
357524,-100,4,2,2,40,0,0
358024,-100,4,2,2,30,0,0
358524,-100,4,2,2,20,0,0
359024,-100,4,2,2,10,0,0
359191,-100,4,2,2,5,0,0

[Colours]
Combo1 : 155,66,0
Combo2 : 128,64,64
Combo3 : 255,128,64
Combo4 : 0,64,128

[HitObjects]
127,299,525,5,6,1:2:0:0:
256,192,608,12,0,5691,0:2:0:0:
395,15,5858,6,0,L|382:132,1,67.5000025749208,4|0,1:2|0:2,0:2:0:0:
376,161,6024,1,0,0:0:0:0:
368,160,6358,5,0,0:2:0:0:
467,325,6524,2,0,L|474:256,1,62.9999980773926,8|0,0:2|0:2,0:2:0:0:
414,230,6858,1,0,0:2:0:0:
386,353,7024,1,0,1:2:0:0:
317,377,7191,1,0,1:2:0:0:
317,377,7358,1,0,0:2:0:0:
2,372,7691,6,0,L|67:355,1,62.9999980773926,8|0,0:2|0:2,0:2:0:0:
169,384,8024,1,0,1:2:0:0:
225,344,8191,1,0,0:2:0:0:
225,344,8358,1,0,0:2:0:0:
158,312,8524,1,0,1:2:0:0:
144,241,8691,1,0,0:2:0:0:
242,141,8858,6,0,L|229:232,1,62.9999980773926,8|0,0:2|0:2,0:2:0:0:
240,222,9358,1,0,0:2:0:0:
285,282,9524,1,0,1:2:0:0:
285,282,9691,1,0,0:2:0:0:
338,359,9858,6,0,L|375:352,1,31.4999990386963,2|0,1:2|0:2,0:2:0:0:
348,368,10024,2,0,L|385:361,1,31.4999990386963,2|0,0:2|0:2,0:2:0:0:
505,378,10358,5,0,1:2:0:0:
432,232,10524,6,0,B|452:261|452:261|447:303,1,62.9999980773926,8|0,0:2|0:2,0:2:0:0:
377,280,10858,1,0,0:2:0:0:
438,7,11191,6,0,L|425:124,1,67.5000025749208,6|0,1:2|0:2,0:2:0:0:
422,164,11358,1,0,0:0:0:0:
414,159,11691,5,0,0:2:0:0:
264,103,11858,2,0,L|333:92,1,62.9999980773926,8|0,0:2|1:2,0:2:0:0:
194,85,12191,1,0,0:2:0:0:
213,155,12358,1,0,0:2:0:0:
283,241,12524,6,0,L|287:203,1,31.4999990386963,2|0,1:2|0:2,0:2:0:0:
267,246,12691,2,0,L|263:208,1,31.4999990386963,2|0,0:2|0:2,0:2:0:0:
283,375,13024,6,0,L|351:365,1,62.9999980773926,8|0,0:2|0:2,0:2:0:0:
509,229,13358,2,0,P|456:236|449:326,1,157.499995193482,0|0,1:2|0:2,0:2:0:0:
466,336,13858,5,0,1:2:0:0:
458,334,13941,1,0,1:2:0:0:
450,332,14024,1,0,1:2:0:0:
442,330,14108,1,0,1:2:0:0:
435,329,14191,1,0,1:2:0:0:
427,327,14274,1,0,1:2:0:0:
419,325,14358,1,0,1:2:0:0:
412,324,14441,1,0,1:2:0:0:
404,322,14524,5,0,1:2:0:0:
380,322,14608,1,0,1:2:0:0:
357,326,14691,1,8,0:2:0:0:
335,334,14774,1,0,1:2:0:0:
315,347,14858,1,0,1:2:0:0:
295,360,14941,1,0,1:2:0:0:
273,368,15024,1,0,1:2:0:0:
250,372,15108,1,0,1:2:0:0:
226,373,15191,5,0,1:2:0:0:
251,354,15274,1,0,1:2:0:0:
263,326,15358,1,0,1:2:0:0:
261,295,15441,1,0,1:2:0:0:
244,269,15524,1,0,1:2:0:0:
216,254,15608,1,0,1:2:0:0:
185,255,15691,1,0,1:2:0:0:
158,271,15774,1,0,1:2:0:0:
151,342,15858,5,8,0:2:0:0:
437,360,16024,6,0,L|445:277,1,67.5000025749208,6|0,1:2|0:2,0:2:0:0:
7,5,16524,6,0,P|35:54|48:88,1,90,6|0,1:2|0:2,0:2:0:0:
38,153,16858,1,8,0:2:0:0:
118,51,17024,2,0,L|268:32,1,135,0|0,0:2|0:2,0:2:0:0:
264,35,17358,6,0,L|215:14,1,45,0|0,1:2|0:2,0:2:0:0:
242,106,17524,2,0,L|193:127,1,45,8|0,0:2|0:2,0:2:0:0:
254,115,17691,2,0,L|205:136,1,45,2|0,0:2|0:2,0:2:0:0:
361,19,17858,5,2,1:2:0:0:
428,11,18024,1,0,0:2:0:0:
377,208,18191,1,8,0:2:0:0:
479,193,18358,2,0,L|298:169,1,180,2|0,0:2|1:2,0:2:0:0:
235,197,18858,1,10,0:2:0:0:
239,210,18941,1,0,0:2:0:0:
243,223,19024,1,0,0:2:0:0:
348,379,19191,6,0,P|368:333|398:307,1,90,2|0,1:2|0:2,0:2:0:0:
286,318,19524,1,8,0:2:0:0:
215,379,19691,2,0,L|197:239,1,135,2|0,0:2|0:2,0:2:0:0:
193,237,20024,6,0,P|173:258|168:295,1,45,0|0,1:2|0:2,0:2:0:0:
104,369,20191,1,10,0:2:0:0:
100,356,20274,1,0,0:2:0:0:
103,343,20358,1,0,0:2:0:0:
52,205,20524,5,0,1:2:0:0:
121,218,20691,1,0,0:2:0:0:
0,91,20858,1,8,0:2:0:0:
165,141,21024,5,2,0:2:0:0:
163,131,21108,1,0,0:2:0:0:
161,121,21191,1,0,0:2:0:0:
159,111,21274,1,0,0:2:0:0:
157,101,21358,6,0,P|142:109|113:116,1,45,0|0,1:2|0:2,0:2:0:0:
173,22,21524,5,10,0:0:0:0:
195,24,21608,1,0,0:0:0:0:
217,27,21691,1,0,1:0:0:0:
239,30,21774,1,0,0:0:0:0:
262,33,21858,5,2,0:0:0:0:
339,45,22024,1,0,0:2:0:0:
501,170,22191,5,8,0:2:0:0:
429,158,22358,2,0,L|247:123,1,180,2|0,0:2|1:2,0:2:0:0:
324,211,22858,1,10,0:2:0:0:
328,224,22941,1,0,0:2:0:0:
332,237,23024,1,0,0:2:0:0:
429,158,23191,5,2,1:2:0:0:
448,93,23358,1,0,0:2:0:0:
333,20,23524,2,0,P|340:45|357:72,1,45,8|0,0:2|0:2,0:2:0:0:
286,96,23691,2,0,P|279:71|262:44,1,45,2|0,0:2|0:2,0:2:0:0:
172,32,23858,5,0,0:2:0:0:
174,42,23941,1,0,0:2:0:0:
176,52,24024,1,0,1:2:0:0:
178,62,24108,1,0,0:2:0:0:
180,72,24191,2,0,P|127:93|77:98,1,90,10|0,0:2|0:2,0:2:0:0:
7,147,24524,5,2,1:2:0:0:
13,156,24608,1,0,0:2:0:0:
19,165,24691,1,0,0:2:0:0:
24,175,24774,1,0,0:2:0:0:
29,186,24858,1,8,0:2:0:0:
33,196,24941,1,0,0:2:0:0:
37,207,25024,1,2,0:2:0:0:
40,217,25108,1,0,0:2:0:0:
42,228,25191,5,0,0:2:0:0:
45,209,25274,1,0,0:2:0:0:
50,193,25358,1,0,1:2:0:0:
56,174,25441,1,0,0:2:0:0:
63,158,25524,1,10,0:2:0:0:
71,140,25608,1,0,0:2:0:0:
80,123,25691,1,0,0:2:0:0:
90,108,25774,1,0,0:2:0:0:
99,93,25858,5,2,1:2:0:0:
136,69,25941,1,0,1:2:0:0:
181,66,26024,1,0,1:2:0:0:
222,84,26108,1,0,1:2:0:0:
249,119,26191,1,8,0:2:0:0:
257,163,26274,1,0,1:2:0:0:
244,205,26358,1,2,1:2:0:0:
212,236,26441,1,0,1:2:0:0:
169,249,26524,5,0,1:2:0:0:
214,247,26608,1,0,1:2:0:0:
259,243,26691,1,0,1:2:0:0:
304,238,26774,1,0,1:2:0:0:
330,201,26858,5,10,0:2:0:0:
374,203,26941,1,0,1:2:0:0:
419,207,27024,1,0,1:2:0:0:
464,212,27108,1,0,1:2:0:0:
495,278,27191,5,6,1:2:0:0:
430,297,27358,1,0,0:2:0:0:
467,108,27524,6,0,P|483:130|480:171,1,45,8|0,0:2|0:2,0:2:0:0:
433,197,27691,2,0,P|428:139|426:28,1,135,2|0,0:2|0:2,0:2:0:0:
415,46,28024,6,0,L|387:96,1,45,2|0,1:2|0:2,0:2:0:0:
328,56,28191,2,0,L|300:106,1,45,10|0,0:2|0:2,0:2:0:0:
276,0,28358,2,0,L|248:50,1,45,2|0,0:2|0:2,0:2:0:0:
209,202,28524,5,2,1:2:0:0:
187,136,28691,1,0,0:2:0:0:
311,192,28858,6,0,L|307:240,1,45,8|0,0:2|0:2,0:2:0:0:
247,340,29024,5,2,0:2:0:0:
245,330,29108,1,0,0:2:0:0:
243,320,29191,1,0,0:2:0:0:
241,310,29274,1,0,0:2:0:0:
239,300,29358,1,0,1:2:0:0:
347,381,29524,6,0,P|347:363|329:333,1,45,10|0,0:2|0:2,0:2:0:0:
414,362,29691,2,0,P|414:344|396:314,1,45,0|0,0:2|0:2,0:2:0:0:
497,189,29858,5,2,1:2:0:0:
431,203,30024,1,0,0:2:0:0:
320,29,30191,1,8,0:2:0:0:
356,166,30358,2,0,L|371:78,2,90,2|0|0,0:2|0:2|1:2,0:2:0:0:
233,102,30858,6,0,P|220:132|194:148,1,45,10|0,0:2|0:2,0:2:0:0:
142,178,31024,2,0,P|111:190|81:182,1,45,0|0,0:2|0:2,0:2:0:0:
9,12,31191,5,2,1:2:0:0:
75,35,31358,1,0,0:2:0:0:
243,36,31524,6,0,L|237:90,1,45,10|0,0:2|0:2,0:2:0:0:
332,11,31691,2,0,L|326:65,1,45,0|0,0:2|0:2,0:2:0:0:
339,133,31858,5,0,0:2:0:0:
373,119,31941,1,0,0:2:0:0:
347,120,32024,5,0,1:2:0:0:
364,128,32108,1,0,0:2:0:0:
355,122,32191,6,0,L|349:176,1,45,10|0,0:2|0:2,0:2:0:0:
430,164,32358,2,0,L|424:218,1,45,0|0,1:2|0:2,0:2:0:0:
503,12,32524,5,2,1:2:0:0:
437,35,32691,1,0,0:2:0:0:
277,27,32858,6,0,P|309:30|332:45,1,45,8|0,0:2|0:2,0:2:0:0:
210,142,33024,5,2,0:2:0:0:
208,132,33108,1,0,0:2:0:0:
187,106,33191,6,0,P|152:99|121:104,1,45,0|0,0:2|0:2,0:2:0:0:
184,25,33358,2,0,P|149:32|118:27,1,45,0|0,1:2|0:2,0:2:0:0:
291,107,33524,5,10,0:2:0:0:
295,129,33608,1,0,0:2:0:0:
303,149,33691,1,0,0:2:0:0:
316,168,33774,1,0,0:2:0:0:
333,183,33858,6,0,P|348:158|347:138,1,45,2|0,1:2|0:2,0:2:0:0:
404,88,34024,2,0,P|396:59|382:46,1,45,0|0,0:2|0:2,0:2:0:0:
442,175,34191,6,0,P|456:228|479:299,1,90,8|2,0:2|0:2,0:2:0:0:
392,318,34524,2,0,P|390:291|402:273,1,45,0|0,0:2|0:2,0:2:0:0:
297,347,34691,1,0,1:2:0:0:
307,344,34774,1,0,0:2:0:0:
318,341,34858,1,10,0:2:0:0:
325,272,35024,1,0,0:2:0:0:
351,124,35191,6,0,L|373:220,2,90,2|0|8,1:2|0:2|0:2,0:2:0:0:
298,70,35691,2,0,P|282:96|279:127,1,45,2|0,0:2|0:2,0:2:0:0:
385,28,35858,1,0,0:2:0:0:
429,33,35941,1,0,0:2:0:0:
474,39,36024,1,0,1:2:0:0:
478,32,36108,1,0,0:2:0:0:
483,23,36191,6,0,L|500:93,1,45,10|0,0:2|0:2,0:2:0:0:
445,131,36358,2,0,L|462:201,1,45,0|0,0:2|0:2,0:2:0:0:
488,279,36524,5,2,1:2:0:0:
451,304,36608,1,0,1:2:0:0:
408,317,36691,1,0,1:2:0:0:
363,316,36774,1,0,1:2:0:0:
320,302,36858,1,8,0:2:0:0:
283,276,36941,1,0,1:2:0:0:
240,263,37024,1,2,1:2:0:0:
195,264,37108,1,0,1:2:0:0:
115,308,37191,5,2,1:2:0:0:
141,320,37274,1,2,1:2:0:0:
111,335,37358,5,2,1:2:0:0:
127,341,37441,1,2,1:2:0:0:
115,351,37524,5,10,0:2:0:0:
106,284,37608,1,2,1:2:0:0:
97,217,37691,1,2,1:2:0:0:
90,150,37774,1,2,1:2:0:0:
85,82,37858,5,6,1:2:0:0:
256,192,37941,12,8,41191,0:2:0:0:
352,70,43191,5,6,1:2:0:0:
256,192,43274,12,0,45691,0:2:0:0:
401,185,45858,5,0,1:2:0:0:
406,200,45941,1,0,1:2:0:0:
401,216,46024,1,0,1:2:0:0:
388,226,46108,1,0,1:2:0:0:
371,225,46191,1,0,1:2:0:0:
358,215,46274,1,0,1:2:0:0:
354,199,46358,1,0,1:2:0:0:
360,184,46441,1,0,1:2:0:0:
374,175,46524,5,8,0:2:0:0:
371,197,46608,1,0,1:2:0:0:
369,219,46691,1,0,1:2:0:0:
367,242,46774,1,0,1:2:0:0:
364,264,46858,1,0,1:2:0:0:
362,286,46941,1,0,1:2:0:0:
360,309,47024,1,0,1:2:0:0:
357,331,47108,1,0,1:2:0:0:
355,354,47191,5,0,1:2:0:0:
351,309,47274,1,0,1:2:0:0:
327,272,47358,1,0,1:2:0:0:
288,250,47441,1,0,1:2:0:0:
244,250,47524,1,0,1:2:0:0:
200,251,47608,1,0,1:2:0:0:
161,228,47691,1,0,1:2:0:0:
137,191,47774,1,0,1:2:0:0:
168,122,47858,5,8,0:2:0:0:
0,0,48024,6,0,B|38:24|38:24|59:70,1,90,4|0,1:2|0:2,0:2:0:0:
51,73,48524,5,6,1:2:0:0:
251,15,48691,1,2,0:0:0:0:
208,81,48858,2,0,L|230:202,1,107.999996704102,8|0,0:0|0:0,0:0:0:0:
275,237,49191,1,0,0:0:0:0:
45,283,49358,2,0,P|25:255|20:228,1,53.9999983520508,0|0,1:0|0:0,0:0:0:0:
107,230,49524,2,0,P|127:202|132:175,1,53.9999983520508,8|0,0:0|0:0,0:0:0:0:
120,29,49691,1,0,0:2:0:0:
45,22,49858,6,0,L|58:137,2,107.999996704102,0|0|8,1:2|0:2|0:2,0:2:0:0:
196,146,50358,6,0,P|206:184|219:218,1,53.9999983520508
326,338,50524,1,0,0:0:0:0:
320,328,50608,1,0,0:0:0:0:
314,318,50691,2,0,P|296:304|254:283,1,53.9999983520508
207,365,50858,6,0,B|179:318|235:241|252:283|312:216|279:150,1,202.500007724762,10|0,0:2|0:2,0:2:0:0:
288,176,51191,6,0,L|311:238,1,53.9999983520508,0|0,1:2|0:2,0:2:0:0:
207,7,51358,1,2,0:2:0:0:
236,70,51524,2,0,L|383:34,1,107.999996704102,10|0,0:2|0:2,0:2:0:0:
401,90,51858,1,0,0:2:0:0:
386,105,51941,1,0,0:2:0:0:
368,110,52024,1,0,1:2:0:0:
132,85,52191,1,8,0:2:0:0:
200,75,52358,1,0,0:2:0:0:
439,259,52524,5,0,1:2:0:0:
423,192,52691,1,0,0:2:0:0:
474,81,52858,6,0,P|470:116|464:143,1,53.9999983520508,8|0,0:2|0:2,0:2:0:0:
330,162,53024,1,0,0:2:0:0:
343,180,53108,1,0,0:2:0:0:
352,161,53191,2,0,P|325:153|290:150,1,53.9999983520508,0|0,0:2|0:2,0:2:0:0:
237,55,53358,2,0,P|212:68|185:91,1,53.9999983520508,0|0,1:2|0:2,0:2:0:0:
41,202,53524,5,8,0:2:0:0:
94,197,53608,1,0,0:2:0:0:
148,192,53691,1,0,0:2:0:0:
202,187,53774,1,0,0:2:0:0:
243,218,53858,5,2,1:2:0:0:
52,365,54024,1,2,0:2:0:0:
74,298,54191,2,0,P|98:287|120:263,1,53.9999983520508,8|0,0:2|0:2,0:2:0:0:
42,150,54358,2,0,P|35:186|60:224,1,53.9999983520508,0|0,0:2|0:2,0:2:0:0:
171,130,54524,1,0,0:2:0:0:
174,103,54608,1,0,0:2:0:0:
177,76,54691,1,0,1:2:0:0:
433,17,54858,1,8,0:2:0:0:
362,32,55024,1,0,0:2:0:0:
245,240,55191,5,0,1:2:0:0:
282,176,55358,2,0,B|307:153|307:153|408:144,1,107.999996704102,0|8,0:2|0:2,0:2:0:0:
427,293,55691,2,0,P|431:267|456:229,1,53.9999983520508,2|0,0:2|0:2,0:2:0:0:
328,333,55858,1,0,0:2:0:0:
325,324,55941,1,0,0:2:0:0:
322,315,56024,2,0,P|318:289|293:251,1,53.9999983520508,2|0,1:2|0:2,0:2:0:0:
427,293,56191,6,0,B|335:241|353:365|232:345,1,202.500007724762,10|0,0:2|0:2,0:2:0:0:
245,358,56524,6,0,P|230:333|218:298,1,53.9999983520508,0|0,1:2|0:2,0:2:0:0:
26,113,56691,1,2,0:2:0:0:
42,181,56858,2,0,L|162:150,1,107.999996704102,10|0,0:2|0:2,0:2:0:0:
219,17,57191,1,0,0:2:0:0:
215,43,57274,1,0,0:2:0:0:
212,70,57358,1,0,1:2:0:0:
126,244,57524,1,8,0:2:0:0:
110,176,57691,1,0,0:2:0:0:
297,111,57858,5,0,1:2:0:0:
314,113,57941,1,0,1:2:0:0:
332,115,58024,1,0,1:2:0:0:
350,117,58108,1,0,1:2:0:0:
368,119,58191,1,8,0:2:0:0:
386,121,58274,1,0,1:2:0:0:
404,123,58358,1,0,1:2:0:0:
422,125,58441,1,0,1:2:0:0:
440,127,58524,5,0,1:2:0:0:
396,157,58608,1,0,1:2:0:0:
342,159,58691,1,0,1:2:0:0:
296,134,58774,1,0,1:2:0:0:
270,87,58858,1,8,0:2:0:0:
226,56,58941,1,0,1:2:0:0:
172,54,59024,1,0,1:2:0:0:
126,79,59108,1,0,1:2:0:0:
100,126,59191,5,6,1:2:0:0:
189,366,59358,1,2,0:2:0:0:
205,298,59524,2,0,P|156:293|55:286,1,107.999996704102,8|0,0:2|0:2,0:2:0:0:
35,250,59858,1,0,0:2:0:0:
206,212,60024,6,0,P|231:209|271:220,1,53.9999983520508,0|0,1:2|0:2,0:2:0:0:
208,136,60191,2,0,P|233:139|273:128,1,53.9999983520508,8|0,0:2|0:2,0:2:0:0:
341,174,60358,1,0,0:2:0:0:
506,15,60524,5,0,1:2:0:0:
445,50,60691,2,0,P|462:104|474:176,1,107.999996704102,0|8,0:2|0:2,0:2:0:0:
284,3,61024,6,0,P|265:23|258:58,1,53.9999983520508,2|0,0:2|0:2,0:2:0:0:
298,201,61191,1,0,0:2:0:0:
287,198,61274,1,0,0:2:0:0:
280,190,61358,2,0,P|261:170|254:135,1,53.9999983520508,2|0,1:2|0:2,0:2:0:0:
361,107,61524,6,0,P|257:121|131:140,1,202.500007724762,10|0,0:2|0:2,0:2:0:0:
151,139,61858,6,0,P|179:175|208:187,1,53.9999983520508,0|0,1:2|0:2,0:2:0:0:
8,368,62024,1,2,0:2:0:0:
47,311,62191,2,0,P|131:325|180:363,1,107.999996704102,10|0,0:2|0:2,0:2:0:0:
11,185,62524,1,0,0:2:0:0:
18,205,62608,1,0,0:2:0:0:
32,222,62691,1,0,1:2:0:0:
147,29,62858,1,8,0:2:0:0:
75,20,63024,1,0,0:2:0:0:
197,240,63191,5,0,1:2:0:0:
181,172,63358,1,0,0:2:0:0:
278,28,63524,6,0,L|288:103,1,53.9999983520508,8|0,0:2|0:2,0:2:0:0:
345,180,63691,1,0,0:2:0:0:
367,190,63774,1,0,0:2:0:0:
364,169,63858,2,0,P|321:163|296:149,1,53.9999983520508,0|0,0:2|0:2,0:2:0:0:
302,288,64024,2,0,P|275:253|268:225,1,53.9999983520508,0|0,1:2|0:2,0:2:0:0:
423,375,64191,5,8,0:2:0:0:
428,321,64274,1,0,0:2:0:0:
433,267,64358,1,0,0:2:0:0:
438,213,64441,1,0,0:2:0:0:
472,172,64524,5,2,1:2:0:0:
250,16,64691,1,2,0:2:0:0:
289,77,64858,2,0,P|353:54|407:31,1,107.999996704102,8|0,0:2|0:2,0:2:0:0:
253,137,65191,2,0,P|220:150|179:153,1,53.9999983520508,0|0,0:2|0:2,0:2:0:0:
82,38,65358,2,0,P|119:51|147:68,1,53.9999983520508,0|0,1:2|0:2,0:2:0:0:
48,193,65524,1,8,0:2:0:0:
66,173,65608,1,0,0:2:0:0:
90,160,65691,1,0,0:2:0:0:
216,374,65858,5,0,1:2:0:0:
149,353,66024,2,0,P|161:284|167:210,1,107.999996704102,0|8,0:2|0:2,0:2:0:0:
187,89,66358,2,0,P|216:97|245:101,1,53.9999983520508,2|0,0:2|0:2,0:2:0:0:
376,139,66524,1,0,0:2:0:0:
369,152,66608,1,0,0:2:0:0:
359,162,66691,2,0,P|330:170|301:174,1,53.9999983520508,2|0,1:2|0:2,0:2:0:0:
292,34,66858,6,0,P|276:125|253:257,1,202.500007724762,10|0,0:2|0:2,0:2:0:0:
261,241,67191,6,0,P|293:226|320:231,1,53.9999983520508,0|0,1:2|0:2,0:2:0:0:
506,381,67358,1,2,0:2:0:0:
450,340,67524,2,0,L|465:210,1,107.999996704102,10|0,0:2|0:2,0:2:0:0:
397,72,67858,1,0,0:2:0:0:
401,98,67941,1,0,0:2:0:0:
415,121,68024,1,0,1:2:0:0:
344,359,68191,1,8,0:2:0:0:
281,330,68358,1,0,0:2:0:0:
6,352,68524,5,0,1:2:0:0:
23,350,68608,1,0,1:2:0:0:
41,348,68691,1,0,1:2:0:0:
59,346,68774,1,0,1:2:0:0:
77,344,68858,1,8,0:2:0:0:
95,342,68941,1,0,1:2:0:0:
113,340,69024,1,0,1:2:0:0:
131,338,69108,1,0,1:2:0:0:
149,336,69191,5,0,1:2:0:0:
101,312,69274,1,0,1:2:0:0:
79,264,69358,1,0,1:2:0:0:
91,212,69441,1,0,1:2:0:0:
133,179,69524,1,8,0:2:0:0:
180,155,69608,1,0,1:2:0:0:
202,107,69691,1,0,1:2:0:0:
190,55,69774,1,0,1:2:0:0:
148,22,69858,5,6,1:2:0:0:
173,258,70024,1,2,0:2:0:0:
235,306,70191,2,0,L|258:167,1,116.999994644165,8|0,0:2|0:2,0:2:0:0:
298,140,70524,1,0,0:2:0:0:
382,373,70691,6,0,P|393:346|393:317,1,58.4999973220826,0|0,1:2|0:2,0:2:0:0:
320,303,70858,2,0,P|308:329|308:358,1,58.4999973220826,8|0,0:2|0:2,0:2:0:0:
366,237,71024,1,0,0:2:0:0:
93,368,71191,5,0,1:2:0:0:
155,337,71358,2,0,P|122:278|117:221,1,116.999994644165,0|8,0:2|0:2,0:2:0:0:
132,63,71691,2,0,L|206:75,1,58.4999973220826,2|0,0:2|0:2,0:2:0:0:
279,199,71858,1,0,0:2:0:0:
271,189,71941,1,0,0:2:0:0:
261,179,72024,2,0,L|189:166,1,58.4999973220826,2|0,1:2|0:2,0:2:0:0:
90,143,72191,6,0,B|188:126|188:126|191:117|191:117|295:100,1,216,10|0,0:2|0:2,0:2:0:0:
290,94,72524,6,0,P|317:123|330:150,1,58.4999973220826,0|0,1:2|0:2,0:2:0:0:
281,369,72691,1,2,0:2:0:0:
309,302,72858,2,0,P|405:282|471:272,1,116.999994644165,10|0,0:2|0:2,0:2:0:0:
489,231,73191,2,0,P|464:211|422:204,1,58.4999973220826,0|0,0:2|0:2,0:2:0:0:
309,302,73358,1,0,1:2:0:0:
143,379,73524,1,8,0:2:0:0:
109,314,73691,1,0,0:2:0:0:
158,104,73858,6,0,B|137:101|111:110|92:158|111:214|170:185|217:229|216:263|208:290,1,229.500004377365,2|0,1:2|0:2,0:2:0:0:
206,284,74191,6,0,P|216:252|240:235,1,58.4999973220826,8|0,0:2|0:2,0:2:0:0:
328,178,74358,5,0,0:2:0:0:
351,185,74441,1,0,0:2:0:0:
338,195,74524,2,0,L|326:263,1,58.4999973220826
436,163,74691,2,0,L|424:231,1,58.4999973220826,0|0,1:0|0:0,0:0:0:0:
410,320,74858,5,8,0:2:0:0:
445,324,74941,1,0,0:2:0:0:
415,346,75024,5,0,0:2:0:0:
432,348,75108,1,0,0:2:0:0:
423,372,75191,5,2,1:2:0:0:
159,317,75358,1,2,0:2:0:0:
224,371,75524,2,0,P|235:285|251:227,1,116.999994644165,8|0,0:2|0:2,0:2:0:0:
147,140,75858,1,0,0:2:0:0:
155,167,75941,1,0,0:2:0:0:
174,190,76024,1,0,1:2:0:0:
23,360,76191,1,8,0:2:0:0:
90,340,76358,1,0,0:2:0:0:
257,114,76524,5,0,1:2:0:0:
248,184,76691,1,0,0:2:0:0:
271,345,76858,2,0,L|258:274,1,58.4999973220826,8|0,0:2|0:2,0:2:0:0:
337,156,77024,6,0,P|368:138|396:138,1,58.4999973220826,2|0,0:2|0:2,0:2:0:0:
432,231,77191,1,0,0:2:0:0:
426,241,77274,1,0,0:2:0:0:
422,252,77358,2,0,P|457:247|479:229,1,58.4999973220826,2|0,1:2|0:2,0:2:0:0:
480,147,77524,6,0,P|455:226|436:358,1,216,10|0,0:2|0:2,0:2:0:0:
442,366,77858,6,0,P|426:338|400:315,1,58.4999973220826,0|0,1:2|0:2,0:2:0:0:
361,68,78024,1,2,0:2:0:0:
377,144,78191,2,0,P|433:93|441:12,1,116.999994644165,10|0,0:2|0:2,0:2:0:0:
256,98,78524,1,0,0:2:0:0:
284,104,78608,1,0,0:2:0:0:
305,124,78691,1,0,1:2:0:0:
111,105,78858,5,8,0:2:0:0:
126,73,78941,1,0,0:2:0:0:
91,86,79024,5,0,0:2:0:0:
98,71,79108,1,0,0:2:0:0:
73,66,79191,5,0,1:2:0:0:
82,85,79274,1,0,1:2:0:0:
91,105,79358,1,0,1:2:0:0:
99,126,79441,1,0,1:2:0:0:
105,147,79524,1,8,0:2:0:0:
111,168,79608,1,0,1:2:0:0:
116,189,79691,1,0,1:2:0:0:
121,211,79774,1,0,1:2:0:0:
124,232,79858,5,0,1:2:0:0:
67,223,79941,1,0,1:2:0:0:
23,259,80024,1,0,1:2:0:0:
20,316,80108,1,0,1:2:0:0:
59,357,80191,1,8,0:2:0:0:
115,365,80274,1,0,1:2:0:0:
159,329,80358,1,0,1:2:0:0:
162,272,80441,1,0,1:2:0:0:
124,232,80524,5,6,1:2:0:0:
26,45,80691,1,2,0:2:0:0:
9,126,80858,2,0,P|76:100|161:89,1,116.999994644165,8|0,0:2|0:2,0:2:0:0:
192,95,81191,1,0,0:2:0:0:
386,47,81358,6,0,L|370:122,1,58.4999973220826,0|0,1:2|0:2,0:2:0:0:
373,237,81524,1,8,0:2:0:0:
356,231,81608,1,0,0:2:0:0:
356,214,81691,1,0,0:2:0:0:
373,208,81774,1,0,0:2:0:0:
383,222,81858,5,0,1:2:0:0:
429,279,82024,1,0,0:2:0:0:
448,349,82191,1,8,0:2:0:0:
231,371,82358,6,0,P|239:347|237:306,1,58.4999973220826,2|0,0:2|0:2,0:2:0:0:
118,216,82524,1,0,0:2:0:0:
106,221,82608,1,0,0:2:0:0:
99,230,82691,2,0,P|88:254|106:289,1,58.4999973220826,2|0,1:2|0:2,0:2:0:0:
250,246,82858,6,0,B|204:232|146:291|160:303|178:306|150:365|64:364,1,216,10|0,0:2|0:2,0:2:0:0:
83,355,83191,6,0,P|115:352|149:363,1,58.4999973220826,0|0,1:2|0:2,0:2:0:0:
388,384,83358,1,2,0:2:0:0:
314,375,83524,2,0,P|338:313|344:242,1,116.999994644165,10|0,0:2|0:2,0:2:0:0:
477,131,83858,1,0,0:2:0:0:
467,158,83941,1,0,0:2:0:0:
447,179,84024,1,0,1:2:0:0:
189,159,84191,1,8,0:2:0:0:
259,145,84358,1,0,0:2:0:0:
390,7,84524,6,0,P|364:112|341:233,1,229.500004377365,2|0,1:2|0:2,0:2:0:0:
285,272,84858,6,0,P|272:228|276:207,1,58.4999973220826,8|0,0:2|0:2,0:2:0:0:
385,286,85024,2,0,P|404:262|409:227,1,58.4999973220826,0|0,0:2|0:2,0:2:0:0:
281,354,85191,5,0,0:2:0:0:
252,362,85274,1,0,0:2:0:0:
224,370,85358,1,0,1:2:0:0:
77,315,85524,1,8,0:2:0:0:
92,384,85691,1,0,1:2:0:0:
249,164,85858,5,2,1:2:0:0:
174,147,86024,2,0,L|31:122,1,116.999994644165,2|8,0:2|0:2,0:2:0:0:
6,177,86358,1,0,0:2:0:0:
182,42,86524,1,0,0:2:0:0:
198,65,86608,1,0,0:2:0:0:
222,81,86691,1,0,1:2:0:0:
432,171,86858,2,0,L|361:159,1,58.4999973220826,8|0,0:2|0:2,0:2:0:0:
451,100,87024,2,0,L|380:88,1,58.4999973220826,0|0,0:2|0:2,0:2:0:0:
161,27,87191,5,0,1:2:0:0:
174,96,87358,1,0,0:2:0:0:
134,183,87524,2,0,L|127:241,1,58.4999973220826,8|0,0:2|0:2,0:2:0:0:
263,375,87691,6,0,P|244:355|237:320,1,58.4999973220826,2|0,0:2|0:2,0:2:0:0:
277,177,87858,1,0,0:2:0:0:
266,180,87941,1,0,0:2:0:0:
259,188,88024,2,0,P|240:208|233:243,1,58.4999973220826,2|0,1:2|0:2,0:2:0:0:
340,271,88191,6,0,P|236:257|110:238,1,216,10|0,0:2|0:2,0:2:0:0:
123,249,88524,6,0,P|106:224|109:178,1,58.4999973220826,0|0,1:2|0:2,0:2:0:0:
155,13,88691,1,2,0:2:0:0:
92,80,88858,5,10,0:2:0:0:
121,81,88941,1,0,1:2:0:0:
152,83,89024,1,0,1:2:0:0:
183,85,89108,1,0,1:2:0:0:
214,87,89191,1,0,1:2:0:0:
245,89,89274,1,0,1:2:0:0:
273,58,89358,5,0,1:2:0:0:
311,56,89441,1,0,1:2:0:0:
352,54,89524,1,8,0:2:0:0:
393,51,89608,1,0,1:2:0:0:
434,48,89691,1,0,1:2:0:0:
476,46,89774,1,0,1:2:0:0:
502,10,89858,5,0,1:2:0:0:
491,85,89941,1,0,1:2:0:0:
480,160,90024,1,0,1:2:0:0:
469,235,90108,1,0,1:2:0:0:
507,300,90191,5,4,0:3:0:0:
417,317,90358,1,0,0:2:0:0:
119,280,90524,5,4,0:3:0:0:
134,372,90691,1,0,0:2:0:0:
393,215,90858,5,4,0:3:0:0:
238,177,91024,1,4,0:3:0:0:
67,0,91191,6,0,P|85:77|102:198,1,180,4|2,3:2|0:3,0:2:0:0:
227,299,91691,2,0,P|164:269|129:366,1,180,8|2,0:3|0:3,0:3:0:0:
299,375,92191,2,0,B|301:325|329:300|350:307|369:305|417:265|386:201,1,180,4|2,0:3|0:3,0:3:0:0:
230,187,92691,6,0,P|270:208|322:231,2,90,8|0|2,0:3|0:3|0:3,0:3:0:0:
172,127,93191,1,8,0:3:0:0:
246,111,93358,1,8,0:3:0:0:
329,12,93524,2,0,L|316:103,1,90,8|0,0:3|0:3,0:3:0:0:
440,201,93858,6,0,P|381:174|353:277,1,180,4|2,0:3|0:3,0:3:0:0:
288,359,94358,2,0,P|334:367|383:382,2,90,8|0|2,0:3|0:3|0:3,0:3:0:0:
185,374,94858,2,0,P|201:313|211:193,1,180,4|2,0:3|0:3,0:3:0:0:
97,74,95358,5,8,0:3:0:0:
106,94,95441,1,0,0:3:0:0:
114,115,95524,1,0,0:3:0:0:
120,137,95608,1,0,0:3:0:0:
124,159,95691,2,0,P|156:146|178:134,1,45,2|0,0:3|0:3,0:3:0:0:
271,18,95858,6,0,P|283:47|283:68,1,45,8|0,0:3|0:0,0:0:0:0:
341,1,96024,2,0,P|353:30|353:51,1,45,8|0,0:3|0:0,0:0:0:0:
448,104,96191,2,0,P|431:158|415:241,1,135,8|0,0:3|0:0,0:0:0:0:
419,244,96524,6,0,P|335:258|233:303,1,180,4|2,0:3|0:3,0:3:0:0:
136,359,97024,2,0,L|244:375,2,90,8|0|2,0:3|0:3|0:3,0:3:0:0:
33,269,97524,1,4,0:3:0:0:
52,338,97691,1,0,0:3:0:0:
144,246,97858,5,2,0:3:0:0:
82,212,98024,2,0,P|90:164|95:121,2,90,8|0|2,0:3|0:3|0:3,0:3:0:0:
38,76,98524,1,8,0:3:0:0:
107,48,98691,1,8,0:3:0:0:
249,119,98858,2,0,L|157:95,1,90,8|0,0:3|0:3,0:3:0:0:
211,351,99191,6,0,B|318:316|318:316|326:272|280:246,1,180,4|2,0:3|0:3,0:3:0:0:
165,175,99691,2,0,P|194:220|202:262,2,90,8|0|2,0:3|0:3|0:3,0:3:0:0:
264,181,100191,1,4,0:3:0:0:
339,192,100358,1,4,0:3:0:0:
451,101,100524,5,2,0:3:0:0:
405,159,100691,2,0,L|430:271,2,90,8|0|2,0:3|0:3|0:3,0:3:0:0:
360,39,101191,1,4,0:3:0:0:
292,54,101358,1,4,0:3:0:0:
239,99,101524,1,4,0:3:0:0:
171,84,101691,1,4,0:3:0:0:
5,6,101858,6,0,P|14:96|22:196,1,180,4|2,3:2|0:3,0:3:0:0:
12,359,102358,2,0,B|117:333|31:258|141:222,1,180,8|2,0:3|0:3,0:3:0:0:
307,159,102858,2,0,P|232:169|225:276,1,180,4|2,0:3|0:3,0:3:0:0:
322,367,103358,6,0,B|343:327|343:327|328:274,2,90,8|0|2,0:3|0:3|0:3,0:3:0:0:
401,274,103858,1,8,0:3:0:0:
451,218,104024,1,8,0:3:0:0:
360,115,104191,2,0,L|381:208,1,90,8|0,0:3|0:3,0:3:0:0:
463,14,104524,6,0,L|286:49,1,180,4|2,0:3|0:3,0:3:0:0:
180,18,105024,2,0,P|204:61|215:127,2,90,8|0|2,0:3|0:3|0:3,0:3:0:0:
135,208,105524,2,0,P|194:173|226:281,1,180,4|0,0:3|0:3,0:3:0:0:
136,367,106024,5,8,0:3:0:0:
162,369,106108,1,0,0:3:0:0:
188,371,106191,1,0,0:3:0:0:
214,374,106274,1,0,0:3:0:0:
239,376,106358,2,0,P|246:346|259:326,1,45,2|0,0:3|0:3,0:3:0:0:
401,287,106524,6,0,P|415:314|414:353,1,45,0|0,0:3|0:3,0:3:0:0:
337,313,106691,2,0,P|351:340|341:379,1,45,0|0,0:3|0:3,0:3:0:0:
456,224,106858,2,0,P|464:176|487:76,1,135,8|0,0:3|0:3,0:3:0:0:
495,84,107191,6,0,P|410:98|389:13,1,180,4|2,0:3|0:3,0:3:0:0:
233,100,107691,2,0,L|334:121,2,90,8|0|2,0:3|0:3|0:3,0:3:0:0:
121,57,108191,1,4,0:3:0:0:
188,37,108358,1,0,0:3:0:0:
150,177,108524,5,2,0:3:0:0:
77,150,108691,2,0,L|94:254,2,90,8|0|2,0:3|0:3|0:3,0:3:0:0:
44,297,109191,1,8,0:3:0:0:
113,310,109358,1,8,0:3:0:0:
263,283,109524,2,0,L|181:322,1,90,8|0,0:3|0:3,0:3:0:0:
320,154,109858,5,4,1:2:0:0:
305,137,109941,1,0,1:2:0:0:
297,116,110024,1,0,1:2:0:0:
298,93,110108,1,0,1:2:0:0:
307,73,110191,1,2,1:3:0:0:
324,58,110274,1,0,1:2:0:0:
345,50,110358,1,4,1:3:0:0:
367,50,110441,1,0,1:2:0:0:
387,59,110524,5,0,1:2:0:0:
351,85,110608,1,0,1:2:0:0:
307,93,110691,1,2,1:3:0:0:
265,79,110774,1,0,1:2:0:0:
234,47,110858,1,4,1:3:0:0:
203,15,110941,1,0,1:2:0:0:
161,1,111024,1,0,1:2:0:0:
117,9,111108,1,0,1:2:0:0:
81,35,111191,5,2,1:3:0:0:
87,79,111274,1,0,1:2:0:0:
93,124,111358,1,8,1:3:0:0:
99,168,111441,1,0,1:2:0:0:
81,209,111524,5,0,1:2:0:0:
88,253,111608,1,0,1:2:0:0:
94,298,111691,1,0,1:2:0:0:
100,342,111774,1,0,1:2:0:0:
162,384,111858,6,0,P|215:327|271:333,1,126,4|0,0:3|0:2,0:2:0:0:
276,338,112524,6,0,B|220:349|180:298|197:295|213:289|163:231|108:234,1,198.000006042481,4|2,3:2|0:3,0:2:0:0:
253,157,113024,2,0,P|257:203|267:259,2,99.0000030212403,8|0|2,0:3|0:3|0:3,0:3:0:0:
171,144,113524,2,0,P|115:127|79:96,1,99.0000030212403,4|0,0:3|0:3,0:3:0:0:
266,0,113858,5,2,0:3:0:0:
332,28,114024,2,0,L|321:138,2,99.0000030212403,8|0|2,0:3|0:3|0:3,0:3:0:0:
188,52,114524,1,8,0:3:0:0:
113,65,114691,1,8,0:3:0:0:
151,222,114858,2,0,L|159:122,1,99.0000030212403,8|0,0:3|0:3,0:3:0:0:
15,253,115191,6,0,P|86:267|115:378,1,198.000006042481,4|2,0:3|0:3,0:3:0:0:
224,302,115691,1,8,0:3:0:0:
214,307,115774,1,0,0:3:0:0:
204,312,115858,1,0,0:3:0:0:
231,171,116024,1,2,0:3:0:0:
297,193,116191,2,0,L|312:297,1,99.0000030212403,4|0,0:3|0:3,0:3:0:0:
138,212,116524,5,2,0:3:0:0:
60,143,116691,1,8,0:3:0:0:
55,133,116774,1,0,0:3:0:0:
50,123,116858,1,0,0:3:0:0:
45,113,116941,1,0,0:3:0:0:
40,103,117024,1,2,0:3:0:0:
181,68,117191,2,0,P|194:48|195:24,1,49.5000015106202,0|0,0:3|0:3,0:3:0:0:
120,5,117358,2,0,P|107:25|107:50,1,49.5000015106202,0|0,0:3|0:3,0:3:0:0:
180,163,117524,1,8,0:3:0:0:
252,134,117691,1,8,0:3:0:0:
384,21,117858,6,0,P|370:90|352:217,1,198.000006042481,4|2,0:3|0:3,0:3:0:0:
250,356,118358,1,8,0:3:0:0:
316,338,118524,1,0,0:3:0:0:
471,279,118691,1,2,0:3:0:0:
478,357,118858,2,0,B|384:317,1,99.0000030212403,4|0,0:3|0:3,0:3:0:0:
231,219,119191,5,2,0:3:0:0:
175,269,119358,2,0,L|73:250,2,99.0000030212403,8|0|2,0:3|0:3|0:3,0:3:0:0:
20,200,119858,1,8,0:3:0:0:
92,179,120024,1,8,0:3:0:0:
190,340,120191,1,8,0:3:0:0:
175,269,120358,1,0,0:3:0:0:
213,89,120524,6,0,B|301:47|286:165|399:145,1,198.000006042481,4|2,0:3|0:3,0:3:0:0:
397,11,121024,1,8,0:3:0:0:
391,18,121108,1,0,0:3:0:0:
385,25,121191,2,0,P|373:49|375:80,1,49.5000015106202,0|0,0:3|0:3,0:3:0:0:
299,197,121358,2,0,P|311:173|309:142,1,49.5000015106202,2|0,0:3|0:3,0:3:0:0:
203,15,121524,1,4,0:3:0:0:
274,35,121691,1,4,0:3:0:0:
166,202,121858,5,2,0:3:0:0:
116,142,122024,2,0,L|235:121,2,99.0000030212403,8|0|2,0:3|0:3|0:3,0:3:0:0:
21,270,122524,1,4,0:3:0:0:
90,250,122691,1,4,0:3:0:0:
130,311,122858,1,4,0:3:0:0:
199,291,123024,1,4,0:3:0:0:
353,358,123191,6,0,B|371:315|314:271|306:283|306:296|247:260|261:202,1,198.000006042481,4|2,3:2|0:3,0:3:0:0:
350,100,123691,2,0,P|338:122|331:147,1,49.5000015106202,8|0,0:3|0:3,0:3:0:0:
231,66,123858,2,0,P|243:88|250:113,1,49.5000015106202,0|0,0:3|0:3,0:3:0:0:
177,163,124024,1,2,0:3:0:0:
107,325,124191,1,4,0:3:0:0:
39,305,124358,1,0,0:3:0:0:
31,151,124524,5,2,0:3:0:0:
101,172,124691,2,0,L|116:63,2,99.0000030212403,8|0|2,0:3|0:3|0:3,0:3:0:0:
140,232,125191,1,8,0:3:0:0:
184,366,125358,1,8,0:3:0:0:
174,371,125441,1,0,0:3:0:0:
164,376,125524,1,8,0:3:0:0:
94,359,125691,1,0,0:3:0:0:
261,319,125858,6,0,P|326:331|459:361,1,198.000006042481,4|2,0:3|0:3,0:3:0:0:
512,256,126358,1,8,0:3:0:0:
506,262,126441,1,0,0:3:0:0:
500,268,126524,1,0,0:3:0:0:
431,281,126691,1,2,0:3:0:0:
339,170,126858,2,0,L|363:272,1,99.0000030212403,4|0,0:3|0:3,0:3:0:0:
255,372,127191,5,2,0:3:0:0:
184,352,127358,1,8,0:3:0:0:
62,360,127524,1,0,0:3:0:0:
68,366,127608,1,0,0:3:0:0:
74,372,127691,2,0,L|90:306,1,49.5000015106202,2|0,0:3|0:3,0:3:0:0:
154,263,127858,2,0,L|170:197,1,49.5000015106202,0|0,0:3|0:3,0:3:0:0:
127,142,128024,1,0,0:3:0:0:
121,148,128108,1,0,0:3:0:0:
115,154,128191,1,8,0:3:0:0:
53,108,128358,1,0,0:3:0:0:
299,9,128524,6,0,L|280:218,1,198.000006042481,4|2,0:3|0:3,0:3:0:0:
247,375,129024,1,8,0:3:0:0:
315,350,129191,1,0,0:3:0:0:
386,363,129358,1,2,0:3:0:0:
452,278,129524,5,4,1:3:0:0:
454,265,129608,1,0,1:3:0:0:
456,253,129691,1,0,1:3:0:0:
458,241,129774,1,0,1:3:0:0:
460,229,129858,5,2,1:3:0:0:
414,246,129941,1,0,1:3:0:0:
365,242,130024,1,8,1:3:0:0:
323,216,130108,1,0,1:3:0:0:
298,174,130191,1,0,1:3:0:0:
273,132,130274,1,0,1:3:0:0:
231,106,130358,1,2,1:3:0:0:
182,102,130441,1,0,1:3:0:0:
151,141,130524,5,0,1:3:0:0:
200,137,130608,1,0,1:3:0:0:
249,133,130691,1,0,1:3:0:0:
299,129,130774,1,0,1:3:0:0:
331,94,130858,5,0,1:3:0:0:
380,90,130941,1,0,1:3:0:0:
429,86,131024,1,0,1:3:0:0:
479,82,131108,1,0,1:3:0:0:
512,47,131191,5,8,0:3:0:0:
438,41,131358,1,0,0:2:0:0:
364,35,131524,1,0,0:2:0:0:
114,20,131858,5,8,0:3:0:0:
188,14,132024,1,0,0:2:0:0:
224,171,132191,5,8,0:3:0:0:
298,173,132358,1,0,0:2:0:0:
421,360,132524,6,0,L|426:283,1,67.5000025749208,4|0,1:2|0:2,0:2:0:0:
319,334,132858,5,4,0:3:0:0:
304,336,132941,1,0,1:2:0:0:
290,338,133024,1,0,1:2:0:0:
275,340,133108,1,0,1:2:0:0:
221,293,133191,5,4,0:3:0:0:
206,295,133274,1,0,1:2:0:0:
192,297,133358,1,0,1:2:0:0:
177,299,133441,1,0,1:2:0:0:
123,252,133524,5,4,0:3:0:0:
108,254,133608,1,0,1:2:0:0:
94,256,133691,1,0,1:2:0:0:
79,258,133774,1,0,1:2:0:0:
13,226,133858,5,4,1:2:0:0:
67,63,134024,1,0,0:2:0:0:
72,80,134108,1,0,0:2:0:0:
77,97,134191,2,0,L|200:122,1,99.0000030212403,8|0,0:2|0:2,0:2:0:0:
309,66,134524,2,0,P|319:41|313:9,1,49.5000015106202,0|0,0:2|0:2,0:2:0:0:
248,6,134691,2,0,P|238:31|244:63,1,49.5000015106202,0|0,1:2|0:2,0:2:0:0:
356,151,134858,1,8,0:2:0:0:
420,129,135024,1,0,0:2:0:0:
187,190,135191,5,0,1:2:0:0:
201,257,135358,1,0,0:2:0:0:
318,349,135524,2,0,L|215:326,1,99.0000030212403,8|0,0:2|0:2,0:2:0:0:
400,304,135858,2,0,B|373:289|373:289|360:261,1,49.5000015106202,0|0,0:2|0:2,0:2:0:0:
497,378,136024,2,0,B|469:364|469:364|438:369,1,49.5000015106202,0|0,1:2|0:2,0:2:0:0:
503,184,136191,2,0,L|475:289,1,99.0000030212403,8|0,0:2|0:2,0:2:0:0:
347,162,136524,5,0,1:2:0:0:
415,143,136691,1,0,0:2:0:0:
261,118,136858,2,0,L|289:223,1,99.0000030212403,8|0,0:2|0:2,0:2:0:0:
388,62,137191,1,0,0:2:0:0:
377,76,137274,1,0,0:2:0:0:
360,83,137358,1,0,1:2:0:0:
181,78,137524,1,8,0:2:0:0:
196,146,137691,1,0,0:2:0:0:
220,268,137858,5,0,1:2:0:0:
222,280,137941,1,0,1:2:0:0:
225,292,138024,1,0,1:2:0:0:
228,304,138108,1,0,1:2:0:0:
231,316,138191,1,8,0:2:0:0:
234,328,138274,1,0,1:2:0:0:
237,340,138358,1,0,1:2:0:0:
240,352,138441,1,0,1:2:0:0:
243,364,138524,5,0,1:2:0:0:
278,330,138608,1,0,1:2:0:0:
297,284,138691,1,0,1:2:0:0:
294,235,138774,1,0,1:2:0:0:
272,191,138858,1,8,0:2:0:0:
270,143,138941,1,0,1:2:0:0:
305,110,139024,1,0,1:2:0:0:
353,115,139108,1,0,1:2:0:0:
381,153,139191,5,4,1:2:0:0:
152,232,139358,1,0,0:2:0:0:
173,163,139524,2,0,L|276:142,1,99.0000030212403,8|0,0:2|0:2,0:2:0:0:
132,98,139858,2,0,P|104:121|96:150,1,49.5000015106202,0|0,0:2|0:2,0:2:0:0:
94,35,140024,2,0,P|57:31|31:46,1,49.5000015106202,0|0,1:2|0:2,0:2:0:0:
284,44,140191,1,8,0:2:0:0:
216,27,140358,1,0,0:2:0:0:
413,12,140524,5,0,1:2:0:0:
401,83,140691,1,0,0:2:0:0:
454,228,140858,1,8,0:2:0:0:
449,211,140941,1,0,0:2:0:0:
444,194,141024,1,0,0:2:0:0:
353,166,141191,2,0,L|303:174,1,49.5000015106202,0|0,0:2|0:2,0:2:0:0:
273,100,141358,2,0,L|225:87,1,49.5000015106202,0|0,1:2|0:2,0:2:0:0:
88,24,141524,2,0,P|109:92|124:158,1,99.0000030212403,8|0,0:2|0:2,0:2:0:0:
11,246,141858,5,0,1:2:0:0:
79,223,142024,1,0,0:2:0:0:
150,373,142191,2,0,L|134:272,1,99.0000030212403,8|0,0:2|0:2,0:2:0:0:
88,103,142524,2,0,P|100:124|98:149,1,49.5000015106202,0|0,0:2|0:2,0:2:0:0:
29,168,142691,2,0,P|17:147|20:123,1,49.5000015106202,0|0,1:2|0:2,0:2:0:0:
159,199,142858,1,8,0:2:0:0:
263,254,143024,1,0,0:2:0:0:
264,260,143108,1,0,0:2:0:0:
266,267,143191,5,0,1:2:0:0:
290,263,143274,1,0,1:2:0:0:
314,259,143358,1,0,1:2:0:0:
339,255,143441,1,0,1:2:0:0:
363,251,143524,1,8,0:2:0:0:
387,247,143608,1,0,1:2:0:0:
411,243,143691,1,0,1:2:0:0:
436,239,143774,1,0,1:2:0:0:
460,235,143858,5,0,1:2:0:0:
411,224,143941,1,0,1:2:0:0:
371,196,144024,1,0,1:2:0:0:
345,154,144108,1,0,1:2:0:0:
338,105,144191,1,8,0:2:0:0:
320,60,144274,1,0,1:2:0:0:
276,40,144358,1,0,1:2:0:0:
231,55,144441,1,0,1:2:0:0:
208,98,144524,5,4,1:2:0:0:
408,47,144691,1,0,0:2:0:0:
471,119,144858,2,0,L|482:21,1,99.0000030212403,8|0,0:2|0:2,0:2:0:0:
386,146,145191,1,0,0:2:0:0:
405,162,145274,1,0,0:2:0:0:
415,185,145358,1,0,1:2:0:0:
266,193,145524,1,8,0:2:0:0:
336,207,145691,1,0,0:2:0:0:
479,339,145858,5,0,1:2:0:0:
409,325,146024,1,0,0:2:0:0:
270,364,146191,1,8,0:2:0:0:
282,361,146274,1,0,0:2:0:0:
294,359,146358,1,0,0:2:0:0:
306,356,146441,1,0,0:2:0:0:
318,354,146524,2,0,L|323:294,1,49.5000015106202,0|0,0:2|0:2,0:2:0:0:
231,294,146691,2,0,L|236:234,1,49.5000015106202,0|0,1:2|0:2,0:2:0:0:
404,162,146858,2,0,P|359:208|317:199,1,99.0000030212403,8|0,0:2|0:2,0:2:0:0:
169,115,147191,5,0,1:2:0:0:
241,102,147358,1,0,0:2:0:0:
347,0,147524,2,0,P|322:40|315:107,1,99.0000030212403,8|0,0:2|0:2,0:2:0:0:
390,215,147858,2,0,P|416:200|433:168,1,49.5000015106202,0|0,0:2|0:2,0:2:0:0:
452,104,148024,2,0,P|459:75|449:40,1,49.5000015106202,0|0,1:2|0:2,0:2:0:0:
267,170,148191,1,8,0:2:0:0:
294,240,148358,1,0,0:2:0:0:
435,360,148524,5,0,1:2:0:0:
422,358,148608,1,0,0:2:0:0:
410,356,148691,1,0,0:2:0:0:
398,355,148774,1,0,0:2:0:0:
385,353,148858,1,8,0:2:0:0:
287,380,149024,1,0,0:2:0:0:
195,295,149191,2,0,P|171:294|138:284,1,49.5000015106202,0|0,0:2|0:2,0:2:0:0:
185,363,149358,2,0,P|161:364|128:374,1,49.5000015106202,0|0,1:2|0:2,0:2:0:0:
48,223,149524,2,0,L|69:330,1,99.0000030212403,8|0,0:2|0:2,0:2:0:0:
0,5,149858,5,4,1:2:0:0:
70,27,150024,1,0,0:2:0:0:
113,144,150191,2,0,P|125:91|143:43,1,99.0000030212403,8|0,0:2|0:2,0:2:0:0:
23,161,150524,1,0,0:2:0:0:
34,176,150608,1,0,0:2:0:0:
41,194,150691,2,0,L|32:251,1,49.5000015106202,0|0,1:2|0:2,0:2:0:0:
125,362,150858,6,0,L|73:350,1,49.5000015106202,10|0,0:2|0:2,0:2:0:0:
112,348,151024,2,0,L|60:336,1,49.5000015106202,2|0,0:2|0:2,0:2:0:0:
23,161,151191,5,0,1:2:0:0:
37,89,151358,1,0,0:2:0:0:
250,55,151524,1,8,0:2:0:0:
177,38,151691,1,0,0:2:0:0:
133,203,151858,2,0,P|120:187|119:151,1,49.5000015106202,0|0,0:2|0:2,0:2:0:0:
190,133,152024,2,0,P|203:149|204:185,1,49.5000015106202,0|0,1:2|0:2,0:2:0:0:
119,321,152191,2,0,P|167:296|198:249,1,99.0000030212403,8|0,0:2|0:2,0:2:0:0:
326,373,152524,5,0,1:2:0:0:
253,364,152691,1,0,0:2:0:0:
405,281,152858,1,8,0:2:0:0:
479,291,153024,1,0,0:0:0:0:
319,296,153191,5,0,1:2:0:0:
321,271,153274,1,0,1:2:0:0:
323,246,153358,1,0,1:2:0:0:
326,222,153441,1,0,1:2:0:0:
328,197,153524,1,8,0:2:0:0:
331,172,153608,1,0,1:2:0:0:
333,148,153691,1,0,1:2:0:0:
336,123,153774,1,0,1:2:0:0:
338,98,153858,5,0,1:2:0:0:
295,122,153941,1,0,1:2:0:0:
246,123,154024,1,0,1:2:0:0:
202,101,154108,1,0,1:2:0:0:
173,62,154191,1,8,0:2:0:0:
144,23,154274,1,0,1:2:0:0:
100,1,154358,1,0,1:2:0:0:
51,2,154441,1,0,1:2:0:0:
8,27,154524,6,0,B|30:70|30:70|13:156,1,126,2|0,1:2|0:2,0:2:0:0:
33,210,155191,5,6,1:2:0:0:
219,370,155358,1,2,0:2:0:0:
153,340,155524,2,0,B|181:298|181:298|168:216,1,107.999996704102,8|0,0:2|0:2,0:2:0:0:
101,89,155858,1,0,0:2:0:0:
113,112,155941,1,0,0:2:0:0:
132,131,156024,1,0,1:2:0:0:
290,41,156191,1,8,0:2:0:0:
226,17,156358,1,0,0:2:0:0:
290,134,156524,5,0,1:2:0:0:
313,124,156608,1,0,0:2:0:0:
331,142,156691,1,0,0:2:0:0:
352,128,156774,1,0,0:2:0:0:
376,147,156858,1,8,0:2:0:0:
426,296,157024,6,0,L|488:282,1,53.9999983520508,2|0,0:2|0:2,0:2:0:0:
343,265,157191,1,0,0:2:0:0:
343,265,157274,1,0,0:2:0:0:
343,265,157358,2,0,L|281:251,1,53.9999983520508,2|0,1:2|0:2,0:2:0:0:
376,375,157524,6,0,P|383:286|418:136,1,202.500007724762,10|0,0:2|0:2,0:2:0:0:
415,168,157858,6,0,P|380:184|341:187,1,53.9999983520508,0|0,1:2|0:2,0:2:0:0:
213,31,158024,1,2,0:2:0:0:
239,103,158191,2,0,L|365:70,1,107.999996704102,10|0,0:2|0:2,0:2:0:0:
160,82,158524,1,0,0:2:0:0:
155,108,158608,1,0,0:2:0:0:
150,135,158691,1,0,1:2:0:0:
19,235,158858,1,8,0:2:0:0:
88,209,159024,1,0,0:2:0:0:
249,364,159191,5,0,1:2:0:0:
222,360,159274,1,0,0:2:0:0:
195,356,159358,1,0,0:2:0:0:
168,352,159441,1,0,0:2:0:0:
142,349,159524,6,0,L|134:291,1,53.9999983520508,8|0,0:2|0:2,0:2:0:0:
229,156,159691,1,0,0:2:0:0:
207,145,159774,1,0,0:2:0:0:
213,169,159858,2,0,P|246:175|280:185,1,53.9999983520508,0|0,0:2|0:2,0:2:0:0:
310,265,160024,2,0,P|338:269|376:280,1,53.9999983520508,0|0,1:2|0:2,0:2:0:0:
424,145,160191,5,8,0:2:0:0:
457,154,160274,1,0,0:2:0:0:
438,123,160358,5,0,0:2:0:0:
455,127,160441,1,0,0:2:0:0:
456,102,160524,5,2,1:2:0:0:
243,0,160691,1,2,0:2:0:0:
279,59,160858,2,0,P|261:109|253:170,1,107.999996704102,8|0,0:2|0:2,0:2:0:0:
127,278,161191,2,0,P|164:273|188:256,1,53.9999983520508,0|0,0:2|0:2,0:2:0:0:
163,353,161358,2,0,P|196:334|225:333,1,53.9999983520508,0|0,1:2|0:2,0:2:0:0:
12,161,161524,1,8,0:2:0:0:
39,229,161691,1,0,0:2:0:0:
184,18,161858,5,0,1:2:0:0:
109,2,162024,1,0,0:2:0:0:
161,156,162191,1,8,0:2:0:0:
379,66,162358,5,2,0:2:0:0:
354,60,162441,1,0,0:2:0:0:
340,81,162524,1,0,0:2:0:0:
316,71,162608,1,0,0:2:0:0:
297,95,162691,2,0,P|318:121|324:149,1,53.9999983520508,2|0,1:2|0:2,0:2:0:0:
451,139,162858,6,0,L|206:199,1,202.500007724762,10|0,0:2|0:2,0:2:0:0:
255,200,163191,6,0,P|281:212|312:218,1,53.9999983520508,0|0,1:2|0:2,0:2:0:0:
502,340,163358,1,2,0:2:0:0:
428,365,163524,2,0,L|443:258,1,107.999996704102,10|0,0:2|0:2,0:2:0:0:
509,107,163858,1,0,0:2:0:0:
487,123,163941,1,0,0:2:0:0:
466,139,164024,1,0,1:2:0:0:
282,34,164191,1,8,0:2:0:0:
344,72,164358,1,0,0:2:0:0:
364,229,164524,5,0,1:2:0:0:
362,242,164608,1,0,0:2:0:0:
360,255,164691,1,0,0:2:0:0:
358,269,164774,1,0,0:2:0:0:
356,282,164858,2,0,P|327:290|301:305,1,53.9999983520508,8|0,0:2|0:2,0:2:0:0:
201,334,165024,5,0,1:2:0:0:
216,343,165108,1,0,1:2:0:0:
204,351,165191,5,0,1:2:0:0:
233,306,165274,1,0,1:2:0:0:
234,253,165358,1,0,1:2:0:0:
207,207,165441,1,0,1:2:0:0:
155,180,165524,1,8,0:2:0:0:
125,135,165608,1,0,1:2:0:0:
124,82,165691,1,0,1:2:0:0:
151,36,165774,1,0,1:2:0:0:
199,12,165858,5,6,1:2:0:0:
24,239,166024,1,2,0:2:0:0:
42,169,166191,2,0,L|166:141,1,107.999996704102,8|0,0:2|0:2,0:2:0:0:
262,79,166524,2,0,P|272:47|272:21,1,53.9999983520508,0|0,0:2|0:2,0:2:0:0:
331,93,166691,2,0,P|341:61|341:35,1,53.9999983520508,0|0,1:2|0:2,0:2:0:0:
165,213,166858,1,8,0:2:0:0:
147,145,167024,1,0,0:2:0:0:
17,311,167191,5,0,1:2:0:0:
4,380,167358,1,0,0:2:0:0:
147,339,167524,2,0,L|87:325,1,53.9999983520508,8|0,0:2|0:2,0:2:0:0:
275,199,167691,6,0,P|264:226|267:261,1,53.9999983520508,2|0,0:2|0:2,0:2:0:0:
357,380,167858,1,0,0:2:0:0:
348,376,167941,1,0,0:2:0:0:
339,370,168024,2,0,P|331:345|349:303,1,53.9999983520508,2|0,1:2|0:2,0:2:0:0:
417,254,168191,6,0,P|304:283|211:318,1,202.500007724762,10|0,0:2|0:2,0:2:0:0:
219,327,168524,6,0,P|239:297|243:276,1,53.9999983520508,0|0,1:2|0:2,0:2:0:0:
112,44,168691,1,2,0:2:0:0:
155,103,168858,2,0,P|135:156|128:211,1,107.999996704102,10|0,0:2|0:2,0:2:0:0:
282,71,169191,2,0,L|268:12,1,53.9999983520508,0|0,0:2|0:2,0:2:0:0:
349,53,169358,2,0,L|335:-6,1,53.9999983520508,0|0,1:2|0:2,0:2:0:0:
512,83,169524,1,8,0:2:0:0:
487,148,169691,1,0,0:2:0:0:
490,156,169774,1,0,0:2:0:0:
493,164,169858,5,0,1:2:0:0:
479,162,169941,1,0,0:2:0:0:
466,161,170024,1,0,0:2:0:0:
452,159,170108,1,0,0:2:0:0:
439,158,170191,2,0,P|426:191|420:233,1,53.9999983520508,8|0,0:2|0:2,0:2:0:0:
466,317,170358,5,0,1:2:0:0:
445,336,170441,1,0,1:2:0:0:
465,342,170524,5,0,1:2:0:0:
426,304,170608,1,0,1:2:0:0:
376,284,170691,1,0,1:2:0:0:
322,284,170774,1,0,1:2:0:0:
272,304,170858,1,8,0:2:0:0:
222,324,170941,1,0,1:2:0:0:
168,324,171024,1,0,1:2:0:0:
118,304,171108,1,0,1:2:0:0:
79,267,171191,5,6,1:2:0:0:
50,47,171358,1,2,0:2:0:0:
8,115,171524,1,8,0:2:0:0:
177,99,171691,5,0,1:2:0:0:
205,94,171774,1,0,1:2:0:0:
233,89,171858,1,0,1:2:0:0:
262,85,171941,1,0,1:2:0:0:
291,81,172024,1,0,1:2:0:0:
320,77,172108,1,0,1:2:0:0:
349,72,172191,6,0,P|350:105|339:136,1,58.4999973220826,10|0,0:0|1:0,0:0:0:0:
406,206,172358,2,0,P|372:243|345:259,1,58.4999973220826,2|0,1:2|1:0,0:0:0:0:
163,311,172524,5,4,1:2:0:0:
194,306,172608,1,0,1:0:0:0:
225,302,172691,1,0,1:0:0:0:
256,298,172774,1,0,1:0:0:0:
287,293,172858,5,8,0:0:0:0:
325,320,172941,1,0,1:0:0:0:
371,327,173024,1,2,1:2:0:0:
415,311,173108,1,0,1:0:0:0:
447,277,173191,5,0,1:0:0:0:
452,215,173274,1,0,1:0:0:0:
414,167,173358,1,2,1:2:0:0:
353,159,173441,1,0,1:0:0:0:
304,196,173524,5,10,0:0:0:0:
237,216,173608,1,0,1:0:0:0:
174,187,173691,2,0,P|196:153|224:115,1,62.9999980773926,0|0,1:0|1:0,0:0:0:0:
301,0,173858,5,4,1:2:0:0:
251,8,173941,1,0,1:2:0:0:
201,16,174024,1,2,1:2:0:0:
151,24,174108,1,0,1:2:0:0:
101,33,174191,1,10,0:2:0:0:
51,41,174274,1,0,1:2:0:0:
1,50,174358,2,0,P|21:88|31:133,1,67.5000025749208,0|0,1:2|1:2,0:2:0:0:
112,312,174524,5,4,1:2:0:0:
120,262,174608,1,0,1:2:0:0:
128,212,174691,1,0,1:2:0:0:
136,162,174774,1,0,1:2:0:0:
145,112,174858,1,8,0:2:0:0:
153,62,174941,1,0,1:2:0:0:
162,12,175024,2,0,P|206:11|243:-4,1,67.5000025749208,0|0,1:2|1:2,0:2:0:0:
404,27,175191,5,4,1:2:0:0:
359,76,175274,1,0,1:2:0:0:
347,141,175358,2,0,P|348:181|378:227,1,67.5000025749208,0|0,1:2|1:2,0:2:0:0:
483,347,175524,5,12,0:2:0:0:
433,302,175608,1,0,1:2:0:0:
369,290,175691,2,0,P|329:291|283:321,1,67.5000025749208,0|0,1:2|1:2,0:2:0:0:
144,377,175858,5,4,1:2:0:0:
121,328,175941,1,0,1:2:0:0:
148,283,176024,1,0,1:2:0:0:
126,234,176108,1,0,1:2:0:0:
152,189,176191,1,8,0:2:0:0:
130,141,176274,1,0,1:2:0:0:
157,96,176358,1,0,1:2:0:0:
135,47,176441,1,0,1:2:0:0:
162,0,176524,5,6,1:2:0:0:
162,3,176608,1,0,0:2:0:0:
163,7,176691,1,0,0:2:0:0:
163,11,176774,1,0,0:2:0:0:
164,14,176858,1,0,0:2:0:0:
164,18,176941,1,0,0:2:0:0:
165,22,177024,1,0,0:2:0:0:
166,25,177108,1,0,0:2:0:0:
166,29,177191,1,0,0:2:0:0:
167,33,177274,1,0,0:2:0:0:
167,37,177358,1,0,0:2:0:0:
168,40,177441,1,0,0:2:0:0:
169,44,177524,1,0,0:2:0:0:
122,98,187358,5,0,0:0:0:0:
125,108,187691,1,0,0:0:0:0:
128,118,188024,1,0,0:0:0:0:
131,128,188358,1,0,0:0:0:0:
0,228,188691,6,0,L|3:205,1,13.4999995880127,2|0,0:0|0:0,0:0:0:0:
56,279,189024,5,0,0:0:0:0:
66,276,189358,1,0,0:0:0:0:
121,334,189691,5,0,0:0:0:0:
131,331,190024,1,0,0:0:0:0:
141,328,190358,1,0,0:0:0:0:
151,325,190691,1,0,0:0:0:0:
161,322,191024,1,0,0:0:0:0:
237,197,191358,6,0,L|240:174,1,13.4999995880127,2|0,0:0|0:0,0:0:0:0:
220,105,191691,5,0,0:0:0:0:
210,102,192024,1,0,0:0:0:0:
155,160,192358,5,0,0:0:0:0:
145,157,192691,1,0,0:0:0:0:
135,154,193024,1,0,0:0:0:0:
125,151,193358,1,0,0:0:0:0:
115,148,193691,1,0,0:0:0:0:
10,21,194024,6,0,L|13:-2,1,13.4999995880127,2|0,0:0|0:0,0:0:0:0:
99,18,194358,5,0,0:0:0:0:
109,21,194691,1,0,0:0:0:0:
152,84,195024,5,0,0:0:0:0:
162,87,195358,1,0,0:0:0:0:
256,192,195441,12,0,197691,0:0:0:0:
444,48,197858,5,2,1:2:0:0:
364,141,198191,2,0,L|337:145,8,15.7499995193482
419,244,198858,1,8,0:0:0:0:
291,57,200024,5,0,0:0:0:0:
211,143,200191,2,0,P|257:131|272:209,1,125.999996154785,0|2,1:0|0:2,0:0:0:0:
117,131,200858,1,0,0:0:0:0:
117,131,201024,2,0,P|137:173|159:256,1,125.999996154785,0|0,1:0|0:0,0:0:0:0:
87,300,201524,2,0,L|66:295,4,15.7499995193482
0,384,202191,5,8,0:0:0:0:
211,355,203191,5,2,1:2:0:0:
283,284,203524,2,0,L|298:294,8,15.7499995193482
271,175,204191,1,8,0:0:0:0:
273,45,205358,5,0,0:0:0:0:
176,28,205524,2,0,P|200:71|218:149,1,125.999996154785,0|2,1:0|0:2,0:0:0:0:
110,247,206191,1,0,0:0:0:0:
110,247,206358,2,0,B|143:260|143:260|246:244,1,125.999996154785,0|0,1:0|0:0,0:0:0:0:
283,175,206858,2,0,L|296:158,4,15.7499995193482
256,0,207524,5,8,0:0:0:0:
343,114,208358,6,0,L|352:69,1,31.4999990386963,2|0,0:0|0:0,0:0:0:0:
433,11,208524,5,2,1:2:0:0:
444,148,208858,2,0,L|421:161,8,15.7499995193482
504,251,209524,1,8,0:0:0:0:
496,259,210191,1,8,0:0:0:0:
330,288,210691,5,0,0:0:0:0:
306,359,210858,2,0,L|164:343,1,125.999996154785,0|2,1:0|0:2,0:0:0:0:
71,259,211524,1,0,0:0:0:0:
71,259,211691,2,0,P|95:312|114:383,1,125.999996154785,0|0,1:0|0:0,0:0:0:0:
162,272,212191,2,0,L|173:254,4,15.7499995193482
0,191,212858,5,8,0:0:0:0:
74,131,213024,1,0,1:0:0:0:
79,148,213191,1,0,1:0:0:0:
84,165,213358,1,0,1:0:0:0:
168,174,213524,2,0,L|179:156,6,15.7499995193482
227,210,213858,5,2,1:2:0:0:
318,120,214191,2,0,L|344:124,8,15.7499995193482
235,28,214858,1,8,0:0:0:0:
223,40,215524,1,8,0:0:0:0:
1,89,216024,1,0,0:0:0:0:
62,141,216191,2,0,L|53:154,6,15.7499995193482,0|0|0|0|0|0|0,1:0|0:0|0:0|0:0|0:0|0:0|0:0,0:0:0:0:
132,129,216524,5,2,0:2:0:0:
137,145,216691,1,0,1:0:0:0:
196,236,216858,2,0,L|208:163,2,62.9999980773926
265,130,217358,1,0,0:0:0:0:
199,67,217524,2,0,L|210:85,4,15.7499995193482,0|0|0|0|0,0:0|0:0|0:0|0:0|1:0,0:0:0:0:
371,12,218191,5,8,0:0:0:0:
433,59,218358,1,0,0:0:0:0:
431,66,218441,1,0,0:0:0:0:
429,74,218524,1,0,0:0:0:0:
428,82,218608,1,0,0:0:0:0:
426,89,218691,2,0,B|453:113|453:113|492:117,1,62.9999980773926,0|0,1:0|0:0,0:0:0:0:
361,128,219024,6,0,L|329:145,1,31.4999990386963,2|0,0:0|0:0,0:0:0:0:
255,0,219191,5,2,1:2:0:0:
156,71,219524,2,0,L|159:91,8,18
70,0,220191,1,8,0:0:0:0:
0,171,221358,5,0,0:0:0:0:
55,234,221524,2,0,L|195:197,1,144,0|2,1:0|0:2,0:0:0:0:
288,108,222191,1,0,0:0:0:0:
288,108,222358,2,0,P|279:167|273:253,1,144,0|0,1:0|0:0,0:0:0:0:
199,279,222858,2,0,L|181:308,4,18
0,379,223524,5,8,0:0:0:0:
238,380,224524,5,2,1:2:0:0:
227,266,224858,2,0,L|215:248,8,18
337,230,225524,1,8,0:0:0:0:
500,373,226691,5,0,0:0:0:0:
456,292,226858,2,0,P|467:223|496:145,1,144,0|2,1:0|0:2,0:0:0:0:
444,69,227524,1,0,0:0:0:0:
444,69,227691,2,0,L|293:50,1,144,0|0,1:0|0:0,0:0:0:0:
230,69,228191,2,0,L|223:95,4,18
10,0,228858,1,8,0:0:0:0:
81,106,229691,6,0,L|84:151,1,36,2|0,0:0|0:0,0:0:0:0:
20,261,229858,6,0,P|71:230|145:205,1,108,2|0,1:2|0:0,0:0:0:0:
195,228,230191,5,0,0:0:0:0:
190,237,230358,1,0,0:0:0:0:
185,246,230524,1,0,0:0:0:0:
180,255,230691,1,0,0:0:0:0:
175,264,230858,1,0,1:0:0:0:
170,273,231024,1,0,0:0:0:0:
105,329,231191,5,0,0:0:0:0:
114,334,231358,1,0,0:0:0:0:
123,339,231524,1,0,0:0:0:0:
132,344,231691,1,0,0:0:0:0:
230,360,231858,5,0,0:0:0:0:
242,352,232024,1,0,1:0:0:0:
234,340,232191,1,0,1:0:0:0:
222,348,232358,1,0,0:0:0:0:
339,371,232524,6,0,L|321:245,1,108,2|0,1:2|0:0,0:0:0:0:
376,206,232858,5,0,0:0:0:0:
381,215,233024,1,0,1:0:0:0:
386,224,233191,1,0,0:0:0:0:
391,233,233358,1,0,0:0:0:0:
396,242,233524,1,0,0:0:0:0:
401,251,233691,1,0,0:0:0:0:
467,198,233858,5,0,0:0:0:0:
462,189,234024,1,0,0:0:0:0:
457,180,234191,1,0,0:0:0:0:
452,171,234358,1,0,1:0:0:0:
385,133,234524,5,0,1:0:0:0:
397,125,234691,1,0,1:0:0:0:
389,113,234858,1,0,0:0:0:0:
377,121,235024,1,0,0:0:0:0:
277,170,235191,6,0,L|295:287,1,108,2|0,1:2|0:0,0:0:0:0:
242,344,235524,5,0,0:0:0:0:
233,347,235691,1,0,1:0:0:0:
225,350,235858,1,0,0:0:0:0:
216,351,236024,1,0,0:0:0:0:
207,352,236191,1,0,0:0:0:0:
198,352,236358,1,0,0:0:0:0:
122,383,236524,5,0,0:0:0:0:
115,376,236691,1,0,0:0:0:0:
108,370,236858,1,0,0:0:0:0:
102,362,237024,1,0,0:0:0:0:
23,320,237191,5,0,0:0:0:0:
31,326,237358,1,0,1:0:0:0:
25,335,237524,1,0,0:0:0:0:
17,329,237691,1,0,0:0:0:0:
115,265,237858,6,0,P|171:256|202:241,1,80.9999975280763,2|0,1:2|0:0,0:0:0:0:
247,197,238191,5,0,0:0:0:0:
253,200,238358,1,0,1:0:0:0:
260,203,238524,1,0,0:0:0:0:
266,206,238691,1,0,0:0:0:0:
273,209,238858,1,2,0:0:0:0:
280,212,239024,1,2,0:0:0:0:
315,275,239191,5,0,0:0:0:0:
321,272,239358,1,0,0:0:0:0:
328,269,239524,1,0,0:0:0:0:
335,266,239691,1,0,0:0:0:0:
358,158,239858,5,0,0:0:0:0:
360,164,240024,1,0,0:0:0:0:
362,170,240191,1,0,0:0:0:0:
364,176,240358,1,0,0:0:0:0:
434,248,240524,6,0,P|446:207|459:178,1,67.5,2|0,1:2|0:0,0:0:0:0:
470,115,240858,5,0,0:0:0:0:
465,114,241024,1,0,0:0:0:0:
461,111,241191,1,0,0:0:0:0:
457,107,241358,1,0,0:0:0:0:
454,103,241524,1,2,0:0:0:0:
452,98,241691,1,2,0:0:0:0:
403,43,241858,5,0,0:0:0:0:
400,46,242024,1,0,0:0:0:0:
395,47,242191,1,0,0:0:0:0:
390,46,242358,1,0,0:0:0:0:
349,140,242524,5,0,0:0:0:0:
347,143,242691,1,0,0:0:0:0:
346,147,242858,1,0,0:0:0:0:
345,151,243024,1,0,0:0:0:0:
292,59,243191,6,0,L|225:46,1,54,2|0,0:2|0:0,0:0:0:0:
180,118,243524,5,0,0:0:0:0:
180,118,243691,1,0,0:0:0:0:
177,115,243858,1,0,0:0:0:0:
175,113,244024,1,0,0:0:0:0:
172,110,244191,1,0,0:0:0:0:
170,108,244358,1,0,0:0:0:0:
108,49,244524,5,0,0:0:0:0:
105,51,244691,1,0,0:0:0:0:
101,52,244858,1,0,0:0:0:0:
97,51,245024,1,0,0:0:0:0:
24,26,245191,5,0,0:0:0:0:
22,24,245358,1,0,0:0:0:0:
19,23,245524,1,0,0:0:0:0:
17,23,245691,1,0,0:0:0:0:
255,191,246274,5,2,0:2:0:0:
21,372,249858,5,6,1:2:0:0:
73,94,250024,1,2,0:2:0:0:
209,237,250191,5,8,0:2:0:0:
213,256,250274,1,0,0:2:0:0:
227,274,250358,5,0,0:2:0:0:
257,287,250441,1,0,0:2:0:0:
279,309,250524,5,0,0:2:0:0:
307,263,250608,1,0,0:2:0:0:
296,211,250691,1,0,1:2:0:0:
324,166,250774,1,0,0:2:0:0:
313,114,250858,5,8,0:2:0:0:
311,123,250941,1,0,0:2:0:0:
309,132,251024,1,0,0:2:0:0:
307,141,251108,1,0,0:2:0:0:
305,150,251191,5,2,1:2:0:0:
372,383,251358,1,2,0:2:0:0:
493,216,251524,5,8,0:2:0:0:
497,226,251608,1,0,0:2:0:0:
502,200,251691,5,0,0:2:0:0:
456,193,251774,1,0,0:2:0:0:
411,188,251858,1,0,0:2:0:0:
368,184,251941,1,0,0:2:0:0:
325,177,252024,1,0,1:2:0:0:
228,371,252191,1,8,0:2:0:0:
201,303,252358,1,0,0:2:0:0:
0,296,252524,5,2,1:2:0:0:
227,233,252691,1,2,0:2:0:0:
92,143,252858,5,8,0:2:0:0:
85,132,252941,1,0,0:2:0:0:
90,99,253024,5,0,0:2:0:0:
76,76,253108,1,0,0:2:0:0:
99,41,253191,5,0,0:2:0:0:
151,37,253274,1,0,0:2:0:0:
203,33,253358,1,0,1:2:0:0:
256,29,253441,1,0,0:2:0:0:
308,25,253524,5,8,0:2:0:0:
305,36,253608,1,0,0:2:0:0:
302,47,253691,1,0,0:2:0:0:
299,58,253774,1,0,0:2:0:0:
296,69,253858,5,2,1:2:0:0:
512,0,254024,1,2,0:2:0:0:
447,149,254191,5,8,0:2:0:0:
451,135,254274,1,0,0:2:0:0:
425,103,254358,5,0,0:2:0:0:
418,146,254441,1,0,0:2:0:0:
411,189,254524,1,0,0:2:0:0:
404,233,254608,1,0,0:2:0:0:
397,276,254691,5,0,1:2:0:0:
414,269,254774,1,0,0:2:0:0:
432,260,254858,6,0,L|335:242,1,58.4999973220826,8|0,0:2|0:2,0:2:0:0:
302,328,255024,2,0,L|205:310,1,58.4999973220826,0|0,0:2|0:2,0:2:0:0:
64,369,255191,5,2,1:2:0:0:
119,100,255358,1,2,0:2:0:0:
245,236,255524,5,8,0:2:0:0:
238,249,255608,1,0,0:2:0:0:
245,282,255691,5,0,0:2:0:0:
228,312,255774,1,0,0:2:0:0:
252,355,255858,5,0,0:2:0:0:
293,322,255941,1,0,0:2:0:0:
316,274,256024,1,0,1:2:0:0:
322,221,256108,1,0,0:2:0:0:
303,171,256191,5,8,0:2:0:0:
293,171,256274,1,0,0:2:0:0:
282,170,256358,1,0,0:2:0:0:
271,169,256441,1,0,0:2:0:0:
260,168,256524,5,2,1:2:0:0:
96,14,256691,1,2,0:2:0:0:
212,50,256858,5,8,0:2:0:0:
217,60,256941,1,0,0:2:0:0:
221,69,257024,5,0,0:2:0:0:
182,107,257108,1,0,0:2:0:0:
134,133,257191,1,0,0:2:0:0:
78,140,257274,1,0,0:2:0:0:
26,129,257358,5,0,1:2:0:0:
54,258,257524,1,8,0:2:0:0:
83,384,257691,1,0,0:2:0:0:
185,242,257858,5,2,1:2:0:0:
361,325,258024,5,2,0:0:0:0:
337,342,258108,1,0,0:0:0:0:
310,351,258191,1,8,0:0:0:0:
451,168,258358,5,0,0:0:0:0:
454,197,258441,1,0,0:0:0:0:
458,226,258524,1,0,0:0:0:0:
461,255,258608,1,0,0:0:0:0:
465,284,258691,1,0,1:0:0:0:
268,207,258858,5,8,0:0:0:0:
285,138,259024,1,0,0:0:0:0:
437,62,259191,5,0,1:2:0:0:
384,77,259274,1,0,1:2:0:0:
340,47,259358,1,0,1:2:0:0:
287,63,259441,1,0,1:2:0:0:
243,32,259524,1,8,0:2:0:0:
191,48,259608,1,0,1:2:0:0:
147,18,259691,1,0,1:2:0:0:
94,33,259774,1,0,1:2:0:0:
48,0,259858,5,0,1:2:0:0:
26,60,259941,1,0,1:2:0:0:
50,120,260024,1,0,1:2:0:0:
108,150,260108,1,0,1:2:0:0:
171,132,260191,5,8,0:2:0:0:
241,140,260274,1,0,1:2:0:0:
288,193,260358,1,0,1:2:0:0:
289,264,260441,1,0,1:2:0:0:
242,319,260524,5,6,1:2:0:0:
34,384,260691,2,0,L|39:315,1,58.4999973220826,2|0,0:2|0:2,0:2:0:0:
197,204,260858,5,8,0:2:0:0:
188,215,260941,1,0,0:2:0:0:
183,239,261024,5,0,0:2:0:0:
165,260,261108,1,0,0:2:0:0:
159,291,261191,5,0,0:2:0:0:
209,288,261274,1,0,0:2:0:0:
260,292,261358,1,0,1:2:0:0:
311,301,261441,1,0,0:2:0:0:
360,316,261524,5,8,0:2:0:0:
359,322,261608,1,0,0:2:0:0:
358,328,261691,1,0,0:2:0:0:
356,334,261774,1,0,0:2:0:0:
354,340,261858,5,2,1:2:0:0:
508,168,262024,1,2,0:2:0:0:
374,218,262191,5,8,0:2:0:0:
359,207,262274,1,0,0:2:0:0:
341,202,262358,5,0,0:2:0:0:
374,168,262441,1,0,0:2:0:0:
407,135,262524,1,0,0:2:0:0:
388,94,262608,1,0,0:2:0:0:
365,53,262691,1,0,1:2:0:0:
168,0,262858,1,8,0:2:0:0:
191,67,263024,1,0,0:2:0:0:
341,202,263191,5,2,1:2:0:0:
61,166,263358,1,2,0:2:0:0:
210,322,263524,5,8,0:2:0:0:
226,330,263608,1,0,0:2:0:0:
254,326,263691,5,0,0:2:0:0:
282,338,263774,1,0,0:2:0:0:
315,361,263858,5,0,0:2:0:0:
318,307,263941,1,0,0:2:0:0:
323,255,264024,1,0,1:2:0:0:
327,203,264108,1,0,0:2:0:0:
332,149,264191,5,8,0:2:0:0:
341,144,264274,1,0,0:2:0:0:
350,141,264358,1,0,0:2:0:0:
360,138,264441,1,0,0:2:0:0:
370,135,264524,5,2,1:2:0:0:
164,29,264691,1,2,0:2:0:0:
200,20,264774,1,0,0:2:0:0:
185,36,264858,6,0,L|173:106,1,58.4999973220826,8|0,0:2|0:2,0:2:0:0:
23,207,265024,5,0,0:2:0:0:
56,199,265108,1,0,0:2:0:0:
90,191,265191,1,0,0:2:0:0:
124,184,265274,1,0,0:2:0:0:
158,176,265358,2,0,L|221:202,1,58.4999973220826,0|0,1:2|0:2,0:2:0:0:
306,285,265524,5,10,0:2:0:0:
341,289,265608,1,0,0:2:0:0:
311,311,265691,5,2,0:2:0:0:
328,313,265774,1,0,0:2:0:0:
319,337,265858,5,2,1:2:0:0:
88,366,266024,1,2,0:2:0:0:
93,371,266108,1,0,0:2:0:0:
97,379,266191,2,0,L|106:306,1,58.4999973220826,8|0,0:2|0:2,0:2:0:0:
240,212,266358,5,0,0:2:0:0:
261,204,266441,1,0,0:2:0:0:
287,180,266524,5,0,0:2:0:0:
322,183,266608,1,0,0:2:0:0:
357,186,266691,1,0,1:2:0:0:
392,188,266774,1,0,0:2:0:0:
426,164,266858,5,8,0:2:0:0:
441,151,266941,1,0,0:2:0:0:
447,133,267024,1,0,0:2:0:0:
442,115,267108,1,0,0:2:0:0:
427,103,267191,5,2,1:2:0:0:
270,76,267358,1,2,0:2:0:0:
120,0,267524,2,0,P|137:40|147:66,1,58.4999973220826,8|0,0:2|0:2,0:2:0:0:
88,177,267691,5,0,0:2:0:0:
122,163,267774,1,0,0:2:0:0:
96,164,267858,5,0,0:2:0:0:
113,172,267941,1,0,0:2:0:0:
104,166,268024,6,0,L|97:229,1,58.4999973220826,0|0,1:2|0:2,0:2:0:0:
122,372,268191,1,8,0:2:0:0:
49,359,268358,1,0,0:2:0:0:
28,215,268524,5,2,1:2:0:0:
0,107,268691,1,2,0:2:0:0:
7,98,268774,1,0,0:2:0:0:
19,90,268858,2,0,L|144:78,1,116.999994644165,8|0,0:2|0:2,0:2:0:0:
152,86,269108,1,0,0:2:0:0:
166,97,269191,2,0,L|229:89,1,58.4999973220826,0|0,0:2|0:2,0:2:0:0:
268,20,269358,2,0,L|331:12,1,58.4999973220826,0|0,1:2|0:2,0:2:0:0:
417,58,269524,1,8,0:2:0:0:
416,65,269608,1,0,0:2:0:0:
415,72,269691,1,0,0:2:0:0:
414,79,269774,1,0,0:2:0:0:
413,86,269858,5,0,1:2:0:0:
391,105,269941,1,0,1:2:0:0:
366,120,270024,1,0,1:2:0:0:
338,128,270108,1,0,1:2:0:0:
309,129,270191,1,8,0:2:0:0:
280,124,270274,1,0,1:2:0:0:
253,112,270358,1,0,1:2:0:0:
230,94,270441,1,0,1:2:0:0:
212,71,270524,5,0,1:2:0:0:
268,82,270608,1,0,1:2:0:0:
304,127,270691,1,0,1:2:0:0:
302,184,270774,1,0,1:2:0:0:
264,227,270858,5,8,0:2:0:0:
240,291,270941,1,0,1:2:0:0:
267,354,271024,1,0,1:2:0:0:
330,379,271108,1,0,1:2:0:0:
394,353,271191,5,6,1:2:0:0:
129,336,271358,1,2,0:2:0:0:
38,235,271524,5,8,0:2:0:0:
27,225,271608,1,0,0:2:0:0:
32,194,271691,5,0,0:2:0:0:
17,182,271774,1,0,0:2:0:0:
31,152,271858,5,0,0:2:0:0:
82,143,271941,1,0,0:2:0:0:
129,119,272024,1,0,1:2:0:0:
166,82,272108,1,0,0:2:0:0:
190,36,272191,5,8,0:2:0:0:
192,42,272274,1,0,0:2:0:0:
193,47,272358,1,0,0:2:0:0:
195,53,272441,1,0,0:2:0:0:
196,58,272524,5,2,1:2:0:0:
96,275,272691,1,2,0:2:0:0:
200,345,272858,5,8,0:2:0:0:
216,339,272941,1,0,0:2:0:0:
240,315,273024,5,0,0:2:0:0:
263,337,273108,1,0,0:2:0:0:
281,372,273191,5,0,0:2:0:0:
285,328,273274,1,0,0:2:0:0:
289,284,273358,1,0,1:2:0:0:
216,98,273524,6,0,L|277:75,1,58.4999973220826,8|0,0:2|0:2,0:2:0:0:
342,143,273691,2,0,L|402:119,1,58.4999973220826,0|0,0:2|0:2,0:2:0:0:
510,0,273858,5,2,1:2:0:0:
468,239,274024,1,2,0:2:0:0:
394,360,274191,5,8,0:2:0:0:
381,365,274274,1,0,0:2:0:0:
346,348,274358,5,0,0:2:0:0:
320,360,274441,1,0,0:2:0:0:
278,341,274524,5,0,0:2:0:0:
330,335,274608,1,0,0:2:0:0:
382,330,274691,1,0,1:2:0:0:
435,325,274774,1,0,0:2:0:0:
487,320,274858,5,8,0:2:0:0:
491,312,274941,1,0,0:2:0:0:
494,303,275024,1,0,0:2:0:0:
497,294,275108,1,0,0:2:0:0:
500,285,275191,5,2,1:2:0:0:
400,84,275358,2,0,L|390:154,1,58.4999973220826,2|0,0:2|0:2,0:2:0:0:
206,27,275524,1,8,0:2:0:0:
227,166,275691,5,0,0:2:0:0:
261,152,275774,1,0,0:2:0:0:
235,153,275858,5,0,0:2:0:0:
252,161,275941,1,0,0:2:0:0:
243,155,276024,6,0,L|233:225,1,58.4999973220826,0|0,1:2|0:2,0:2:0:0:
266,370,276191,6,0,L|274:312,1,58.4999973220826,8|0,0:2|0:2,0:2:0:0:
177,384,276358,2,0,L|185:326,1,58.4999973220826,0|0,0:2|0:2,0:2:0:0:
11,192,276524,5,2,1:2:0:0:
256,235,276691,1,2,0:2:0:0:
368,361,276858,5,8,0:2:0:0:
382,353,276941,1,0,0:2:0:0:
413,342,277024,5,0,0:2:0:0:
396,307,277108,1,0,0:2:0:0:
420,270,277191,5,0,0:2:0:0:
367,263,277274,1,0,0:2:0:0:
315,256,277358,1,0,1:2:0:0:
263,249,277441,1,0,0:2:0:0:
222,227,277524,5,8,0:2:0:0:
214,214,277608,1,0,0:2:0:0:
212,200,277691,1,0,0:2:0:0:
214,185,277774,1,0,0:2:0:0:
223,173,277858,5,2,1:2:0:0:
404,10,278024,1,2,0:2:0:0:
505,147,278191,2,0,L|433:136,1,58.4999973220826,8|0,0:2|0:2,0:2:0:0:
275,98,278358,5,0,0:2:0:0:
247,88,278441,1,0,0:2:0:0:
247,59,278524,1,0,0:2:0:0:
275,50,278608,1,0,0:2:0:0:
292,74,278691,1,0,1:2:0:0:
101,11,278858,6,0,L|113:76,1,58.4999973220826,8|0,0:2|0:2,0:2:0:0:
60,130,279024,2,0,L|72:195,1,58.4999973220826,0|0,0:2|0:2,0:2:0:0:
51,326,279191,5,2,1:2:0:0:
192,249,279358,1,2,0:0:0:0:
186,277,279441,1,0,0:0:0:0:
180,306,279524,1,8,0:0:0:0:
335,206,279691,1,0,0:0:0:0:
329,234,279774,1,0,0:0:0:0:
323,263,279858,1,0,0:0:0:0:
472,204,280024,1,0,1:0:0:0:
478,176,280108,1,0,0:0:0:0:
484,147,280191,1,8,0:0:0:0:
418,117,280358,1,0,0:2:0:0:
324,30,280524,5,0,1:2:0:0:
309,31,280608,1,0,1:2:0:0:
294,32,280691,1,0,1:2:0:0:
280,33,280774,1,0,1:2:0:0:
250,69,280858,5,8,0:2:0:0:
235,67,280941,1,0,1:2:0:0:
220,66,281024,1,0,1:2:0:0:
206,65,281108,1,0,1:2:0:0:
171,26,281191,5,0,1:2:0:0:
117,46,281274,1,0,1:2:0:0:
88,95,281358,1,0,1:2:0:0:
95,152,281441,1,0,1:2:0:0:
137,192,281524,5,8,0:2:0:0:
204,196,281608,1,0,1:2:0:0:
272,201,281691,1,0,1:2:0:0:
340,205,281774,1,0,1:2:0:0:
408,210,281858,5,6,1:2:0:0:
271,384,282024,1,2,0:2:0:0:
102,334,282191,2,0,L|34:326,1,58.4999973220826,8|0,0:0|0:0,0:0:0:0:
55,228,282358,5,0,0:2:0:0:
38,216,282441,1,0,0:2:0:0:
52,188,282524,5,0,0:2:0:0:
53,173,282608,1,0,0:2:0:0:
55,159,282691,1,0,1:2:0:0:
57,144,282774,1,0,0:2:0:0:
34,119,282858,5,8,0:2:0:0:
33,107,282941,1,0,0:2:0:0:
31,96,283024,1,0,0:2:0:0:
30,84,283108,1,0,0:2:0:0:
53,44,283191,5,2,1:2:0:0:
250,0,283358,1,2,0:2:0:0:
429,86,283524,2,0,L|437:151,1,58.4999973220826,8|0,0:2|0:2,0:2:0:0:
264,147,283691,5,0,0:2:0:0:
245,140,283774,1,0,0:2:0:0:
245,120,283858,1,0,0:2:0:0:
264,114,283941,1,0,0:2:0:0:
275,130,284024,1,0,1:2:0:0:
147,306,284191,5,8,0:2:0:0:
219,288,284358,1,0,0:2:0:0:
388,374,284524,5,2,1:2:0:0:
420,160,284691,1,2,0:2:0:0:
322,19,284858,5,8,0:2:0:0:
331,27,284941,1,0,0:2:0:0:
346,50,285024,5,0,0:2:0:0:
326,77,285108,1,0,0:2:0:0:
348,107,285191,5,0,0:2:0:0:
295,101,285274,1,0,0:2:0:0:
243,96,285358,1,0,1:2:0:0:
190,91,285441,1,0,0:2:0:0:
138,86,285524,5,8,0:2:0:0:
142,77,285608,1,0,0:2:0:0:
147,68,285691,1,0,0:2:0:0:
152,59,285774,1,0,0:2:0:0:
156,50,285858,5,2,1:2:0:0:
295,199,286024,1,2,0:2:0:0:
437,66,286191,2,0,L|451:136,1,58.4999973220826,8|0,0:2|0:2,0:2:0:0:
430,278,286358,5,0,0:2:0:0:
471,281,286441,1,0,0:2:0:0:
438,303,286524,5,0,0:2:0:0:
460,304,286608,1,0,0:2:0:0:
451,326,286691,6,0,L|387:345,1,58.4999973220826,0|0,1:2|0:2,0:2:0:0:
222,384,286858,6,0,P|203:353|202:327,1,58.4999973220826,8|0,0:2|0:2,0:2:0:0:
290,257,287024,2,0,P|298:221|316:202,1,58.4999973220826,0|0,0:2|0:2,0:2:0:0:
506,166,287191,5,2,1:2:0:0:
448,39,287358,1,2,0:2:0:0:
441,34,287441,1,0,0:2:0:0:
433,29,287524,1,8,0:2:0:0:
314,49,287691,5,0,0:2:0:0:
302,37,287774,1,0,0:2:0:0:
274,17,287858,5,0,0:2:0:0:
268,69,287941,1,0,0:2:0:0:
262,121,288024,1,0,1:2:0:0:
256,173,288108,1,0,0:2:0:0:
250,226,288191,5,8,0:2:0:0:
248,218,288274,1,0,0:2:0:0:
245,209,288358,1,0,0:2:0:0:
242,200,288441,1,0,0:2:0:0:
239,191,288524,5,2,1:2:0:0:
145,4,288691,2,0,L|136:69,1,58.4999973220826,2|0,0:2|0:2,0:2:0:0:
0,166,288858,1,8,0:2:0:0:
93,294,289024,5,0,0:2:0:0:
127,280,289108,1,0,0:2:0:0:
101,281,289191,5,0,0:2:0:0:
118,289,289274,1,0,0:2:0:0:
109,283,289358,6,0,L|102:346,1,58.4999973220826,0|0,1:2|0:2,0:2:0:0:
232,249,289524,6,0,L|239:186,1,58.4999973220826,8|0,0:2|0:2,0:2:0:0:
309,229,289691,2,0,L|316:166,1,58.4999973220826,0|0,0:2|0:2,0:2:0:0:
400,95,289858,5,2,1:2:0:0:
440,230,290024,1,2,0:2:0:0:
455,224,290108,1,0,0:2:0:0:
470,218,290191,1,8,0:2:0:0:
482,349,290358,1,0,0:2:0:0:
497,343,290441,1,0,0:2:0:0:
512,337,290524,5,0,1:2:0:0:
485,324,290608,1,0,1:2:0:0:
456,322,290691,1,0,1:2:0:0:
429,331,290774,1,0,1:2:0:0:
406,349,290858,1,8,0:2:0:0:
383,367,290941,1,0,1:2:0:0:
356,376,291024,1,0,1:2:0:0:
327,374,291108,1,0,1:2:0:0:
300,362,291191,5,2,1:2:0:0:
314,323,291274,1,0,1:2:0:0:
298,284,291358,1,0,1:2:0:0:
312,245,291441,1,0,1:2:0:0:
280,205,291524,5,10,0:2:0:0:
261,153,291608,1,0,1:2:0:0:
282,102,291691,1,0,1:2:0:0:
264,50,291774,1,0,1:2:0:0:
290,3,291858,6,0,B|312:31|312:31|414:18,1,126,0|0,1:2|0:2,0:2:0:0:
422,10,292524,6,0,L|409:142,1,116.999994644165,6|0,1:2|0:2,0:2:0:0:
424,141,292774,1,0,0:2:0:0:
443,162,292858,2,0,L|435:239,1,58.4999973220826,8|0,0:2|0:2,0:2:0:0:
512,288,293024,2,0,L|504:365,1,58.4999973220826,0|0,0:2|0:2,0:2:0:0:
389,353,293191,5,0,0:2:0:0:
348,336,293274,1,0,0:2:0:0:
305,333,293358,1,0,1:2:0:0:
263,345,293441,1,0,0:2:0:0:
227,369,293524,5,8,0:2:0:0:
199,379,293608,1,0,0:2:0:0:
170,380,293691,1,0,0:2:0:0:
142,372,293774,1,0,0:2:0:0:
118,355,293858,5,0,1:2:0:0:
0,173,294024,1,0,0:2:0:0:
8,181,294108,1,0,0:2:0:0:
16,189,294191,2,0,L|86:171,1,58.4999973220826,8|0,0:2|0:2,0:2:0:0:
137,244,294358,2,0,L|207:226,1,58.4999973220826,2|0,0:2|0:2,0:2:0:0:
273,147,294524,5,0,0:0:0:0:
316,153,294608,1,0,0:0:0:0:
359,160,294691,2,0,P|393:190|401:221,1,58.4999973220826,2|0,1:2|0:0,0:0:0:0:
310,299,294858,6,0,P|331:221|408:61,1,229.500004377365,10|0,0:0|0:0,0:0:0:0:
405,86,295191,5,0,1:2:0:0:
267,3,295358,2,0,P|242:10|211:41,1,58.4999973220826,2|0,0:2|0:2,0:2:0:0:
71,3,295524,2,0,P|96:10|127:41,1,58.4999973220826,10|0,0:2|0:2,0:2:0:0:
174,165,295691,5,0,0:2:0:0:
168,179,295774,1,0,0:2:0:0:
186,206,295858,5,0,0:2:0:0:
229,209,295941,1,0,0:2:0:0:
273,213,296024,1,0,1:2:0:0:
317,217,296108,1,0,0:2:0:0:
360,221,296191,5,8,0:2:0:0:
332,227,296274,1,0,0:2:0:0:
303,232,296358,1,0,0:2:0:0:
274,238,296441,1,0,0:2:0:0:
246,244,296524,5,0,1:2:0:0:
71,381,296691,1,0,0:2:0:0:
78,371,296774,1,0,0:2:0:0:
85,361,296858,2,0,L|70:274,1,58.4999973220826,8|0,0:2|0:2,0:2:0:0:
59,165,297024,5,0,0:2:0:0:
42,171,297108,1,0,0:2:0:0:
11,193,297191,5,0,0:2:0:0:
61,221,297274,1,0,0:2:0:0:
119,221,297358,1,0,1:2:0:0:
169,192,297441,1,0,0:2:0:0:
199,142,297524,5,8,0:2:0:0:
185,136,297608,1,0,0:2:0:0:
171,131,297691,1,0,0:2:0:0:
158,125,297774,1,0,0:2:0:0:
144,120,297858,6,0,L|219:105,1,58.4999973220826,2|0,1:2|0:2,0:2:0:0:
284,28,298024,2,0,L|359:13,1,58.4999973220826,2|0,0:2|0:2,0:2:0:0:
452,5,298191,5,8,0:2:0:0:
435,24,298274,1,0,0:2:0:0:
447,65,298358,5,0,0:2:0:0:
441,108,298441,1,0,0:2:0:0:
435,151,298524,1,0,0:2:0:0:
429,195,298608,1,0,0:2:0:0:
423,238,298691,1,0,1:2:0:0:
417,281,298774,1,0,0:2:0:0:
411,324,298858,5,8,0:2:0:0:
413,328,298941,1,0,0:2:0:0:
416,333,299024,1,0,0:2:0:0:
418,338,299108,1,0,0:2:0:0:
421,343,299191,5,0,1:2:0:0:
168,375,299358,1,0,0:2:0:0:
154,377,299441,1,0,0:2:0:0:
141,371,299524,2,0,P|115:341|117:319,1,58.4999973220826,8|0,0:2|0:2,0:2:0:0:
251,243,299691,6,0,P|220:240|183:222,1,58.4999973220826,2|0,0:2|0:2,0:2:0:0:
131,150,299858,1,0,0:2:0:0:
133,139,299941,1,0,0:2:0:0:
138,130,300024,2,0,P|169:133|206:151,1,58.4999973220826,2|0,1:2|0:2,0:2:0:0:
64,214,300191,6,0,P|191:187|321:162,1,229.500004377365,10|0,0:2|0:2,0:2:0:0:
297,175,300524,5,0,1:2:0:0:
512,21,300691,2,0,P|505:59|453:77,1,58.4999973220826,2|0,0:2|0:2,0:2:0:0:
351,70,300858,2,0,P|317:89|270:60,1,58.4999973220826,10|0,0:2|0:2,0:2:0:0:
167,15,301024,5,0,0:2:0:0:
144,25,301108,1,0,0:2:0:0:
109,10,301191,5,0,0:2:0:0:
113,53,301274,1,0,0:2:0:0:
117,97,301358,1,0,1:2:0:0:
122,140,301441,1,0,0:2:0:0:
102,176,301524,5,8,0:2:0:0:
104,204,301608,1,0,0:2:0:0:
107,232,301691,1,0,0:2:0:0:
110,261,301774,1,0,0:2:0:0:
93,300,301858,5,0,1:2:0:0:
122,278,301941,1,0,1:2:0:0:
156,265,302024,1,0,1:2:0:0:
192,260,302108,1,0,1:2:0:0:
228,263,302191,1,8,0:2:0:0:
263,275,302274,1,0,1:2:0:0:
293,295,302358,1,0,1:2:0:0:
318,322,302441,1,0,1:2:0:0:
336,354,302524,5,0,1:2:0:0:
277,354,302608,1,0,1:2:0:0:
226,326,302691,1,0,1:2:0:0:
195,277,302774,1,0,1:2:0:0:
191,220,302858,5,8,0:2:0:0:
210,155,302941,1,0,1:2:0:0:
185,93,303024,1,0,1:2:0:0:
123,65,303108,1,0,1:2:0:0:
60,84,303191,5,6,1:2:0:0:
277,0,303358,1,2,0:2:0:0:
285,8,303441,1,0,0:2:0:0:
293,16,303524,2,0,L|307:89,1,58.4999973220826,8|0,0:2|0:2,0:2:0:0:
443,191,303691,5,0,0:2:0:0:
431,210,303774,1,0,0:2:0:0:
437,247,303858,5,0,0:2:0:0:
393,243,303941,1,0,0:2:0:0:
349,239,304024,1,0,1:2:0:0:
305,235,304108,1,0,0:2:0:0:
262,231,304191,5,8,0:2:0:0:
264,241,304274,1,0,0:2:0:0:
265,250,304358,1,0,0:2:0:0:
266,259,304441,1,0,0:2:0:0:
267,268,304524,5,0,1:2:0:0:
65,366,304691,2,0,L|52:287,1,58.4999973220826,0|0,0:2|0:2,0:2:0:0:
141,264,304858,2,0,L|128:185,1,58.4999973220826,8|0,0:2|0:2,0:2:0:0:
86,1,305024,6,0,P|78:25|80:66,1,58.4999973220826,2|0,0:2|0:2,0:2:0:0:
206,155,305191,1,0,0:2:0:0:
218,150,305274,1,0,0:2:0:0:
225,141,305358,2,0,P|236:117|218:82,1,58.4999973220826,2|0,1:2|0:2,0:2:0:0:
58,129,305524,6,0,B|113:145|171:86|136:71|167:12|253:13,1,229.500004377365,10|0,0:2|0:2,0:2:0:0:
249,20,305858,5,0,1:2:0:0:
411,76,306024,1,2,0:2:0:0:
425,72,306108,1,0,0:2:0:0:
439,68,306191,1,10,0:2:0:0:
477,207,306358,5,0,0:2:0:0:
470,226,306441,1,0,0:2:0:0:
438,249,306524,5,0,0:2:0:0:
431,205,306608,1,0,0:2:0:0:
424,162,306691,1,0,1:2:0:0:
417,119,306774,1,0,0:2:0:0:
410,75,306858,5,8,0:2:0:0:
404,82,306941,1,0,0:2:0:0:
398,89,307024,1,0,0:2:0:0:
392,96,307108,1,0,0:2:0:0:
386,103,307191,5,0,1:2:0:0:
201,41,307358,1,0,0:2:0:0:
204,55,307441,1,0,0:2:0:0:
207,69,307524,1,8,0:2:0:0:
127,162,307691,5,0,0:2:0:0:
130,176,307774,1,0,0:2:0:0:
148,199,307858,5,0,0:2:0:0:
191,194,307941,1,0,0:2:0:0:
235,189,308024,1,0,1:2:0:0:
278,185,308108,1,0,0:2:0:0:
322,180,308191,1,8,0:2:0:0:
236,379,308358,1,0,0:2:0:0:
233,365,308441,1,0,0:2:0:0:
230,351,308524,6,0,L|84:333,1,116.999994644165,2|2,1:2|0:2,0:2:0:0:
95,326,308774,1,0,0:2:0:0:
78,311,308858,2,0,L|67:225,1,58.4999973220826,8|0,0:2|0:2,0:2:0:0:
58,124,309024,5,0,0:2:0:0:
45,107,309108,1,0,0:2:0:0:
10,92,309191,5,0,0:2:0:0:
50,75,309274,1,0,0:2:0:0:
93,74,309358,1,0,1:2:0:0:
134,88,309441,1,0,0:2:0:0:
167,117,309524,5,8,0:2:0:0:
188,138,309608,1,0,0:2:0:0:
214,150,309691,1,0,0:2:0:0:
243,150,309774,1,0,0:2:0:0:
271,141,309858,5,0,1:2:0:0:
430,15,310024,1,0,0:2:0:0:
463,84,310191,1,8,0:2:0:0:
413,240,310358,6,0,P|384:227|367:195,1,58.4999973220826,2|0,0:2|0:2,0:2:0:0:
346,298,310524,1,0,0:2:0:0:
342,304,310608,1,0,0:2:0:0:
340,311,310691,2,0,P|311:324|294:356,1,58.4999973220826,2|0,1:2|0:2,0:2:0:0:
474,316,310858,6,0,P|319:259|232:237,1,229.500004377365,10|0,0:2|0:2,0:2:0:0:
255,250,311191,5,0,1:2:0:0:
79,362,311358,1,2,0:2:0:0:
68,358,311441,1,0,0:2:0:0:
57,354,311524,2,0,L|-11:342,1,58.4999973220826,10|0,0:2|0:2,0:2:0:0:
145,251,311691,2,0,L|77:239,1,58.4999973220826,0|0,0:2|0:2,0:2:0:0:
237,132,311858,5,0,0:2:0:0:
266,128,311941,1,0,0:2:0:0:
295,124,312024,1,0,1:2:0:0:
324,120,312108,1,0,0:2:0:0:
358,150,312191,5,8,0:2:0:0:
387,146,312274,1,0,0:2:0:0:
416,142,312358,1,0,0:2:0:0:
445,138,312441,1,0,0:2:0:0:
485,105,312524,5,0,1:2:0:0:
467,127,312608,1,0,1:2:0:0:
454,154,312691,1,0,1:2:0:0:
448,182,312774,1,0,1:2:0:0:
448,211,312858,1,8,0:2:0:0:
454,240,312941,1,0,1:2:0:0:
467,266,313024,1,0,1:2:0:0:
485,289,313108,1,0,1:2:0:0:
508,307,313191,5,0,1:2:0:0:
491,252,313274,1,0,1:2:0:0:
447,216,313358,1,0,1:2:0:0:
390,210,313441,1,0,1:2:0:0:
339,238,313524,5,8,0:2:0:0:
279,272,313608,1,0,1:2:0:0:
210,265,313691,1,0,1:2:0:0:
158,222,313774,1,0,1:2:0:0:
139,157,313858,6,0,L|296:132,1,116.999994644165,6|2,0:2|0:2,0:2:0:0:
268,123,314108,1,0,0:2:0:0:
279,105,314191,2,0,L|337:96,1,58.4999973220826,8|0,0:2|0:2,0:2:0:0:
407,32,314358,2,0,L|465:23,1,58.4999973220826,0|0,0:2|0:2,0:2:0:0:
438,158,314524,5,0,0:2:0:0:
432,201,314608,1,0,0:2:0:0:
427,245,314691,1,0,1:2:0:0:
421,288,314774,1,0,0:2:0:0:
416,332,314858,5,8,0:2:0:0:
418,340,314941,1,0,0:2:0:0:
419,347,315024,1,0,0:2:0:0:
420,354,315108,1,0,0:2:0:0:
421,361,315191,5,0,1:2:0:0:
189,368,315358,2,0,P|154:374|111:404,1,58.4999973220826,0|0,0:2|0:2,0:2:0:0:
273,274,315524,2,0,P|244:253|192:244,1,58.4999973220826,8|0,0:2|0:2,0:2:0:0:
352,193,315691,5,2,0:2:0:0:
366,151,315774,1,0,0:2:0:0:
386,113,315858,1,0,0:2:0:0:
413,78,315941,1,0,0:2:0:0:
444,47,316024,2,0,P|469:73|476:106,1,58.4999973220826,2|0,1:2|0:2,0:2:0:0:
499,193,316191,6,0,P|395:140|276:77,1,229.500004377365,10|0,0:2|0:2,0:2:0:0:
293,79,316524,5,0,1:2:0:0:
92,6,316691,1,0,0:2:0:0:
98,14,316774,1,0,0:2:0:0:
105,24,316858,2,0,L|93:110,1,58.4999973220826,10|0,0:2|0:2,0:2:0:0:
17,140,317024,2,0,L|5:226,1,58.4999973220826,0|0,0:2|0:2,0:2:0:0:
54,339,317191,5,0,0:2:0:0:
95,325,317274,1,0,0:2:0:0:
139,325,317358,1,0,1:2:0:0:
180,339,317441,1,0,0:2:0:0:
215,365,317524,5,8,0:2:0:0:
263,380,317608,1,0,0:2:0:0:
315,380,317691,1,0,0:2:0:0:
363,363,317774,1,0,0:2:0:0:
404,333,317858,6,0,B|346:322|346:322|313:266,1,116.999994644165,0|0,1:2|0:2,0:2:0:0:
301,251,318108,1,0,0:2:0:0:
282,239,318191,2,0,L|201:227,1,58.4999973220826,8|0,0:2|0:2,0:2:0:0:
108,287,318358,5,0,0:2:0:0:
88,284,318441,1,0,0:2:0:0:
57,305,318524,5,0,0:2:0:0:
61,261,318608,1,0,0:2:0:0:
66,217,318691,1,0,1:2:0:0:
71,174,318774,1,0,0:2:0:0:
76,130,318858,1,8,0:2:0:0:
175,0,319024,1,0,0:2:0:0:
177,13,319108,1,0,0:2:0:0:
179,26,319191,5,2,1:2:0:0:
232,194,319358,1,2,0:2:0:0:
230,181,319441,1,0,0:2:0:0:
228,168,319524,1,8,0:2:0:0:
306,0,319691,5,0,0:2:0:0:
298,17,319774,1,0,0:2:0:0:
272,40,319858,5,0,0:2:0:0:
315,48,319941,1,0,0:2:0:0:
358,57,320024,1,0,1:2:0:0:
401,65,320108,1,0,0:2:0:0:
444,74,320191,5,8,0:2:0:0:
387,88,320274,1,0,0:2:0:0:
330,103,320358,1,0,0:2:0:0:
274,117,320441,1,0,0:2:0:0:
217,132,320524,5,0,1:2:0:0:
0,176,320691,2,0,P|39:189|56:203,1,58.4999973220826,0|0,0:2|0:2,0:2:0:0:
0,319,320858,2,0,P|20:354|24:376,1,58.4999973220826,8|0,0:2|0:2,0:2:0:0:
140,287,321024,5,2,0:2:0:0:
182,276,321108,1,0,0:2:0:0:
225,267,321191,1,0,0:2:0:0:
268,257,321274,1,0,0:2:0:0:
311,248,321358,2,0,P|326:292|323:317,1,58.4999973220826,2|0,1:2|0:2,0:2:0:0:
212,378,321524,6,0,P|228:271|258:145,1,229.500004377365,10|0,0:2|0:2,0:2:0:0:
263,147,321858,5,0,1:2:0:0:
79,12,322024,2,0,P|96:59|104:87,1,58.4999973220826,2|0,0:2|0:2,0:2:0:0:
198,109,322191,2,0,P|181:156|173:184,1,58.4999973220826,10|0,0:2|0:2,0:2:0:0:
51,248,322358,5,0,0:2:0:0:
31,257,322441,1,0,0:2:0:0:
0,288,322524,5,0,0:2:0:0:
36,318,322608,1,0,0:2:0:0:
81,335,322691,1,0,1:2:0:0:
128,333,322774,1,0,0:2:0:0:
173,314,322858,5,8,0:0:0:0:
197,298,322941,1,0,0:2:0:0:
225,291,323024,1,0,0:2:0:0:
254,294,323108,1,0,0:2:0:0:
280,307,323191,5,0,1:2:0:0:
306,329,323274,1,0,1:2:0:0:
338,342,323358,1,0,1:2:0:0:
372,344,323441,1,0,1:2:0:0:
405,335,323524,1,8,0:2:0:0:
434,315,323608,1,0,1:2:0:0:
454,287,323691,1,0,1:2:0:0:
464,254,323774,1,0,1:2:0:0:
463,220,323858,5,0,1:2:0:0:
406,209,323941,1,0,1:2:0:0:
348,199,324024,1,0,1:2:0:0:
290,189,324108,1,0,1:2:0:0:
232,179,324191,5,8,0:2:0:0:
180,133,324274,1,0,1:2:0:0:
189,66,324358,1,0,1:2:0:0:
250,36,324441,1,0,1:2:0:0:
309,69,324524,5,6,1:2:0:0:
87,254,324691,1,2,0:2:0:0:
83,245,324774,1,0,0:2:0:0:
79,236,324858,2,0,L|72:162,1,58.4999973220826,8|0,0:2|0:2,0:2:0:0:
5,112,325024,2,0,L|-2:38,1,58.4999973220826,0|0,0:2|0:2,0:2:0:0:
117,20,325191,5,0,0:2:0:0:
146,22,325274,1,0,0:2:0:0:
175,25,325358,1,0,1:2:0:0:
204,27,325441,1,0,0:2:0:0:
234,60,325524,5,8,0:2:0:0:
253,61,325608,1,0,0:2:0:0:
273,63,325691,1,0,0:2:0:0:
293,64,325774,1,0,0:2:0:0:
332,26,325858,5,0,1:2:0:0:
507,99,326024,2,0,P|493:141|478:155,1,58.4999973220826,0|0,0:2|0:2,0:2:0:0:
433,290,326191,2,0,P|393:309|372:309,1,58.4999973220826,8|0,0:2|0:2,0:2:0:0:
231,189,326358,5,2,0:2:0:0:
240,231,326441,1,0,0:2:0:0:
248,274,326524,1,0,0:2:0:0:
254,318,326608,1,0,0:2:0:0:
258,362,326691,2,0,P|211:359|179:347,1,58.4999973220826,2|0,1:2|0:2,0:2:0:0:
128,260,326858,6,0,B|184:217|244:246|224:279|306:293|341:247,1,229.500004377365,8|0,0:2|0:2,0:2:0:0:
337,241,327191,5,0,1:2:0:0:
512,141,327358,1,2,0:2:0:0:
500,138,327441,1,0,0:2:0:0:
488,135,327524,2,0,L|404:120,1,58.4999973220826,10|0,0:2|0:2,0:2:0:0:
311,48,327691,5,0,0:2:0:0:
337,55,327774,1,0,0:2:0:0:
342,87,327858,5,0,0:2:0:0:
298,83,327941,1,0,0:2:0:0:
254,79,328024,1,0,1:2:0:0:
210,75,328108,1,0,0:2:0:0:
167,71,328191,5,8,0:2:0:0:
111,82,328274,1,0,0:2:0:0:
80,130,328358,1,0,0:2:0:0:
93,186,328441,1,0,0:2:0:0:
142,215,328524,5,0,1:2:0:0:
176,208,328608,1,0,1:2:0:0:
210,213,328691,1,0,1:2:0:0:
240,231,328774,1,0,1:2:0:0:
260,260,328858,1,8,0:2:0:0:
269,293,328941,1,0,1:2:0:0:
264,328,329024,1,0,1:2:0:0:
247,358,329108,1,0,1:2:0:0:
220,380,329191,5,0,1:2:0:0:
190,330,329274,1,0,1:2:0:0:
191,273,329358,1,0,1:2:0:0:
225,226,329441,1,0,1:2:0:0:
280,204,329524,5,8,0:2:0:0:
349,197,329608,1,0,1:2:0:0:
418,191,329691,2,0,P|427:155|432:130,1,58.4999973220826,0|0,1:2|1:2,0:2:0:0:
427,12,329858,5,6,1:2:0:0:
412,13,329941,1,0,1:2:0:0:
397,14,330024,1,2,1:2:0:0:
383,15,330108,1,0,1:2:0:0:
368,16,330191,1,8,0:2:0:0:
354,17,330274,1,0,1:2:0:0:
339,18,330358,1,0,1:2:0:0:
324,19,330441,1,0,1:2:0:0:
308,22,330524,5,0,1:2:0:0:
265,30,330608,1,0,1:2:0:0:
233,59,330691,1,0,1:2:0:0:
219,100,330774,1,0,1:2:0:0:
229,142,330858,5,8,0:2:0:0:
263,196,330941,1,0,1:2:0:0:
274,259,331024,1,0,1:2:0:0:
255,320,331108,1,0,1:2:0:0:
225,371,331191,5,4,1:2:0:0:
241,370,331274,1,0,1:2:0:0:
257,369,331358,1,0,1:2:0:0:
272,368,331441,1,0,1:2:0:0:
288,367,331524,1,8,0:2:0:0:
304,366,331608,1,0,1:2:0:0:
320,364,331691,1,2,1:2:0:0:
335,363,331774,1,0,1:2:0:0:
350,362,331858,5,0,1:2:0:0:
380,326,331941,1,0,1:2:0:0:
378,280,332024,1,2,1:2:0:0:
346,246,332108,1,0,1:2:0:0:
300,242,332191,5,10,0:2:0:0:
240,256,332274,1,0,1:2:0:0:
185,228,332358,2,0,P|165:186|161:157,1,62.9999980773926,0|0,1:2|0:2,0:2:0:0:
32,12,332524,6,0,L|17:104,1,67.5000025749208,4|0,1:2|0:0,0:0:0:0:
105,39,332691,2,0,L|90:131,1,67.5000025749208,2|0,1:2|0:0,0:0:0:0:
236,10,332858,1,10,0:2:0:0:
294,16,332941,1,0,1:2:0:0:
353,22,333024,2,0,P|360:60|375:91,1,67.5000025749208,0|0,1:2|1:2,0:2:0:0:
485,155,333191,5,4,1:2:0:0:
436,178,333274,1,0,1:2:0:0:
391,151,333358,1,0,1:2:0:0:
342,173,333441,1,0,1:2:0:0:
297,147,333524,1,8,0:2:0:0:
249,169,333608,1,0,1:2:0:0:
204,142,333691,1,0,1:2:0:0:
155,164,333774,1,0,1:2:0:0:
108,137,333858,6,0,L|94:58,1,67.5000025749208,4|0,1:2|0:0,0:0:0:0:
29,265,334024,1,0,1:2:0:0:
24,232,334108,1,0,1:2:0:0:
19,199,334191,2,0,L|6:119,1,67.5000025749208,4|0,1:2|0:0,0:0:0:0:
133,317,334358,1,0,1:2:0:0:
138,350,334441,1,0,1:2:0:0:
143,383,334524,5,4,1:2:0:0:
202,346,334608,1,0,1:2:0:0:
234,283,334691,1,0,1:2:0:0:
225,213,334774,1,0,1:2:0:0:
178,158,334858,1,8,0:2:0:0:
130,106,334941,1,0,1:2:0:0:
146,37,335024,1,0,1:2:0:0:
207,2,335108,1,0,1:2:0:0:
273,23,335191,5,4,1:2:0:0:
256,192,335274,12,8,338524,0:2:0:0:
278,46,340524,5,6,1:2:0:0:
256,192,340608,12,8,343858,0:2:0:0:
144,364,345858,5,6,1:2:0:0:
144,364,346024,2,0,L|126:195,1,144,0|2,0:2|0:2,0:2:0:0:
55,117,346524,1,8,0:2:0:0:
55,117,346691,2,0,L|149:101,2,72,0|0|0,0:2|0:2|1:2,0:2:0:0:
209,35,347191,6,0,P|252:48|289:44,1,72,2|0,1:2|0:2,0:2:0:0:
224,136,347524,2,0,P|267:123|304:127,1,72,0|2,1:2|0:2,0:2:0:0:
407,50,347858,1,8,0:2:0:0:
407,50,348024,2,0,L|424:144,2,72,0|0|0,1:2|0:2|0:2,0:2:0:0:
476,207,348524,5,2,1:2:0:0:
476,207,348691,2,0,P|415:219|334:253,1,144,0|2,0:2|0:2,0:2:0:0:
230,149,349191,2,0,P|251:203|259:240,1,72,8|0,0:2|0:2,0:2:0:0:
211,303,349524,1,0,0:2:0:0:
211,303,349691,1,0,1:2:0:0:
354,365,349858,6,0,L|340:291,1,72,2|0,1:2|0:2,0:2:0:0:
406,252,350191,2,0,L|420:178,1,72,0|2,1:2|0:2,0:2:0:0:
425,58,350524,1,8,0:2:0:0:
425,58,350691,2,0,L|505:79,2,72,0|0|0,1:2|0:2|0:2,0:2:0:0:
253,24,351191,5,6,1:2:0:0:
253,24,351358,2,0,B|187:41|187:41|183:50|183:50|107:69,1,144,0|2,0:2|0:2,0:2:0:0:
9,15,351858,2,0,P|36:63|47:103,1,72,8|0,0:2|0:2,0:2:0:0:
111,155,352191,1,0,0:2:0:0:
111,155,352358,1,0,1:2:0:0:
68,314,352524,6,0,P|42:282|53:228,1,72,2|0,1:2|0:2,0:2:0:0:
113,227,352858,2,0,P|139:259|128:313,1,72,0|2,1:2|0:2,0:2:0:0:
133,376,353191,1,8,0:2:0:0:
255,347,353358,5,0,1:2:0:0:
256,335,353441,1,0,1:2:0:0:
257,323,353524,1,0,1:2:0:0:
259,311,353608,1,0,1:2:0:0:
260,299,353691,1,0,1:2:0:0:
262,287,353774,1,0,1:2:0:0:
263,275,353858,5,2,1:2:0:0:
298,271,353941,1,0,1:2:0:0:
330,254,354024,1,0,1:2:0:0:
353,227,354108,1,0,1:2:0:0:
363,193,354191,1,0,1:2:0:0:
360,157,354274,1,0,1:2:0:0:
344,126,354358,1,2,1:2:0:0:
317,102,354441,1,0,1:2:0:0:
283,91,354524,5,8,0:2:0:0:
240,96,354608,1,0,1:2:0:0:
199,111,354691,1,0,1:2:0:0:
156,113,354774,1,0,1:2:0:0:
117,92,354858,1,0,1:2:0:0:
94,55,354941,1,0,1:2:0:0:
84,12,355024,6,0,L|70:112,1,76.5000014591217,6|0,1:2|0:2,0:2:0:0:
498,368,355524,5,6,1:2:0:0:
256,192,355608,12,0,359191,0:2:0:0:
