osu file format v14

[General]
AudioFilename: audio.mp3
AudioLeadIn: 0
PreviewTime: 68117
Countdown: 1
SampleSet: Soft
StackLeniency: 0.7
Mode: 0
LetterboxInBreaks: 0
WidescreenStoryboard: 0

[Editor]
DistanceSpacing: 0.8
BeatDivisor: 4
GridSize: 16
TimelineZoom: 1

[Metadata]
Title:Omoide
TitleUnicode:思い出
Artist:onoken
ArtistUnicode:onoken
Creator:Frankie0225
Version:Normal
Source:BMS
Tags:Be-Music Script (4th)
BeatmapID:1702967
BeatmapSetID:811904

[Difficulty]
HPDrainRate:5
CircleSize:5
OverallDifficulty:5
ApproachRate:5
SliderMultiplier:1.4
SliderTickRate:4

[Events]
//Background and Video events
0,0,"title.png",0,0
Video,-827,"思い出.mp4"
//Break Periods
2,21800,30988
2,90799,102282
//Storyboard Layer 0 (Background)
//Storyboard Layer 1 (Fail)
//Storyboard Layer 2 (Pass)
//Storyboard Layer 3 (Foreground)
//Storyboard Sound Samples

[TimingPoints]
0,600,4,2,0,100,1,0
21600,352.941176470588,4,2,0,100,1,0
92188,705.882352941176,4,2,0,100,1,0
128893,600,4,2,0,100,1,0

[Colours]
Combo1 : 218,220,148
Combo2 : 221,241,124
Combo3 : 245,253,193
Combo4 : 182,224,14
Combo5 : 255,192,0
Combo6 : 253,221,189

[HitObjects]
104,84,2400,5,0,0:0:0:0:
166,144,3300,1,0,0:0:0:0:
234,206,4200,1,0,0:0:0:0:
293,151,4500,1,0,0:0:0:0:
347,95,4800,1,0,0:0:0:0:
105,82,7200,5,0,0:0:0:0:
166,144,8100,1,0,0:0:0:0:
234,206,9000,1,0,0:0:0:0:
293,151,9300,1,0,0:0:0:0:
347,95,9600,1,0,0:0:0:0:
197,322,11100,5,0,0:0:0:0:
126,258,11400,1,0,0:0:0:0:
67,185,11700,1,0,0:0:0:0:
104,84,12000,1,0,0:0:0:0:
166,144,12900,1,0,0:0:0:0:
197,142,13200,1,0,0:0:0:0:
234,206,13800,1,0,0:0:0:0:
293,151,14100,1,0,0:0:0:0:
347,95,14400,1,0,0:0:0:0:
412,149,15000,1,0,0:0:0:0:
462,196,15300,1,0,0:0:0:0:
416,254,16200,1,0,0:0:0:0:
357,187,16800,5,0,0:0:0:0:
303,241,18000,1,0,0:0:0:0:
249,297,19200,1,0,0:0:0:0:
47,335,21600,5,0,0:0:0:0:
118,91,32188,5,0,0:0:0:0:
69,285,32894,5,0,0:0:0:0:
152,289,33247,1,0,0:0:0:0:
219,234,33600,1,0,0:0:0:0:
277,296,34658,5,0,0:0:0:0:
338,234,35011,1,0,0:0:0:0:
416,160,35717,5,0,0:0:0:0:
338,161,36070,1,0,0:0:0:0:
285,110,36423,1,0,0:0:0:0:
229,159,37482,5,0,0:0:0:0:
177,107,37835,1,0,0:0:0:0:
130,161,38011,1,0,0:0:0:0:
81,110,38188,1,0,0:0:0:0:
69,285,38541,5,0,0:0:0:0:
152,289,38894,1,0,0:0:0:0:
219,234,39247,1,0,0:0:0:0:
277,296,40305,5,0,0:0:0:0:
338,234,40658,1,0,0:0:0:0:
416,160,41364,5,0,0:0:0:0:
338,161,41717,1,0,0:0:0:0:
285,110,42070,1,0,0:0:0:0:
229,159,43129,5,0,0:0:0:0:
177,107,43482,1,0,0:0:0:0:
130,161,43658,1,0,0:0:0:0:
81,110,43835,1,0,0:0:0:0:
12,81,44188,5,0,0:0:0:0:
85,83,45247,1,0,0:0:0:0:
163,83,46305,1,0,0:0:0:0:
222,134,46658,1,0,0:0:0:0:
279,84,47011,1,0,0:0:0:0:
402,201,49835,5,0,0:0:0:0:
320,204,50894,1,0,0:0:0:0:
261,149,51952,1,0,0:0:0:0:
220,257,52305,1,0,0:0:0:0:
175,201,52658,1,0,0:0:0:0:
258,40,53364,5,0,0:0:0:0:
12,81,55482,5,0,0:0:0:0:
85,83,56541,1,0,0:0:0:0:
163,83,57599,1,0,0:0:0:0:
222,134,57952,1,0,0:0:0:0:
279,84,58305,1,0,0:0:0:0:
402,201,61129,5,0,0:0:0:0:
320,204,62188,1,0,0:0:0:0:
261,149,63246,1,0,0:0:0:0:
220,257,63599,1,0,0:0:0:0:
175,201,63952,1,0,0:0:0:0:
255,58,64658,5,0,0:0:0:0:
66,80,68188,5,0,0:0:0:0:
112,127,68541,1,0,0:0:0:0:
159,221,68894,1,0,0:0:0:0:
207,173,69247,1,0,0:0:0:0:
242,276,69599,1,0,0:0:0:0:
288,226,69952,1,0,0:0:0:0:
326,328,70305,1,0,0:0:0:0:
375,281,70658,1,0,0:0:0:0:
432,237,71364,5,0,0:0:0:0:
380,192,71717,1,0,0:0:0:0:
326,97,72070,1,0,0:0:0:0:
288,153,72423,1,0,0:0:0:0:
245,98,72776,1,0,0:0:0:0:
198,46,73129,1,0,0:0:0:0:
162,153,73482,1,0,0:0:0:0:
66,80,73835,5,0,0:0:0:0:
112,127,74188,1,0,0:0:0:0:
159,221,74541,1,0,0:0:0:0:
207,173,74894,1,0,0:0:0:0:
242,276,75246,1,0,0:0:0:0:
288,226,75599,1,0,0:0:0:0:
326,328,75952,1,0,0:0:0:0:
375,281,76305,1,0,0:0:0:0:
428,179,77011,5,0,0:0:0:0:
380,232,77364,1,0,0:0:0:0:
330,120,77717,1,0,0:0:0:0:
288,172,78070,1,0,0:0:0:0:
245,225,78423,1,0,0:0:0:0:
196,276,78776,1,0,0:0:0:0:
151,224,79129,1,0,0:0:0:0:
56,130,79482,5,0,0:0:0:0:
100,174,79658,1,0,0:0:0:0:
143,126,79835,1,0,0:0:0:0:
181,76,80011,1,0,0:0:0:0:
220,26,80188,1,0,0:0:0:0:
259,78,80364,1,0,0:0:0:0:
296,130,80541,1,0,0:0:0:0:
331,179,80717,1,0,0:0:0:0:
410,268,80894,5,0,0:0:0:0:
371,224,81070,1,0,0:0:0:0:
331,179,81247,1,0,0:0:0:0:
296,270,81423,1,0,0:0:0:0:
242,125,81599,1,0,0:0:0:0:
206,178,81776,1,0,0:0:0:0:
172,232,81952,1,0,0:0:0:0:
130,177,82129,1,0,0:0:0:0:
56,130,82305,5,0,0:0:0:0:
100,174,82481,1,0,0:0:0:0:
143,126,82658,1,0,0:0:0:0:
181,76,82834,1,0,0:0:0:0:
220,26,83011,1,0,0:0:0:0:
259,78,83187,1,0,0:0:0:0:
296,130,83364,1,0,0:0:0:0:
331,179,83540,1,0,0:0:0:0:
397,214,83717,5,0,0:0:0:0:
355,265,83894,1,0,0:0:0:0:
313,313,84070,1,0,0:0:0:0:
263,230,84247,1,0,0:0:0:0:
221,279,84423,1,0,0:0:0:0:
181,327,84599,1,0,0:0:0:0:
138,279,84776,1,0,0:0:0:0:
96,231,84952,1,0,0:0:0:0:
56,130,85129,5,0,0:0:0:0:
100,174,85305,1,0,0:0:0:0:
143,126,85482,1,0,0:0:0:0:
181,76,85658,1,0,0:0:0:0:
220,26,85835,1,0,0:0:0:0:
259,78,86011,1,0,0:0:0:0:
296,130,86188,1,0,0:0:0:0:
331,179,86364,1,0,0:0:0:0:
410,268,86541,5,0,0:0:0:0:
367,315,86717,1,0,0:0:0:0:
332,225,86894,1,0,0:0:0:0:
284,314,87070,1,0,0:0:0:0:
242,125,87246,1,0,0:0:0:0:
206,178,87423,1,0,0:0:0:0:
172,232,87599,1,0,0:0:0:0:
130,287,87776,1,0,0:0:0:0:
56,130,87952,5,0,0:0:0:0:
100,174,88128,1,0,0:0:0:0:
143,126,88305,1,0,0:0:0:0:
181,76,88481,1,0,0:0:0:0:
220,26,88658,1,0,0:0:0:0:
259,78,88834,1,0,0:0:0:0:
296,130,89011,1,0,0:0:0:0:
331,179,89187,1,0,0:0:0:0:
397,214,89364,5,0,0:0:0:0:
355,265,89541,1,0,0:0:0:0:
313,313,89717,1,0,0:0:0:0:
263,230,89894,1,0,0:0:0:0:
221,279,90070,1,0,0:0:0:0:
181,327,90246,1,0,0:0:0:0:
138,279,90423,1,0,0:0:0:0:
96,231,90599,1,0,0:0:0:0:
86,90,103482,5,0,0:0:0:0:
133,134,103835,1,0,0:0:0:0:
179,179,104188,1,0,0:0:0:0:
259,75,104893,5,0,0:0:0:0:
306,119,105246,1,0,0:0:0:0:
352,164,105599,1,0,0:0:0:0:
400,225,106305,5,0,0:0:0:0:
356,275,106658,1,0,0:0:0:0:
306,321,107011,1,0,0:0:0:0:
238,218,107717,5,0,0:0:0:0:
194,268,108070,1,0,0:0:0:0:
144,314,108423,1,0,0:0:0:0:
86,90,109129,5,0,0:0:0:0:
133,134,109482,1,0,0:0:0:0:
179,179,109835,1,0,0:0:0:0:
259,75,110540,5,0,0:0:0:0:
306,119,110893,1,0,0:0:0:0:
352,164,111246,1,0,0:0:0:0:
400,119,111599,1,0,0:0:0:0:
400,225,111952,5,0,0:0:0:0:
356,275,112305,1,0,0:0:0:0:
306,321,112658,1,0,0:0:0:0:
238,218,113364,5,0,0:0:0:0:
194,268,113717,1,0,0:0:0:0:
144,314,114070,1,0,0:0:0:0:
60,210,114776,5,0,0:0:0:0:
101,315,114952,1,0,0:0:0:0:
147,262,115129,1,0,0:0:0:0:
194,314,115305,1,0,0:0:0:0:
241,209,115482,1,0,0:0:0:0:
280,311,115658,1,0,0:0:0:0:
326,258,115835,1,0,0:0:0:0:
373,310,116011,1,0,0:0:0:0:
425,197,116188,1,0,0:0:0:0:
375,87,116364,1,0,0:0:0:0:
333,142,116540,1,0,0:0:0:0:
290,85,116717,1,0,0:0:0:0:
253,139,116893,1,0,0:0:0:0:
211,193,117070,1,0,0:0:0:0:
173,137,117246,1,0,0:0:0:0:
134,189,117423,1,0,0:0:0:0:
60,210,117599,5,0,0:0:0:0:
101,315,117776,1,0,0:0:0:0:
147,262,117952,1,0,0:0:0:0:
194,314,118129,1,0,0:0:0:0:
241,209,118305,1,0,0:0:0:0:
280,311,118482,1,0,0:0:0:0:
326,258,118658,1,0,0:0:0:0:
373,310,118835,1,0,0:0:0:0:
425,197,119011,1,0,0:0:0:0:
375,87,119188,1,0,0:0:0:0:
333,142,119364,1,0,0:0:0:0:
290,85,119540,1,0,0:0:0:0:
253,139,119717,1,0,0:0:0:0:
211,193,119893,1,0,0:0:0:0:
173,137,120070,1,0,0:0:0:0:
134,189,120246,1,0,0:0:0:0:
83,232,120423,5,0,0:0:0:0:
120,308,120599,1,0,0:0:0:0:
149,270,120776,1,0,0:0:0:0:
175,310,120952,1,0,0:0:0:0:
207,232,121129,1,0,0:0:0:0:
244,310,121305,1,0,0:0:0:0:
272,269,121482,1,0,0:0:0:0:
308,305,121658,1,0,0:0:0:0:
363,218,121835,1,0,0:0:0:0:
312,127,122011,1,0,0:0:0:0:
277,170,122188,1,0,0:0:0:0:
239,126,122364,1,0,0:0:0:0:
200,221,122540,1,0,0:0:0:0:
149,130,122717,1,0,0:0:0:0:
114,173,122893,1,0,0:0:0:0:
76,129,123070,1,0,0:0:0:0:
83,232,123246,5,0,0:0:0:0:
120,308,123423,1,0,0:0:0:0:
149,270,123599,1,0,0:0:0:0:
175,310,123776,1,0,0:0:0:0:
207,232,123952,1,0,0:0:0:0:
244,310,124129,1,0,0:0:0:0:
272,269,124305,1,0,0:0:0:0:
308,305,124482,1,0,0:0:0:0:
363,218,124658,1,0,0:0:0:0:
312,127,124835,1,0,0:0:0:0:
277,170,125011,1,0,0:0:0:0:
239,126,125188,1,0,0:0:0:0:
200,221,125364,1,0,0:0:0:0:
149,130,125540,1,0,0:0:0:0:
114,173,125717,1,0,0:0:0:0:
81,215,125893,1,0,0:0:0:0:
104,84,128893,5,0,0:0:0:0:
166,144,129793,1,0,0:0:0:0:
234,206,130693,1,0,0:0:0:0:
293,151,130993,1,0,0:0:0:0:
347,95,131293,1,0,0:0:0:0:
105,82,133693,5,0,0:0:0:0:
166,144,134593,1,0,0:0:0:0:
234,206,135493,1,0,0:0:0:0:
293,151,135793,1,0,0:0:0:0:
347,95,136093,1,0,0:0:0:0:
197,322,137593,5,0,0:0:0:0:
126,258,137893,1,0,0:0:0:0:
56,176,138193,1,0,0:0:0:0:
104,84,138493,1,0,0:0:0:0:
166,144,139393,1,0,0:0:0:0:
197,142,139693,1,0,0:0:0:0:
234,206,140293,1,0,0:0:0:0:
293,151,140593,1,0,0:0:0:0:
347,95,140893,1,0,0:0:0:0:
412,149,141493,1,0,0:0:0:0:
462,196,141793,1,0,0:0:0:0:
416,254,142693,1,0,0:0:0:0:
357,187,143293,5,0,0:0:0:0:
303,241,144493,1,0,0:0:0:0:
249,297,145693,1,0,0:0:0:0:
93,292,147268,5,0,0:0:0:0:
133,255,147643,1,0,0:0:0:0:
167,219,148093,1,0,0:0:0:0:
263,167,148618,5,0,0:0:0:0:
282,146,148693,1,0,0:0:0:0:
301,126,148768,1,0,0:0:0:0:
321,107,148843,1,0,0:0:0:0:
