osu file format v14

[General]
AudioFilename: audio.mp3
AudioLeadIn: 0
PreviewTime: 68117
Countdown: 1
SampleSet: None
StackLeniency: 0.7
Mode: 0
LetterboxInBreaks: 0
WidescreenStoryboard: 1

[Editor]
DistanceSpacing: 0.8
BeatDivisor: 4
GridSize: 16
TimelineZoom: 1

[Metadata]
Title:Omoide
TitleUnicode:思い出
Artist:onoken
ArtistUnicode:onoken
Creator:Frankie0225
Version:Hard
Source:BMS
Tags:Be-Music Script (4th)
BeatmapID:1706832
BeatmapSetID:811904

[Difficulty]
HPDrainRate:6
CircleSize:6
OverallDifficulty:5
ApproachRate:6
SliderMultiplier:1.4
SliderTickRate:4

[Events]
//Background and Video events
0,0,"title.png",0,0
Video,-827,"思い出.mp4"
//Break Periods
2,21800,30988
//Storyboard Layer 0 (Background)
//Storyboard Layer 1 (Fail)
//Storyboard Layer 2 (Pass)
//Storyboard Layer 3 (Foreground)
//Storyboard Sound Samples

[TimingPoints]
0,600,4,2,0,100,1,0
21600,352.941176470588,4,2,0,100,1,0
92188,705.882352941176,4,2,0,100,1,0
128893,600,4,2,0,100,1,0

[Colours]
Combo1 : 218,220,148
Combo2 : 221,241,124
Combo3 : 245,253,193
Combo4 : 182,224,14
Combo5 : 255,192,0
Combo6 : 253,221,189

[HitObjects]
90,145,2400,5,0,0:0:0:0:
122,102,2700,1,0,0:0:0:0:
153,61,3000,1,0,0:0:0:0:
182,153,3300,1,0,0:0:0:0:
216,112,3600,1,0,0:0:0:0:
243,67,3900,1,0,0:0:0:0:
271,169,4200,1,0,0:0:0:0:
311,211,4500,1,0,0:0:0:0:
345,168,4800,1,0,0:0:0:0:
391,268,5100,1,0,0:0:0:0:
423,227,5400,1,0,0:0:0:0:
452,182,5700,1,0,0:0:0:0:
490,228,6000,1,0,0:0:0:0:
90,145,7200,5,0,0:0:0:0:
122,102,7500,1,0,0:0:0:0:
153,61,7800,1,0,0:0:0:0:
182,153,8100,1,0,0:0:0:0:
216,112,8400,1,0,0:0:0:0:
243,67,8700,1,0,0:0:0:0:
271,169,9000,1,0,0:0:0:0:
311,211,9300,1,0,0:0:0:0:
345,168,9600,1,0,0:0:0:0:
391,268,9900,1,0,0:0:0:0:
421,226,10200,1,0,0:0:0:0:
456,185,10500,1,0,0:0:0:0:
490,228,10800,1,0,0:0:0:0:
373,284,11100,5,0,0:0:0:0:
290,249,11400,1,0,0:0:0:0:
208,212,11700,1,0,0:0:0:0:
130,173,12000,1,0,0:0:0:0:
159,126,12300,1,0,0:0:0:0:
190,84,12600,1,0,0:0:0:0:
216,172,12900,1,0,0:0:0:0:
243,170,13200,1,0,0:0:0:0:
284,91,13500,1,0,0:0:0:0:
317,174,13800,1,0,0:0:0:0:
350,209,14100,1,0,0:0:0:0:
382,169,14400,1,0,0:0:0:0:
407,210,14700,1,0,0:0:0:0:
437,264,15000,1,0,0:0:0:0:
460,111,15300,1,0,0:0:0:0:
486,154,16200,1,0,0:0:0:0:
357,187,16800,5,0,0:0:0:0:
310,147,17100,1,0,0:0:0:0:
265,108,17400,1,0,0:0:0:0:
303,241,18000,1,0,0:0:0:0:
257,203,18300,1,0,0:0:0:0:
215,166,18600,1,0,0:0:0:0:
239,304,19200,1,0,0:0:0:0:
199,267,19500,1,0,0:0:0:0:
154,226,19800,1,0,0:0:0:0:
112,187,20100,1,0,0:0:0:0:
72,231,20400,1,0,0:0:0:0:
47,335,21600,5,0,0:0:0:0:
118,91,32188,5,0,0:0:0:0:
64,187,32541,1,0,0:0:0:0:
62,202,32629,1,0,0:0:0:0:
69,285,32894,5,0,0:0:0:0:
152,289,33247,1,0,0:0:0:0:
219,234,33600,1,0,0:0:0:0:
277,296,34658,5,0,0:0:0:0:
338,234,35011,1,0,0:0:0:0:
416,160,35717,5,0,0:0:0:0:
338,161,36070,1,0,0:0:0:0:
285,110,36423,1,0,0:0:0:0:
229,159,37482,5,0,0:0:0:0:
177,107,37835,1,0,0:0:0:0:
130,161,38011,1,0,0:0:0:0:
81,110,38188,1,0,0:0:0:0:
69,285,38541,5,0,0:0:0:0:
152,289,38894,1,0,0:0:0:0:
219,234,39247,1,0,0:0:0:0:
277,296,40305,5,0,0:0:0:0:
338,234,40658,1,0,0:0:0:0:
416,160,41364,5,0,0:0:0:0:
338,161,41717,1,0,0:0:0:0:
285,110,42070,1,0,0:0:0:0:
229,159,43129,5,0,0:0:0:0:
177,107,43482,1,0,0:0:0:0:
130,161,43658,1,0,0:0:0:0:
81,110,43835,1,0,0:0:0:0:
12,81,44188,5,0,0:0:0:0:
85,83,45247,1,0,0:0:0:0:
163,83,46305,1,0,0:0:0:0:
222,134,46658,1,0,0:0:0:0:
279,84,47011,1,0,0:0:0:0:
402,201,49835,5,0,0:0:0:0:
320,204,50894,1,0,0:0:0:0:
261,149,51952,1,0,0:0:0:0:
220,257,52305,1,0,0:0:0:0:
175,201,52658,1,0,0:0:0:0:
258,40,53364,5,0,0:0:0:0:
233,70,54070,1,0,0:0:0:0:
211,98,54599,1,0,0:0:0:0:
192,123,55129,1,0,0:0:0:0:
12,81,55482,5,0,0:0:0:0:
85,83,56541,1,0,0:0:0:0:
163,83,57599,1,0,0:0:0:0:
222,134,57952,1,0,0:0:0:0:
279,84,58305,1,0,0:0:0:0:
402,201,61129,5,0,0:0:0:0:
320,204,62188,1,0,0:0:0:0:
261,149,63246,1,0,0:0:0:0:
220,257,63599,1,0,0:0:0:0:
175,201,63952,1,0,0:0:0:0:
258,40,64658,5,0,0:0:0:0:
233,70,65364,1,0,0:0:0:0:
211,98,65893,1,0,0:0:0:0:
192,123,66423,1,0,0:0:0:0:
213,218,66776,5,0,0:0:0:0:
195,249,66952,1,0,0:0:0:0:
169,219,67129,1,0,0:0:0:0:
149,193,67305,1,0,0:0:0:0:
126,166,67482,1,0,0:0:0:0:
107,197,67658,1,0,0:0:0:0:
82,167,67835,1,0,0:0:0:0:
59,139,68011,1,0,0:0:0:0:
66,80,68188,5,0,0:0:0:0:
112,127,68541,1,0,0:0:0:0:
159,221,68894,1,0,0:0:0:0:
207,173,69247,1,0,0:0:0:0:
242,276,69599,1,0,0:0:0:0:
288,226,69952,1,0,0:0:0:0:
326,328,70305,1,0,0:0:0:0:
375,281,70658,1,0,0:0:0:0:
432,237,71364,5,0,0:0:0:0:
380,192,71717,1,0,0:0:0:0:
326,97,72070,1,0,0:0:0:0:
288,153,72423,1,0,0:0:0:0:
245,98,72776,1,0,0:0:0:0:
198,46,73129,1,0,0:0:0:0:
162,153,73482,1,0,0:0:0:0:
66,80,73835,5,0,0:0:0:0:
112,127,74188,1,0,0:0:0:0:
159,221,74541,1,0,0:0:0:0:
207,173,74894,1,0,0:0:0:0:
242,276,75246,1,0,0:0:0:0:
288,226,75599,1,0,0:0:0:0:
326,328,75952,1,0,0:0:0:0:
375,281,76305,1,0,0:0:0:0:
428,179,77011,5,0,0:0:0:0:
380,232,77364,1,0,0:0:0:0:
330,120,77717,1,0,0:0:0:0:
288,172,78070,1,0,0:0:0:0:
245,225,78423,1,0,0:0:0:0:
196,276,78776,1,0,0:0:0:0:
151,224,79129,1,0,0:0:0:0:
56,130,79482,5,0,0:0:0:0:
100,174,79658,1,0,0:0:0:0:
143,126,79835,1,0,0:0:0:0:
181,76,80011,1,0,0:0:0:0:
220,26,80188,1,0,0:0:0:0:
259,78,80364,1,0,0:0:0:0:
296,130,80541,1,0,0:0:0:0:
331,179,80717,1,0,0:0:0:0:
410,268,80894,5,0,0:0:0:0:
371,224,81070,1,0,0:0:0:0:
331,179,81247,1,0,0:0:0:0:
296,270,81423,1,0,0:0:0:0:
242,125,81599,1,0,0:0:0:0:
206,178,81776,1,0,0:0:0:0:
172,232,81952,1,0,0:0:0:0:
130,177,82129,1,0,0:0:0:0:
56,130,82305,5,0,0:0:0:0:
100,174,82481,1,0,0:0:0:0:
143,126,82658,1,0,0:0:0:0:
181,76,82834,1,0,0:0:0:0:
220,26,83011,1,0,0:0:0:0:
259,78,83187,1,0,0:0:0:0:
296,130,83364,1,0,0:0:0:0:
331,179,83540,1,0,0:0:0:0:
397,214,83717,5,0,0:0:0:0:
355,265,83894,1,0,0:0:0:0:
313,313,84070,1,0,0:0:0:0:
263,230,84247,1,0,0:0:0:0:
221,279,84423,1,0,0:0:0:0:
181,327,84599,1,0,0:0:0:0:
138,279,84776,1,0,0:0:0:0:
96,231,84952,1,0,0:0:0:0:
56,130,85129,5,0,0:0:0:0:
100,174,85305,1,0,0:0:0:0:
143,126,85482,1,0,0:0:0:0:
181,76,85658,1,0,0:0:0:0:
220,26,85835,1,0,0:0:0:0:
259,78,86011,1,0,0:0:0:0:
296,130,86188,1,0,0:0:0:0:
331,179,86364,1,0,0:0:0:0:
410,268,86541,5,0,0:0:0:0:
367,315,86717,1,0,0:0:0:0:
332,225,86894,1,0,0:0:0:0:
284,314,87070,1,0,0:0:0:0:
242,125,87246,1,0,0:0:0:0:
206,178,87423,1,0,0:0:0:0:
172,232,87599,1,0,0:0:0:0:
130,287,87776,1,0,0:0:0:0:
56,130,87952,5,0,0:0:0:0:
100,174,88128,1,0,0:0:0:0:
143,126,88305,1,0,0:0:0:0:
181,76,88481,1,0,0:0:0:0:
220,26,88658,1,0,0:0:0:0:
259,78,88834,1,0,0:0:0:0:
296,130,89011,1,0,0:0:0:0:
331,179,89187,1,0,0:0:0:0:
397,214,89364,5,0,0:0:0:0:
355,265,89541,1,0,0:0:0:0:
313,313,89717,1,0,0:0:0:0:
263,230,89894,1,0,0:0:0:0:
221,279,90070,1,0,0:0:0:0:
181,327,90246,1,0,0:0:0:0:
138,279,90423,1,0,0:0:0:0:
96,231,90599,1,0,0:0:0:0:
48,287,92188,5,0,0:0:0:0:
74,262,92540,1,0,0:0:0:0:
103,236,92893,1,0,0:0:0:0:
127,215,93246,1,0,0:0:0:0:
165,214,94305,1,0,0:0:0:0:
192,271,94658,1,0,0:0:0:0:
214,305,95011,1,0,0:0:0:0:
237,280,95364,1,0,0:0:0:0:
259,254,95717,1,0,0:0:0:0:
286,227,96070,1,0,0:0:0:0:
310,255,96776,1,0,0:0:0:0:
330,285,97129,1,0,0:0:0:0:
351,311,97482,1,0,0:0:0:0:
375,348,97835,1,0,0:0:0:0:
400,320,98188,1,0,0:0:0:0:
421,297,98540,1,0,0:0:0:0:
443,275,98893,1,0,0:0:0:0:
464,251,99599,1,0,0:0:0:0:
427,170,99952,1,0,0:0:0:0:
404,206,100658,1,0,0:0:0:0:
378,173,101011,1,0,0:0:0:0:
357,143,101364,1,0,0:0:0:0:
339,115,101717,1,0,0:0:0:0:
317,146,102423,1,0,0:0:0:0:
298,179,102776,1,0,0:0:0:0:
86,90,103482,5,0,0:0:0:0:
133,134,103835,1,0,0:0:0:0:
179,179,104188,1,0,0:0:0:0:
259,76,104893,1,0,0:0:0:0:
306,119,105246,1,0,0:0:0:0:
352,164,105599,1,0,0:0:0:0:
402,226,106305,1,0,0:0:0:0:
356,275,106658,1,0,0:0:0:0:
306,321,107011,1,0,0:0:0:0:
242,220,107717,1,0,0:0:0:0:
194,268,108070,1,0,0:0:0:0:
144,314,108423,1,0,0:0:0:0:
86,90,109129,5,0,0:0:0:0:
133,134,109482,1,0,0:0:0:0:
179,179,109835,1,0,0:0:0:0:
258,76,110540,1,0,0:0:0:0:
306,119,110893,1,0,0:0:0:0:
352,164,111246,1,0,0:0:0:0:
400,119,111599,1,0,0:0:0:0:
405,227,111952,1,0,0:0:0:0:
356,275,112305,1,0,0:0:0:0:
306,321,112658,1,0,0:0:0:0:
241,221,113364,1,0,0:0:0:0:
194,268,113717,1,0,0:0:0:0:
144,314,114070,1,0,0:0:0:0:
60,210,114776,5,0,0:0:0:0:
101,315,114952,1,0,0:0:0:0:
147,262,115129,1,0,0:0:0:0:
194,314,115305,1,0,0:0:0:0:
241,209,115482,1,0,0:0:0:0:
280,311,115658,1,0,0:0:0:0:
326,258,115835,1,0,0:0:0:0:
373,310,116011,1,0,0:0:0:0:
425,197,116188,1,0,0:0:0:0:
375,87,116364,1,0,0:0:0:0:
333,142,116540,1,0,0:0:0:0:
290,85,116717,1,0,0:0:0:0:
253,139,116893,1,0,0:0:0:0:
211,193,117070,1,0,0:0:0:0:
173,137,117246,1,0,0:0:0:0:
134,189,117423,1,0,0:0:0:0:
60,210,117599,5,0,0:0:0:0:
101,315,117776,1,0,0:0:0:0:
147,262,117952,1,0,0:0:0:0:
194,314,118129,1,0,0:0:0:0:
241,209,118305,1,0,0:0:0:0:
280,311,118482,1,0,0:0:0:0:
326,258,118658,1,0,0:0:0:0:
373,310,118835,1,0,0:0:0:0:
425,197,119011,1,0,0:0:0:0:
375,87,119188,1,0,0:0:0:0:
333,142,119364,1,0,0:0:0:0:
290,85,119540,1,0,0:0:0:0:
253,139,119717,1,0,0:0:0:0:
211,193,119893,1,0,0:0:0:0:
173,137,120070,1,0,0:0:0:0:
134,189,120246,1,0,0:0:0:0:
83,232,120423,5,0,0:0:0:0:
120,308,120599,1,0,0:0:0:0:
149,270,120776,1,0,0:0:0:0:
175,310,120952,1,0,0:0:0:0:
207,232,121129,1,0,0:0:0:0:
244,310,121305,1,0,0:0:0:0:
272,269,121482,1,0,0:0:0:0:
308,305,121658,1,0,0:0:0:0:
363,218,121835,1,0,0:0:0:0:
312,127,122011,1,0,0:0:0:0:
277,170,122188,1,0,0:0:0:0:
239,126,122364,1,0,0:0:0:0:
200,221,122540,1,0,0:0:0:0:
149,130,122717,1,0,0:0:0:0:
114,173,122893,1,0,0:0:0:0:
76,129,123070,1,0,0:0:0:0:
83,232,123246,5,0,0:0:0:0:
120,308,123423,1,0,0:0:0:0:
149,270,123599,1,0,0:0:0:0:
175,310,123776,1,0,0:0:0:0:
207,232,123952,1,0,0:0:0:0:
244,310,124129,1,0,0:0:0:0:
272,269,124305,1,0,0:0:0:0:
308,305,124482,1,0,0:0:0:0:
363,218,124658,1,0,0:0:0:0:
312,127,124835,1,0,0:0:0:0:
277,170,125011,1,0,0:0:0:0:
239,126,125188,1,0,0:0:0:0:
200,221,125364,1,0,0:0:0:0:
149,130,125540,1,0,0:0:0:0:
114,173,125717,1,0,0:0:0:0:
81,215,125893,1,0,0:0:0:0:
90,145,128893,5,0,0:0:0:0:
122,102,129193,1,0,0:0:0:0:
153,61,129493,1,0,0:0:0:0:
182,153,129793,1,0,0:0:0:0:
216,112,130093,1,0,0:0:0:0:
243,67,130393,1,0,0:0:0:0:
271,169,130693,1,0,0:0:0:0:
311,211,130993,1,0,0:0:0:0:
345,168,131293,1,0,0:0:0:0:
391,268,131593,1,0,0:0:0:0:
423,227,131893,1,0,0:0:0:0:
452,182,132193,1,0,0:0:0:0:
490,228,132493,1,0,0:0:0:0:
90,145,133693,5,0,0:0:0:0:
122,102,133993,1,0,0:0:0:0:
153,61,134293,1,0,0:0:0:0:
182,153,134593,1,0,0:0:0:0:
216,112,134893,1,0,0:0:0:0:
243,67,135193,1,0,0:0:0:0:
271,169,135493,1,0,0:0:0:0:
311,211,135793,1,0,0:0:0:0:
345,168,136093,1,0,0:0:0:0:
391,268,136393,1,0,0:0:0:0:
421,226,136693,1,0,0:0:0:0:
456,185,136993,1,0,0:0:0:0:
490,228,137293,1,0,0:0:0:0:
373,284,137593,5,0,0:0:0:0:
290,249,137893,1,0,0:0:0:0:
208,212,138193,1,0,0:0:0:0:
130,173,138493,1,0,0:0:0:0:
159,126,138793,1,0,0:0:0:0:
190,84,139093,1,0,0:0:0:0:
216,172,139393,1,0,0:0:0:0:
243,170,139693,1,0,0:0:0:0:
284,91,139993,1,0,0:0:0:0:
317,174,140293,1,0,0:0:0:0:
350,209,140593,1,0,0:0:0:0:
382,169,140893,1,0,0:0:0:0:
407,210,141193,1,0,0:0:0:0:
437,264,141493,1,0,0:0:0:0:
460,111,141793,1,0,0:0:0:0:
486,154,142693,1,0,0:0:0:0:
357,187,143293,5,0,0:0:0:0:
310,147,143593,1,0,0:0:0:0:
265,108,143893,1,0,0:0:0:0:
303,241,144493,1,0,0:0:0:0:
257,203,144793,1,0,0:0:0:0:
215,166,145093,1,0,0:0:0:0:
239,304,145693,1,0,0:0:0:0:
199,267,145993,1,0,0:0:0:0:
154,230,146293,1,0,0:0:0:0:
112,187,146593,1,0,0:0:0:0:
72,231,146893,1,0,0:0:0:0:
93,292,147268,5,0,0:0:0:0:
133,255,147643,1,0,0:0:0:0:
167,219,148093,1,0,0:0:0:0:
263,167,148618,5,0,0:0:0:0:
282,146,148693,1,0,0:0:0:0:
301,126,148768,1,0,0:0:0:0:
321,107,148843,1,0,0:0:0:0:
