osu file format v14

[General]
AudioFilename: audio.mp3
AudioLeadIn: 0
PreviewTime: 80964
Countdown: 0
SampleSet: Soft
StackLeniency: 0.4
Mode: 0
LetterboxInBreaks: 0
EpilepsyWarning: 1
WidescreenStoryboard: 1

[Editor]
DistanceSpacing: 0.9
BeatDivisor: 8
GridSize: 4
TimelineZoom: 2.2

[Metadata]
Title:Last | Eternity & Moment
TitleUnicode:Last | Eternity & Moment
Artist:onoken
ArtistUnicode:onoken
Creator:Lavender
Version:One Last Dream
Source:Arcaea
Tags:japanese video game artcore electronic lowiro Final Verdict Silent Answer Tamako Kinoshita 木下珠子 Lunala wyrio Callionet MuonRei00 無音零
BeatmapID:3893397
BeatmapSetID:1843127

[Difficulty]
HPDrainRate:6
CircleSize:4.2
OverallDifficulty:8
ApproachRate:9.2
SliderMultiplier:1.9
SliderTickRate:0.5

[Events]
//Background and Video events
0,0,"kiss.png",0,0
//Break Periods
2,64792,72221
//Storyboard Layer 0 (Background)
//Storyboard Layer 1 (Fail)
//Storyboard Layer 2 (Pass)
//Storyboard Layer 3 (Foreground)
Sprite,Foreground,Centre,"Assets\Effects\pixel.png",465,71 C,0,61849,,160,66,255 F,2,61849,62349,0.4,0 V,1,61849,62349,75,2000,20,2000 P,0,61849,62349,A
Sprite,Foreground,Centre,"Assets\Effects\pixel.png",172,215 C,0,62021,,160,66,255 F,2,62021,62521,0.4,0 V,1,62021,62521,75,2000,20,2000 P,0,62021,62521,A
Sprite,Foreground,Centre,"Assets\Effects\pixel.png",446,183 C,0,62192,,225,121,202 F,2,62192,62692,0.4,0 V,1,62192,62692,75,2000,20,2000 P,0,62192,62692,A
Sprite,Foreground,Centre,"Assets\Effects\pixel.png",222,121 C,0,62364,,225,121,202 F,2,62364,62864,0.4,0 V,1,62364,62864,75,2000,20,2000 P,0,62364,62864,A
Sprite,Foreground,Centre,"Assets\Effects\pixel.png",427,295 C,0,62535,,160,66,255 F,2,62535,63035,0.4,0 V,1,62535,63035,75,2000,20,2000 P,0,62535,63035,A
Sprite,Foreground,Centre,"Assets\Effects\pixel.png",171,389 C,0,62707,,160,66,255 F,2,62707,63207,0.4,0 V,1,62707,63207,75,2000,20,2000 P,0,62707,63207,A
Sprite,Foreground,Centre,"Assets\Effects\pixel.png",408,407 C,0,62878,,225,121,202 F,2,62878,63378,0.4,0 V,1,62878,63378,75,2000,20,2000 P,0,62878,63378,A
Sprite,Foreground,Centre,"Assets\Effects\pixel.png",0,0 C,0,63049,,225,121,202 M,0,63049,63059,221,295,226.8876,295.7679 F,2,63049,63634,0.4,0 V,1,63049,63634,75,2000,20,2000 P,0,63049,63634,A M,0,63059,63070,226.8876,295.7679,232.7753,296.5359 M,0,63070,63081,232.7753,296.5359,238.6629,297.3038 M,0,63081,63091,238.6629,297.3038,244,298 M,0,63091,63102,244,298,238.6629,297.3038 M,0,63102,63113,238.6629,297.3038,232.7753,296.5359 M,0,63113,63123,232.7753,296.5359,226.8876,295.7679 M,0,63123,63134,226.8876,295.7679,221,295
Sprite,Foreground,Centre,"Assets\Effects\pixel.png",0,0 C,0,63221,,225,121,202 M,0,63221,63231,376,168,373.9212,173.5602 F,2,63221,63806,0.4,0 V,1,63221,63806,75,2000,20,2000 P,0,63221,63806,A M,0,63231,63242,373.9212,173.5602,371.763,179.0889 M,0,63242,63253,371.763,179.0889,369.8938,184.7231 M,0,63253,63263,369.8938,184.7231,368.031,190.3557 M,0,63263,63274,368.031,190.3557,366.2538,196.02 M,0,63274,63285,366.2538,196.02,364.8113,201.7781 M,0,63285,63295,364.8113,201.7781,363.2665,207.5107 M,0,63295,63306,363.2665,207.5107,362,213
Sprite,Foreground,Centre,"Assets\Effects\pixel.png",0,0 C,0,63392,,225,121,202 M,0,63392,63402,341,339,339.6684,333.215 F,2,63392,63977,0.4,0 V,1,63392,63977,75,2000,20,2000 P,0,63392,63977,A M,0,63402,63413,339.6684,333.215,338.3429,327.4309 M,0,63413,63424,338.3429,327.4309,336.8877,321.6762 M,0,63424,63434,336.8877,321.6762,335.1593,315.9971 M,0,63434,63445,335.1593,315.9971,333.3794,310.3372 M,0,63445,63456,333.3794,310.3372,331.4727,304.7176 M,0,63456,63466,331.4727,304.7176,329.4625,299.1308 M,0,63466,63477,329.4625,299.1308,327.2496,293.6214
Sprite,Foreground,Centre,"Assets\Effects\pixel.png",0,0 C,0,63564,,225,121,202 M,0,63564,63574,230,211,235.8897,211.7519 F,2,63564,64149,0.4,0 V,1,63564,64149,75,2000,20,2000 P,0,63564,64149,A M,0,63574,63585,235.8897,211.7519,241.7794,212.5038 M,0,63585,63596,241.7794,212.5038,247.6691,213.2556 M,0,63596,63606,247.6691,213.2556,253.5588,214.0075 M,0,63606,63617,253.5588,214.0075,259.4485,214.7594 M,0,63617,63628,259.4485,214.7594,265.3382,215.5113 M,0,63628,63638,265.3382,215.5113,271.2279,216.2631 M,0,63638,63649,271.2279,216.2631,277,217
Sprite,Foreground,Centre,"Assets\Effects\pixel.png",518,242 C,0,63735,,160,66,255 F,2,63735,64235,0.4,0 V,1,63735,64235,75,2000,20,2000 P,0,63735,64235,A
Sprite,Foreground,Centre,"Assets\Effects\pixel.png",0,0 C,0,99907,,225,121,202 M,0,99907,99917,147,254,148.7128,260.9159 F,2,99907,100578,0.4,0 V,1,99907,100578,75,2000,20,2000 P,0,99907,100578,A M,0,99917,99928,148.7128,260.9159,150.4014,267.8372 M,0,99928,99939,150.4014,267.8372,152.0153,274.7764 M,0,99939,99949,152.0153,274.7764,153.5541,281.7328 M,0,99949,99960,153.5541,281.7328,155.0178,288.7054 M,0,99960,99971,155.0178,288.7054,156.4062,295.6935 M,0,99971,99982,156.4062,295.6935,157.7192,302.6964 M,0,99982,99992,157.7192,302.6964,158.9006,309.7226 M,0,99992,100003,158.9006,309.7226,160.0486,316.7538 M,0,100003,100014,160.0486,316.7538,161.1207,323.7971 M,0,100014,100024,161.1207,323.7971,162.1167,330.8515 M,0,100024,100035,162.1167,330.8515,163.0365,337.9164 M,0,100035,100046,163.0365,337.9164,163.8801,344.991 M,0,100046,100057,163.8801,344.991,164.6473,352.0743 M,0,100057,100067,164.6473,352.0743,165.34,359.1655 M,0,100067,100078,165.34,359.1655,165.9381,366.2653
Sprite,Foreground,Centre,"Assets\Effects\pixel.png",169.5584,370.5584 C,0,100164,,225,121,202 F,2,100164,100664,0.4,0 V,1,100164,100664,75,2000,20,2000 P,0,100164,100664,A
Sprite,Foreground,Centre,"Assets\Effects\pixel.png",173.1168,374.1168 C,0,100249,,160,66,255 F,2,100249,100749,0.4,0 V,1,100249,100749,75,2000,20,2000 P,0,100249,100749,A
Sprite,Foreground,Centre,"Assets\Effects\pixel.png",302,208 C,0,100421,,160,66,255 F,2,100421,100921,0.4,0 V,1,100421,100921,75,2000,20,2000 P,0,100421,100921,A
Sprite,Foreground,Centre,"Assets\Effects\pixel.png",311,291 C,0,100592,,160,66,255 F,2,100592,101092,0.4,0 V,1,100592,101092,75,2000,20,2000 P,0,100592,101092,A
Sprite,Foreground,Centre,"Assets\Effects\pixel.png",157,139 C,0,100764,,225,121,202 F,2,100764,101264,0.4,0 V,1,100764,101264,75,2000,20,2000 P,0,100764,101264,A
Sprite,Foreground,Centre,"Assets\Effects\pixel.png",352,219 C,0,100936,,225,121,202 F,2,100936,101436,0.4,0 V,1,100936,101436,75,2000,20,2000 P,0,100936,101436,A
Sprite,Foreground,Centre,"Assets\Effects\pixel.png",276,252 C,0,101107,,225,121,202 F,2,101107,101607,0.4,0 V,1,101107,101607,75,2000,20,2000 P,0,101107,101607,A
Sprite,Foreground,Centre,"Assets\Effects\pixel.png",372,60 C,0,101278,,160,66,255 F,2,101278,101778,0.4,0 V,1,101278,101778,75,2000,20,2000 P,0,101278,101778,A
Sprite,Foreground,Centre,"Assets\Effects\pixel.png",357,270 C,0,101450,,160,66,255 F,2,101450,101950,0.4,0 V,1,101450,101950,75,2000,20,2000 P,0,101450,101950,A
Sprite,Foreground,Centre,"Assets\Effects\pixel.png",302,208 C,0,101621,,160,66,255 F,2,101621,102121,0.4,0 V,1,101621,102121,75,2000,20,2000 P,0,101621,102121,A
Sprite,Foreground,Centre,"Assets\Effects\pixel.png",514,241 C,0,101792,,225,121,202 F,2,101792,102292,0.4,0 V,1,101792,102292,75,2000,20,2000 P,0,101792,102292,A
Sprite,Foreground,Centre,"Assets\Effects\pixel.png",311,291 C,0,101964,,225,121,202 F,2,101964,102464,0.4,0 V,1,101964,102464,75,2000,20,2000 P,0,101964,102464,A
Sprite,Foreground,Centre,"Assets\Effects\pixel.png",0,0 C,0,102135,,225,121,202 M,0,102135,102145,352,219,351.2668,211.9128 F,2,102135,102720,0.4,0 V,1,102135,102720,75,2000,20,2000 P,0,102135,102720,A M,0,102145,102156,351.2668,211.9128,350.5337,204.8256 M,0,102156,102167,350.5337,204.8256,349.8005,197.7385 M,0,102167,102177,349.8005,197.7385,349.0674,190.6513 M,0,102177,102188,349.0674,190.6513,349.8005,197.7385 M,0,102188,102199,349.8005,197.7385,350.5337,204.8256 M,0,102199,102210,350.5337,204.8256,351.2668,211.9128 M,0,102210,102220,351.2668,211.9128,352,219
Sprite,Foreground,Centre,"Assets\Effects\pixel.png",0,0 C,0,102307,,160,66,255 M,0,102307,102317,378,413,371.1482,411.0502 F,2,102307,102892,0.4,0 V,1,102307,102892,75,2000,20,2000 P,0,102307,102892,A M,0,102317,102328,371.1482,411.0502,364.2802,409.169 M,0,102328,102339,364.2802,409.169,357.3622,407.48 M,0,102339,102349,357.3622,407.48,350.3995,405.9843 M,0,102349,102360,350.3995,405.9843,343.3973,404.6833 M,0,102360,102371,343.3973,404.6833,336.3611,403.5779 M,0,102371,102382,336.3611,403.5779,329.2983,402.6421 M,0,102382,102392,329.2983,402.6421,323,402
Sprite,Foreground,Centre,"Assets\Effects\pixel.png",0,0 C,0,102478,,160,66,255 M,0,102478,102488,179,336,174.6765,336.9496 F,2,102478,103406,0.4,0 V,1,102478,103406,75,2000,20,2000 P,0,102478,103406,A M,0,102488,102499,174.6765,336.9496,170.5025,338.5205 M,0,102499,102510,170.5025,338.5205,166.0775,338.6395 M,0,102510,102520,166.0775,338.6395,161.6916,339.2623 M,0,102520,102531,161.6916,339.2623,157.3233,338.5464 M,0,102531,102542,157.3233,338.5464,152.9327,338.2024 M,0,102542,102553,152.9327,338.2024,148.7772,336.6772 M,0,102553,102563,148.7772,336.6772,144.588,335.3916 M,0,102563,102574,144.588,335.3916,140.7938,333.1115 M,0,102574,102585,140.7938,333.1115,137.0014,330.9521 M,0,102585,102595,137.0014,330.9521,133.7041,327.9987 M,0,102595,102606,133.7041,327.9987,130.4849,325.0728 M,0,102606,102617,130.4849,325.0728,127.2776,321.964 M,0,102617,102628,127.2776,321.964,125.3056,318.0009 M,0,102628,102638,125.3056,318.0009,122.8664,314.2958 M,0,102638,102649,122.8664,314.2958,121.6755,310.0324 M,0,102649,102660,121.6755,310.0324,120.1098,305.9106 M,0,102660,102670,120.1098,305.9106,119.7426,301.4993 M,0,102670,102681,119.7426,301.4993,119.1152,297.158 M,0,102681,102692,119.1152,297.158,119.5847,292.7564 M,0,102692,102703,119.5847,292.7564,119.9177,288.4016 M,0,102703,102713,119.9177,288.4016,121.2071,284.167 M,0,102713,102724,121.2071,284.167,122.4783,280.0038 M,0,102724,102735,122.4783,280.0038,123.9227,275.7698 M,0,102735,102745,123.9227,275.7698,126.6862,272.3118 M,0,102745,102756,126.6862,272.3118,128.9985,268.5189 M,0,102756,102767,128.9985,268.5189,132.3635,265.6429 M,0,102767,102778,132.3635,265.6429,135.4257,262.4631 M,0,102778,102788,135.4257,262.4631,139.2718,260.2717 M,0,102788,102799,139.2718,260.2717,142.933,257.848 M,0,102799,102810,142.933,257.848,147.1228,256.4196 M,0,102810,102820,147.1228,256.4196,151.206,254.8591 M,0,102820,102831,151.206,254.8591,155.5898,254.2448 M,0,102831,102842,155.5898,254.2448,159.8997,253.6153 M,0,102842,102853,159.8997,253.6153,164.3523,253.1134 M,0,102853,102863,164.3523,253.1134,168.6526,254.1631 M,0,102863,102874,168.6526,254.1631,173.076,254.6354 M,0,102874,102885,173.076,254.6354,177.1019,256.4756 M,0,102885,102895,177.1019,256.4756,181.3827,257.7583 M,0,102895,102906,181.3827,257.7583,185.2339,259.9808
Sprite,Foreground,Centre,"Assets\Effects\pixel.png",0,0 C,0,113964,,160,66,255 M,0,113964,113974,527,222,519.3209,222.7818 F,2,113964,114721,0.3,0 V,1,113964,114721,75,2000,20,2000 P,0,113964,114721,A M,0,113974,113985,519.3209,222.7818,511.6432,223.5759 M,0,113985,113996,511.6432,223.5759,503.9683,224.397 M,0,113996,114006,503.9683,224.397,496.2964,225.2453 M,0,114006,114017,496.2964,225.2453,488.6275,226.1206 M,0,114017,114028,488.6275,226.1206,480.9617,227.023 M,0,114028,114039,480.9617,227.023,473.2992,227.9525 M,0,114039,114049,473.2992,227.9525,465.64,228.9089 M,0,114049,114060,465.64,228.9089,457.9842,229.8925 M,0,114060,114071,457.9842,229.8925,450.332,230.9031 M,0,114071,114081,450.332,230.9031,442.6833,231.9408 M,0,114081,114092,442.6833,231.9408,435.0384,233.0054 M,0,114092,114103,435.0384,233.0054,427.3973,234.0971 M,0,114103,114114,427.3973,234.0971,419.76,235.2157 M,0,114114,114124,419.76,235.2157,412.1268,236.3611 M,0,114124,114135,412.1268,236.3611,404.4977,237.5337 M,0,114135,114146,404.4977,237.5337,396.8727,238.7332 M,0,114146,114156,396.8727,238.7332,389.252,239.9595 M,0,114156,114167,389.252,239.9595,381.6357,241.2129 M,0,114167,114178,381.6357,241.2129,374.0239,242.493 M,0,114178,114189,374.0239,242.493,366.4166,243.8 M,0,114189,114199,366.4166,243.8,358.814,245.1341 M,0,114199,114210,358.814,245.1341,351.219,246.5105 M,0,114210,114221,351.219,246.5105,343.6238,247.8858
Sprite,Foreground,Centre,"Assets\Effects\pixel.png",313,256 C,0,114307,,160,66,255 F,2,114307,114807,0.3,0 V,1,114307,114807,75,2000,20,2000 P,0,114307,114807,A
Sprite,Foreground,Centre,"Assets\Effects\pixel.png",0,0 C,0,114478,,160,66,255 M,0,114478,114488,429,146,429.1432,138.283 F,2,114478,115149,0.3,0 V,1,114478,115149,75,2000,20,2000 P,0,114478,115149,A M,0,114488,114499,429.1432,138.283,429.3251,130.5678 M,0,114499,114510,429.3251,130.5678,429.6273,122.8563 M,0,114510,114520,429.6273,122.8563,430.0496,115.1503 M,0,114520,114531,430.0496,115.1503,430.592,107.4515 M,0,114531,114542,430.592,107.4515,431.2543,99.76187 M,0,114542,114553,431.2543,99.76187,432.0297,92.08224 M,0,114553,114563,432.0297,92.08224,432.9497,84.41862 M,0,114563,114574,432.9497,84.41862,432.0297,92.08224 M,0,114574,114585,432.0297,92.08224,431.2543,99.76187 M,0,114585,114595,431.2543,99.76187,430.592,107.4515 M,0,114595,114606,430.592,107.4515,430.0496,115.1503 M,0,114606,114617,430.0496,115.1503,429.6273,122.8563 M,0,114617,114628,429.6273,122.8563,429.3251,130.5678 M,0,114628,114638,429.3251,130.5678,429.1432,138.283 M,0,114638,114649,429.1432,138.283,429,146
Sprite,Foreground,Centre,"Assets\Effects\pixel.png",416,335 C,0,114821,,160,66,255 F,2,114821,115321,0.3,0 V,1,114821,115321,75,2000,20,2000 P,0,114821,115321,A
Sprite,Foreground,Centre,"Assets\Effects\pixel.png",0,0 C,0,114992,,160,66,255 M,0,114992,115002,276,395,283.336,392.6013 F,2,114992,115577,0.3,0 V,1,114992,115577,75,2000,20,2000 P,0,114992,115577,A M,0,115002,115013,283.336,392.6013,290.6855,390.2483 M,0,115013,115024,290.6855,390.2483,298.0757,388.0262 M,0,115024,115034,298.0757,388.0262,305.5044,385.9357 M,0,115034,115045,305.5044,385.9357,312.9693,383.9775 M,0,115045,115056,312.9693,383.9775,320.4681,382.1523 M,0,115056,115067,320.4681,382.1523,327.9954,380.4445 M,0,115067,115077,327.9954,380.4445,335,379
Sprite,Foreground,Centre,"Assets\Effects\pixel.png",0,0 C,0,115164,,160,66,255 M,0,115164,115174,555,307,547.4326,305.4854 F,2,115164,115749,0.3,0 V,1,115164,115749,75,2000,20,2000 P,0,115164,115749,A M,0,115174,115185,547.4326,305.4854,539.881,303.9084 M,0,115185,115196,539.881,303.9084,532.3734,302.1317 M,0,115196,115206,532.3734,302.1317,524.915,300.1566 M,0,115206,115217,524.915,300.1566,517.511,297.9842 M,0,115217,115228,517.511,297.9842,510.1661,295.6161 M,0,115228,115239,510.1661,295.6161,502.8828,293.0607 M,0,115239,115249,502.8828,293.0607,495.6877,290.267
Sprite,Foreground,Centre,"Assets\Effects\pixel.png",337,101 C,0,115335,,225,121,202 F,2,115335,115835,0.3,0 V,1,115335,115835,75,2000,20,2000 P,0,115335,115835,A
Sprite,Foreground,Centre,"Assets\Effects\pixel.png",305.8832,248.8832 C,0,115507,,225,121,202 F,2,115507,116007,0.3,0 V,1,115507,116007,75,2000,20,2000 P,0,115507,116007,A
Sprite,Foreground,Centre,"Assets\Effects\pixel.png",309.4416,252.4416 C,0,115592,,225,121,202 F,2,115592,116092,0.3,0 V,1,115592,116092,75,2000,20,2000 P,0,115592,116092,A
Sprite,Foreground,Centre,"Assets\Effects\pixel.png",0,0 C,0,115678,,225,121,202 M,0,115678,115688,313,256,305.2903,255.627 F,2,115678,116263,0.3,0 V,1,115678,116263,75,2000,20,2000 P,0,115678,116263,A M,0,115688,115699,305.2903,255.627,297.5805,255.2539 M,0,115699,115710,297.5805,255.2539,289.8708,254.8808 M,0,115710,115720,289.8708,254.8808,282.1611,254.5078 M,0,115720,115731,282.1611,254.5078,274.4514,254.1347 M,0,115731,115742,274.4514,254.1347,266.7416,253.7617 M,0,115742,115753,266.7416,253.7617,259.0319,253.3886 M,0,115753,115763,259.0319,253.3886,251.3222,253.0156
Sprite,Foreground,Centre,"Assets\Effects\pixel.png",0,0 C,0,115849,,225,121,202 M,0,115849,115859,218,177,225.7097,176.627 F,2,115849,116434,0.3,0 V,1,115849,116434,75,2000,20,2000 P,0,115849,116434,A M,0,115859,115870,225.7097,176.627,233.4195,176.2539 M,0,115870,115881,233.4195,176.2539,241.1292,175.8808 M,0,115881,115891,241.1292,175.8808,248.8389,175.5078 M,0,115891,115902,248.8389,175.5078,256.5486,175.1347 M,0,115902,115913,256.5486,175.1347,264.2584,174.7617 M,0,115913,115924,264.2584,174.7617,271.9681,174.3886 M,0,115924,115934,271.9681,174.3886,279.6779,174.0156
Sprite,Foreground,Centre,"Assets\Effects\pixel.png",390,211 C,0,116021,,160,66,255 F,2,116021,116521,0.3,0 V,1,116021,116521,75,2000,20,2000 P,0,116021,116521,A
Sprite,Foreground,Centre,"Assets\Effects\pixel.png",401,249 C,0,116135,,160,66,255 F,2,116135,116635,0.3,0 V,1,116135,116635,75,2000,20,2000 P,0,116135,116635,A
Sprite,Foreground,Centre,"Assets\Effects\pixel.png",393,289 C,0,116249,,160,66,255 F,2,116249,116749,0.3,0 V,1,116249,116749,75,2000,20,2000 P,0,116249,116749,A
Sprite,Foreground,Centre,"Assets\Effects\pixel.png",328,337 C,0,116364,,225,121,202 F,2,116364,116864,0.3,0 V,1,116364,116864,75,2000,20,2000 P,0,116364,116864,A
Sprite,Foreground,Centre,"Assets\Effects\pixel.png",316,375 C,0,116478,,225,121,202 F,2,116478,116978,0.3,0 V,1,116478,116978,75,2000,20,2000 P,0,116478,116978,A
Sprite,Foreground,Centre,"Assets\Effects\pixel.png",324,415 C,0,116592,,225,121,202 F,2,116592,117092,0.3,0 V,1,116592,117092,75,2000,20,2000 P,0,116592,117092,A
Sprite,Foreground,Centre,"Assets\Effects\pixel.png",0,0 C,0,116707,,160,66,255 M,0,116707,116717,405,382,412.7096,381.6239 F,2,116707,117378,0.3,0 V,1,116707,117378,75,2000,20,2000 P,0,116707,117378,A M,0,116717,116728,412.7096,381.6239,420.4192,381.2478 M,0,116728,116739,420.4192,381.2478,428.1288,380.8718 M,0,116739,116749,428.1288,380.8718,435.8383,380.4957 M,0,116749,116760,435.8383,380.4957,443.5479,380.1196 M,0,116760,116771,443.5479,380.1196,451.2575,379.7435 M,0,116771,116782,451.2575,379.7435,458.9671,379.3675 M,0,116782,116792,458.9671,379.3675,466.6767,378.9914 M,0,116792,116803,466.6767,378.9914,474.3862,378.6153 M,0,116803,116814,474.3862,378.6153,482.0958,378.2392 M,0,116814,116824,482.0958,378.2392,489.8054,377.8632 M,0,116824,116835,489.8054,377.8632,497.515,377.4871 M,0,116835,116846,497.515,377.4871,505.2246,377.111 M,0,116846,116857,505.2246,377.111,512.9341,376.7349 M,0,116857,116867,512.9341,376.7349,520.6437,376.3589 M,0,116867,116878,520.6437,376.3589,528,376
Sprite,Foreground,Centre,"Assets\Effects\pixel.png",0,0 C,0,117049,,160,66,255 M,0,117049,117059,364,95,360.095,101.6505 F,2,117049,117634,0.3,0 V,1,117049,117634,75,2000,20,2000 P,0,117049,117634,A M,0,117059,117070,360.095,101.6505,356.3382,108.3685 M,0,117070,117081,356.3382,108.3685,353.0007,115.306 M,0,117081,117091,353.0007,115.306,350.095,122.4374 M,0,117091,117102,350.095,122.4374,347.6321,129.7366 M,0,117102,117113,347.6321,129.7366,345.6216,137.177 M,0,117113,117124,345.6216,137.177,344.0211,144.7258 M,0,117124,117134,344.0211,144.7258,343,152
Sprite,Foreground,Centre,"Assets\Effects\pixel.png",468,208 C,0,117221,,160,66,255 F,2,117221,117721,0.3,0 V,1,117221,117721,75,2000,20,2000 P,0,117221,117721,A
Sprite,Foreground,Centre,"Assets\Effects\pixel.png",481,180 C,0,117306,,160,66,255 F,2,117306,117806,0.3,0 V,1,117306,117806,75,2000,20,2000 P,0,117306,117806,A
Sprite,Foreground,Centre,"Assets\Effects\pixel.png",0,0 C,0,117392,,160,66,255 M,0,117392,117402,488,149,480.2858,148.7899 F,2,117392,117977,0.3,0 V,1,117392,117977,75,2000,20,2000 P,0,117392,117977,A M,0,117402,117413,480.2858,148.7899,472.574,148.6563 M,0,117413,117424,472.574,148.6563,464.8612,148.7622 M,0,117424,117434,464.8612,148.7622,457.1548,149.1075 M,0,117434,117445,457.1548,149.1075,449.4617,149.692 M,0,117445,117456,449.4617,149.692,441.7893,150.5153 M,0,117456,117467,441.7893,150.5153,434.1426,151.5652 M,0,117467,117477,434.1426,151.5652,426.5414,152.9046
Sprite,Foreground,Centre,"Assets\Effects\pixel.png",0,0 C,0,117564,,160,66,255 M,0,117564,117574,434,309,441.717,308.8925 F,2,117564,118149,0.3,0 V,1,117564,118149,75,2000,20,2000 P,0,117564,118149,A M,0,117574,117585,441.717,308.8925,449.4308,308.7226 M,0,117585,117596,449.4308,308.7226,457.1386,308.3716 M,0,117596,117606,457.1386,308.3716,464.8363,307.8395 M,0,117606,117617,464.8363,307.8395,472.5199,307.1268 M,0,117617,117628,472.5199,307.1268,480.1851,306.2336 M,0,117628,117639,480.1851,306.2336,487.8313,305.1805 M,0,117639,117649,487.8313,305.1805,495,304
Sprite,Foreground,Centre,"Assets\Effects\pixel.png",0,0 C,0,117735,,160,66,255 M,0,117735,117745,552,221,544.3032,221.5825 F,2,117735,118492,0.3,0 V,1,117735,118492,75,2000,20,2000 P,0,117735,118492,A M,0,117745,117756,544.3032,221.5825,536.6065,222.1649 M,0,117756,117767,536.6065,222.1649,528.9098,222.7474 M,0,117767,117777,528.9098,222.7474,521.213,223.3298 M,0,117777,117788,521.213,223.3298,513.5163,223.9123 M,0,117788,117799,513.5163,223.9123,505.8195,224.4947 M,0,117799,117810,505.8195,224.4947,498.1228,225.0772 M,0,117810,117820,498.1228,225.0772,490.4261,225.6597 M,0,117820,117831,490.4261,225.6597,482.7293,226.2421 M,0,117831,117842,482.7293,226.2421,475.0326,226.8246 M,0,117842,117852,475.0326,226.8246,467.3358,227.407 M,0,117852,117863,467.3358,227.407,459.6391,227.9895 M,0,117863,117874,459.6391,227.9895,451.9424,228.5719 M,0,117874,117885,451.9424,228.5719,444.2456,229.1544 M,0,117885,117895,444.2456,229.1544,436.5489,229.7368 M,0,117895,117906,436.5489,229.7368,428.8521,230.3193 M,0,117906,117917,428.8521,230.3193,421.1554,230.9017 M,0,117917,117927,421.1554,230.9017,413.4586,231.4842 M,0,117927,117938,413.4586,231.4842,405.7619,232.0667 M,0,117938,117949,405.7619,232.0667,398.0652,232.6491 M,0,117949,117960,398.0652,232.6491,390.3684,233.2316 M,0,117960,117970,390.3684,233.2316,382.6717,233.814 M,0,117970,117981,382.6717,233.814,374.9749,234.3965 M,0,117981,117992,374.9749,234.3965,367.2782,234.9789
Sprite,Foreground,Centre,"Assets\Effects\pixel.png",271,160 C,0,118078,,225,121,202 F,2,118078,118578,0.3,0 V,1,118078,118578,75,2000,20,2000 P,0,118078,118578,A
Sprite,Foreground,Centre,"Assets\Effects\pixel.png",434,309 C,0,118249,,225,121,202 F,2,118249,118749,0.3,0 V,1,118249,118749,75,2000,20,2000 P,0,118249,118749,A
Sprite,Foreground,Centre,"Assets\Effects\pixel.png",427,153 C,0,118421,,225,121,202 F,2,118421,118921,0.3,0 V,1,118421,118921,75,2000,20,2000 P,0,118421,118921,A
Sprite,Foreground,Centre,"Assets\Effects\pixel.png",0,0 C,0,118592,,225,121,202 M,0,118592,118602,278,316,272.5315,310.5529 F,2,118592,119349,0.3,0 V,1,118592,119349,75,2000,20,2000 P,0,118592,119349,A M,0,118602,118613,272.5315,310.5529,267.2234,304.9495 M,0,118613,118624,267.2234,304.9495,262.0922,299.1836 M,0,118624,118634,262.0922,299.1836,257.1561,293.25 M,0,118634,118645,257.1561,293.25,252.4345,287.1444 M,0,118645,118656,252.4345,287.1444,247.9489,280.8635 M,0,118656,118667,247.9489,280.8635,243.7234,274.4047 M,0,118667,118677,243.7234,274.4047,239.7821,267.7688 M,0,118677,118688,239.7821,267.7688,236.151,260.9583 M,0,118688,118699,236.151,260.9583,232.8568,253.9787 M,0,118699,118709,232.8568,253.9787,227.4602,255.2141 M,0,118709,118720,227.4602,255.2141,221.0751,259.5508 M,0,118720,118731,221.0751,259.5508,214.5878,263.7329 M,0,118731,118742,214.5878,263.7329,207.9957,267.748 M,0,118742,118752,207.9957,267.748,201.2966,271.5815 M,0,118752,118763,201.2966,271.5815,194.4884,275.218 M,0,118763,118774,194.4884,275.218,187.5704,278.6407 M,0,118774,118784,187.5704,278.6407,180.5428,281.8323 M,0,118784,118795,180.5428,281.8323,173.4066,284.7727 M,0,118795,118806,173.4066,284.7727,166.1643,287.4411 M,0,118806,118817,166.1643,287.4411,158.8208,289.8169 M,0,118817,118827,158.8208,289.8169,151.3825,291.876 M,0,118827,118838,151.3825,291.876,143.859,293.5983 M,0,118838,118849,143.859,293.5983,136.2621,294.9597
Sprite,Foreground,Centre,"Assets\Effects\pixel.png",0,0 C,0,118935,,225,121,202 M,0,118935,118945,73,221,80.71105,220.6983 F,2,118935,119520,0.3,0 V,1,118935,119520,75,2000,20,2000 P,0,118935,119520,A M,0,118945,118956,80.71105,220.6983,88.41384,220.3062 M,0,118956,118967,88.41384,220.3062,96.09998,219.6619 M,0,118967,118977,96.09998,219.6619,103.7614,218.7662 M,0,118977,118988,103.7614,218.7662,111.39,217.6199 M,0,118988,118999,111.39,217.6199,118.9777,216.2241 M,0,118999,119010,118.9777,216.2241,126.5264,214.6164 M,0,119010,119020,126.5264,214.6164,133,213
Sprite,Foreground,Centre,"Assets\Effects\pixel.png",0,0 C,0,119107,,225,121,202 M,0,119107,119117,230,69,223.5776,64.71841 F,2,119107,119864,0.3,0 V,1,119107,119864,75,2000,20,2000 P,0,119107,119864,A M,0,119117,119128,223.5776,64.71841,217.1552,60.43682 M,0,119128,119139,217.1552,60.43682,210.7328,56.15522 M,0,119139,119149,210.7328,56.15522,204.3105,51.87363 M,0,119149,119160,204.3105,51.87363,197.8881,47.59204 M,0,119160,119171,197.8881,47.59204,191.4657,43.31045 M,0,119171,119182,191.4657,43.31045,185.0433,39.02885 M,0,119182,119192,185.0433,39.02885,186.3357,46.54948 M,0,119192,119203,186.3357,46.54948,187.6804,54.15019 M,0,119203,119214,187.6804,54.15019,189.0252,61.7509 M,0,119214,119224,189.0252,61.7509,190.3699,69.35161 M,0,119224,119235,190.3699,69.35161,191.7146,76.95232 M,0,119235,119246,191.7146,76.95232,193.0594,84.55302 M,0,119246,119257,193.0594,84.55302,194.4041,92.15373 M,0,119257,119267,194.4041,92.15373,195.7489,99.75445 M,0,119267,119278,195.7489,99.75445,197.0936,107.3552 M,0,119278,119289,197.0936,107.3552,198.4383,114.9559 M,0,119289,119299,198.4383,114.9559,199.7831,122.5566 M,0,119299,119310,199.7831,122.5566,201.1278,130.1573 M,0,119310,119321,201.1278,130.1573,202.4726,137.758 M,0,119321,119332,202.4726,137.758,203.8173,145.3587 M,0,119332,119342,203.8173,145.3587,205.162,152.9594 M,0,119342,119353,205.162,152.9594,206.5068,160.5601 M,0,119353,119364,206.5068,160.5601,207.8515,168.1608
Sprite,Foreground,Centre,"Assets\Effects\pixel.png",0,0 C,0,119449,,160,66,255 M,0,119449,119459,293,192,300.5781,193.4667 F,2,119449,120206,0.3,0 V,1,119449,120206,75,2000,20,2000 P,0,119449,120206,A M,0,119459,119470,300.5781,193.4667,308.1562,194.9335 M,0,119470,119481,308.1562,194.9335,315.7343,196.4002 M,0,119481,119491,315.7343,196.4002,323.3124,197.8669 M,0,119491,119502,323.3124,197.8669,330.8906,199.3337 M,0,119502,119513,330.8906,199.3337,338.4687,200.8004 M,0,119513,119524,338.4687,200.8004,346.0468,202.2671 M,0,119524,119534,346.0468,202.2671,353.6249,203.7339 M,0,119534,119545,353.6249,203.7339,360.8885,201.71 M,0,119545,119556,360.8885,201.71,368.0825,198.9124 M,0,119556,119566,368.0825,198.9124,375.2764,196.1147 M,0,119566,119577,375.2764,196.1147,382.4703,193.3171 M,0,119577,119588,382.4703,193.3171,389.6642,190.5195 M,0,119588,119599,389.6642,190.5195,396.8581,187.7219 M,0,119599,119609,396.8581,187.7219,404.052,184.9242 M,0,119609,119620,404.052,184.9242,411.38,183.3778 M,0,119620,119631,411.38,183.3778,419.0033,184.5878 M,0,119631,119641,419.0033,184.5878,426.6266,185.7979 M,0,119641,119652,426.6266,185.7979,434.2499,187.0079 M,0,119652,119663,434.2499,187.0079,441.8732,188.218 M,0,119663,119674,441.8732,188.218,449.4965,189.428 M,0,119674,119684,449.4965,189.428,457.1198,190.6381 M,0,119684,119695,457.1198,190.6381,464.7432,191.8481 M,0,119695,119706,464.7432,191.8481,472,193
Sprite,Foreground,Centre,"Assets\Effects\pixel.png",0,0 C,0,119792,,160,66,255 M,0,119792,119802,494,286,486.6917,283.5253 F,2,119792,120377,0.3,0 V,1,119792,120377,75,2000,20,2000 P,0,119792,120377,A M,0,119802,119813,486.6917,283.5253,479.36,281.1415 M,0,119813,119824,479.36,281.1415,471.9397,279.0465 M,0,119824,119834,471.9397,279.0465,464.4419,277.2433 M,0,119834,119845,464.4419,277.2433,456.8775,275.735 M,0,119845,119856,456.8775,275.735,449.2577,274.5237 M,0,119856,119867,449.2577,274.5237,441.5941,273.6038 M,0,119867,119877,441.5941,273.6038,433.8951,273.0629
Sprite,Foreground,Centre,"Assets\Effects\pixel.png",339,114 C,0,119963,,160,66,255 F,2,119963,120463,0.3,0 V,1,119963,120463,75,2000,20,2000 P,0,119963,120463,A
Sprite,Foreground,Centre,"Assets\Effects\pixel.png",331,85 C,0,120049,,160,66,255 F,2,120049,120549,0.3,0 V,1,120049,120549,75,2000,20,2000 P,0,120049,120549,A
Sprite,Foreground,Centre,"Assets\Effects\pixel.png",0,0 C,0,120135,,160,66,255 M,0,120135,120145,338,57,345.6171,58.2487 F,2,120135,120720,0.3,0 V,1,120135,120720,75,2000,20,2000 P,0,120135,120720,A M,0,120145,120156,345.6171,58.2487,353.2342,59.4974 M,0,120156,120167,353.2342,59.4974,360.8512,60.7461 M,0,120167,120177,360.8512,60.7461,368.4683,61.9948 M,0,120177,120188,368.4683,61.9948,376.0854,63.2435 M,0,120188,120199,376.0854,63.2435,383.7025,64.4922 M,0,120199,120210,383.7025,64.4922,391.3195,65.74091 M,0,120210,120220,391.3195,65.74091,398.9366,66.98961
Sprite,Foreground,Centre,"Assets\Effects\pixel.png",0,0 C,0,120306,,160,66,255 M,0,120306,120316,216,280,208.4311,278.4862 F,2,120306,120891,0.3,0 V,1,120306,120891,75,2000,20,2000 P,0,120306,120891,A M,0,120316,120327,208.4311,278.4862,200.8623,276.9725 M,0,120327,120338,200.8623,276.9725,193.2934,275.4587 M,0,120338,120348,193.2934,275.4587,185.7246,273.9449 M,0,120348,120359,185.7246,273.9449,178.1557,272.4312 M,0,120359,120370,178.1557,272.4312,170.5869,270.9174 M,0,120370,120381,170.5869,270.9174,163.018,269.4036 M,0,120381,120391,163.018,269.4036,156,268
Sprite,Foreground,Centre,"Assets\Effects\pixel.png",333,294 C,0,120478,,160,66,255 F,2,120478,120978,0.3,0 V,1,120478,120978,75,2000,20,2000 P,0,120478,120978,A
Sprite,Foreground,Centre,"Assets\Effects\pixel.png",247,140 C,0,120649,,160,66,255 F,2,120649,121149,0.3,0 V,1,120649,121149,75,2000,20,2000 P,0,120649,121149,A
Sprite,Foreground,Centre,"Assets\Effects\pixel.png",290,217 C,0,120821,,225,121,202 F,2,120821,121321,0.3,0 V,1,120821,121321,75,2000,20,2000 P,0,120821,121321,A
Sprite,Foreground,Centre,"Assets\Effects\pixel.png",328,206 C,0,120935,,225,121,202 F,2,120935,121435,0.3,0 V,1,120935,121435,75,2000,20,2000 P,0,120935,121435,A
Sprite,Foreground,Centre,"Assets\Effects\pixel.png",368,214 C,0,121049,,225,121,202 F,2,121049,121549,0.3,0 V,1,121049,121549,75,2000,20,2000 P,0,121049,121549,A
Sprite,Foreground,Centre,"Assets\Effects\pixel.png",416,279 C,0,121164,,160,66,255 F,2,121164,121664,0.3,0 V,1,121164,121664,75,2000,20,2000 P,0,121164,121664,A
Sprite,Foreground,Centre,"Assets\Effects\pixel.png",454,291 C,0,121278,,160,66,255 F,2,121278,121778,0.3,0 V,1,121278,121778,75,2000,20,2000 P,0,121278,121778,A
Sprite,Foreground,Centre,"Assets\Effects\pixel.png",494,283 C,0,121392,,160,66,255 F,2,121392,121892,0.3,0 V,1,121392,121892,75,2000,20,2000 P,0,121392,121892,A
Sprite,Foreground,Centre,"Assets\Effects\pixel.png",553,344 C,0,121507,,225,121,202 F,2,121507,122007,0.3,0 V,1,121507,122007,75,2000,20,2000 P,0,121507,122007,A
Sprite,Foreground,Centre,"Assets\Effects\pixel.png",368,214 C,0,121678,,225,121,202 F,2,121678,122178,0.3,0 V,1,121678,122178,75,2000,20,2000 P,0,121678,122178,A
Sprite,Foreground,Centre,"Assets\Effects\pixel.png",0,0 C,0,121849,,225,121,202 M,0,121849,121859,471,141,468.8028,148.3975 F,2,121849,122434,0.3,0 V,1,121849,122434,75,2000,20,2000 P,0,121849,122434,A M,0,121859,121870,468.8028,148.3975,466.682,155.8128 M,0,121870,121881,466.682,155.8128,464.7992,163.2927 M,0,121881,121891,464.7992,163.2927,463.1563,170.8297 M,0,121891,121902,463.1563,170.8297,461.7551,178.4163 M,0,121902,121913,461.7551,178.4163,460.5969,186.0452 M,0,121913,121924,460.5969,186.0452,459.672,193.7081 M,0,121924,121934,459.672,193.7081,459.0485,201.4012
Sprite,Foreground,Centre,"Assets\Effects\pixel.png",0,0 C,0,122021,,225,121,202 M,0,122021,122031,345,354,343.9379,346.3557 F,2,122021,122606,0.3,0 V,1,122021,122606,75,2000,20,2000 P,0,122021,122606,A M,0,122031,122042,343.9379,346.3557,342.8178,338.7223 M,0,122042,122053,342.8178,338.7223,341.5128,331.1179 M,0,122053,122063,341.5128,331.1179,340.0235,323.547 M,0,122063,122074,340.0235,323.547,338.3508,316.0139 M,0,122074,122085,338.3508,316.0139,336.4955,308.5228 M,0,122085,122096,336.4955,308.5228,334.4653,301.0759 M,0,122096,122106,334.4653,301.0759,332.2118,293.6937
Sprite,Foreground,Centre,"Assets\Effects\pixel.png",0,0 C,0,122192,,160,66,255 M,0,122192,122202,223,144,230.7162,143.8112 F,2,122192,122863,0.3,0 V,1,122192,122863,75,2000,20,2000 P,0,122192,122863,A M,0,122202,122213,230.7162,143.8112,238.4303,143.5755 M,0,122213,122224,238.4303,143.5755,246.1404,143.231 M,0,122224,122234,246.1404,143.231,253.8449,142.778 M,0,122234,122245,253.8449,142.778,261.5423,142.2163 M,0,122245,122256,261.5423,142.2163,269.2311,141.5463 M,0,122256,122267,269.2311,141.5463,276.9097,140.7679 M,0,122267,122277,276.9097,140.7679,284.5765,139.8813 M,0,122277,122288,284.5765,139.8813,292.2302,138.8869 M,0,122288,122299,292.2302,138.8869,299.8692,137.7845 M,0,122299,122309,299.8692,137.7845,307.4919,136.5747 M,0,122309,122320,307.4919,136.5747,315.097,135.2575 M,0,122320,122331,315.097,135.2575,322.6828,133.8332 M,0,122331,122342,322.6828,133.8332,330.2478,132.3021 M,0,122342,122352,330.2478,132.3021,337.792,130.6705 M,0,122352,122363,337.792,130.6705,345,129
Sprite,Foreground,Centre,"Assets\Effects\pixel.png",541,81 C,0,122535,,160,66,255 F,2,122535,123035,0.3,0 V,1,122535,123035,75,2000,20,2000 P,0,122535,123035,A
Sprite,Foreground,Centre,"Assets\Effects\pixel.png",459,258 C,0,122707,,160,66,255 F,2,122707,123207,0.3,0 V,1,122707,123207,75,2000,20,2000 P,0,122707,123207,A
Sprite,Foreground,Centre,"Assets\Effects\pixel.png",451,229 C,0,122793,,160,66,255 F,2,122793,123293,0.3,0 V,1,122793,123293,75,2000,20,2000 P,0,122793,123293,A
Sprite,Foreground,Centre,"Assets\Effects\pixel.png",0,0 C,0,122878,,160,66,255 M,0,122878,122888,457,201,464.5922,202.3919 F,2,122878,123463,0.3,0 V,1,122878,123463,75,2000,20,2000 P,0,122878,123463,A M,0,122888,122899,464.5922,202.3919,472.1844,203.7838 M,0,122899,122910,472.1844,203.7838,479.7766,205.1757 M,0,122910,122920,479.7766,205.1757,487.3689,206.5676 M,0,122920,122931,487.3689,206.5676,494.9611,207.9595 M,0,122931,122942,494.9611,207.9595,502.5533,209.3514 M,0,122942,122953,502.5533,209.3514,510.1455,210.7433 M,0,122953,122963,510.1455,210.7433,517,212
Sprite,Foreground,Centre,"Assets\Effects\pixel.png",0,0 C,0,123049,,160,66,255 M,0,123049,123059,425,359,417.4038,360.3698 F,2,123049,123634,0.3,0 V,1,123049,123634,75,2000,20,2000 P,0,123049,123634,A M,0,123059,123070,417.4038,360.3698,409.8075,361.7396 M,0,123070,123081,409.8075,361.7396,402.2113,363.1094 M,0,123081,123091,402.2113,363.1094,394.6151,364.4792 M,0,123091,123102,394.6151,364.4792,387.0189,365.8491 M,0,123102,123113,387.0189,365.8491,379.4226,367.2189 M,0,123113,123124,379.4226,367.2189,371.8264,368.5887 M,0,123124,123134,371.8264,368.5887,364.2302,369.9585
Sprite,Foreground,Centre,"Assets\Effects\pixel.png",0,0 C,0,123221,,160,66,255 M,0,123221,123231,279,249,281.6451,241.7487 F,2,123221,123978,0.3,0 V,1,123221,123978,75,2000,20,2000 P,0,123221,123978,A M,0,123231,123242,281.6451,241.7487,284.2206,234.4723 M,0,123242,123253,284.2206,234.4723,286.7282,227.1722 M,0,123253,123263,286.7282,227.1722,289.1693,219.8497 M,0,123263,123274,289.1693,219.8497,291.5458,212.506 M,0,123274,123285,291.5458,212.506,293.8596,205.1422 M,0,123285,123296,293.8596,205.1422,296.1116,197.7593 M,0,123296,123306,296.1116,197.7593,298.3041,190.3585 M,0,123306,123317,298.3041,190.3585,300.4384,182.9407 M,0,123317,123328,300.4384,182.9407,302.5154,175.5067 M,0,123328,123338,302.5154,175.5067,304.5371,168.0574 M,0,123338,123349,304.5371,168.0574,306.5049,160.5937 M,0,123349,123360,306.5049,160.5937,308.4196,153.1162 M,0,123360,123371,308.4196,153.1162,310.2828,145.6257 M,0,123371,123381,310.2828,145.6257,312.0956,138.1229 M,0,123381,123392,312.0956,138.1229,313.8594,130.6084 M,0,123392,123403,313.8594,130.6084,316.6945,136.5627 M,0,123403,123413,316.6945,136.5627,319.6993,143.6725 M,0,123413,123424,319.6993,143.6725,322.7933,150.744 M,0,123424,123435,322.7933,150.744,325.9948,157.7673 M,0,123435,123446,325.9948,157.7673,329.3288,164.7288 M,0,123446,123456,329.3288,164.7288,332.8319,171.6065 M,0,123456,123467,332.8319,171.6065,336.5605,178.3643 M,0,123467,123478,336.5605,178.3643,340,184
Sprite,Foreground,Centre,"Assets\Effects\pixel.png",0,0 C,0,123564,,225,121,202 M,0,123564,123574,377,273,369.2949,273.4581 F,2,123564,124321,0.3,0 V,1,123564,124321,75,2000,20,2000 P,0,123564,124321,A M,0,123574,123585,369.2949,273.4581,361.5897,273.9163 M,0,123585,123596,361.5897,273.9163,353.8846,274.3745 M,0,123596,123606,353.8846,274.3745,346.1794,274.8326 M,0,123606,123617,346.1794,274.8326,338.4743,275.2907 M,0,123617,123628,338.4743,275.2907,330.7692,275.7488 M,0,123628,123639,330.7692,275.7488,323.064,276.207 M,0,123639,123649,323.064,276.207,315.3589,276.6652 M,0,123649,123660,315.3589,276.6652,307.6537,277.1233 M,0,123660,123671,307.6537,277.1233,299.9486,277.5814 M,0,123671,123681,299.9486,277.5814,292.2434,278.0396 M,0,123681,123692,292.2434,278.0396,284.5383,278.4977 M,0,123692,123703,284.5383,278.4977,276.8332,278.9559 M,0,123703,123714,276.8332,278.9559,269.128,279.414 M,0,123714,123724,269.128,279.414,261.4229,279.8721 M,0,123724,123735,261.4229,279.8721,253.7177,280.3303 M,0,123735,123746,253.7177,280.3303,246.0126,280.7885 M,0,123746,123756,246.0126,280.7885,238.3074,281.2466 M,0,123756,123767,238.3074,281.2466,230.6023,281.7047 M,0,123767,123778,230.6023,281.7047,222.8972,282.1629 M,0,123778,123789,222.8972,282.1629,215.192,282.621 M,0,123789,123799,215.192,282.621,207.4869,283.0792 M,0,123799,123810,207.4869,283.0792,199.7817,283.5373 M,0,123810,123821,199.7817,283.5373,192.0766,283.9954
Sprite,Foreground,Centre,"Assets\Effects\pixel.png",170,271 C,0,123907,,225,121,202 F,2,123907,124407,0.3,0 V,1,123907,124407,75,2000,20,2000 P,0,123907,124407,A
Sprite,Foreground,Centre,"Assets\Effects\pixel.png",0,0 C,0,124078,,225,121,202 M,0,124078,124088,284,109,291.5823,110.1769 F,2,124078,124835,0.3,0 V,1,124078,124835,75,2000,20,2000 P,0,124078,124835,A M,0,124088,124099,291.5823,110.1769,298.9578,111.8688 M,0,124099,124110,298.9578,111.8688,305.934,114.8095 M,0,124110,124120,305.934,114.8095,312.3025,118.9128 M,0,124120,124131,312.3025,118.9128,317.8722,124.0584 M,0,124131,124142,317.8722,124.0584,322.4753,130.0953 M,0,124142,124153,322.4753,130.0953,325.9716,136.8456 M,0,124153,124163,325.9716,136.8456,328.2533,144.1099 M,0,124163,124174,328.2533,144.1099,329.2473,151.673 M,0,124174,124185,329.2473,151.673,328.9187,159.3096 M,0,124185,124195,328.9187,159.3096,327.271,166.7914 M,0,124195,124206,327.271,166.7914,324.3469,173.8929 M,0,124206,124217,324.3469,173.8929,320.2271,180.3988 M,0,124217,124228,320.2271,180.3988,314.4793,185.4821 M,0,124228,124238,314.4793,185.4821,308.4293,190.0252 M,0,124238,124249,308.4293,190.0252,301.6837,193.4573 M,0,124249,124260,301.6837,193.4573,294.4431,195.6752 M,0,124260,124270,294.4431,195.6752,286.9223,196.6108 M,0,124270,124281,286.9223,196.6108,279.3452,196.2338 M,0,124281,124292,279.3452,196.2338,271.9377,194.5522 M,0,124292,124303,271.9377,194.5522,264.9216,191.6123 M,0,124303,124313,264.9216,191.6123,258.5078,187.4977 M,0,124313,124324,258.5078,187.4977,252.6938,182.4608 M,0,124324,124335,252.6938,182.4608,249,178
Sprite,Foreground,Centre,"Assets\Effects\pixel.png",238,162 C,0,124421,,225,121,202 F,2,124421,124921,0.3,0 V,1,124421,124921,75,2000,20,2000 P,0,124421,124921,A
Sprite,Foreground,Centre,"Assets\Effects\pixel.png",377,273 C,0,124592,,225,121,202 F,2,124592,125092,0.3,0 V,1,124592,125092,75,2000,20,2000 P,0,124592,125092,A
Sprite,Foreground,Centre,"Assets\Effects\pixel.png",214,367 C,0,124764,,225,121,202 F,2,124764,125264,0.3,0 V,1,124764,125264,75,2000,20,2000 P,0,124764,125264,A
Sprite,Foreground,Centre,"Assets\Effects\pixel.png",0,0 C,0,124935,,160,66,255 M,0,124935,124945,319,205,325.742,201.243 F,2,124935,125692,0.3,0 V,1,124935,125692,75,2000,20,2000 P,0,124935,125692,A M,0,124945,124956,325.742,201.243,332.6365,197.7746 M,0,124956,124967,332.6365,197.7746,339.6951,194.6543 M,0,124967,124977,339.6951,194.6543,346.9233,191.9511 M,0,124977,124988,346.9233,191.9511,354.3157,189.7367 M,0,124988,124999,354.3157,189.7367,361.8578,188.1048 M,0,124999,125010,361.8578,188.1048,369.5125,187.1357 M,0,125010,125020,369.5125,187.1357,377.2237,186.8791 M,0,125020,125031,377.2237,186.8791,384.9249,187.3503 M,0,125031,125042,384.9249,187.3503,392.5549,188.5019 M,0,125042,125052,392.5549,188.5019,400.0803,190.2124 M,0,125052,125063,400.0803,190.2124,407.5099,192.3036 M,0,125063,125074,407.5099,192.3036,414.8903,194.5637 M,0,125074,125085,414.8903,194.5637,422.2929,196.7493 M,0,125085,125095,422.2929,196.7493,429.7844,198.6026 M,0,125095,125106,429.7844,198.6026,437.3964,199.8625 M,0,125106,125117,437.3964,199.8625,445.0975,200.3091 M,0,125117,125127,445.0975,200.3091,452.7947,199.8108 M,0,125127,125138,452.7947,199.8108,460.3724,198.369 M,0,125138,125149,460.3724,198.369,467.7413,196.0858 M,0,125149,125160,467.7413,196.0858,474.8559,193.0999 M,0,125160,125170,474.8559,193.0999,481.7097,189.5542 M,0,125170,125181,481.7097,189.5542,488.3143,185.562 M,0,125181,125192,488.3143,185.562,494.6939,181.2184
Sprite,Foreground,Centre,"Assets\Effects\pixel.png",519,169 C,0,125278,,160,66,255 F,2,125278,125778,0.3,0 V,1,125278,125778,75,2000,20,2000 P,0,125278,125778,A
Sprite,Foreground,Centre,"Assets\Effects\pixel.png",0,0 C,0,125449,,160,66,255 M,0,125449,125459,377,273,375.2755,280.5217 F,2,125449,126120,0.3,0 V,1,125449,126120,75,2000,20,2000 P,0,125449,126120,A M,0,125459,125470,375.2755,280.5217,373.6339,288.0576 M,0,125470,125481,373.6339,288.0576,372.2387,295.6434 M,0,125481,125491,372.2387,295.6434,371.0914,303.2713 M,0,125491,125502,371.0914,303.2713,370.1931,310.9334 M,0,125502,125513,370.1931,310.9334,369.545,318.6219 M,0,125513,125524,369.545,318.6219,369.1261,326.3287 M,0,125524,125534,369.1261,326.3287,369,334 M,0,125534,125545,369,334,369.1261,326.3287 M,0,125545,125556,369.1261,326.3287,369.545,318.6218 M,0,125556,125566,369.545,318.6218,370.1931,310.9334 M,0,125566,125577,370.1931,310.9334,371.0914,303.2712 M,0,125577,125588,371.0914,303.2712,372.2387,295.6434 M,0,125588,125599,372.2387,295.6434,373.6339,288.0576 M,0,125599,125609,373.6339,288.0576,375.2755,280.5217 M,0,125609,125620,375.2755,280.5217,377,273
Sprite,Foreground,Centre,"Assets\Effects\pixel.png",445,117 C,0,125792,,160,66,255 F,2,125792,126292,0.3,0 V,1,125792,126292,75,2000,20,2000 P,0,125792,126292,A
Sprite,Foreground,Centre,"Assets\Effects\pixel.png",319,205 C,0,125964,,160,66,255 F,2,125964,126464,0.3,0 V,1,125964,126464,75,2000,20,2000 P,0,125964,126464,A
Sprite,Foreground,Centre,"Assets\Effects\pixel.png",470,285 C,0,126135,,160,66,255 F,2,126135,126635,0.3,0 V,1,126135,126635,75,2000,20,2000 P,0,126135,126635,A
Sprite,Foreground,Centre,"Assets\Effects\pixel.png",0,0 C,0,126307,,225,121,202 M,0,126307,126317,268,280,261.9882,275.1774 F,2,126307,126978,0.3,0 V,1,126307,126978,75,2000,20,2000 P,0,126307,126978,A M,0,126317,126328,261.9882,275.1774,256.178,270.1553 M,0,126328,126339,256.178,270.1553,250.8314,264.641 M,0,126339,126349,250.8314,264.641,245.9898,258.6769 M,0,126349,126360,245.9898,258.6769,241.6905,252.3088 M,0,126360,126371,241.6905,252.3088,237.967,245.5853 M,0,126371,126382,237.967,245.5853,234.8483,238.5582 M,0,126382,126392,234.8483,238.5582,232.359,231.2812 M,0,126392,126403,232.359,231.2812,230.5186,223.8102 M,0,126403,126414,230.5186,223.8102,229.3421,216.2026 M,0,126414,126424,229.3421,216.2026,228.8393,208.517 M,0,126424,126435,228.8393,208.517,229.0148,200.8123 M,0,126435,126446,229.0148,200.8123,229.8682,193.1481 M,0,126446,126457,229.8682,193.1481,231.3938,185.5835 M,0,126457,126467,231.3938,185.5835,234.0027,178.3315 M,0,126467,126478,234.0027,178.3315,236.5601,171.0609
Sprite,Foreground,Centre,"Assets\Effects\pixel.png",0,0 C,0,126649,,225,121,202 M,0,126649,126659,522,216,527.967,220.8779 F,2,126649,127320,0.3,0 V,1,126649,127320,75,2000,20,2000 P,0,126649,127320,A M,0,126659,126670,527.967,220.8779,533.7229,225.9631 M,0,126670,126681,533.7229,225.9631,539.0052,231.5391 M,0,126681,126691,539.0052,231.5391,543.7729,237.5624 M,0,126691,126702,543.7729,237.5624,547.988,243.9857 M,0,126702,126713,547.988,243.9857,551.6176,250.7589 M,0,126713,126724,551.6176,250.7589,554.6326,257.8289 M,0,126724,126734,554.6326,257.8289,557.0092,265.1404 M,0,126734,126745,557.0092,265.1404,558.7283,272.6361 M,0,126745,126756,558.7283,272.6361,559.7761,280.2573 M,0,126756,126766,559.7761,280.2573,560.1437,287.9443 M,0,126766,126777,560.1437,287.9443,559.8278,295.6367 M,0,126777,126788,559.8278,295.6367,558.8301,303.274 M,0,126788,126799,558.8301,303.274,557.1578,310.7964 M,0,126799,126809,557.1578,310.7964,554.8577,318.1607 M,0,126809,126820,554.8577,318.1607,552,325
Sprite,Foreground,Centre,"Assets\Effects\pixel.png",519.4416,399.4416 C,0,126907,,225,121,202 F,2,126907,127407,0.3,0 V,1,126907,127407,75,2000,20,2000 P,0,126907,127407,A
Sprite,Foreground,Centre,"Assets\Effects\pixel.png",0,0 C,0,126992,,225,121,202 M,0,126992,127002,523,403,515.868,400.0535 F,2,126992,127577,0.3,0 V,1,126992,127577,75,2000,20,2000 P,0,126992,127577,A M,0,127002,127013,515.868,400.0535,508.7107,397.1819 M,0,127013,127024,508.7107,397.1819,501.4604,394.552 M,0,127024,127034,501.4604,394.552,494.1249,392.1667 M,0,127034,127045,494.1249,392.1667,486.7122,390.0287 M,0,127045,127056,486.7122,390.0287,479.2303,388.1404 M,0,127056,127067,479.2303,388.1404,471.6878,386.5008 M,0,127067,127077,471.6878,386.5008,464.0822,385.187
Sprite,Foreground,Centre,"Assets\Effects\pixel.png",0,0 C,0,127164,,225,121,202 M,0,127164,127174,333,345,340.5997,343.6562 F,2,127164,127749,0.3,0 V,1,127164,127749,75,2000,20,2000 P,0,127164,127749,A M,0,127174,127185,340.5997,343.6562,348.1844,342.2439 M,0,127185,127196,348.1844,342.2439,355.7303,340.6366 M,0,127196,127206,355.7303,340.6366,363.2327,338.8353 M,0,127206,127217,363.2327,338.8353,370.6866,336.8412 M,0,127217,127228,370.6866,336.8412,378.0871,334.6555 M,0,127228,127239,378.0871,334.6555,385.4385,332.3041 M,0,127239,127249,385.4385,332.3041,392,330
Sprite,Foreground,Centre,"Assets\Effects\pixel.png",470,285 C,0,127335,,225,121,202 F,2,127335,127835,0.3,0 V,1,127335,127835,75,2000,20,2000 P,0,127335,127835,A
Sprite,Foreground,Centre,"Assets\Effects\pixel.png",174,337 C,0,127507,,225,121,202 F,2,127507,128007,0.3,0 V,1,127507,128007,75,2000,20,2000 P,0,127507,128007,A
Sprite,Foreground,Centre,"Assets\Effects\pixel.png",170,352 C,0,127592,,225,121,202 F,2,127592,128092,0.3,0 V,1,127592,128092,75,2000,20,2000 P,0,127592,128092,A
Sprite,Foreground,Centre,"Assets\Effects\pixel.png",166,367 C,0,127678,,160,66,255 F,2,127678,128178,0.3,0 V,1,127678,128178,75,2000,20,2000 P,0,127678,128178,A
Sprite,Foreground,Centre,"Assets\Effects\pixel.png",276,252 C,0,127849,,160,66,255 F,2,127849,128349,0.3,0 V,1,127849,128349,75,2000,20,2000 P,0,127849,128349,A
Sprite,Foreground,Centre,"Assets\Effects\pixel.png",352,219 C,0,128021,,160,66,255 F,2,128021,128521,0.3,0 V,1,128021,128521,75,2000,20,2000 P,0,128021,128521,A
Sprite,Foreground,Centre,"Assets\Effects\pixel.png",514,241 C,0,128192,,225,121,202 F,2,128192,128692,0.3,0 V,1,128192,128692,75,2000,20,2000 P,0,128192,128692,A
Sprite,Foreground,Centre,"Assets\Effects\pixel.png",357,270 C,0,128364,,225,121,202 F,2,128364,128864,0.3,0 V,1,128364,128864,75,2000,20,2000 P,0,128364,128864,A
Sprite,Foreground,Centre,"Assets\Effects\pixel.png",276,252 C,0,128535,,225,121,202 F,2,128535,129035,0.3,0 V,1,128535,129035,75,2000,20,2000 P,0,128535,129035,A
Sprite,Foreground,Centre,"Assets\Effects\pixel.png",157,139 C,0,128707,,160,66,255 F,2,128707,129207,0.3,0 V,1,128707,129207,75,2000,20,2000 P,0,128707,129207,A
Sprite,Foreground,Centre,"Assets\Effects\pixel.png",302,208 C,0,128878,,160,66,255 F,2,128878,129378,0.3,0 V,1,128878,129378,75,2000,20,2000 P,0,128878,129378,A
Sprite,Foreground,Centre,"Assets\Effects\pixel.png",357,270 C,0,129049,,160,66,255 F,2,129049,129549,0.3,0 V,1,129049,129549,75,2000,20,2000 P,0,129049,129549,A
Sprite,Foreground,Centre,"Assets\Effects\pixel.png",383,429 C,0,129221,,225,121,202 F,2,129221,129721,0.3,0 V,1,129221,129721,75,2000,20,2000 P,0,129221,129721,A
Sprite,Foreground,Centre,"Assets\Effects\pixel.png",311,291 C,0,129392,,225,121,202 F,2,129392,129892,0.3,0 V,1,129392,129892,75,2000,20,2000 P,0,129392,129892,A
Sprite,Foreground,Centre,"Assets\Effects\pixel.png",0,0 C,0,129564,,225,121,202 M,0,129564,129574,302,208,294.7029,210.5162 F,2,129564,130149,0.3,0 V,1,129564,130149,75,2000,20,2000 P,0,129564,130149,A M,0,129574,129585,294.7029,210.5162,287.4058,213.0325 M,0,129585,129596,287.4058,213.0325,280.1087,215.5487 M,0,129596,129606,280.1087,215.5487,273,218 M,0,129606,129617,273,218,280.1087,215.5487 M,0,129617,129628,280.1087,215.5487,287.4058,213.0325 M,0,129628,129639,287.4058,213.0325,294.7029,210.5162 M,0,129639,129649,294.7029,210.5162,302,208
Sprite,Foreground,Centre,"Assets\Effects\pixel.png",0,0 C,0,129735,,225,121,202 M,0,129735,129745,371,60,373.7932,67.19485 F,2,129735,130320,0.3,0 V,1,129735,130320,75,2000,20,2000 P,0,129735,130320,A M,0,129745,129756,373.7932,67.19485,376.5389,74.40622 M,0,129756,129767,376.5389,74.40622,379.1398,81.67126 M,0,129767,129777,379.1398,81.67126,381.5948,88.9872 M,0,129777,129788,381.5948,88.9872,383.903,96.35115 M,0,129788,129799,383.903,96.35115,386.0636,103.7603 M,0,129799,129810,386.0636,103.7603,388.0851,111.2095 M,0,129810,129820,388.0851,111.2095,389.9275,118.7049
Sprite,Foreground,Centre,"Assets\Effects\pixel.png",0,0 C,0,129907,,225,121,202 M,0,129907,129917,434,232,435.5399,224.4383 F,2,129907,130492,0.3,0 V,1,129907,130492,75,2000,20,2000 P,0,129907,130492,A M,0,129917,129928,435.5399,224.4383,437.16,216.8979 M,0,129928,129939,437.16,216.8979,439.0249,209.4137 M,0,129939,129949,439.0249,209.4137,441.1327,201.9935 M,0,129949,129960,441.1327,201.9935,443.4813,194.645 M,0,129960,129971,443.4813,194.645,446.0682,187.3758 M,0,129971,129982,446.0682,187.3758,448.8737,180.1854 M,0,129982,129992,448.8737,180.1854,451.953,173.108
Sprite,Foreground,Centre,"Assets\Effects\pixel.png",0,0 C,0,130078,,225,121,202 M,0,130078,130088,524,139,516.3099,139.6651 F,2,130078,130835,0.3,0 V,1,130078,130835,75,2000,20,2000 P,0,130078,130835,A M,0,130088,130099,516.3099,139.6651,508.6199,140.3302 M,0,130099,130110,508.6199,140.3302,500.9299,140.9953 M,0,130110,130120,500.9299,140.9953,493.2398,141.6603 M,0,130120,130131,493.2398,141.6603,485.5498,142.3254 M,0,130131,130142,485.5498,142.3254,477.8597,142.9905 M,0,130142,130153,477.8597,142.9905,470.1697,143.6556 M,0,130153,130163,470.1697,143.6556,462.4796,144.3207 M,0,130163,130174,462.4796,144.3207,454.7896,144.9858 M,0,130174,130185,454.7896,144.9858,447.0995,145.6508 M,0,130185,130195,447.0995,145.6508,439.4095,146.3159 M,0,130195,130206,439.4095,146.3159,431.7195,146.981 M,0,130206,130217,431.7195,146.981,424.0294,147.6461 M,0,130217,130228,424.0294,147.6461,416.3394,148.3112 M,0,130228,130238,416.3394,148.3112,408.6494,148.9763 M,0,130238,130249,408.6494,148.9763,400.9593,149.6414 M,0,130249,130260,400.9593,149.6414,393.2693,150.3064 M,0,130260,130270,393.2693,150.3064,385.5792,150.9715 M,0,130270,130281,385.5792,150.9715,377.8892,151.6366 M,0,130281,130292,377.8892,151.6366,370.1991,152.3017 M,0,130292,130303,370.1991,152.3017,362.5091,152.9668 M,0,130303,130313,362.5091,152.9668,354.819,153.6319 M,0,130313,130324,354.819,153.6319,347.129,154.297 M,0,130324,130335,347.129,154.297,339.439,154.962
Sprite,Foreground,Centre,"Assets\Effects\pixel.png",0,0 C,0,130421,,160,66,255 M,0,130421,130431,97,190,102.2308,184.3383 F,2,130421,131178,0.3,0 V,1,130421,131178,75,2000,20,2000 P,0,130421,131178,A M,0,130431,130442,102.2308,184.3383,107.6586,178.9 M,0,130442,130453,107.6586,178.9,113.5355,173.9498 M,0,130453,130463,113.5355,173.9498,119.8177,169.5245 M,0,130463,130474,119.8177,169.5245,126.4588,165.6571 M,0,130474,130485,126.4588,165.6571,133.4094,162.3766 M,0,130485,130496,133.4094,162.3766,140.6178,159.7073 M,0,130496,130506,140.6178,159.7073,148.0308,157.6693 M,0,130506,130517,148.0308,157.6693,155.5931,156.278 M,0,130517,130528,155.5931,156.278,163.2487,155.544 M,0,130528,130538,163.2487,155.544,170.9408,155.4729 M,0,130538,130549,170.9408,155.4729,178.6121,156.0657 M,0,130549,130560,178.6121,156.0657,186.2056,157.3182 M,0,130560,130571,186.2056,157.3182,193.6648,159.2215 M,0,130571,130581,193.6648,159.2215,200.9341,161.7619 M,0,130581,130592,200.9341,161.7619,207.9595,164.9208 M,0,130592,130603,207.9595,164.9208,214.6885,168.6753 M,0,130603,130613,214.6885,168.6753,221.0708,172.9978 M,0,130613,130624,221.0708,172.9978,227.0586,177.8565 M,0,130624,130635,227.0586,177.8565,232.6072,183.2159 M,0,130635,130646,232.6072,183.2159,237.3805,189.2683 M,0,130646,130656,237.3805,189.2683,241.8787,195.4973 M,0,130656,130667,241.8787,195.4973,245.8232,202.0912 M,0,130667,130678,245.8232,202.0912,249.4726,208.8809
Sprite,Foreground,Centre,"Assets\Effects\pixel.png",0,0 C,0,130764,,160,66,255 M,0,130764,130774,311,291,316.3037,296.5935 F,2,130764,131521,0.3,0 V,1,130764,131521,75,2000,20,2000 P,0,130764,131521,A M,0,130774,130785,316.3037,296.5935,321.8067,301.9565 M,0,130785,130796,321.8067,301.9565,327.753,306.8238 M,0,130796,130806,327.753,306.8238,334.0982,311.1588 M,0,130806,130817,334.0982,311.1588,340.7949,314.929 M,0,130817,130828,340.7949,314.929,347.7931,318.1063 M,0,130828,130839,347.7931,318.1063,355.0404,320.6667 M,0,130839,130849,355.0404,320.6667,362.4828,322.591 M,0,130849,130860,362.4828,322.591,370.0645,323.8646 M,0,130860,130871,370.0645,323.8646,377.729,324.4778 M,0,130871,130881,377.729,324.4778,385.419,324.426 M,0,130881,130892,385.419,324.426,393.0769,323.7092 M,0,130892,130903,393.0769,323.7092,400.6454,322.3325 M,0,130903,130914,400.6454,322.3325,408.068,320.3061 M,0,130914,130924,408.068,320.3061,415.2889,317.6448 M,0,130924,130935,415.2889,317.6448,422.2542,314.3682 M,0,130935,130946,422.2542,314.3682,428.9115,310.5006 M,0,130946,130956,428.9115,310.5006,435.2108,306.0706 M,0,130956,130967,435.2108,306.0706,441.105,301.111 M,0,130967,130978,441.105,301.111,446.5497,295.6587 M,0,130978,130989,446.5497,295.6587,451.5037,289.7542 M,0,130989,130999,451.5037,289.7542,455.9298,283.4414 M,0,130999,131010,455.9298,283.4414,459.8177,276.7768 M,0,131010,131021,459.8177,276.7768,463,270
Sprite,Foreground,Centre,"Assets\Effects\pixel.png",0,0 C,0,131107,,225,121,202 M,0,131107,131117,475,242,475.36,249.7101 F,2,131107,131778,0.3,0 V,1,131107,131778,75,2000,20,2000 P,0,131107,131778,A M,0,131117,131128,475.36,249.7101,475.7601,257.4178 M,0,131128,131139,475.7601,257.4178,476.253,265.1201 M,0,131139,131149,476.253,265.1201,476.8387,272.8159 M,0,131149,131160,476.8387,272.8159,477.5172,280.5041 M,0,131160,131171,477.5172,280.5041,478.2883,288.1836 M,0,131171,131182,478.2883,288.1836,479.1519,295.8533 M,0,131182,131192,479.1519,295.8533,480.1079,303.5121 M,0,131192,131203,480.1079,303.5121,481.1561,311.1588 M,0,131203,131214,481.1561,311.1588,482.2965,318.7923 M,0,131214,131224,482.2965,318.7923,483.5288,326.4117 M,0,131224,131235,483.5288,326.4117,484.8528,334.0156 M,0,131235,131246,484.8528,334.0156,486.2684,341.6031 M,0,131246,131257,486.2684,341.6031,487.7754,349.1732 M,0,131257,131267,487.7754,349.1732,489.3688,356.7256 M,0,131267,131278,489.3688,356.7256,491,364
Sprite,Foreground,Centre,"Assets\Effects\pixel.png",0,0 C,0,131449,,225,121,202 M,0,131449,131459,294,413,295.6409,405.4579 F,2,131449,132120,0.3,0 V,1,131449,132120,75,2000,20,2000 P,0,131449,132120,A M,0,131459,131470,295.6409,405.4579,297.2433,397.9081 M,0,131470,131481,297.2433,397.9081,298.7542,390.3394 M,0,131481,131491,298.7542,390.3394,300.1733,382.7529 M,0,131491,131502,300.1733,382.7529,301.5005,375.1498 M,0,131502,131513,301.5005,375.1498,302.7356,367.5311 M,0,131513,131524,302.7356,367.5311,303.8784,359.898 M,0,131524,131534,303.8784,359.898,304.9287,352.2516 M,0,131534,131545,304.9287,352.2516,305.8864,344.593 M,0,131545,131556,305.8864,344.593,306.7513,336.9233 M,0,131556,131566,306.7513,336.9233,307.5234,329.2436 M,0,131566,131577,307.5234,329.2436,308.2024,321.5551 M,0,131577,131588,308.2024,321.5551,308.7883,313.8587 M,0,131588,131599,308.7883,313.8587,309.2809,306.1558 M,0,131599,131609,309.2809,306.1558,309.6241,298.4449 M,0,131609,131620,309.6241,298.4449,309.9721,290.7343
Sprite,Foreground,Centre,"Assets\Effects\pixel.png",0,0 C,0,131792,,225,121,202 M,0,131792,131802,199,124,206.7048,123.5401 F,2,131792,132549,0.3,0 V,1,131792,132549,75,2000,20,2000 P,0,131792,132549,A M,0,131802,131813,206.7048,123.5401,214.3937,122.8648 M,0,131813,131824,214.3937,122.8648,222.0593,121.9632 M,0,131824,131834,222.0593,121.9632,229.6929,120.8221 M,0,131834,131845,229.6929,120.8221,237.2845,119.4291 M,0,131845,131856,237.2845,119.4291,244.8229,117.7722 M,0,131856,131867,244.8229,117.7722,252.2953,115.8397 M,0,131867,131877,252.2953,115.8397,259.6877,113.621 M,0,131877,131888,259.6877,113.621,266.9845,111.1055 M,0,131888,131899,266.9845,111.1055,274.1686,108.2845 M,0,131899,131909,274.1686,108.2845,281.222,105.1512 M,0,131909,131920,281.222,105.1512,288.1266,101.7023 M,0,131920,131931,288.1266,101.7023,294.8621,97.9339 M,0,131931,131942,294.8621,97.9339,301.411,93.84984 M,0,131942,131952,301.411,93.84984,306.692,90.87923 M,0,131952,131963,306.692,90.87923,304.2816,98.21155 M,0,131963,131974,304.2816,98.21155,302.1335,105.6249 M,0,131974,131984,302.1335,105.6249,300.256,113.1114 M,0,131984,131995,300.256,113.1114,298.6572,120.6623 M,0,131995,132006,298.6572,120.6623,297.3427,128.2678 M,0,132006,132017,297.3427,128.2678,296.3173,135.9177 M,0,132017,132027,296.3173,135.9177,295.5847,143.6011 M,0,132027,132038,295.5847,143.6011,295.1456,151.3069 M,0,132038,132049,295.1456,151.3069,295,159
Sprite,Foreground,Centre,"Assets\Effects\pixel.png",0,0 C,0,132135,,225,121,202 M,0,132135,132145,415,286,416.1509,278.3676 F,2,132135,132892,0.3,0 V,1,132135,132892,75,2000,20,2000 P,0,132135,132892,A M,0,132145,132156,416.1509,278.3676,417.3018,270.7351 M,0,132156,132167,417.3018,270.7351,418.4528,263.1026 M,0,132167,132177,418.4528,263.1026,419.6037,255.4702 M,0,132177,132188,419.6037,255.4702,420.7546,247.8377 M,0,132188,132199,420.7546,247.8377,421.9055,240.2052 M,0,132199,132210,421.9055,240.2052,423.0565,232.5728 M,0,132210,132220,423.0565,232.5728,424.2074,224.9403 M,0,132220,132231,424.2074,224.9403,425.3583,217.3078 M,0,132231,132242,425.3583,217.3078,426.5093,209.6754 M,0,132242,132252,426.5093,209.6754,427.6602,202.0429 M,0,132252,132263,427.6602,202.0429,428.8111,194.4105 M,0,132263,132274,428.8111,194.4105,429.962,186.778 M,0,132274,132285,429.962,186.778,431.113,179.1455 M,0,132285,132295,431.113,179.1455,432.2639,171.5131 M,0,132295,132306,432.2639,171.5131,433.4148,163.8806 M,0,132306,132317,433.4148,163.8806,431.8847,163.1499 M,0,132317,132327,431.8847,163.1499,427.5107,169.5096 M,0,132327,132338,427.5107,169.5096,423.0238,175.7901 M,0,132338,132349,423.0238,175.7901,418.3956,181.9672 M,0,132349,132360,418.3956,181.9672,413.5832,188.0015 M,0,132360,132370,413.5832,188.0015,408.5169,193.8237 M,0,132370,132381,408.5169,193.8237,403.071,199.2903 M,0,132381,132392,403.071,199.2903,397,204
Sprite,Foreground,Centre,"Assets\Effects\pixel.png",0,0 C,0,132478,,225,121,202 M,0,132478,132488,278,262,270.8428,264.7137 F,2,132478,133235,0.3,0 V,1,132478,133235,75,2000,20,2000 P,0,132478,133235,A M,0,132488,132499,270.8428,264.7137,264.1198,268.0549 M,0,132499,132510,264.1198,268.0549,258.264,272.7548 M,0,132510,132520,258.264,272.7548,253.5454,278.5977 M,0,132520,132531,253.5454,278.5977,250.1817,285.3151 M,0,132531,132542,250.1817,285.3151,248.3288,292.5986 M,0,132542,132553,248.3288,292.5986,248.0732,300.1131 M,0,132553,132563,248.0732,300.1131,249.4286,307.5129 M,0,132563,132574,249.4286,307.5129,252.3342,314.457 M,0,132574,132585,252.3342,314.457,256.6583,320.6248 M,0,132585,132595,256.6583,320.6248,262.2039,325.731 M,0,132595,132606,262.2039,325.731,268.7173,329.5385 M,0,132606,132617,268.7173,329.5385,275.9,331.8694 M,0,132617,132628,275.9,331.8694,283.4222,332.6133 M,0,132628,132638,283.4222,332.6133,290.9377,331.7326 M,0,132638,132649,290.9377,331.7326,298.0996,329.2642 M,0,132649,132660,298.0996,329.2642,304.5767,325.3181 M,0,132660,132670,304.5767,325.3181,310.0683,320.0727 M,0,132670,132681,310.0683,320.0727,314.318,313.7667 M,0,132681,132692,314.318,313.7667,317.1261,306.6882 M,0,132692,132703,317.1261,306.6882,318.3585,299.162 M,0,132703,132713,318.3585,299.162,317.9531,291.5345 M,0,132713,132724,317.9531,291.5345,316.0358,284.0853 M,0,132724,132735,316.0358,284.0853,313,278
Sprite,Foreground,Centre,"Assets\Effects\pixel.png",306,254 C,0,132821,,225,121,202 F,2,132821,133321,0.3,0 V,1,132821,133321,75,2000,20,2000 P,0,132821,133321,A
Sprite,Foreground,Centre,"Assets\Effects\pixel.png",384,364 C,0,132992,,225,121,202 F,2,132992,133492,0.3,0 V,1,132992,133492,75,2000,20,2000 P,0,132992,133492,A
Sprite,Foreground,Centre,"Assets\Effects\pixel.png",0,0 C,0,133164,,160,66,255 M,0,133164,133174,482,248,474.3383,247.0638 F,2,133164,133749,0.3,0 V,1,133164,133749,75,2000,20,2000 P,0,133164,133749,A M,0,133174,133185,474.3383,247.0638,466.6791,246.1096 M,0,133185,133196,466.6791,246.1096,459.0274,245.0974 M,0,133196,133206,459.0274,245.0974,451.3835,244.0272 M,0,133206,133217,451.3835,244.0272,443.7478,242.8989 M,0,133217,133228,443.7478,242.8989,436.1208,241.7129 M,0,133228,133239,436.1208,241.7129,428.5028,240.4704 M,0,133239,133249,428.5028,240.4704,420.8969,239.1551
Sprite,Foreground,Centre,"Assets\Effects\pixel.png",0,0 C,0,133335,,160,66,255 M,0,133335,133345,399,157,406.6116,158.2809 F,2,133335,133920,0.3,0 V,1,133335,133920,75,2000,20,2000 P,0,133335,133920,A M,0,133345,133356,406.6116,158.2809,414.226,159.5439 M,0,133356,133367,414.226,159.5439,421.8498,160.7491 M,0,133367,133377,421.8498,160.7491,429.4825,161.8964 M,0,133377,133388,429.4825,161.8964,437.1238,162.9858 M,0,133388,133399,437.1238,162.9858,444.7732,164.0172 M,0,133399,133410,444.7732,164.0172,452.4301,164.9921 M,0,133410,133420,452.4301,164.9921,460.096,165.8937
Sprite,Foreground,Centre,"Assets\Effects\pixel.png",539,176 C,0,133507,,160,66,255 F,2,133507,134007,0.3,0 V,1,133507,134007,75,2000,20,2000 P,0,133507,134007,A
Sprite,Foreground,Centre,"Assets\Effects\pixel.png",306,254 C,0,133678,,160,66,255 F,2,133678,134178,0.3,0 V,1,133678,134178,75,2000,20,2000 P,0,133678,134178,A
Sprite,Foreground,Centre,"Assets\Effects\pixel.png",0,0 C,0,133849,,225,121,202 M,0,133849,133859,343,84,335.3083,84.63997 F,2,133849,134434,0.3,0 V,1,133849,134434,75,2000,20,2000 P,0,133849,134434,A M,0,133859,133870,335.3083,84.63997,327.6206,85.31654 M,0,133870,133881,327.6206,85.31654,319.9441,86.1104 M,0,133881,133891,319.9441,86.1104,312.2804,87.02139 M,0,133891,133902,312.2804,87.02139,304.6312,88.04926 M,0,133902,133913,304.6312,88.04926,296.9983,89.19386 M,0,133913,133924,296.9983,89.19386,289.3827,90.45123 M,0,133924,133934,289.3827,90.45123,281.7925,91.85358
Sprite,Foreground,Centre,"Assets\Effects\pixel.png",0,0 C,0,134021,,225,121,202 M,0,134021,134031,260,175,267.5341,173.3265 F,2,134021,134606,0.3,0 V,1,134021,134606,75,2000,20,2000 P,0,134021,134606,A M,0,134031,134042,267.5341,173.3265,275.0792,171.7156 M,0,134042,134053,275.0792,171.7156,282.6621,170.2915 M,0,134053,134063,282.6621,170.2915,290.2783,169.0552 M,0,134063,134074,290.2783,169.0552,297.9231,168.0072 M,0,134074,134085,297.9231,168.0072,305.5922,167.1484 M,0,134085,134096,305.5922,167.1484,313.2803,166.4636 M,0,134096,134106,313.2803,166.4636,320.9849,166.0009
Sprite,Foreground,Centre,"Assets\Effects\pixel.png",399,157 C,0,134192,,225,121,202 F,2,134192,134692,0.3,0 V,1,134192,134692,75,2000,20,2000 P,0,134192,134692,A
Sprite,Foreground,Centre,"Assets\Effects\pixel.png",401,163 C,0,134278,,225,121,202 F,2,134278,134778,0.3,0 V,1,134278,134778,75,2000,20,2000 P,0,134278,134778,A
Sprite,Foreground,Centre,"Assets\Effects\pixel.png",404,169 C,0,134364,,225,121,202 F,2,134364,134864,0.3,0 V,1,134364,134864,75,2000,20,2000 P,0,134364,134864,A
Sprite,Foreground,Centre,"Assets\Effects\pixel.png",407,176 C,0,134449,,225,121,202 F,2,134449,134949,0.3,0 V,1,134449,134949,75,2000,20,2000 P,0,134449,134949,A
Sprite,Foreground,Centre,"Assets\Effects\pixel.png",410,183 C,0,134535,,160,66,255 F,2,134535,135035,0.3,0 V,1,134535,135035,75,2000,20,2000 P,0,134535,135035,A
Sprite,Foreground,Centre,"Assets\Effects\pixel.png",445,170 C,0,134620,,160,66,255 F,2,134620,135120,0.3,0 V,1,134620,135120,75,2000,20,2000 P,0,134620,135120,A
Sprite,Foreground,Centre,"Assets\Effects\pixel.png",483,177 C,0,134706,,160,66,255 F,2,134706,135206,0.3,0 V,1,134706,135206,75,2000,20,2000 P,0,134706,135206,A
Sprite,Foreground,Centre,"Assets\Effects\pixel.png",512,201 C,0,134792,,160,66,255 F,2,134792,135292,0.3,0 V,1,134792,135292,75,2000,20,2000 P,0,134792,135292,A
Sprite,Foreground,Centre,"Assets\Effects\pixel.png",525,237 C,0,134877,,160,66,255 F,2,134877,135377,0.3,0 V,1,134877,135377,75,2000,20,2000 P,0,134877,135377,A
Sprite,Foreground,Centre,"Assets\Effects\pixel.png",518,275 C,0,134963,,160,66,255 F,2,134963,135463,0.3,0 V,1,134963,135463,75,2000,20,2000 P,0,134963,135463,A
Sprite,Foreground,Centre,"Assets\Effects\pixel.png",493,304 C,0,135049,,160,66,255 F,2,135049,135549,0.3,0 V,1,135049,135549,75,2000,20,2000 P,0,135049,135549,A
Sprite,Foreground,Centre,"Assets\Effects\pixel.png",457,316 C,0,135135,,160,66,255 F,2,135135,135635,0.3,0 V,1,135135,135635,75,2000,20,2000 P,0,135135,135635,A
Sprite,Foreground,Centre,"Assets\Effects\pixel.png",419,309 C,0,135221,,160,66,255 F,2,135221,135721,0.3,0 V,1,135221,135721,75,2000,20,2000 P,0,135221,135721,A
Sprite,Foreground,Centre,"Assets\Effects\pixel.png",216,173 C,0,135392,,160,66,255 F,2,135392,135892,0.3,0 V,1,135392,135892,75,2000,20,2000 P,0,135392,135892,A
Sprite,Foreground,Centre,"Assets\Effects\pixel.png",304,345 C,0,135564,,160,66,255 F,2,135564,136064,0.3,0 V,1,135564,136064,75,2000,20,2000 P,0,135564,136064,A
Sprite,Foreground,Centre,"Assets\Effects\pixel.png",410,183 C,0,135735,,160,66,255 F,2,135735,136235,0.3,0 V,1,135735,136235,75,2000,20,2000 P,0,135735,136235,A
Sprite,Foreground,Centre,"Assets\Effects\colorhax.png",323,158 F,2,56364,56864,1,0 S,2,56364,56864,1,0.2 P,0,56364,56864,A
Sprite,Foreground,Centre,"Assets\Effects\colorhax.png",354,201 F,2,56449,56949,1,0 S,2,56449,56949,1,0.2 P,0,56449,56949,A
Sprite,Foreground,Centre,"Assets\Effects\colorhax.png",311,232 F,2,56535,57035,1,0 S,2,56535,57035,1,0.2 P,0,56535,57035,A
Sprite,Foreground,Centre,"Assets\Effects\colorhax.png",342,275 F,2,56620,57120,1,0 S,2,56620,57120,1,0.2 P,0,56620,57120,A
Sprite,Foreground,Centre,"Assets\Effects\colorhax.png",465,71 F,2,61849,62349,1,0 S,2,61849,62349,1,0.2 P,0,61849,62349,A
Sprite,Foreground,Centre,"Assets\Effects\colorhax.png",172,215 F,2,62021,62521,1,0 S,2,62021,62521,1,0.2 P,0,62021,62521,A
Sprite,Foreground,Centre,"Assets\Effects\colorhax.png",446,183 F,2,62192,62692,1,0 S,2,62192,62692,1,0.2 P,0,62192,62692,A
Sprite,Foreground,Centre,"Assets\Effects\colorhax.png",222,121 F,2,62364,62864,1,0 S,2,62364,62864,1,0.2 P,0,62364,62864,A
Sprite,Foreground,Centre,"Assets\Effects\colorhax.png",427,295 F,2,62535,63035,1,0 S,2,62535,63035,1,0.2 P,0,62535,63035,A
Sprite,Foreground,Centre,"Assets\Effects\colorhax.png",171,389 F,2,62707,63207,1,0 S,2,62707,63207,1,0.2 P,0,62707,63207,A
Sprite,Foreground,Centre,"Assets\Effects\colorhax.png",408,407 F,2,62878,63378,1,0 S,2,62878,63378,1,0.2 P,0,62878,63378,A
Sprite,Foreground,Centre,"Assets\Effects\colorhax.png",0,0 M,0,63049,63059,221,295,226.8876,295.7679 F,2,63049,63634,1,0 S,2,63049,63634,1,0.2 P,0,63049,63634,A M,0,63059,63070,226.8876,295.7679,232.7753,296.5359 M,0,63070,63081,232.7753,296.5359,238.6629,297.3038 M,0,63081,63091,238.6629,297.3038,244,298 M,0,63091,63102,244,298,238.6629,297.3038 M,0,63102,63113,238.6629,297.3038,232.7753,296.5359 M,0,63113,63123,232.7753,296.5359,226.8876,295.7679 M,0,63123,63134,226.8876,295.7679,221,295
Sprite,Foreground,Centre,"Assets\Effects\colorhax.png",0,0 M,0,63221,63231,376,168,373.9212,173.5602 F,2,63221,63806,1,0 S,2,63221,63806,1,0.2 P,0,63221,63806,A M,0,63231,63242,373.9212,173.5602,371.763,179.0889 M,0,63242,63253,371.763,179.0889,369.8938,184.7231 M,0,63253,63263,369.8938,184.7231,368.031,190.3557 M,0,63263,63274,368.031,190.3557,366.2538,196.02 M,0,63274,63285,366.2538,196.02,364.8113,201.7781 M,0,63285,63295,364.8113,201.7781,363.2665,207.5107 M,0,63295,63306,363.2665,207.5107,362,213
Sprite,Foreground,Centre,"Assets\Effects\colorhax.png",0,0 M,0,63392,63402,341,339,339.6684,333.215 F,2,63392,63977,1,0 S,2,63392,63977,1,0.2 P,0,63392,63977,A M,0,63402,63413,339.6684,333.215,338.3429,327.4309 M,0,63413,63424,338.3429,327.4309,336.8877,321.6762 M,0,63424,63434,336.8877,321.6762,335.1593,315.9971 M,0,63434,63445,335.1593,315.9971,333.3794,310.3372 M,0,63445,63456,333.3794,310.3372,331.4727,304.7176 M,0,63456,63466,331.4727,304.7176,329.4625,299.1308 M,0,63466,63477,329.4625,299.1308,327.2496,293.6214
Sprite,Foreground,Centre,"Assets\Effects\colorhax.png",0,0 M,0,63564,63574,230,211,235.8897,211.7519 F,2,63564,64149,1,0 S,2,63564,64149,1,0.2 P,0,63564,64149,A M,0,63574,63585,235.8897,211.7519,241.7794,212.5038 M,0,63585,63596,241.7794,212.5038,247.6691,213.2556 M,0,63596,63606,247.6691,213.2556,253.5588,214.0075 M,0,63606,63617,253.5588,214.0075,259.4485,214.7594 M,0,63617,63628,259.4485,214.7594,265.3382,215.5113 M,0,63628,63638,265.3382,215.5113,271.2279,216.2631 M,0,63638,63649,271.2279,216.2631,277,217
Sprite,Foreground,Centre,"Assets\Effects\colorhax.png",518,242 F,2,63735,64235,1,0 S,2,63735,64235,1,0.2 P,0,63735,64235,A
Sprite,Foreground,Centre,"Assets\Effects\colorhax.png",0,0 M,0,64078,64088,64,389,66.7738,383.7509 F,2,64078,64920,1,0 S,2,64078,64920,1,0.2 P,0,64078,64920,A M,0,64088,64099,66.7738,383.7509,69.29587,378.3763 M,0,64099,64110,69.29587,378.3763,71.57727,372.8951 M,0,64110,64120,71.57727,372.8951,73.6326,367.3252 M,0,64120,64131,73.6326,367.3252,75.47263,361.6803 M,0,64131,64142,75.47263,361.6803,77.11347,355.9744 M,0,64142,64152,77.11347,355.9744,78.5663,350.2177 M,0,64152,64163,78.5663,350.2177,79.84415,344.4195 M,0,64163,64174,79.84415,344.4195,80.95853,338.5877 M,0,64174,64185,80.95853,338.5877,81.91956,332.7287 M,0,64185,64195,81.91956,332.7287,82.73839,326.8481 M,0,64195,64206,82.73839,326.8481,83.42307,320.9503 M,0,64206,64217,83.42307,320.9503,83.98289,315.0394 M,0,64217,64227,83.98289,315.0394,84.425,309.1185 M,0,64227,64238,84.425,309.1185,84.75771,303.1904 M,0,64238,64249,84.75771,303.1904,84.98677,297.2574 M,0,64249,64260,84.98677,297.2574,85.11944,291.3215 M,0,64260,64270,85.11944,291.3215,85.15987,285.3842 M,0,64270,64281,85.15987,285.3842,85.11334,279.4469 M,0,64281,64292,85.11334,279.4469,85.29172,274.3929 M,0,64292,64302,85.29172,274.3929,88.8006,279.1826 M,0,64302,64313,88.8006,279.1826,92.24154,284.0214 M,0,64313,64324,92.24154,284.0214,95.60419,288.9148 M,0,64324,64335,95.60419,288.9148,98.87545,293.8697 M,0,64335,64345,98.87545,293.8697,102.0378,298.8948 M,0,64345,64356,102.0378,298.8948,105.0687,304.0002 M,0,64356,64367,105.0687,304.0002,107.9367,309.1987 M,0,64367,64377,107.9367,309.1987,110.5971,314.5063 M,0,64377,64388,110.5971,314.5063,112.9833,319.9423 M,0,64388,64399,112.9833,319.9423,114.9894,325.5289 M,0,64399,64410,114.9894,325.5289,116.4353,331.284 M,0,64410,64420,116.4353,331.284,117,337
Sprite,Foreground,Centre,"Assets\Effects\colorhax.png",140,410 F,2,64592,65092,1,0 S,2,64592,65092,1,0.2 P,0,64592,65092,A
Sprite,Foreground,Centre,"Assets\Effects\colorhax.png",0,0 M,0,99907,99917,147,254,148.7128,260.9159 F,2,99907,100578,1,0 S,2,99907,100578,1,0.2 P,0,99907,100578,A M,0,99917,99928,148.7128,260.9159,150.4014,267.8372 M,0,99928,99939,150.4014,267.8372,152.0153,274.7764 M,0,99939,99949,152.0153,274.7764,153.5541,281.7328 M,0,99949,99960,153.5541,281.7328,155.0178,288.7054 M,0,99960,99971,155.0178,288.7054,156.4062,295.6935 M,0,99971,99982,156.4062,295.6935,157.7192,302.6964 M,0,99982,99992,157.7192,302.6964,158.9006,309.7226 M,0,99992,100003,158.9006,309.7226,160.0486,316.7538 M,0,100003,100014,160.0486,316.7538,161.1207,323.7971 M,0,100014,100024,161.1207,323.7971,162.1167,330.8515 M,0,100024,100035,162.1167,330.8515,163.0365,337.9164 M,0,100035,100046,163.0365,337.9164,163.8801,344.991 M,0,100046,100057,163.8801,344.991,164.6473,352.0743 M,0,100057,100067,164.6473,352.0743,165.34,359.1655 M,0,100067,100078,165.34,359.1655,165.9381,366.2653
Sprite,Foreground,Centre,"Assets\Effects\colorhax.png",169.5584,370.5584 F,2,100164,100664,1,0 S,2,100164,100664,1,0.2 P,0,100164,100664,A
Sprite,Foreground,Centre,"Assets\Effects\colorhax.png",173.1168,374.1168 F,2,100249,100749,1,0 S,2,100249,100749,1,0.2 P,0,100249,100749,A
Sprite,Foreground,Centre,"Assets\Effects\colorhax.png",302,208 F,2,100421,100921,1,0 S,2,100421,100921,1,0.2 P,0,100421,100921,A
Sprite,Foreground,Centre,"Assets\Effects\colorhax.png",311,291 F,2,100592,101092,1,0 S,2,100592,101092,1,0.2 P,0,100592,101092,A
Sprite,Foreground,Centre,"Assets\Effects\colorhax.png",157,139 F,2,100764,101264,1,0 S,2,100764,101264,1,0.2 P,0,100764,101264,A
Sprite,Foreground,Centre,"Assets\Effects\colorhax.png",352,219 F,2,100936,101436,1,0 S,2,100936,101436,1,0.2 P,0,100936,101436,A
Sprite,Foreground,Centre,"Assets\Effects\colorhax.png",276,252 F,2,101107,101607,1,0 S,2,101107,101607,1,0.2 P,0,101107,101607,A
Sprite,Foreground,Centre,"Assets\Effects\colorhax.png",372,60 F,2,101278,101778,1,0 S,2,101278,101778,1,0.2 P,0,101278,101778,A
Sprite,Foreground,Centre,"Assets\Effects\colorhax.png",357,270 F,2,101450,101950,1,0 S,2,101450,101950,1,0.2 P,0,101450,101950,A
Sprite,Foreground,Centre,"Assets\Effects\colorhax.png",302,208 F,2,101621,102121,1,0 S,2,101621,102121,1,0.2 P,0,101621,102121,A
Sprite,Foreground,Centre,"Assets\Effects\colorhax.png",514,241 F,2,101792,102292,1,0 S,2,101792,102292,1,0.2 P,0,101792,102292,A
Sprite,Foreground,Centre,"Assets\Effects\colorhax.png",311,291 F,2,101964,102464,1,0 S,2,101964,102464,1,0.2 P,0,101964,102464,A
Sprite,Foreground,Centre,"Assets\Effects\colorhax.png",0,0 M,0,102135,102145,352,219,351.2668,211.9128 F,2,102135,102720,1,0 S,2,102135,102720,1,0.2 P,0,102135,102720,A M,0,102145,102156,351.2668,211.9128,350.5337,204.8256 M,0,102156,102167,350.5337,204.8256,349.8005,197.7385 M,0,102167,102177,349.8005,197.7385,349.0674,190.6513 M,0,102177,102188,349.0674,190.6513,349.8005,197.7385 M,0,102188,102199,349.8005,197.7385,350.5337,204.8256 M,0,102199,102210,350.5337,204.8256,351.2668,211.9128 M,0,102210,102220,351.2668,211.9128,352,219
Sprite,Foreground,Centre,"Assets\Effects\colorhax.png",0,0 M,0,102307,102317,378,413,371.1482,411.0502 F,2,102307,102892,1,0 S,2,102307,102892,1,0.2 P,0,102307,102892,A M,0,102317,102328,371.1482,411.0502,364.2802,409.169 M,0,102328,102339,364.2802,409.169,357.3622,407.48 M,0,102339,102349,357.3622,407.48,350.3995,405.9843 M,0,102349,102360,350.3995,405.9843,343.3973,404.6833 M,0,102360,102371,343.3973,404.6833,336.3611,403.5779 M,0,102371,102382,336.3611,403.5779,329.2983,402.6421 M,0,102382,102392,329.2983,402.6421,323,402
Sprite,Foreground,Centre,"Assets\Effects\colorhax.png",0,0 M,0,102478,102488,179,336,174.6765,336.9496 F,2,102478,103406,1,0 S,2,102478,103406,1,0.2 P,0,102478,103406,A M,0,102488,102499,174.6765,336.9496,170.5025,338.5205 M,0,102499,102510,170.5025,338.5205,166.0775,338.6395 M,0,102510,102520,166.0775,338.6395,161.6916,339.2623 M,0,102520,102531,161.6916,339.2623,157.3233,338.5464 M,0,102531,102542,157.3233,338.5464,152.9327,338.2024 M,0,102542,102553,152.9327,338.2024,148.7772,336.6772 M,0,102553,102563,148.7772,336.6772,144.588,335.3916 M,0,102563,102574,144.588,335.3916,140.7938,333.1115 M,0,102574,102585,140.7938,333.1115,137.0014,330.9521 M,0,102585,102595,137.0014,330.9521,133.7041,327.9987 M,0,102595,102606,133.7041,327.9987,130.4849,325.0728 M,0,102606,102617,130.4849,325.0728,127.2776,321.964 M,0,102617,102628,127.2776,321.964,125.3056,318.0009 M,0,102628,102638,125.3056,318.0009,122.8664,314.2958 M,0,102638,102649,122.8664,314.2958,121.6755,310.0324 M,0,102649,102660,121.6755,310.0324,120.1098,305.9106 M,0,102660,102670,120.1098,305.9106,119.7426,301.4993 M,0,102670,102681,119.7426,301.4993,119.1152,297.158 M,0,102681,102692,119.1152,297.158,119.5847,292.7564 M,0,102692,102703,119.5847,292.7564,119.9177,288.4016 M,0,102703,102713,119.9177,288.4016,121.2071,284.167 M,0,102713,102724,121.2071,284.167,122.4783,280.0038 M,0,102724,102735,122.4783,280.0038,123.9227,275.7698 M,0,102735,102745,123.9227,275.7698,126.6862,272.3118 M,0,102745,102756,126.6862,272.3118,128.9985,268.5189 M,0,102756,102767,128.9985,268.5189,132.3635,265.6429 M,0,102767,102778,132.3635,265.6429,135.4257,262.4631 M,0,102778,102788,135.4257,262.4631,139.2718,260.2717 M,0,102788,102799,139.2718,260.2717,142.933,257.848 M,0,102799,102810,142.933,257.848,147.1228,256.4196 M,0,102810,102820,147.1228,256.4196,151.206,254.8591 M,0,102820,102831,151.206,254.8591,155.5898,254.2448 M,0,102831,102842,155.5898,254.2448,159.8997,253.6153 M,0,102842,102853,159.8997,253.6153,164.3523,253.1134 M,0,102853,102863,164.3523,253.1134,168.6526,254.1631 M,0,102863,102874,168.6526,254.1631,173.076,254.6354 M,0,102874,102885,173.076,254.6354,177.1019,256.4756 M,0,102885,102895,177.1019,256.4756,181.3827,257.7583 M,0,102895,102906,181.3827,257.7583,185.2339,259.9808
Sprite,Foreground,Centre,"Assets\Effects\colorhax.png",0,0 M,0,102992,103002,206,266,213.0845,266.759 F,2,102992,103534,1,0 S,2,102992,103534,1,0.2 P,0,102992,103534,A M,0,103002,103013,213.0845,266.759,220.1689,267.5181 M,0,103013,103024,220.1689,267.5181,227.2534,268.2772 M,0,103024,103034,227.2534,268.2772,234,269
Sprite,Foreground,Centre,"Assets\Effects\colorhax.png",0,0 M,0,103507,103517,470,187,462.9128,187.7332 F,2,103507,104049,1,0 S,2,103507,104049,1,0.2 P,0,103507,104049,A M,0,103517,103528,462.9128,187.7332,455.8257,188.4663 M,0,103528,103539,455.8257,188.4663,448.7385,189.1995 M,0,103539,103549,448.7385,189.1995,441.6513,189.9326
Sprite,Foreground,Centre,"Assets\Effects\colorhax.png",0,0 M,0,104021,104031,127,135,134.0844,135.759 F,2,104021,104563,1,0 S,2,104021,104563,1,0.2 P,0,104021,104563,A M,0,104031,104042,134.0844,135.759,141.1689,136.5181 M,0,104042,104053,141.1689,136.5181,148.2534,137.2771 M,0,104053,104063,148.2534,137.2771,155,138
Sprite,Foreground,Centre,"Assets\Effects\colorhax.png",0,0 M,0,104535,104545,544,361,536.9128,361.7332 F,2,104535,105077,1,0 S,2,104535,105077,1,0.2 P,0,104535,105077,A M,0,104545,104556,536.9128,361.7332,529.8257,362.4663 M,0,104556,104567,529.8257,362.4663,522.7385,363.1995 M,0,104567,104577,522.7385,363.1995,515.6512,363.9326
Sprite,Foreground,Centre,"Assets\Effects\colorhax.png",441,370 F,2,104707,105207,1,0 S,2,104707,105207,1,0.2 P,0,104707,105207,A
Sprite,Foreground,Centre,"Assets\Effects\colorhax.png",0,0 M,0,105049,105059,294,333,295.4464,326.0233 F,2,105049,105891,1,0 S,2,105049,105891,1,0.2 P,0,105049,105891,A M,0,105059,105070,295.4464,326.0233,296.8864,319.0454 M,0,105070,105081,296.8864,319.0454,298.32,312.0661 M,0,105081,105091,298.32,312.0661,299.7474,305.0856 M,0,105091,105102,299.7474,305.0856,301.1685,298.1037 M,0,105102,105113,301.1685,298.1037,302.5834,291.1206 M,0,105113,105124,302.5834,291.1206,303.9921,284.1363 M,0,105124,105134,303.9921,284.1363,305.3945,277.1506 M,0,105134,105145,305.3945,277.1506,306.7908,270.1638 M,0,105145,105156,306.7908,270.1638,308.181,263.1757 M,0,105156,105166,308.181,263.1757,309.565,256.1865 M,0,105166,105177,309.565,256.1865,310.943,249.196 M,0,105177,105188,310.943,249.196,312.3149,242.2043 M,0,105188,105199,312.3149,242.2043,313.6808,235.2114 M,0,105199,105209,313.6808,235.2114,315.0407,228.2174 M,0,105209,105220,315.0407,228.2174,316.3947,221.2222 M,0,105220,105231,316.3947,221.2222,317.7427,214.2259 M,0,105231,105241,317.7427,214.2259,319.0847,207.2284 M,0,105241,105252,319.0847,207.2284,320.4209,200.2298 M,0,105252,105263,320.4209,200.2298,321.7512,193.2301 M,0,105263,105274,321.7512,193.2301,323.0756,186.2293 M,0,105274,105284,323.0756,186.2293,324.3942,179.2274 M,0,105284,105295,324.3942,179.2274,326.9386,179.3162 M,0,105295,105306,326.9386,179.3162,330.5864,185.4366 M,0,105306,105316,330.5864,185.4366,334.304,191.5148 M,0,105316,105327,334.304,191.5148,338.0935,197.5484 M,0,105327,105338,338.0935,197.5484,341.9576,203.5345 M,0,105338,105349,341.9576,203.5345,345.8986,209.4703 M,0,105349,105359,345.8986,209.4703,349.9194,215.3523 M,0,105359,105370,349.9194,215.3523,354.0225,221.1772 M,0,105370,105381,354.0225,221.1772,358.2108,226.9411 M,0,105381,105391,358.2108,226.9411,362,232
Sprite,Foreground,Centre,"Assets\Effects\colorhax.png",381,310 F,2,105564,106064,1,0 S,2,105564,106064,1,0.2 P,0,105564,106064,A
Sprite,Foreground,Centre,"Assets\Effects\colorhax.png",0,0 M,0,105735,105745,242,398,234.9418,397.0265 F,2,105735,106277,1,0 S,2,105735,106277,1,0.2 P,0,105735,106277,A M,0,105745,105756,234.9418,397.0265,227.8837,396.0529 M,0,105756,105767,227.8837,396.0529,220.8255,395.0794 M,0,105767,105777,220.8255,395.0794,213.7673,394.1058
Sprite,Foreground,Centre,"Assets\Effects\colorhax.png",0,0 M,0,106249,106259,441,134,448.0844,134.759 F,2,106249,106791,1,0 S,2,106249,106791,1,0.2 P,0,106249,106791,A M,0,106259,106270,448.0844,134.759,455.1689,135.5181 M,0,106270,106281,455.1689,135.5181,462.2534,136.2771 M,0,106281,106291,462.2534,136.2771,469,137
Sprite,Foreground,Centre,"Assets\Effects\colorhax.png",0,0 M,0,106764,106774,163,173,155.9418,172.0265 F,2,106764,107306,1,0 S,2,106764,107306,1,0.2 P,0,106764,107306,A M,0,106774,106785,155.9418,172.0265,148.8837,171.0529 M,0,106785,106796,148.8837,171.0529,141.8255,170.0794 M,0,106796,106806,141.8255,170.0794,134.7673,169.1058
Sprite,Foreground,Centre,"Assets\Effects\colorhax.png",0,0 M,0,107278,107288,426,375,433.0844,375.7591 F,2,107278,107820,1,0 S,2,107278,107820,1,0.2 P,0,107278,107820,A M,0,107288,107299,433.0844,375.7591,440.1689,376.5181 M,0,107299,107310,440.1689,376.5181,447.2534,377.2772 M,0,107310,107320,447.2534,377.2772,454,378
Sprite,Foreground,Centre,"Assets\Effects\colorhax.png",528,390 F,2,107449,107949,1,0 S,2,107449,107949,1,0.2 P,0,107449,107949,A
Sprite,Foreground,Centre,"Assets\Effects\colorhax.png",385,300 F,2,107621,108121,1,0 S,2,107621,108121,1,0.2 P,0,107621,108121,A
Sprite,Foreground,Centre,"Assets\Effects\colorhax.png",455,260 F,2,107792,108292,1,0 S,2,107792,108292,1,0.2 P,0,107792,108292,A
Sprite,Foreground,Centre,"Assets\Effects\colorhax.png",331,359 F,2,107964,108464,1,0 S,2,107964,108464,1,0.2 P,0,107964,108464,A
Sprite,Foreground,Centre,"Assets\Effects\colorhax.png",326,243 F,2,108135,108635,1,0 S,2,108135,108635,1,0.2 P,0,108135,108635,A
Sprite,Foreground,Centre,"Assets\Effects\colorhax.png",426,375 F,2,108307,108807,1,0 S,2,108307,108807,1,0.2 P,0,108307,108807,A
Sprite,Foreground,Centre,"Assets\Effects\colorhax.png",0,0 M,0,108478,108488,254,391,253.0265,383.9418 F,2,108478,109020,1,0 S,2,108478,109020,1,0.2 P,0,108478,109020,A M,0,108488,108499,253.0265,383.9418,252.0529,376.8836 M,0,108499,108510,252.0529,376.8836,251.0794,369.8255 M,0,108510,108520,251.0794,369.8255,250.1058,362.7673
Sprite,Foreground,Centre,"Assets\Effects\colorhax.png",0,0 M,0,108993,109003,485,143,483.9924,150.0534 F,2,108993,109535,1,0 S,2,108993,109535,1,0.2 P,0,108993,109535,A M,0,109003,109014,483.9924,150.0534,482.9847,157.1068 M,0,109014,109025,482.9847,157.1068,481.9771,164.1602 M,0,109025,109035,481.9771,164.1602,481,171
Sprite,Foreground,Centre,"Assets\Effects\colorhax.png",236,256 F,2,109335,109835,1,0 S,2,109335,109835,1,0.2 P,0,109335,109835,A
Sprite,Foreground,Centre,"Assets\Effects\colorhax.png",0,0 M,0,109507,109517,226,182,225.0265,174.9418 F,2,109507,110049,1,0 S,2,109507,110049,1,0.2 P,0,109507,110049,A M,0,109517,109528,225.0265,174.9418,224.0529,167.8837 M,0,109528,109539,224.0529,167.8837,223.0794,160.8255 M,0,109539,109549,223.0794,160.8255,222.1058,153.7673
Sprite,Foreground,Centre,"Assets\Effects\colorhax.png",212,79 F,2,109678,110178,1,0 S,2,109678,110178,1,0.2 P,0,109678,110178,A
Sprite,Foreground,Centre,"Assets\Effects\colorhax.png",0,0 M,0,110021,110031,513,283,511.9924,290.0534 F,2,110021,110563,1,0 S,2,110021,110563,1,0.2 P,0,110021,110563,A M,0,110031,110042,511.9924,290.0534,510.9847,297.1068 M,0,110042,110053,510.9847,297.1068,509.9771,304.1602 M,0,110053,110063,509.9771,304.1602,509,311
Sprite,Foreground,Centre,"Assets\Effects\colorhax.png",499,386 F,2,110193,110693,1,0 S,2,110193,110693,1,0.2 P,0,110193,110693,A
Sprite,Foreground,Centre,"Assets\Effects\colorhax.png",0,0 M,0,110535,110545,268,252,271.7405,255.7881 F,2,110535,111549,1,0 S,2,110535,111549,1,0.2 P,0,110535,111549,A M,0,110545,110556,271.7405,255.7881,275.3081,259.7058 M,0,110556,110567,275.3081,259.7058,279.5732,262.8919 M,0,110567,110577,279.5732,262.8919,283.8966,265.9017 M,0,110577,110588,283.8966,265.9017,288.457,268.6033 M,0,110588,110599,288.457,268.6033,293.4735,270.3854 M,0,110599,110610,293.4735,270.3854,298.4896,271.997 M,0,110610,110620,298.4896,271.997,303.6432,273.2444 M,0,110620,110631,303.6432,273.2444,308.9623,273.4632 M,0,110631,110642,308.9623,273.4632,314.2312,273.5346 M,0,110642,110652,314.2312,273.5346,319.526,273.2174 M,0,110652,110663,319.526,273.2174,324.6719,271.8531 M,0,110663,110674,324.6719,271.8531,329.7313,270.3779 M,0,110674,110685,329.7313,270.3779,334.7026,268.5227 M,0,110685,110695,334.7026,268.5227,339.2149,265.6975 M,0,110695,110706,339.2149,265.6975,343.6209,262.8044 M,0,110706,110717,343.6209,262.8044,347.8322,259.573 M,0,110717,110727,347.8322,259.573,351.307,255.5397 M,0,110727,110738,351.307,255.5397,354.6727,251.4822 M,0,110738,110749,354.6727,251.4822,357.7537,247.1571 M,0,110749,110760,357.7537,247.1571,359.8802,242.2766 M,0,110760,110770,359.8802,242.2766,361.9101,237.4103 M,0,110770,110781,361.9101,237.4103,363.5893,232.3703 M,0,110781,110792,363.5893,232.3703,364.1772,227.0792 M,0,110792,110802,364.1772,227.0792,364.6927,221.8308 M,0,110802,110813,364.6927,221.8308,364.8217,216.5179 M,0,110813,110824,364.8217,216.5179,363.8185,211.2896 M,0,110824,110835,363.8185,211.2896,362.7736,206.1195 M,0,110835,110845,362.7736,206.1195,361.3398,200.9998 M,0,110845,110856,361.3398,200.9998,358.8351,196.3021 M,0,110856,110867,358.8351,196.3021,356.3212,191.664 M,0,110867,110877,356.3212,191.664,353.4491,187.1871 M,0,110877,110888,353.4491,187.1871,349.6671,183.4404 M,0,110888,110899,349.6671,183.4404,345.9039,179.7414 M,0,110899,110910,345.9039,179.7414,341.8445,176.301 M,0,110910,110920,341.8445,176.301,337.1236,173.8404 M,0,110920,110931,337.1236,173.8404,332.4409,171.4056 M,0,110931,110942,332.4409,171.4056,327.5495,169.3046 M,0,110942,110952,327.5495,169.3046,322.312,168.3504 M,0,110952,110963,322.312,168.3504,317.1204,167.3938 M,0,110963,110974,317.1204,167.3938,311.8257,166.8179 M,0,110974,110985,311.8257,166.8179,306.5404,167.4554 M,0,110985,110995,306.5404,167.4554,301.295,168.0618 M,0,110995,111006,301.295,168.0618,296.0617,169.0629 M,0,111006,111017,296.0617,169.0629,291.2013,171.2351 M,0,111017,111027,291.2013,171.2351,286.3625,173.352 M,0,111027,111038,286.3625,173.352,281.5979,175.7843 M,0,111038,111049,281.5979,175.7843,277.3333,178.996
Sprite,Foreground,Centre,"Assets\Effects\colorhax.png",0,0 M,0,111221,111231,223,317,223.9735,324.0582 F,2,111221,111763,1,0 S,2,111221,111763,1,0.2 P,0,111221,111763,A M,0,111231,111242,223.9735,324.0582,224.9471,331.1164 M,0,111242,111253,224.9471,331.1164,225.9206,338.1745 M,0,111253,111263,225.9206,338.1745,226.8942,345.2327
Sprite,Foreground,Centre,"Assets\Effects\colorhax.png",0,0 M,0,111735,111745,427,248,428.2303,236.1889 F,2,111735,112277,1,0 S,2,111735,112277,1,0.2 P,0,111735,112277,A M,0,111745,111756,428.2303,236.1889,429.4606,224.3778 M,0,111756,111767,429.4606,224.3778,430.691,212.5667 M,0,111767,111777,430.691,212.5667,431.9213,200.7556
Sprite,Foreground,Centre,"Assets\Effects\colorhax.png",0,0 M,0,112249,112259,120,111,122.0308,127.5005 F,2,112249,112791,1,0 S,2,112249,112791,1,0.2 P,0,112249,112791,A M,0,112259,112270,122.0308,127.5005,124.0617,144.001 M,0,112270,112281,124.0617,144.001,126.0925,160.5015 M,0,112281,112291,126.0925,160.5015,128,176
Sprite,Foreground,Centre,"Assets\Effects\colorhax.png",0,0 M,0,112764,112774,503,386,505.7119,364.7977 F,2,112764,113306,1,0 S,2,112764,113306,1,0.2 P,0,112764,113306,A M,0,112774,112785,505.7119,364.7977,508.4238,343.5955 M,0,112785,112796,508.4238,343.5955,511.1357,322.3932 M,0,112796,112806,511.1357,322.3932,513.8477,301.1909
Sprite,Foreground,Centre,"Assets\Effects\colorhax.png",527,222 F,2,112936,113436,1,0 S,2,112936,113436,1,0.2 P,0,112936,113436,A
Sprite,Foreground,Centre,"Assets\Effects\colorhax.png",0,0 M,0,113278,113288,261,107,265.3751,114.7572 F,2,113278,113863,1,0 S,2,113278,113863,1,0.2 P,0,113278,113863,A M,0,113288,113299,265.3751,114.7572,269.5502,122.6238 M,0,113299,113310,269.5502,122.6238,273.5224,130.5946 M,0,113310,113320,273.5224,130.5946,277.2892,138.6645 M,0,113320,113331,277.2892,138.6645,280.8481,146.8282 M,0,113331,113342,280.8481,146.8282,284.1969,155.0802 M,0,113342,113353,284.1969,155.0802,287.3423,163.4121 M,0,113353,113363,287.3423,163.4121,290,171
Sprite,Foreground,Centre,"Assets\Effects\colorhax.png",0,0 M,0,113449,113459,361,396,363.9378,387.5934 F,2,113449,114034,1,0 S,2,113449,114034,1,0.2 P,0,113449,114034,A M,0,113459,113470,363.9378,387.5934,366.991,379.2309 M,0,113470,113481,366.991,379.2309,370.2754,370.9564 M,0,113481,113491,370.2754,370.9564,373.7885,362.7763 M,0,113491,113502,373.7885,362.7763,377.5274,354.697 M,0,113502,113513,377.5274,354.697,381.4894,346.7247 M,0,113513,113524,381.4894,346.7247,385.6713,338.8656 M,0,113524,113534,385.6713,338.8656,389.964,331.0634
Sprite,Foreground,Centre,"Assets\Effects\colorhax.png",512.7664,207.7664 F,2,113621,114121,1,0 S,2,113621,114121,1,0.2 P,0,113621,114121,A
Sprite,Foreground,Centre,"Assets\Effects\colorhax.png",516.3248,211.3248 F,2,113707,114207,1,0 S,2,113707,114207,1,0.2 P,0,113707,114207,A
Sprite,Foreground,Centre,"Assets\Effects\colorhax.png",519.8832,214.8832 F,2,113792,114292,1,0 S,2,113792,114292,1,0.2 P,0,113792,114292,A
Sprite,Foreground,Centre,"Assets\Effects\colorhax.png",523.4416,218.4416 F,2,113878,114378,1,0 S,2,113878,114378,1,0.2 P,0,113878,114378,A
Sprite,Foreground,Centre,"Assets\Effects\colorhax.png",0,0 C,0,113964,,160,66,255 M,0,113964,113974,527,222,519.3209,222.7818 F,2,113964,114721,1,0 S,2,113964,114721,1,0.2 P,0,113964,114721,A M,0,113974,113985,519.3209,222.7818,511.6432,223.5759 M,0,113985,113996,511.6432,223.5759,503.9683,224.397 M,0,113996,114006,503.9683,224.397,496.2964,225.2453 M,0,114006,114017,496.2964,225.2453,488.6275,226.1206 M,0,114017,114028,488.6275,226.1206,480.9617,227.023 M,0,114028,114039,480.9617,227.023,473.2992,227.9525 M,0,114039,114049,473.2992,227.9525,465.64,228.9089 M,0,114049,114060,465.64,228.9089,457.9842,229.8925 M,0,114060,114071,457.9842,229.8925,450.332,230.9031 M,0,114071,114081,450.332,230.9031,442.6833,231.9408 M,0,114081,114092,442.6833,231.9408,435.0384,233.0054 M,0,114092,114103,435.0384,233.0054,427.3973,234.0971 M,0,114103,114114,427.3973,234.0971,419.76,235.2157 M,0,114114,114124,419.76,235.2157,412.1268,236.3611 M,0,114124,114135,412.1268,236.3611,404.4977,237.5337 M,0,114135,114146,404.4977,237.5337,396.8727,238.7332 M,0,114146,114156,396.8727,238.7332,389.252,239.9595 M,0,114156,114167,389.252,239.9595,381.6357,241.2129 M,0,114167,114178,381.6357,241.2129,374.0239,242.493 M,0,114178,114189,374.0239,242.493,366.4166,243.8 M,0,114189,114199,366.4166,243.8,358.814,245.1341 M,0,114199,114210,358.814,245.1341,351.219,246.5105 M,0,114210,114221,351.219,246.5105,343.6238,247.8858
Sprite,Foreground,Centre,"Assets\Effects\colorhax.png",313,256 C,0,114307,,160,66,255 F,2,114307,114807,1,0 S,2,114307,114807,1,0.2 P,0,114307,114807,A
Sprite,Foreground,Centre,"Assets\Effects\colorhax.png",0,0 C,0,114478,,160,66,255 M,0,114478,114488,429,146,429.1432,138.283 F,2,114478,115149,1,0 S,2,114478,115149,1,0.2 P,0,114478,115149,A M,0,114488,114499,429.1432,138.283,429.3251,130.5678 M,0,114499,114510,429.3251,130.5678,429.6273,122.8563 M,0,114510,114520,429.6273,122.8563,430.0496,115.1503 M,0,114520,114531,430.0496,115.1503,430.592,107.4515 M,0,114531,114542,430.592,107.4515,431.2543,99.76187 M,0,114542,114553,431.2543,99.76187,432.0297,92.08224 M,0,114553,114563,432.0297,92.08224,432.9497,84.41862 M,0,114563,114574,432.9497,84.41862,432.0297,92.08224 M,0,114574,114585,432.0297,92.08224,431.2543,99.76187 M,0,114585,114595,431.2543,99.76187,430.592,107.4515 M,0,114595,114606,430.592,107.4515,430.0496,115.1503 M,0,114606,114617,430.0496,115.1503,429.6273,122.8563 M,0,114617,114628,429.6273,122.8563,429.3251,130.5678 M,0,114628,114638,429.3251,130.5678,429.1432,138.283 M,0,114638,114649,429.1432,138.283,429,146
Sprite,Foreground,Centre,"Assets\Effects\colorhax.png",416,335 C,0,114821,,160,66,255 F,2,114821,115321,1,0 S,2,114821,115321,1,0.2 P,0,114821,115321,A
Sprite,Foreground,Centre,"Assets\Effects\colorhax.png",0,0 C,0,114992,,160,66,255 M,0,114992,115002,276,395,283.336,392.6013 F,2,114992,115577,1,0 S,2,114992,115577,1,0.2 P,0,114992,115577,A M,0,115002,115013,283.336,392.6013,290.6855,390.2483 M,0,115013,115024,290.6855,390.2483,298.0757,388.0262 M,0,115024,115034,298.0757,388.0262,305.5044,385.9357 M,0,115034,115045,305.5044,385.9357,312.9693,383.9775 M,0,115045,115056,312.9693,383.9775,320.4681,382.1523 M,0,115056,115067,320.4681,382.1523,327.9954,380.4445 M,0,115067,115077,327.9954,380.4445,335,379
Sprite,Foreground,Centre,"Assets\Effects\colorhax.png",0,0 C,0,115164,,160,66,255 M,0,115164,115174,555,307,547.4326,305.4854 F,2,115164,115749,1,0 S,2,115164,115749,1,0.2 P,0,115164,115749,A M,0,115174,115185,547.4326,305.4854,539.881,303.9084 M,0,115185,115196,539.881,303.9084,532.3734,302.1317 M,0,115196,115206,532.3734,302.1317,524.915,300.1566 M,0,115206,115217,524.915,300.1566,517.511,297.9842 M,0,115217,115228,517.511,297.9842,510.1661,295.6161 M,0,115228,115239,510.1661,295.6161,502.8828,293.0607 M,0,115239,115249,502.8828,293.0607,495.6877,290.267
Sprite,Foreground,Centre,"Assets\Effects\colorhax.png",337,101 C,0,115335,,225,121,202 F,2,115335,115835,1,0 S,2,115335,115835,1,0.2 P,0,115335,115835,A
Sprite,Foreground,Centre,"Assets\Effects\colorhax.png",305.8832,248.8832 C,0,115507,,225,121,202 F,2,115507,116007,1,0 S,2,115507,116007,1,0.2 P,0,115507,116007,A
Sprite,Foreground,Centre,"Assets\Effects\colorhax.png",309.4416,252.4416 C,0,115592,,225,121,202 F,2,115592,116092,1,0 S,2,115592,116092,1,0.2 P,0,115592,116092,A
Sprite,Foreground,Centre,"Assets\Effects\colorhax.png",0,0 C,0,115678,,225,121,202 M,0,115678,115688,313,256,305.2903,255.627 F,2,115678,116263,1,0 S,2,115678,116263,1,0.2 P,0,115678,116263,A M,0,115688,115699,305.2903,255.627,297.5805,255.2539 M,0,115699,115710,297.5805,255.2539,289.8708,254.8808 M,0,115710,115720,289.8708,254.8808,282.1611,254.5078 M,0,115720,115731,282.1611,254.5078,274.4514,254.1347 M,0,115731,115742,274.4514,254.1347,266.7416,253.7617 M,0,115742,115753,266.7416,253.7617,259.0319,253.3886 M,0,115753,115763,259.0319,253.3886,251.3222,253.0156
Sprite,Foreground,Centre,"Assets\Effects\colorhax.png",0,0 C,0,115849,,225,121,202 M,0,115849,115859,218,177,225.7097,176.627 F,2,115849,116434,1,0 S,2,115849,116434,1,0.2 P,0,115849,116434,A M,0,115859,115870,225.7097,176.627,233.4195,176.2539 M,0,115870,115881,233.4195,176.2539,241.1292,175.8808 M,0,115881,115891,241.1292,175.8808,248.8389,175.5078 M,0,115891,115902,248.8389,175.5078,256.5486,175.1347 M,0,115902,115913,256.5486,175.1347,264.2584,174.7617 M,0,115913,115924,264.2584,174.7617,271.9681,174.3886 M,0,115924,115934,271.9681,174.3886,279.6779,174.0156
Sprite,Foreground,Centre,"Assets\Effects\colorhax.png",390,211 C,0,116021,,160,66,255 F,2,116021,116521,1,0 S,2,116021,116521,1,0.2 P,0,116021,116521,A
Sprite,Foreground,Centre,"Assets\Effects\colorhax.png",401,249 C,0,116135,,160,66,255 F,2,116135,116635,1,0 S,2,116135,116635,1,0.2 P,0,116135,116635,A
Sprite,Foreground,Centre,"Assets\Effects\colorhax.png",393,289 C,0,116249,,160,66,255 F,2,116249,116749,1,0 S,2,116249,116749,1,0.2 P,0,116249,116749,A
Sprite,Foreground,Centre,"Assets\Effects\colorhax.png",328,337 C,0,116364,,225,121,202 F,2,116364,116864,1,0 S,2,116364,116864,1,0.2 P,0,116364,116864,A
Sprite,Foreground,Centre,"Assets\Effects\colorhax.png",316,375 C,0,116478,,225,121,202 F,2,116478,116978,1,0 S,2,116478,116978,1,0.2 P,0,116478,116978,A
Sprite,Foreground,Centre,"Assets\Effects\colorhax.png",324,415 C,0,116592,,225,121,202 F,2,116592,117092,1,0 S,2,116592,117092,1,0.2 P,0,116592,117092,A
Sprite,Foreground,Centre,"Assets\Effects\colorhax.png",0,0 C,0,116707,,160,66,255 M,0,116707,116717,405,382,412.7096,381.6239 F,2,116707,117378,1,0 S,2,116707,117378,1,0.2 P,0,116707,117378,A M,0,116717,116728,412.7096,381.6239,420.4192,381.2478 M,0,116728,116739,420.4192,381.2478,428.1288,380.8718 M,0,116739,116749,428.1288,380.8718,435.8383,380.4957 M,0,116749,116760,435.8383,380.4957,443.5479,380.1196 M,0,116760,116771,443.5479,380.1196,451.2575,379.7435 M,0,116771,116782,451.2575,379.7435,458.9671,379.3675 M,0,116782,116792,458.9671,379.3675,466.6767,378.9914 M,0,116792,116803,466.6767,378.9914,474.3862,378.6153 M,0,116803,116814,474.3862,378.6153,482.0958,378.2392 M,0,116814,116824,482.0958,378.2392,489.8054,377.8632 M,0,116824,116835,489.8054,377.8632,497.515,377.4871 M,0,116835,116846,497.515,377.4871,505.2246,377.111 M,0,116846,116857,505.2246,377.111,512.9341,376.7349 M,0,116857,116867,512.9341,376.7349,520.6437,376.3589 M,0,116867,116878,520.6437,376.3589,528,376
Sprite,Foreground,Centre,"Assets\Effects\colorhax.png",0,0 C,0,117049,,160,66,255 M,0,117049,117059,364,95,360.095,101.6505 F,2,117049,117634,1,0 S,2,117049,117634,1,0.2 P,0,117049,117634,A M,0,117059,117070,360.095,101.6505,356.3382,108.3685 M,0,117070,117081,356.3382,108.3685,353.0007,115.306 M,0,117081,117091,353.0007,115.306,350.095,122.4374 M,0,117091,117102,350.095,122.4374,347.6321,129.7366 M,0,117102,117113,347.6321,129.7366,345.6216,137.177 M,0,117113,117124,345.6216,137.177,344.0211,144.7258 M,0,117124,117134,344.0211,144.7258,343,152
Sprite,Foreground,Centre,"Assets\Effects\colorhax.png",468,208 C,0,117221,,160,66,255 F,2,117221,117721,1,0 S,2,117221,117721,1,0.2 P,0,117221,117721,A
Sprite,Foreground,Centre,"Assets\Effects\colorhax.png",481,180 C,0,117306,,160,66,255 F,2,117306,117806,1,0 S,2,117306,117806,1,0.2 P,0,117306,117806,A
Sprite,Foreground,Centre,"Assets\Effects\colorhax.png",0,0 C,0,117392,,160,66,255 M,0,117392,117402,488,149,480.2858,148.7899 F,2,117392,117977,1,0 S,2,117392,117977,1,0.2 P,0,117392,117977,A M,0,117402,117413,480.2858,148.7899,472.574,148.6563 M,0,117413,117424,472.574,148.6563,464.8612,148.7622 M,0,117424,117434,464.8612,148.7622,457.1548,149.1075 M,0,117434,117445,457.1548,149.1075,449.4617,149.692 M,0,117445,117456,449.4617,149.692,441.7893,150.5153 M,0,117456,117467,441.7893,150.5153,434.1426,151.5652 M,0,117467,117477,434.1426,151.5652,426.5414,152.9046
Sprite,Foreground,Centre,"Assets\Effects\colorhax.png",0,0 C,0,117564,,160,66,255 M,0,117564,117574,434,309,441.717,308.8925 F,2,117564,118149,1,0 S,2,117564,118149,1,0.2 P,0,117564,118149,A M,0,117574,117585,441.717,308.8925,449.4308,308.7226 M,0,117585,117596,449.4308,308.7226,457.1386,308.3716 M,0,117596,117606,457.1386,308.3716,464.8363,307.8395 M,0,117606,117617,464.8363,307.8395,472.5199,307.1268 M,0,117617,117628,472.5199,307.1268,480.1851,306.2336 M,0,117628,117639,480.1851,306.2336,487.8313,305.1805 M,0,117639,117649,487.8313,305.1805,495,304
Sprite,Foreground,Centre,"Assets\Effects\colorhax.png",0,0 C,0,117735,,160,66,255 M,0,117735,117745,552,221,544.3032,221.5825 F,2,117735,118492,1,0 S,2,117735,118492,1,0.2 P,0,117735,118492,A M,0,117745,117756,544.3032,221.5825,536.6065,222.1649 M,0,117756,117767,536.6065,222.1649,528.9098,222.7474 M,0,117767,117777,528.9098,222.7474,521.213,223.3298 M,0,117777,117788,521.213,223.3298,513.5163,223.9123 M,0,117788,117799,513.5163,223.9123,505.8195,224.4947 M,0,117799,117810,505.8195,224.4947,498.1228,225.0772 M,0,117810,117820,498.1228,225.0772,490.4261,225.6597 M,0,117820,117831,490.4261,225.6597,482.7293,226.2421 M,0,117831,117842,482.7293,226.2421,475.0326,226.8246 M,0,117842,117852,475.0326,226.8246,467.3358,227.407 M,0,117852,117863,467.3358,227.407,459.6391,227.9895 M,0,117863,117874,459.6391,227.9895,451.9424,228.5719 M,0,117874,117885,451.9424,228.5719,444.2456,229.1544 M,0,117885,117895,444.2456,229.1544,436.5489,229.7368 M,0,117895,117906,436.5489,229.7368,428.8521,230.3193 M,0,117906,117917,428.8521,230.3193,421.1554,230.9017 M,0,117917,117927,421.1554,230.9017,413.4586,231.4842 M,0,117927,117938,413.4586,231.4842,405.7619,232.0667 M,0,117938,117949,405.7619,232.0667,398.0652,232.6491 M,0,117949,117960,398.0652,232.6491,390.3684,233.2316 M,0,117960,117970,390.3684,233.2316,382.6717,233.814 M,0,117970,117981,382.6717,233.814,374.9749,234.3965 M,0,117981,117992,374.9749,234.3965,367.2782,234.9789
Sprite,Foreground,Centre,"Assets\Effects\colorhax.png",271,160 C,0,118078,,225,121,202 F,2,118078,118578,1,0 S,2,118078,118578,1,0.2 P,0,118078,118578,A
Sprite,Foreground,Centre,"Assets\Effects\colorhax.png",434,309 C,0,118249,,225,121,202 F,2,118249,118749,1,0 S,2,118249,118749,1,0.2 P,0,118249,118749,A
Sprite,Foreground,Centre,"Assets\Effects\colorhax.png",427,153 C,0,118421,,225,121,202 F,2,118421,118921,1,0 S,2,118421,118921,1,0.2 P,0,118421,118921,A
Sprite,Foreground,Centre,"Assets\Effects\colorhax.png",0,0 C,0,118592,,225,121,202 M,0,118592,118602,278,316,272.5315,310.5529 F,2,118592,119349,1,0 S,2,118592,119349,1,0.2 P,0,118592,119349,A M,0,118602,118613,272.5315,310.5529,267.2234,304.9495 M,0,118613,118624,267.2234,304.9495,262.0922,299.1836 M,0,118624,118634,262.0922,299.1836,257.1561,293.25 M,0,118634,118645,257.1561,293.25,252.4345,287.1444 M,0,118645,118656,252.4345,287.1444,247.9489,280.8635 M,0,118656,118667,247.9489,280.8635,243.7234,274.4047 M,0,118667,118677,243.7234,274.4047,239.7821,267.7688 M,0,118677,118688,239.7821,267.7688,236.151,260.9583 M,0,118688,118699,236.151,260.9583,232.8568,253.9787 M,0,118699,118709,232.8568,253.9787,227.4602,255.2141 M,0,118709,118720,227.4602,255.2141,221.0751,259.5508 M,0,118720,118731,221.0751,259.5508,214.5878,263.7329 M,0,118731,118742,214.5878,263.7329,207.9957,267.748 M,0,118742,118752,207.9957,267.748,201.2966,271.5815 M,0,118752,118763,201.2966,271.5815,194.4884,275.218 M,0,118763,118774,194.4884,275.218,187.5704,278.6407 M,0,118774,118784,187.5704,278.6407,180.5428,281.8323 M,0,118784,118795,180.5428,281.8323,173.4066,284.7727 M,0,118795,118806,173.4066,284.7727,166.1643,287.4411 M,0,118806,118817,166.1643,287.4411,158.8208,289.8169 M,0,118817,118827,158.8208,289.8169,151.3825,291.876 M,0,118827,118838,151.3825,291.876,143.859,293.5983 M,0,118838,118849,143.859,293.5983,136.2621,294.9597
Sprite,Foreground,Centre,"Assets\Effects\colorhax.png",0,0 C,0,118935,,225,121,202 M,0,118935,118945,73,221,80.71105,220.6983 F,2,118935,119520,1,0 S,2,118935,119520,1,0.2 P,0,118935,119520,A M,0,118945,118956,80.71105,220.6983,88.41384,220.3062 M,0,118956,118967,88.41384,220.3062,96.09998,219.6619 M,0,118967,118977,96.09998,219.6619,103.7614,218.7662 M,0,118977,118988,103.7614,218.7662,111.39,217.6199 M,0,118988,118999,111.39,217.6199,118.9777,216.2241 M,0,118999,119010,118.9777,216.2241,126.5264,214.6164 M,0,119010,119020,126.5264,214.6164,133,213
Sprite,Foreground,Centre,"Assets\Effects\colorhax.png",0,0 C,0,119107,,225,121,202 M,0,119107,119117,230,69,223.5776,64.71841 F,2,119107,119864,1,0 S,2,119107,119864,1,0.2 P,0,119107,119864,A M,0,119117,119128,223.5776,64.71841,217.1552,60.43682 M,0,119128,119139,217.1552,60.43682,210.7328,56.15522 M,0,119139,119149,210.7328,56.15522,204.3105,51.87363 M,0,119149,119160,204.3105,51.87363,197.8881,47.59204 M,0,119160,119171,197.8881,47.59204,191.4657,43.31045 M,0,119171,119182,191.4657,43.31045,185.0433,39.02885 M,0,119182,119192,185.0433,39.02885,186.3357,46.54948 M,0,119192,119203,186.3357,46.54948,187.6804,54.15019 M,0,119203,119214,187.6804,54.15019,189.0252,61.7509 M,0,119214,119224,189.0252,61.7509,190.3699,69.35161 M,0,119224,119235,190.3699,69.35161,191.7146,76.95232 M,0,119235,119246,191.7146,76.95232,193.0594,84.55302 M,0,119246,119257,193.0594,84.55302,194.4041,92.15373 M,0,119257,119267,194.4041,92.15373,195.7489,99.75445 M,0,119267,119278,195.7489,99.75445,197.0936,107.3552 M,0,119278,119289,197.0936,107.3552,198.4383,114.9559 M,0,119289,119299,198.4383,114.9559,199.7831,122.5566 M,0,119299,119310,199.7831,122.5566,201.1278,130.1573 M,0,119310,119321,201.1278,130.1573,202.4726,137.758 M,0,119321,119332,202.4726,137.758,203.8173,145.3587 M,0,119332,119342,203.8173,145.3587,205.162,152.9594 M,0,119342,119353,205.162,152.9594,206.5068,160.5601 M,0,119353,119364,206.5068,160.5601,207.8515,168.1608
Sprite,Foreground,Centre,"Assets\Effects\colorhax.png",0,0 C,0,119449,,160,66,255 M,0,119449,119459,293,192,300.5781,193.4667 F,2,119449,120206,1,0 S,2,119449,120206,1,0.2 P,0,119449,120206,A M,0,119459,119470,300.5781,193.4667,308.1562,194.9335 M,0,119470,119481,308.1562,194.9335,315.7343,196.4002 M,0,119481,119491,315.7343,196.4002,323.3124,197.8669 M,0,119491,119502,323.3124,197.8669,330.8906,199.3337 M,0,119502,119513,330.8906,199.3337,338.4687,200.8004 M,0,119513,119524,338.4687,200.8004,346.0468,202.2671 M,0,119524,119534,346.0468,202.2671,353.6249,203.7339 M,0,119534,119545,353.6249,203.7339,360.8885,201.71 M,0,119545,119556,360.8885,201.71,368.0825,198.9124 M,0,119556,119566,368.0825,198.9124,375.2764,196.1147 M,0,119566,119577,375.2764,196.1147,382.4703,193.3171 M,0,119577,119588,382.4703,193.3171,389.6642,190.5195 M,0,119588,119599,389.6642,190.5195,396.8581,187.7219 M,0,119599,119609,396.8581,187.7219,404.052,184.9242 M,0,119609,119620,404.052,184.9242,411.38,183.3778 M,0,119620,119631,411.38,183.3778,419.0033,184.5878 M,0,119631,119641,419.0033,184.5878,426.6266,185.7979 M,0,119641,119652,426.6266,185.7979,434.2499,187.0079 M,0,119652,119663,434.2499,187.0079,441.8732,188.218 M,0,119663,119674,441.8732,188.218,449.4965,189.428 M,0,119674,119684,449.4965,189.428,457.1198,190.6381 M,0,119684,119695,457.1198,190.6381,464.7432,191.8481 M,0,119695,119706,464.7432,191.8481,472,193
Sprite,Foreground,Centre,"Assets\Effects\colorhax.png",0,0 C,0,119792,,160,66,255 M,0,119792,119802,494,286,486.6917,283.5253 F,2,119792,120377,1,0 S,2,119792,120377,1,0.2 P,0,119792,120377,A M,0,119802,119813,486.6917,283.5253,479.36,281.1415 M,0,119813,119824,479.36,281.1415,471.9397,279.0465 M,0,119824,119834,471.9397,279.0465,464.4419,277.2433 M,0,119834,119845,464.4419,277.2433,456.8775,275.735 M,0,119845,119856,456.8775,275.735,449.2577,274.5237 M,0,119856,119867,449.2577,274.5237,441.5941,273.6038 M,0,119867,119877,441.5941,273.6038,433.8951,273.0629
Sprite,Foreground,Centre,"Assets\Effects\colorhax.png",339,114 C,0,119963,,160,66,255 F,2,119963,120463,1,0 S,2,119963,120463,1,0.2 P,0,119963,120463,A
Sprite,Foreground,Centre,"Assets\Effects\colorhax.png",331,85 C,0,120049,,160,66,255 F,2,120049,120549,1,0 S,2,120049,120549,1,0.2 P,0,120049,120549,A
Sprite,Foreground,Centre,"Assets\Effects\colorhax.png",0,0 C,0,120135,,160,66,255 M,0,120135,120145,338,57,345.6171,58.2487 F,2,120135,120720,1,0 S,2,120135,120720,1,0.2 P,0,120135,120720,A M,0,120145,120156,345.6171,58.2487,353.2342,59.4974 M,0,120156,120167,353.2342,59.4974,360.8512,60.7461 M,0,120167,120177,360.8512,60.7461,368.4683,61.9948 M,0,120177,120188,368.4683,61.9948,376.0854,63.2435 M,0,120188,120199,376.0854,63.2435,383.7025,64.4922 M,0,120199,120210,383.7025,64.4922,391.3195,65.74091 M,0,120210,120220,391.3195,65.74091,398.9366,66.98961
Sprite,Foreground,Centre,"Assets\Effects\colorhax.png",0,0 C,0,120306,,160,66,255 M,0,120306,120316,216,280,208.4311,278.4862 F,2,120306,120891,1,0 S,2,120306,120891,1,0.2 P,0,120306,120891,A M,0,120316,120327,208.4311,278.4862,200.8623,276.9725 M,0,120327,120338,200.8623,276.9725,193.2934,275.4587 M,0,120338,120348,193.2934,275.4587,185.7246,273.9449 M,0,120348,120359,185.7246,273.9449,178.1557,272.4312 M,0,120359,120370,178.1557,272.4312,170.5869,270.9174 M,0,120370,120381,170.5869,270.9174,163.018,269.4036 M,0,120381,120391,163.018,269.4036,156,268
Sprite,Foreground,Centre,"Assets\Effects\colorhax.png",333,294 C,0,120478,,160,66,255 F,2,120478,120978,1,0 S,2,120478,120978,1,0.2 P,0,120478,120978,A
Sprite,Foreground,Centre,"Assets\Effects\colorhax.png",247,140 C,0,120649,,160,66,255 F,2,120649,121149,1,0 S,2,120649,121149,1,0.2 P,0,120649,121149,A
Sprite,Foreground,Centre,"Assets\Effects\colorhax.png",290,217 C,0,120821,,225,121,202 F,2,120821,121321,1,0 S,2,120821,121321,1,0.2 P,0,120821,121321,A
Sprite,Foreground,Centre,"Assets\Effects\colorhax.png",328,206 C,0,120935,,225,121,202 F,2,120935,121435,1,0 S,2,120935,121435,1,0.2 P,0,120935,121435,A
Sprite,Foreground,Centre,"Assets\Effects\colorhax.png",368,214 C,0,121049,,225,121,202 F,2,121049,121549,1,0 S,2,121049,121549,1,0.2 P,0,121049,121549,A
Sprite,Foreground,Centre,"Assets\Effects\colorhax.png",416,279 C,0,121164,,160,66,255 F,2,121164,121664,1,0 S,2,121164,121664,1,0.2 P,0,121164,121664,A
Sprite,Foreground,Centre,"Assets\Effects\colorhax.png",454,291 C,0,121278,,160,66,255 F,2,121278,121778,1,0 S,2,121278,121778,1,0.2 P,0,121278,121778,A
Sprite,Foreground,Centre,"Assets\Effects\colorhax.png",494,283 C,0,121392,,160,66,255 F,2,121392,121892,1,0 S,2,121392,121892,1,0.2 P,0,121392,121892,A
Sprite,Foreground,Centre,"Assets\Effects\colorhax.png",553,344 C,0,121507,,225,121,202 F,2,121507,122007,1,0 S,2,121507,122007,1,0.2 P,0,121507,122007,A
Sprite,Foreground,Centre,"Assets\Effects\colorhax.png",368,214 C,0,121678,,225,121,202 F,2,121678,122178,1,0 S,2,121678,122178,1,0.2 P,0,121678,122178,A
Sprite,Foreground,Centre,"Assets\Effects\colorhax.png",0,0 C,0,121849,,225,121,202 M,0,121849,121859,471,141,468.8028,148.3975 F,2,121849,122434,1,0 S,2,121849,122434,1,0.2 P,0,121849,122434,A M,0,121859,121870,468.8028,148.3975,466.682,155.8128 M,0,121870,121881,466.682,155.8128,464.7992,163.2927 M,0,121881,121891,464.7992,163.2927,463.1563,170.8297 M,0,121891,121902,463.1563,170.8297,461.7551,178.4163 M,0,121902,121913,461.7551,178.4163,460.5969,186.0452 M,0,121913,121924,460.5969,186.0452,459.672,193.7081 M,0,121924,121934,459.672,193.7081,459.0485,201.4012
Sprite,Foreground,Centre,"Assets\Effects\colorhax.png",0,0 C,0,122021,,225,121,202 M,0,122021,122031,345,354,343.9379,346.3557 F,2,122021,122606,1,0 S,2,122021,122606,1,0.2 P,0,122021,122606,A M,0,122031,122042,343.9379,346.3557,342.8178,338.7223 M,0,122042,122053,342.8178,338.7223,341.5128,331.1179 M,0,122053,122063,341.5128,331.1179,340.0235,323.547 M,0,122063,122074,340.0235,323.547,338.3508,316.0139 M,0,122074,122085,338.3508,316.0139,336.4955,308.5228 M,0,122085,122096,336.4955,308.5228,334.4653,301.0759 M,0,122096,122106,334.4653,301.0759,332.2118,293.6937
Sprite,Foreground,Centre,"Assets\Effects\colorhax.png",0,0 C,0,122192,,160,66,255 M,0,122192,122202,223,144,230.7162,143.8112 F,2,122192,122863,1,0 S,2,122192,122863,1,0.2 P,0,122192,122863,A M,0,122202,122213,230.7162,143.8112,238.4303,143.5755 M,0,122213,122224,238.4303,143.5755,246.1404,143.231 M,0,122224,122234,246.1404,143.231,253.8449,142.778 M,0,122234,122245,253.8449,142.778,261.5423,142.2163 M,0,122245,122256,261.5423,142.2163,269.2311,141.5463 M,0,122256,122267,269.2311,141.5463,276.9097,140.7679 M,0,122267,122277,276.9097,140.7679,284.5765,139.8813 M,0,122277,122288,284.5765,139.8813,292.2302,138.8869 M,0,122288,122299,292.2302,138.8869,299.8692,137.7845 M,0,122299,122309,299.8692,137.7845,307.4919,136.5747 M,0,122309,122320,307.4919,136.5747,315.097,135.2575 M,0,122320,122331,315.097,135.2575,322.6828,133.8332 M,0,122331,122342,322.6828,133.8332,330.2478,132.3021 M,0,122342,122352,330.2478,132.3021,337.792,130.6705 M,0,122352,122363,337.792,130.6705,345,129
Sprite,Foreground,Centre,"Assets\Effects\colorhax.png",541,81 C,0,122535,,160,66,255 F,2,122535,123035,1,0 S,2,122535,123035,1,0.2 P,0,122535,123035,A
Sprite,Foreground,Centre,"Assets\Effects\colorhax.png",459,258 C,0,122707,,160,66,255 F,2,122707,123207,1,0 S,2,122707,123207,1,0.2 P,0,122707,123207,A
Sprite,Foreground,Centre,"Assets\Effects\colorhax.png",451,229 C,0,122793,,160,66,255 F,2,122793,123293,1,0 S,2,122793,123293,1,0.2 P,0,122793,123293,A
Sprite,Foreground,Centre,"Assets\Effects\colorhax.png",0,0 C,0,122878,,160,66,255 M,0,122878,122888,457,201,464.5922,202.3919 F,2,122878,123463,1,0 S,2,122878,123463,1,0.2 P,0,122878,123463,A M,0,122888,122899,464.5922,202.3919,472.1844,203.7838 M,0,122899,122910,472.1844,203.7838,479.7766,205.1757 M,0,122910,122920,479.7766,205.1757,487.3689,206.5676 M,0,122920,122931,487.3689,206.5676,494.9611,207.9595 M,0,122931,122942,494.9611,207.9595,502.5533,209.3514 M,0,122942,122953,502.5533,209.3514,510.1455,210.7433 M,0,122953,122963,510.1455,210.7433,517,212
Sprite,Foreground,Centre,"Assets\Effects\colorhax.png",0,0 C,0,123049,,160,66,255 M,0,123049,123059,425,359,417.4038,360.3698 F,2,123049,123634,1,0 S,2,123049,123634,1,0.2 P,0,123049,123634,A M,0,123059,123070,417.4038,360.3698,409.8075,361.7396 M,0,123070,123081,409.8075,361.7396,402.2113,363.1094 M,0,123081,123091,402.2113,363.1094,394.6151,364.4792 M,0,123091,123102,394.6151,364.4792,387.0189,365.8491 M,0,123102,123113,387.0189,365.8491,379.4226,367.2189 M,0,123113,123124,379.4226,367.2189,371.8264,368.5887 M,0,123124,123134,371.8264,368.5887,364.2302,369.9585
Sprite,Foreground,Centre,"Assets\Effects\colorhax.png",0,0 C,0,123221,,160,66,255 M,0,123221,123231,279,249,281.6451,241.7487 F,2,123221,123978,1,0 S,2,123221,123978,1,0.2 P,0,123221,123978,A M,0,123231,123242,281.6451,241.7487,284.2206,234.4723 M,0,123242,123253,284.2206,234.4723,286.7282,227.1722 M,0,123253,123263,286.7282,227.1722,289.1693,219.8497 M,0,123263,123274,289.1693,219.8497,291.5458,212.506 M,0,123274,123285,291.5458,212.506,293.8596,205.1422 M,0,123285,123296,293.8596,205.1422,296.1116,197.7593 M,0,123296,123306,296.1116,197.7593,298.3041,190.3585 M,0,123306,123317,298.3041,190.3585,300.4384,182.9407 M,0,123317,123328,300.4384,182.9407,302.5154,175.5067 M,0,123328,123338,302.5154,175.5067,304.5371,168.0574 M,0,123338,123349,304.5371,168.0574,306.5049,160.5937 M,0,123349,123360,306.5049,160.5937,308.4196,153.1162 M,0,123360,123371,308.4196,153.1162,310.2828,145.6257 M,0,123371,123381,310.2828,145.6257,312.0956,138.1229 M,0,123381,123392,312.0956,138.1229,313.8594,130.6084 M,0,123392,123403,313.8594,130.6084,316.6945,136.5627 M,0,123403,123413,316.6945,136.5627,319.6993,143.6725 M,0,123413,123424,319.6993,143.6725,322.7933,150.744 M,0,123424,123435,322.7933,150.744,325.9948,157.7673 M,0,123435,123446,325.9948,157.7673,329.3288,164.7288 M,0,123446,123456,329.3288,164.7288,332.8319,171.6065 M,0,123456,123467,332.8319,171.6065,336.5605,178.3643 M,0,123467,123478,336.5605,178.3643,340,184
Sprite,Foreground,Centre,"Assets\Effects\colorhax.png",0,0 C,0,123564,,225,121,202 M,0,123564,123574,377,273,369.2949,273.4581 F,2,123564,124321,1,0 S,2,123564,124321,1,0.2 P,0,123564,124321,A M,0,123574,123585,369.2949,273.4581,361.5897,273.9163 M,0,123585,123596,361.5897,273.9163,353.8846,274.3745 M,0,123596,123606,353.8846,274.3745,346.1794,274.8326 M,0,123606,123617,346.1794,274.8326,338.4743,275.2907 M,0,123617,123628,338.4743,275.2907,330.7692,275.7488 M,0,123628,123639,330.7692,275.7488,323.064,276.207 M,0,123639,123649,323.064,276.207,315.3589,276.6652 M,0,123649,123660,315.3589,276.6652,307.6537,277.1233 M,0,123660,123671,307.6537,277.1233,299.9486,277.5814 M,0,123671,123681,299.9486,277.5814,292.2434,278.0396 M,0,123681,123692,292.2434,278.0396,284.5383,278.4977 M,0,123692,123703,284.5383,278.4977,276.8332,278.9559 M,0,123703,123714,276.8332,278.9559,269.128,279.414 M,0,123714,123724,269.128,279.414,261.4229,279.8721 M,0,123724,123735,261.4229,279.8721,253.7177,280.3303 M,0,123735,123746,253.7177,280.3303,246.0126,280.7885 M,0,123746,123756,246.0126,280.7885,238.3074,281.2466 M,0,123756,123767,238.3074,281.2466,230.6023,281.7047 M,0,123767,123778,230.6023,281.7047,222.8972,282.1629 M,0,123778,123789,222.8972,282.1629,215.192,282.621 M,0,123789,123799,215.192,282.621,207.4869,283.0792 M,0,123799,123810,207.4869,283.0792,199.7817,283.5373 M,0,123810,123821,199.7817,283.5373,192.0766,283.9954
Sprite,Foreground,Centre,"Assets\Effects\colorhax.png",170,271 C,0,123907,,225,121,202 F,2,123907,124407,1,0 S,2,123907,124407,1,0.2 P,0,123907,124407,A
Sprite,Foreground,Centre,"Assets\Effects\colorhax.png",0,0 C,0,124078,,225,121,202 M,0,124078,124088,284,109,291.5823,110.1769 F,2,124078,124835,1,0 S,2,124078,124835,1,0.2 P,0,124078,124835,A M,0,124088,124099,291.5823,110.1769,298.9578,111.8688 M,0,124099,124110,298.9578,111.8688,305.934,114.8095 M,0,124110,124120,305.934,114.8095,312.3025,118.9128 M,0,124120,124131,312.3025,118.9128,317.8722,124.0584 M,0,124131,124142,317.8722,124.0584,322.4753,130.0953 M,0,124142,124153,322.4753,130.0953,325.9716,136.8456 M,0,124153,124163,325.9716,136.8456,328.2533,144.1099 M,0,124163,124174,328.2533,144.1099,329.2473,151.673 M,0,124174,124185,329.2473,151.673,328.9187,159.3096 M,0,124185,124195,328.9187,159.3096,327.271,166.7914 M,0,124195,124206,327.271,166.7914,324.3469,173.8929 M,0,124206,124217,324.3469,173.8929,320.2271,180.3988 M,0,124217,124228,320.2271,180.3988,314.4793,185.4821 M,0,124228,124238,314.4793,185.4821,308.4293,190.0252 M,0,124238,124249,308.4293,190.0252,301.6837,193.4573 M,0,124249,124260,301.6837,193.4573,294.4431,195.6752 M,0,124260,124270,294.4431,195.6752,286.9223,196.6108 M,0,124270,124281,286.9223,196.6108,279.3452,196.2338 M,0,124281,124292,279.3452,196.2338,271.9377,194.5522 M,0,124292,124303,271.9377,194.5522,264.9216,191.6123 M,0,124303,124313,264.9216,191.6123,258.5078,187.4977 M,0,124313,124324,258.5078,187.4977,252.6938,182.4608 M,0,124324,124335,252.6938,182.4608,249,178
Sprite,Foreground,Centre,"Assets\Effects\colorhax.png",238,162 C,0,124421,,225,121,202 F,2,124421,124921,1,0 S,2,124421,124921,1,0.2 P,0,124421,124921,A
Sprite,Foreground,Centre,"Assets\Effects\colorhax.png",377,273 C,0,124592,,225,121,202 F,2,124592,125092,1,0 S,2,124592,125092,1,0.2 P,0,124592,125092,A
Sprite,Foreground,Centre,"Assets\Effects\colorhax.png",214,367 C,0,124764,,225,121,202 F,2,124764,125264,1,0 S,2,124764,125264,1,0.2 P,0,124764,125264,A
Sprite,Foreground,Centre,"Assets\Effects\colorhax.png",0,0 C,0,124935,,160,66,255 M,0,124935,124945,319,205,325.742,201.243 F,2,124935,125692,1,0 S,2,124935,125692,1,0.2 P,0,124935,125692,A M,0,124945,124956,325.742,201.243,332.6365,197.7746 M,0,124956,124967,332.6365,197.7746,339.6951,194.6543 M,0,124967,124977,339.6951,194.6543,346.9233,191.9511 M,0,124977,124988,346.9233,191.9511,354.3157,189.7367 M,0,124988,124999,354.3157,189.7367,361.8578,188.1048 M,0,124999,125010,361.8578,188.1048,369.5125,187.1357 M,0,125010,125020,369.5125,187.1357,377.2237,186.8791 M,0,125020,125031,377.2237,186.8791,384.9249,187.3503 M,0,125031,125042,384.9249,187.3503,392.5549,188.5019 M,0,125042,125052,392.5549,188.5019,400.0803,190.2124 M,0,125052,125063,400.0803,190.2124,407.5099,192.3036 M,0,125063,125074,407.5099,192.3036,414.8903,194.5637 M,0,125074,125085,414.8903,194.5637,422.2929,196.7493 M,0,125085,125095,422.2929,196.7493,429.7844,198.6026 M,0,125095,125106,429.7844,198.6026,437.3964,199.8625 M,0,125106,125117,437.3964,199.8625,445.0975,200.3091 M,0,125117,125127,445.0975,200.3091,452.7947,199.8108 M,0,125127,125138,452.7947,199.8108,460.3724,198.369 M,0,125138,125149,460.3724,198.369,467.7413,196.0858 M,0,125149,125160,467.7413,196.0858,474.8559,193.0999 M,0,125160,125170,474.8559,193.0999,481.7097,189.5542 M,0,125170,125181,481.7097,189.5542,488.3143,185.562 M,0,125181,125192,488.3143,185.562,494.6939,181.2184
Sprite,Foreground,Centre,"Assets\Effects\colorhax.png",519,169 C,0,125278,,160,66,255 F,2,125278,125778,1,0 S,2,125278,125778,1,0.2 P,0,125278,125778,A
Sprite,Foreground,Centre,"Assets\Effects\colorhax.png",0,0 C,0,125449,,160,66,255 M,0,125449,125459,377,273,375.2755,280.5217 F,2,125449,126120,1,0 S,2,125449,126120,1,0.2 P,0,125449,126120,A M,0,125459,125470,375.2755,280.5217,373.6339,288.0576 M,0,125470,125481,373.6339,288.0576,372.2387,295.6434 M,0,125481,125491,372.2387,295.6434,371.0914,303.2713 M,0,125491,125502,371.0914,303.2713,370.1931,310.9334 M,0,125502,125513,370.1931,310.9334,369.545,318.6219 M,0,125513,125524,369.545,318.6219,369.1261,326.3287 M,0,125524,125534,369.1261,326.3287,369,334 M,0,125534,125545,369,334,369.1261,326.3287 M,0,125545,125556,369.1261,326.3287,369.545,318.6218 M,0,125556,125566,369.545,318.6218,370.1931,310.9334 M,0,125566,125577,370.1931,310.9334,371.0914,303.2712 M,0,125577,125588,371.0914,303.2712,372.2387,295.6434 M,0,125588,125599,372.2387,295.6434,373.6339,288.0576 M,0,125599,125609,373.6339,288.0576,375.2755,280.5217 M,0,125609,125620,375.2755,280.5217,377,273
Sprite,Foreground,Centre,"Assets\Effects\colorhax.png",445,117 C,0,125792,,160,66,255 F,2,125792,126292,1,0 S,2,125792,126292,1,0.2 P,0,125792,126292,A
Sprite,Foreground,Centre,"Assets\Effects\colorhax.png",319,205 C,0,125964,,160,66,255 F,2,125964,126464,1,0 S,2,125964,126464,1,0.2 P,0,125964,126464,A
Sprite,Foreground,Centre,"Assets\Effects\colorhax.png",470,285 C,0,126135,,160,66,255 F,2,126135,126635,1,0 S,2,126135,126635,1,0.2 P,0,126135,126635,A
Sprite,Foreground,Centre,"Assets\Effects\colorhax.png",0,0 C,0,126307,,225,121,202 M,0,126307,126317,268,280,261.9882,275.1774 F,2,126307,126978,1,0 S,2,126307,126978,1,0.2 P,0,126307,126978,A M,0,126317,126328,261.9882,275.1774,256.178,270.1553 M,0,126328,126339,256.178,270.1553,250.8314,264.641 M,0,126339,126349,250.8314,264.641,245.9898,258.6769 M,0,126349,126360,245.9898,258.6769,241.6905,252.3088 M,0,126360,126371,241.6905,252.3088,237.967,245.5853 M,0,126371,126382,237.967,245.5853,234.8483,238.5582 M,0,126382,126392,234.8483,238.5582,232.359,231.2812 M,0,126392,126403,232.359,231.2812,230.5186,223.8102 M,0,126403,126414,230.5186,223.8102,229.3421,216.2026 M,0,126414,126424,229.3421,216.2026,228.8393,208.517 M,0,126424,126435,228.8393,208.517,229.0148,200.8123 M,0,126435,126446,229.0148,200.8123,229.8682,193.1481 M,0,126446,126457,229.8682,193.1481,231.3938,185.5835 M,0,126457,126467,231.3938,185.5835,234.0027,178.3315 M,0,126467,126478,234.0027,178.3315,236.5601,171.0609
Sprite,Foreground,Centre,"Assets\Effects\colorhax.png",0,0 C,0,126649,,225,121,202 M,0,126649,126659,522,216,527.967,220.8779 F,2,126649,127320,1,0 S,2,126649,127320,1,0.2 P,0,126649,127320,A M,0,126659,126670,527.967,220.8779,533.7229,225.9631 M,0,126670,126681,533.7229,225.9631,539.0052,231.5391 M,0,126681,126691,539.0052,231.5391,543.7729,237.5624 M,0,126691,126702,543.7729,237.5624,547.988,243.9857 M,0,126702,126713,547.988,243.9857,551.6176,250.7589 M,0,126713,126724,551.6176,250.7589,554.6326,257.8289 M,0,126724,126734,554.6326,257.8289,557.0092,265.1404 M,0,126734,126745,557.0092,265.1404,558.7283,272.6361 M,0,126745,126756,558.7283,272.6361,559.7761,280.2573 M,0,126756,126766,559.7761,280.2573,560.1437,287.9443 M,0,126766,126777,560.1437,287.9443,559.8278,295.6367 M,0,126777,126788,559.8278,295.6367,558.8301,303.274 M,0,126788,126799,558.8301,303.274,557.1578,310.7964 M,0,126799,126809,557.1578,310.7964,554.8577,318.1607 M,0,126809,126820,554.8577,318.1607,552,325
Sprite,Foreground,Centre,"Assets\Effects\colorhax.png",519.4416,399.4416 C,0,126907,,225,121,202 F,2,126907,127407,1,0 S,2,126907,127407,1,0.2 P,0,126907,127407,A
Sprite,Foreground,Centre,"Assets\Effects\colorhax.png",0,0 C,0,126992,,225,121,202 M,0,126992,127002,523,403,515.868,400.0535 F,2,126992,127577,1,0 S,2,126992,127577,1,0.2 P,0,126992,127577,A M,0,127002,127013,515.868,400.0535,508.7107,397.1819 M,0,127013,127024,508.7107,397.1819,501.4604,394.552 M,0,127024,127034,501.4604,394.552,494.1249,392.1667 M,0,127034,127045,494.1249,392.1667,486.7122,390.0287 M,0,127045,127056,486.7122,390.0287,479.2303,388.1404 M,0,127056,127067,479.2303,388.1404,471.6878,386.5008 M,0,127067,127077,471.6878,386.5008,464.0822,385.187
Sprite,Foreground,Centre,"Assets\Effects\colorhax.png",0,0 C,0,127164,,225,121,202 M,0,127164,127174,333,345,340.5997,343.6562 F,2,127164,127749,1,0 S,2,127164,127749,1,0.2 P,0,127164,127749,A M,0,127174,127185,340.5997,343.6562,348.1844,342.2439 M,0,127185,127196,348.1844,342.2439,355.7303,340.6366 M,0,127196,127206,355.7303,340.6366,363.2327,338.8353 M,0,127206,127217,363.2327,338.8353,370.6866,336.8412 M,0,127217,127228,370.6866,336.8412,378.0871,334.6555 M,0,127228,127239,378.0871,334.6555,385.4385,332.3041 M,0,127239,127249,385.4385,332.3041,392,330
Sprite,Foreground,Centre,"Assets\Effects\colorhax.png",470,285 C,0,127335,,225,121,202 F,2,127335,127835,1,0 S,2,127335,127835,1,0.2 P,0,127335,127835,A
Sprite,Foreground,Centre,"Assets\Effects\colorhax.png",174,337 C,0,127507,,225,121,202 F,2,127507,128007,1,0 S,2,127507,128007,1,0.2 P,0,127507,128007,A
Sprite,Foreground,Centre,"Assets\Effects\colorhax.png",170,352 C,0,127592,,225,121,202 F,2,127592,128092,1,0 S,2,127592,128092,1,0.2 P,0,127592,128092,A
Sprite,Foreground,Centre,"Assets\Effects\colorhax.png",166,367 C,0,127678,,160,66,255 F,2,127678,128178,1,0 S,2,127678,128178,1,0.2 P,0,127678,128178,A
Sprite,Foreground,Centre,"Assets\Effects\colorhax.png",276,252 C,0,127849,,160,66,255 F,2,127849,128349,1,0 S,2,127849,128349,1,0.2 P,0,127849,128349,A
Sprite,Foreground,Centre,"Assets\Effects\colorhax.png",352,219 C,0,128021,,160,66,255 F,2,128021,128521,1,0 S,2,128021,128521,1,0.2 P,0,128021,128521,A
Sprite,Foreground,Centre,"Assets\Effects\colorhax.png",514,241 C,0,128192,,225,121,202 F,2,128192,128692,1,0 S,2,128192,128692,1,0.2 P,0,128192,128692,A
Sprite,Foreground,Centre,"Assets\Effects\colorhax.png",357,270 C,0,128364,,225,121,202 F,2,128364,128864,1,0 S,2,128364,128864,1,0.2 P,0,128364,128864,A
Sprite,Foreground,Centre,"Assets\Effects\colorhax.png",276,252 C,0,128535,,225,121,202 F,2,128535,129035,1,0 S,2,128535,129035,1,0.2 P,0,128535,129035,A
Sprite,Foreground,Centre,"Assets\Effects\colorhax.png",157,139 C,0,128707,,160,66,255 F,2,128707,129207,1,0 S,2,128707,129207,1,0.2 P,0,128707,129207,A
Sprite,Foreground,Centre,"Assets\Effects\colorhax.png",302,208 C,0,128878,,160,66,255 F,2,128878,129378,1,0 S,2,128878,129378,1,0.2 P,0,128878,129378,A
Sprite,Foreground,Centre,"Assets\Effects\colorhax.png",357,270 C,0,129049,,160,66,255 F,2,129049,129549,1,0 S,2,129049,129549,1,0.2 P,0,129049,129549,A
Sprite,Foreground,Centre,"Assets\Effects\colorhax.png",383,429 C,0,129221,,225,121,202 F,2,129221,129721,1,0 S,2,129221,129721,1,0.2 P,0,129221,129721,A
Sprite,Foreground,Centre,"Assets\Effects\colorhax.png",311,291 C,0,129392,,225,121,202 F,2,129392,129892,1,0 S,2,129392,129892,1,0.2 P,0,129392,129892,A
Sprite,Foreground,Centre,"Assets\Effects\colorhax.png",0,0 C,0,129564,,225,121,202 M,0,129564,129574,302,208,294.7029,210.5162 F,2,129564,130149,1,0 S,2,129564,130149,1,0.2 P,0,129564,130149,A M,0,129574,129585,294.7029,210.5162,287.4058,213.0325 M,0,129585,129596,287.4058,213.0325,280.1087,215.5487 M,0,129596,129606,280.1087,215.5487,273,218 M,0,129606,129617,273,218,280.1087,215.5487 M,0,129617,129628,280.1087,215.5487,287.4058,213.0325 M,0,129628,129639,287.4058,213.0325,294.7029,210.5162 M,0,129639,129649,294.7029,210.5162,302,208
Sprite,Foreground,Centre,"Assets\Effects\colorhax.png",0,0 C,0,129735,,225,121,202 M,0,129735,129745,371,60,373.7932,67.19485 F,2,129735,130320,1,0 S,2,129735,130320,1,0.2 P,0,129735,130320,A M,0,129745,129756,373.7932,67.19485,376.5389,74.40622 M,0,129756,129767,376.5389,74.40622,379.1398,81.67126 M,0,129767,129777,379.1398,81.67126,381.5948,88.9872 M,0,129777,129788,381.5948,88.9872,383.903,96.35115 M,0,129788,129799,383.903,96.35115,386.0636,103.7603 M,0,129799,129810,386.0636,103.7603,388.0851,111.2095 M,0,129810,129820,388.0851,111.2095,389.9275,118.7049
Sprite,Foreground,Centre,"Assets\Effects\colorhax.png",0,0 C,0,129907,,225,121,202 M,0,129907,129917,434,232,435.5399,224.4383 F,2,129907,130492,1,0 S,2,129907,130492,1,0.2 P,0,129907,130492,A M,0,129917,129928,435.5399,224.4383,437.16,216.8979 M,0,129928,129939,437.16,216.8979,439.0249,209.4137 M,0,129939,129949,439.0249,209.4137,441.1327,201.9935 M,0,129949,129960,441.1327,201.9935,443.4813,194.645 M,0,129960,129971,443.4813,194.645,446.0682,187.3758 M,0,129971,129982,446.0682,187.3758,448.8737,180.1854 M,0,129982,129992,448.8737,180.1854,451.953,173.108
Sprite,Foreground,Centre,"Assets\Effects\colorhax.png",0,0 C,0,130078,,225,121,202 M,0,130078,130088,524,139,516.3099,139.6651 F,2,130078,130835,1,0 S,2,130078,130835,1,0.2 P,0,130078,130835,A M,0,130088,130099,516.3099,139.6651,508.6199,140.3302 M,0,130099,130110,508.6199,140.3302,500.9299,140.9953 M,0,130110,130120,500.9299,140.9953,493.2398,141.6603 M,0,130120,130131,493.2398,141.6603,485.5498,142.3254 M,0,130131,130142,485.5498,142.3254,477.8597,142.9905 M,0,130142,130153,477.8597,142.9905,470.1697,143.6556 M,0,130153,130163,470.1697,143.6556,462.4796,144.3207 M,0,130163,130174,462.4796,144.3207,454.7896,144.9858 M,0,130174,130185,454.7896,144.9858,447.0995,145.6508 M,0,130185,130195,447.0995,145.6508,439.4095,146.3159 M,0,130195,130206,439.4095,146.3159,431.7195,146.981 M,0,130206,130217,431.7195,146.981,424.0294,147.6461 M,0,130217,130228,424.0294,147.6461,416.3394,148.3112 M,0,130228,130238,416.3394,148.3112,408.6494,148.9763 M,0,130238,130249,408.6494,148.9763,400.9593,149.6414 M,0,130249,130260,400.9593,149.6414,393.2693,150.3064 M,0,130260,130270,393.2693,150.3064,385.5792,150.9715 M,0,130270,130281,385.5792,150.9715,377.8892,151.6366 M,0,130281,130292,377.8892,151.6366,370.1991,152.3017 M,0,130292,130303,370.1991,152.3017,362.5091,152.9668 M,0,130303,130313,362.5091,152.9668,354.819,153.6319 M,0,130313,130324,354.819,153.6319,347.129,154.297 M,0,130324,130335,347.129,154.297,339.439,154.962
Sprite,Foreground,Centre,"Assets\Effects\colorhax.png",0,0 C,0,130421,,160,66,255 M,0,130421,130431,97,190,102.2308,184.3383 F,2,130421,131178,1,0 S,2,130421,131178,1,0.2 P,0,130421,131178,A M,0,130431,130442,102.2308,184.3383,107.6586,178.9 M,0,130442,130453,107.6586,178.9,113.5355,173.9498 M,0,130453,130463,113.5355,173.9498,119.8177,169.5245 M,0,130463,130474,119.8177,169.5245,126.4588,165.6571 M,0,130474,130485,126.4588,165.6571,133.4094,162.3766 M,0,130485,130496,133.4094,162.3766,140.6178,159.7073 M,0,130496,130506,140.6178,159.7073,148.0308,157.6693 M,0,130506,130517,148.0308,157.6693,155.5931,156.278 M,0,130517,130528,155.5931,156.278,163.2487,155.544 M,0,130528,130538,163.2487,155.544,170.9408,155.4729 M,0,130538,130549,170.9408,155.4729,178.6121,156.0657 M,0,130549,130560,178.6121,156.0657,186.2056,157.3182 M,0,130560,130571,186.2056,157.3182,193.6648,159.2215 M,0,130571,130581,193.6648,159.2215,200.9341,161.7619 M,0,130581,130592,200.9341,161.7619,207.9595,164.9208 M,0,130592,130603,207.9595,164.9208,214.6885,168.6753 M,0,130603,130613,214.6885,168.6753,221.0708,172.9978 M,0,130613,130624,221.0708,172.9978,227.0586,177.8565 M,0,130624,130635,227.0586,177.8565,232.6072,183.2159 M,0,130635,130646,232.6072,183.2159,237.3805,189.2683 M,0,130646,130656,237.3805,189.2683,241.8787,195.4973 M,0,130656,130667,241.8787,195.4973,245.8232,202.0912 M,0,130667,130678,245.8232,202.0912,249.4726,208.8809
Sprite,Foreground,Centre,"Assets\Effects\colorhax.png",0,0 C,0,130764,,160,66,255 M,0,130764,130774,311,291,316.3037,296.5935 F,2,130764,131521,1,0 S,2,130764,131521,1,0.2 P,0,130764,131521,A M,0,130774,130785,316.3037,296.5935,321.8067,301.9565 M,0,130785,130796,321.8067,301.9565,327.753,306.8238 M,0,130796,130806,327.753,306.8238,334.0982,311.1588 M,0,130806,130817,334.0982,311.1588,340.7949,314.929 M,0,130817,130828,340.7949,314.929,347.7931,318.1063 M,0,130828,130839,347.7931,318.1063,355.0404,320.6667 M,0,130839,130849,355.0404,320.6667,362.4828,322.591 M,0,130849,130860,362.4828,322.591,370.0645,323.8646 M,0,130860,130871,370.0645,323.8646,377.729,324.4778 M,0,130871,130881,377.729,324.4778,385.419,324.426 M,0,130881,130892,385.419,324.426,393.0769,323.7092 M,0,130892,130903,393.0769,323.7092,400.6454,322.3325 M,0,130903,130914,400.6454,322.3325,408.068,320.3061 M,0,130914,130924,408.068,320.3061,415.2889,317.6448 M,0,130924,130935,415.2889,317.6448,422.2542,314.3682 M,0,130935,130946,422.2542,314.3682,428.9115,310.5006 M,0,130946,130956,428.9115,310.5006,435.2108,306.0706 M,0,130956,130967,435.2108,306.0706,441.105,301.111 M,0,130967,130978,441.105,301.111,446.5497,295.6587 M,0,130978,130989,446.5497,295.6587,451.5037,289.7542 M,0,130989,130999,451.5037,289.7542,455.9298,283.4414 M,0,130999,131010,455.9298,283.4414,459.8177,276.7768 M,0,131010,131021,459.8177,276.7768,463,270
Sprite,Foreground,Centre,"Assets\Effects\colorhax.png",0,0 C,0,131107,,225,121,202 M,0,131107,131117,475,242,475.36,249.7101 F,2,131107,131778,1,0 S,2,131107,131778,1,0.2 P,0,131107,131778,A M,0,131117,131128,475.36,249.7101,475.7601,257.4178 M,0,131128,131139,475.7601,257.4178,476.253,265.1201 M,0,131139,131149,476.253,265.1201,476.8387,272.8159 M,0,131149,131160,476.8387,272.8159,477.5172,280.5041 M,0,131160,131171,477.5172,280.5041,478.2883,288.1836 M,0,131171,131182,478.2883,288.1836,479.1519,295.8533 M,0,131182,131192,479.1519,295.8533,480.1079,303.5121 M,0,131192,131203,480.1079,303.5121,481.1561,311.1588 M,0,131203,131214,481.1561,311.1588,482.2965,318.7923 M,0,131214,131224,482.2965,318.7923,483.5288,326.4117 M,0,131224,131235,483.5288,326.4117,484.8528,334.0156 M,0,131235,131246,484.8528,334.0156,486.2684,341.6031 M,0,131246,131257,486.2684,341.6031,487.7754,349.1732 M,0,131257,131267,487.7754,349.1732,489.3688,356.7256 M,0,131267,131278,489.3688,356.7256,491,364
Sprite,Foreground,Centre,"Assets\Effects\colorhax.png",0,0 C,0,131449,,225,121,202 M,0,131449,131459,294,413,295.6409,405.4579 F,2,131449,132120,1,0 S,2,131449,132120,1,0.2 P,0,131449,132120,A M,0,131459,131470,295.6409,405.4579,297.2433,397.9081 M,0,131470,131481,297.2433,397.9081,298.7542,390.3394 M,0,131481,131491,298.7542,390.3394,300.1733,382.7529 M,0,131491,131502,300.1733,382.7529,301.5005,375.1498 M,0,131502,131513,301.5005,375.1498,302.7356,367.5311 M,0,131513,131524,302.7356,367.5311,303.8784,359.898 M,0,131524,131534,303.8784,359.898,304.9287,352.2516 M,0,131534,131545,304.9287,352.2516,305.8864,344.593 M,0,131545,131556,305.8864,344.593,306.7513,336.9233 M,0,131556,131566,306.7513,336.9233,307.5234,329.2436 M,0,131566,131577,307.5234,329.2436,308.2024,321.5551 M,0,131577,131588,308.2024,321.5551,308.7883,313.8587 M,0,131588,131599,308.7883,313.8587,309.2809,306.1558 M,0,131599,131609,309.2809,306.1558,309.6241,298.4449 M,0,131609,131620,309.6241,298.4449,309.9721,290.7343
Sprite,Foreground,Centre,"Assets\Effects\colorhax.png",0,0 C,0,131792,,225,121,202 M,0,131792,131802,199,124,206.7048,123.5401 F,2,131792,132549,1,0 S,2,131792,132549,1,0.2 P,0,131792,132549,A M,0,131802,131813,206.7048,123.5401,214.3937,122.8648 M,0,131813,131824,214.3937,122.8648,222.0593,121.9632 M,0,131824,131834,222.0593,121.9632,229.6929,120.8221 M,0,131834,131845,229.6929,120.8221,237.2845,119.4291 M,0,131845,131856,237.2845,119.4291,244.8229,117.7722 M,0,131856,131867,244.8229,117.7722,252.2953,115.8397 M,0,131867,131877,252.2953,115.8397,259.6877,113.621 M,0,131877,131888,259.6877,113.621,266.9845,111.1055 M,0,131888,131899,266.9845,111.1055,274.1686,108.2845 M,0,131899,131909,274.1686,108.2845,281.222,105.1512 M,0,131909,131920,281.222,105.1512,288.1266,101.7023 M,0,131920,131931,288.1266,101.7023,294.8621,97.9339 M,0,131931,131942,294.8621,97.9339,301.411,93.84984 M,0,131942,131952,301.411,93.84984,306.692,90.87923 M,0,131952,131963,306.692,90.87923,304.2816,98.21155 M,0,131963,131974,304.2816,98.21155,302.1335,105.6249 M,0,131974,131984,302.1335,105.6249,300.256,113.1114 M,0,131984,131995,300.256,113.1114,298.6572,120.6623 M,0,131995,132006,298.6572,120.6623,297.3427,128.2678 M,0,132006,132017,297.3427,128.2678,296.3173,135.9177 M,0,132017,132027,296.3173,135.9177,295.5847,143.6011 M,0,132027,132038,295.5847,143.6011,295.1456,151.3069 M,0,132038,132049,295.1456,151.3069,295,159
Sprite,Foreground,Centre,"Assets\Effects\colorhax.png",0,0 C,0,132135,,225,121,202 M,0,132135,132145,415,286,416.1509,278.3676 F,2,132135,132892,1,0 S,2,132135,132892,1,0.2 P,0,132135,132892,A M,0,132145,132156,416.1509,278.3676,417.3018,270.7351 M,0,132156,132167,417.3018,270.7351,418.4528,263.1026 M,0,132167,132177,418.4528,263.1026,419.6037,255.4702 M,0,132177,132188,419.6037,255.4702,420.7546,247.8377 M,0,132188,132199,420.7546,247.8377,421.9055,240.2052 M,0,132199,132210,421.9055,240.2052,423.0565,232.5728 M,0,132210,132220,423.0565,232.5728,424.2074,224.9403 M,0,132220,132231,424.2074,224.9403,425.3583,217.3078 M,0,132231,132242,425.3583,217.3078,426.5093,209.6754 M,0,132242,132252,426.5093,209.6754,427.6602,202.0429 M,0,132252,132263,427.6602,202.0429,428.8111,194.4105 M,0,132263,132274,428.8111,194.4105,429.962,186.778 M,0,132274,132285,429.962,186.778,431.113,179.1455 M,0,132285,132295,431.113,179.1455,432.2639,171.5131 M,0,132295,132306,432.2639,171.5131,433.4148,163.8806 M,0,132306,132317,433.4148,163.8806,431.8847,163.1499 M,0,132317,132327,431.8847,163.1499,427.5107,169.5096 M,0,132327,132338,427.5107,169.5096,423.0238,175.7901 M,0,132338,132349,423.0238,175.7901,418.3956,181.9672 M,0,132349,132360,418.3956,181.9672,413.5832,188.0015 M,0,132360,132370,413.5832,188.0015,408.5169,193.8237 M,0,132370,132381,408.5169,193.8237,403.071,199.2903 M,0,132381,132392,403.071,199.2903,397,204
Sprite,Foreground,Centre,"Assets\Effects\colorhax.png",0,0 C,0,132478,,225,121,202 M,0,132478,132488,278,262,270.8428,264.7137 F,2,132478,133235,1,0 S,2,132478,133235,1,0.2 P,0,132478,133235,A M,0,132488,132499,270.8428,264.7137,264.1198,268.0549 M,0,132499,132510,264.1198,268.0549,258.264,272.7548 M,0,132510,132520,258.264,272.7548,253.5454,278.5977 M,0,132520,132531,253.5454,278.5977,250.1817,285.3151 M,0,132531,132542,250.1817,285.3151,248.3288,292.5986 M,0,132542,132553,248.3288,292.5986,248.0732,300.1131 M,0,132553,132563,248.0732,300.1131,249.4286,307.5129 M,0,132563,132574,249.4286,307.5129,252.3342,314.457 M,0,132574,132585,252.3342,314.457,256.6583,320.6248 M,0,132585,132595,256.6583,320.6248,262.2039,325.731 M,0,132595,132606,262.2039,325.731,268.7173,329.5385 M,0,132606,132617,268.7173,329.5385,275.9,331.8694 M,0,132617,132628,275.9,331.8694,283.4222,332.6133 M,0,132628,132638,283.4222,332.6133,290.9377,331.7326 M,0,132638,132649,290.9377,331.7326,298.0996,329.2642 M,0,132649,132660,298.0996,329.2642,304.5767,325.3181 M,0,132660,132670,304.5767,325.3181,310.0683,320.0727 M,0,132670,132681,310.0683,320.0727,314.318,313.7667 M,0,132681,132692,314.318,313.7667,317.1261,306.6882 M,0,132692,132703,317.1261,306.6882,318.3585,299.162 M,0,132703,132713,318.3585,299.162,317.9531,291.5345 M,0,132713,132724,317.9531,291.5345,316.0358,284.0853 M,0,132724,132735,316.0358,284.0853,313,278
Sprite,Foreground,Centre,"Assets\Effects\colorhax.png",306,254 C,0,132821,,225,121,202 F,2,132821,133321,1,0 S,2,132821,133321,1,0.2 P,0,132821,133321,A
Sprite,Foreground,Centre,"Assets\Effects\colorhax.png",384,364 C,0,132992,,225,121,202 F,2,132992,133492,1,0 S,2,132992,133492,1,0.2 P,0,132992,133492,A
Sprite,Foreground,Centre,"Assets\Effects\colorhax.png",0,0 C,0,133164,,160,66,255 M,0,133164,133174,482,248,474.3383,247.0638 F,2,133164,133749,1,0 S,2,133164,133749,1,0.2 P,0,133164,133749,A M,0,133174,133185,474.3383,247.0638,466.6791,246.1096 M,0,133185,133196,466.6791,246.1096,459.0274,245.0974 M,0,133196,133206,459.0274,245.0974,451.3835,244.0272 M,0,133206,133217,451.3835,244.0272,443.7478,242.8989 M,0,133217,133228,443.7478,242.8989,436.1208,241.7129 M,0,133228,133239,436.1208,241.7129,428.5028,240.4704 M,0,133239,133249,428.5028,240.4704,420.8969,239.1551
Sprite,Foreground,Centre,"Assets\Effects\colorhax.png",0,0 C,0,133335,,160,66,255 M,0,133335,133345,399,157,406.6116,158.2809 F,2,133335,133920,1,0 S,2,133335,133920,1,0.2 P,0,133335,133920,A M,0,133345,133356,406.6116,158.2809,414.226,159.5439 M,0,133356,133367,414.226,159.5439,421.8498,160.7491 M,0,133367,133377,421.8498,160.7491,429.4825,161.8964 M,0,133377,133388,429.4825,161.8964,437.1238,162.9858 M,0,133388,133399,437.1238,162.9858,444.7732,164.0172 M,0,133399,133410,444.7732,164.0172,452.4301,164.9921 M,0,133410,133420,452.4301,164.9921,460.096,165.8937
Sprite,Foreground,Centre,"Assets\Effects\colorhax.png",539,176 C,0,133507,,160,66,255 F,2,133507,134007,1,0 S,2,133507,134007,1,0.2 P,0,133507,134007,A
Sprite,Foreground,Centre,"Assets\Effects\colorhax.png",306,254 C,0,133678,,160,66,255 F,2,133678,134178,1,0 S,2,133678,134178,1,0.2 P,0,133678,134178,A
Sprite,Foreground,Centre,"Assets\Effects\colorhax.png",0,0 C,0,133849,,225,121,202 M,0,133849,133859,343,84,335.3083,84.63997 F,2,133849,134434,1,0 S,2,133849,134434,1,0.2 P,0,133849,134434,A M,0,133859,133870,335.3083,84.63997,327.6206,85.31654 M,0,133870,133881,327.6206,85.31654,319.9441,86.1104 M,0,133881,133891,319.9441,86.1104,312.2804,87.02139 M,0,133891,133902,312.2804,87.02139,304.6312,88.04926 M,0,133902,133913,304.6312,88.04926,296.9983,89.19386 M,0,133913,133924,296.9983,89.19386,289.3827,90.45123 M,0,133924,133934,289.3827,90.45123,281.7925,91.85358
Sprite,Foreground,Centre,"Assets\Effects\colorhax.png",0,0 C,0,134021,,225,121,202 M,0,134021,134031,260,175,267.5341,173.3265 F,2,134021,134606,1,0 S,2,134021,134606,1,0.2 P,0,134021,134606,A M,0,134031,134042,267.5341,173.3265,275.0792,171.7156 M,0,134042,134053,275.0792,171.7156,282.6621,170.2915 M,0,134053,134063,282.6621,170.2915,290.2783,169.0552 M,0,134063,134074,290.2783,169.0552,297.9231,168.0072 M,0,134074,134085,297.9231,168.0072,305.5922,167.1484 M,0,134085,134096,305.5922,167.1484,313.2803,166.4636 M,0,134096,134106,313.2803,166.4636,320.9849,166.0009
Sprite,Foreground,Centre,"Assets\Effects\colorhax.png",399,157 C,0,134192,,225,121,202 F,2,134192,134692,1,0 S,2,134192,134692,1,0.2 P,0,134192,134692,A
Sprite,Foreground,Centre,"Assets\Effects\colorhax.png",401,163 C,0,134278,,225,121,202 F,2,134278,134778,1,0 S,2,134278,134778,1,0.2 P,0,134278,134778,A
Sprite,Foreground,Centre,"Assets\Effects\colorhax.png",404,169 C,0,134364,,225,121,202 F,2,134364,134864,1,0 S,2,134364,134864,1,0.2 P,0,134364,134864,A
Sprite,Foreground,Centre,"Assets\Effects\colorhax.png",407,176 C,0,134449,,225,121,202 F,2,134449,134949,1,0 S,2,134449,134949,1,0.2 P,0,134449,134949,A
Sprite,Foreground,Centre,"Assets\Effects\colorhax.png",410,183 C,0,134535,,160,66,255 F,2,134535,135035,1,0 S,2,134535,135035,1,0.2 P,0,134535,135035,A
Sprite,Foreground,Centre,"Assets\Effects\colorhax.png",445,170 C,0,134620,,160,66,255 F,2,134620,135120,1,0 S,2,134620,135120,1,0.2 P,0,134620,135120,A
Sprite,Foreground,Centre,"Assets\Effects\colorhax.png",483,177 C,0,134706,,160,66,255 F,2,134706,135206,1,0 S,2,134706,135206,1,0.2 P,0,134706,135206,A
Sprite,Foreground,Centre,"Assets\Effects\colorhax.png",512,201 C,0,134792,,160,66,255 F,2,134792,135292,1,0 S,2,134792,135292,1,0.2 P,0,134792,135292,A
Sprite,Foreground,Centre,"Assets\Effects\colorhax.png",525,237 C,0,134877,,160,66,255 F,2,134877,135377,1,0 S,2,134877,135377,1,0.2 P,0,134877,135377,A
Sprite,Foreground,Centre,"Assets\Effects\colorhax.png",518,275 C,0,134963,,160,66,255 F,2,134963,135463,1,0 S,2,134963,135463,1,0.2 P,0,134963,135463,A
Sprite,Foreground,Centre,"Assets\Effects\colorhax.png",493,304 C,0,135049,,160,66,255 F,2,135049,135549,1,0 S,2,135049,135549,1,0.2 P,0,135049,135549,A
Sprite,Foreground,Centre,"Assets\Effects\colorhax.png",457,316 C,0,135135,,160,66,255 F,2,135135,135635,1,0 S,2,135135,135635,1,0.2 P,0,135135,135635,A
Sprite,Foreground,Centre,"Assets\Effects\colorhax.png",419,309 C,0,135221,,160,66,255 F,2,135221,135721,1,0 S,2,135221,135721,1,0.2 P,0,135221,135721,A
Sprite,Foreground,Centre,"Assets\Effects\colorhax.png",216,173 C,0,135392,,160,66,255 F,2,135392,135892,1,0 S,2,135392,135892,1,0.2 P,0,135392,135892,A
Sprite,Foreground,Centre,"Assets\Effects\colorhax.png",304,345 C,0,135564,,160,66,255 F,2,135564,136064,1,0 S,2,135564,136064,1,0.2 P,0,135564,136064,A
Sprite,Foreground,Centre,"Assets\Effects\colorhax.png",410,183 C,0,135735,,160,66,255 F,2,135735,136235,1,0 S,2,135735,136235,1,0.2 P,0,135735,136235,A
Sprite,Foreground,Centre,"Assets\Effects\colorhax.png",0,0 C,0,135907,,225,121,202 M,0,135907,135917,250,254,254.3545,254.9274 F,2,135907,136921,1,0 S,2,135907,136921,1,0.2 P,0,135907,136921,A M,0,135917,135928,254.3545,254.9274,258.6757,256.0104 M,0,135928,135939,258.6757,256.0104,263.0613,256.7773 M,0,135939,135949,263.0613,256.7773,267.4199,257.6979 M,0,135949,135960,267.4199,257.6979,271.8307,258.3033 M,0,135960,135971,271.8307,258.3033,276.2205,259.0604 M,0,135971,135982,276.2205,259.0604,280.6505,259.5034 M,0,135982,135992,280.6505,259.5034,285.0654,260.0958 M,0,135992,136003,285.0654,260.0958,289.5087,260.3758 M,0,136003,136014,289.5087,260.3758,293.9424,260.8027 M,0,136014,136024,293.9424,260.8027,298.393,260.9194 M,0,136024,136035,298.393,260.9194,302.8395,261.1803 M,0,136035,136046,302.8395,261.1803,307.2914,261.1335 M,0,136046,136057,307.2914,261.1335,311.7449,261.2384 M,0,136057,136067,311.7449,261.2384,316.1959,261.1099 M,0,136067,136078,316.1959,261.1099,320,261 M,0,136078,136089,320,261,316.1959,261.1099 M,0,136089,136099,316.1959,261.1099,311.7449,261.2384 M,0,136099,136110,311.7449,261.2384,307.2914,261.1335 M,0,136110,136121,307.2914,261.1335,302.8395,261.1803 M,0,136121,136132,302.8395,261.1803,298.393,260.9194 M,0,136132,136142,298.393,260.9194,293.9424,260.8027 M,0,136142,136153,293.9424,260.8027,289.5087,260.3758 M,0,136153,136164,289.5087,260.3758,285.0654,260.0958 M,0,136164,136174,285.0654,260.0958,280.6505,259.5034 M,0,136174,136185,280.6505,259.5034,276.2205,259.0604 M,0,136185,136196,276.2205,259.0604,271.8307,258.3033 M,0,136196,136207,271.8307,258.3033,267.4199,257.698 M,0,136207,136217,267.4199,257.698,263.0613,256.7773 M,0,136217,136228,263.0613,256.7773,258.6757,256.0104 M,0,136228,136239,258.6757,256.0104,254.3545,254.9274 M,0,136239,136249,254.3545,254.9274,250,254 M,0,136249,136260,250,254,254.3544,254.9274 M,0,136260,136271,254.3544,254.9274,258.6757,256.0104 M,0,136271,136282,258.6757,256.0104,263.0613,256.7773 M,0,136282,136292,263.0613,256.7773,267.4199,257.6979 M,0,136292,136303,267.4199,257.6979,271.8306,258.3033 M,0,136303,136314,271.8306,258.3033,276.2205,259.0604 M,0,136314,136324,276.2205,259.0604,280.6505,259.5034 M,0,136324,136335,280.6505,259.5034,285.0654,260.0958 M,0,136335,136346,285.0654,260.0958,289.5087,260.3758 M,0,136346,136357,289.5087,260.3758,293.9424,260.8027 M,0,136357,136367,293.9424,260.8027,298.393,260.9194 M,0,136367,136378,298.393,260.9194,302.8395,261.1803 M,0,136378,136389,302.8395,261.1803,307.2914,261.1335 M,0,136389,136399,307.2914,261.1335,311.7449,261.2384 M,0,136399,136410,311.7449,261.2384,316.1959,261.1099 M,0,136410,136421,316.1959,261.1099,320,261
Sprite,Foreground,Centre,"Assets\Effects\colorhax.png",0,0 C,0,136592,,225,121,202 M,0,136592,136602,356,330,358.9309,329.5431 F,2,136592,137606,1,0 S,2,136592,137606,1,0.2 P,0,136592,137606,A M,0,136602,136613,358.9309,329.5431,361.8618,329.0862 M,0,136613,136624,361.8618,329.0862,364.7926,328.6292 M,0,136624,136634,364.7926,328.6292,367.741,328.3248 M,0,136634,136645,367.741,328.3248,370.6323,327.6622 M,0,136645,136656,370.6323,327.6622,373.5236,326.9996 M,0,136656,136667,373.5236,326.9996,376.4514,326.5191 M,0,136667,136677,376.4514,326.5191,379.2888,325.654 M,0,136677,136688,379.2888,325.654,382.1261,324.789 M,0,136688,136699,382.1261,324.789,385.0232,324.1335 M,0,136699,136709,385.0232,324.1335,387.7924,323.0704 M,0,136709,136720,387.7924,323.0704,390.5616,322.0073 M,0,136720,136731,390.5616,322.0073,393.4349,321.2151 M,0,136731,136742,393.4349,321.2151,396.1666,320.0542 M,0,136742,136752,396.1666,320.0542,398.8982,318.8932 M,0,136752,136763,398.8982,318.8932,401,318 M,0,136763,136774,401,318,398.8982,318.8932 M,0,136774,136784,398.8982,318.8932,396.1666,320.0542 M,0,136784,136795,396.1666,320.0542,393.4349,321.2151 M,0,136795,136806,393.4349,321.2151,390.5616,322.0073 M,0,136806,136817,390.5616,322.0073,387.7924,323.0704 M,0,136817,136827,387.7924,323.0704,385.0232,324.1335 M,0,136827,136838,385.0232,324.1335,382.1261,324.789 M,0,136838,136849,382.1261,324.789,379.2888,325.654 M,0,136849,136859,379.2888,325.654,376.4514,326.5191 M,0,136859,136870,376.4514,326.5191,373.5236,326.9996 M,0,136870,136881,373.5236,326.9996,370.6323,327.6622 M,0,136881,136892,370.6323,327.6622,367.741,328.3248 M,0,136892,136902,367.741,328.3248,364.7926,328.6292 M,0,136902,136913,364.7926,328.6292,361.8618,329.0862 M,0,136913,136924,361.8618,329.0862,358.9309,329.5431 M,0,136924,136934,358.9309,329.5431,356,330 M,0,136934,136945,356,330,358.9309,329.5431 M,0,136945,136956,358.9309,329.5431,361.8618,329.0862 M,0,136956,136967,361.8618,329.0862,364.7926,328.6292 M,0,136967,136977,364.7926,328.6292,367.741,328.3248 M,0,136977,136988,367.741,328.3248,370.6323,327.6622 M,0,136988,136999,370.6323,327.6622,373.5236,326.9996 M,0,136999,137009,373.5236,326.9996,376.4514,326.5191 M,0,137009,137020,376.4514,326.5191,379.2888,325.654 M,0,137020,137031,379.2888,325.654,382.1261,324.789 M,0,137031,137042,382.1261,324.789,385.0232,324.1335 M,0,137042,137052,385.0232,324.1335,387.7924,323.0704 M,0,137052,137063,387.7924,323.0704,390.5616,322.0073 M,0,137063,137074,390.5616,322.0073,393.4349,321.2151 M,0,137074,137084,393.4349,321.2151,396.1666,320.0542 M,0,137084,137095,396.1666,320.0542,398.8982,318.8932 M,0,137095,137106,398.8982,318.8932,401,318
Sprite,Foreground,Centre,"Assets\Effects\colorhax.png",0,0 C,0,137278,,225,121,202 M,0,137278,137288,469,356,470.1881,355.1245 F,2,137278,138292,1,0 S,2,137278,138292,1,0.2 P,0,137278,138292,A M,0,137288,137299,470.1881,355.1245,471.3762,354.2491 M,0,137299,137310,471.3762,354.2491,472.5643,353.3737 M,0,137310,137320,472.5643,353.3737,473.7524,352.4982 M,0,137320,137331,473.7524,352.4982,474.9406,351.6227 M,0,137331,137342,474.9406,351.6227,476.1287,350.7473 M,0,137342,137353,476.1287,350.7473,477.3168,349.8719 M,0,137353,137363,477.3168,349.8719,479.1582,349.8831 M,0,137363,137374,479.1582,349.8831,480.2646,348.8967 M,0,137374,137385,480.2646,348.8967,481.3709,347.9103 M,0,137385,137395,481.3709,347.9103,482.4773,346.9239 M,0,137395,137406,482.4773,346.9239,483.5836,345.9375 M,0,137406,137417,483.5836,345.9375,484.69,344.9511 M,0,137417,137428,484.69,344.9511,485.7964,343.9647 M,0,137428,137438,485.7964,343.9647,486.9027,342.9783 M,0,137438,137449,486.9027,342.9783,488,342 M,0,137449,137460,488,342,486.9027,342.9783 M,0,137460,137470,486.9027,342.9783,485.7964,343.9647 M,0,137470,137481,485.7964,343.9647,484.69,344.9511 M,0,137481,137492,484.69,344.9511,483.5836,345.9375 M,0,137492,137503,483.5836,345.9375,482.4773,346.9239 M,0,137503,137513,482.4773,346.9239,481.3709,347.9103 M,0,137513,137524,481.3709,347.9103,480.2646,348.8967 M,0,137524,137535,480.2646,348.8967,479.1582,349.8831 M,0,137535,137545,479.1582,349.8831,477.3168,349.8719 M,0,137545,137556,477.3168,349.8719,476.1287,350.7473 M,0,137556,137567,476.1287,350.7473,474.9406,351.6227 M,0,137567,137578,474.9406,351.6227,473.7524,352.4982 M,0,137578,137588,473.7524,352.4982,472.5643,353.3737 M,0,137588,137599,472.5643,353.3737,471.3762,354.2491 M,0,137599,137610,471.3762,354.2491,470.1881,355.1245 M,0,137610,137620,470.1881,355.1245,469,356 M,0,137620,137631,469,356,470.1881,355.1245 M,0,137631,137642,470.1881,355.1245,471.3762,354.2491 M,0,137642,137653,471.3762,354.2491,472.5643,353.3737 M,0,137653,137663,472.5643,353.3737,473.7524,352.4982 M,0,137663,137674,473.7524,352.4982,474.9406,351.6227 M,0,137674,137685,474.9406,351.6227,476.1287,350.7473 M,0,137685,137695,476.1287,350.7473,477.3168,349.8719 M,0,137695,137706,477.3168,349.8719,479.1582,349.8831 M,0,137706,137717,479.1582,349.8831,480.2646,348.8967 M,0,137717,137728,480.2646,348.8967,481.3709,347.9103 M,0,137728,137738,481.3709,347.9103,482.4773,346.9239 M,0,137738,137749,482.4773,346.9239,483.5836,345.9375 M,0,137749,137760,483.5836,345.9375,484.69,344.9511 M,0,137760,137770,484.69,344.9511,485.7964,343.9647 M,0,137770,137781,485.7964,343.9647,486.9027,342.9783 M,0,137781,137792,486.9027,342.9783,488,342
Sprite,Foreground,Centre,"Assets\Effects\colorhax.png",0,0 C,0,137964,,225,121,202 M,0,137964,137974,565,351,565.494,350.2589 F,2,137964,138978,1,0 S,2,137964,138978,1,0.2 P,0,137964,138978,A M,0,137974,137985,565.494,350.2589,565.988,349.5179 M,0,137985,137996,565.988,349.5179,566.4821,348.7769 M,0,137996,138006,566.4821,348.7769,566.9761,348.0358 M,0,138006,138017,566.9761,348.0358,567.4702,347.2948 M,0,138017,138028,567.4702,347.2948,567.9642,346.5537 M,0,138028,138039,567.9642,346.5537,568.4583,345.8127 M,0,138039,138049,568.4583,345.8127,568.9523,345.0717 M,0,138049,138060,568.9523,345.0717,569.4463,344.3306 M,0,138060,138071,569.4463,344.3306,569.9403,343.5895 M,0,138071,138081,569.9403,343.5895,570.4343,342.8485 M,0,138081,138092,570.4343,342.8485,570.9283,342.1075 M,0,138092,138103,570.9283,342.1075,571.4224,341.3664 M,0,138103,138114,571.4224,341.3664,571.9164,340.6254 M,0,138114,138124,571.9164,340.6254,572.4105,339.8843 M,0,138124,138135,572.4105,339.8843,572.9045,339.1433 M,0,138135,138146,572.9045,339.1433,572.4105,339.8843 M,0,138146,138156,572.4105,339.8843,571.9164,340.6254 M,0,138156,138167,571.9164,340.6254,571.4224,341.3664 M,0,138167,138178,571.4224,341.3664,570.9283,342.1075 M,0,138178,138189,570.9283,342.1075,570.4343,342.8485 M,0,138189,138199,570.4343,342.8485,569.9403,343.5895 M,0,138199,138210,569.9403,343.5895,569.4463,344.3306 M,0,138210,138221,569.4463,344.3306,568.9523,345.0717 M,0,138221,138231,568.9523,345.0717,568.4583,345.8127 M,0,138231,138242,568.4583,345.8127,567.9642,346.5537 M,0,138242,138253,567.9642,346.5537,567.4702,347.2948 M,0,138253,138264,567.4702,347.2948,566.9761,348.0358 M,0,138264,138274,566.9761,348.0358,566.4821,348.7769 M,0,138274,138285,566.4821,348.7769,565.988,349.5179 M,0,138285,138296,565.988,349.5179,565.494,350.2589 M,0,138296,138306,565.494,350.2589,565,351 M,0,138306,138317,565,351,565.494,350.2589 M,0,138317,138328,565.494,350.2589,565.988,349.5179 M,0,138328,138339,565.988,349.5179,566.4821,348.7769 M,0,138339,138349,566.4821,348.7769,566.9761,348.0358 M,0,138349,138360,566.9761,348.0358,567.4702,347.2948 M,0,138360,138371,567.4702,347.2948,567.9642,346.5537 M,0,138371,138381,567.9642,346.5537,568.4583,345.8127 M,0,138381,138392,568.4583,345.8127,568.9523,345.0717 M,0,138392,138403,568.9523,345.0717,569.4463,344.3306 M,0,138403,138414,569.4463,344.3306,569.9403,343.5895 M,0,138414,138424,569.9403,343.5895,570.4343,342.8485 M,0,138424,138435,570.4343,342.8485,570.9283,342.1075 M,0,138435,138446,570.9283,342.1075,571.4224,341.3664 M,0,138446,138456,571.4224,341.3664,571.9164,340.6254 M,0,138456,138467,571.9164,340.6254,572.4105,339.8843 M,0,138467,138478,572.4105,339.8843,572.9045,339.1433
//Storyboard Layer 4 (Overlay)
//Storyboard Sound Samples

[TimingPoints]
1507,342.857142857143,4,2,1,85,1,0
1507,-200,4,2,1,60,0,0
2107,-200,4,2,1,20,0,0
2364,-200,4,2,1,50,0,0
2449,-200,4,2,1,20,0,0
2707,-200,4,2,1,40,0,0
2792,-200,4,2,1,20,0,0
4249,-200,4,2,1,60,0,0
4849,-200,4,2,1,20,0,0
5107,-200,4,2,1,72,0,0
5192,-200,4,2,1,20,0,0
5449,-1000,4,2,1,85,0,0
5964,-200,4,2,1,80,0,0
6307,-200,4,2,1,70,0,0
6478,-200,4,2,1,60,0,0
6649,-200,4,2,1,40,0,0
6821,-200,4,2,1,20,0,0
6992,-200,4,2,1,60,0,0
7592,-200,4,2,1,20,0,0
7849,-200,4,2,1,50,0,0
7935,-200,4,2,1,20,0,0
8192,-200,4,2,1,40,0,0
8278,-200,4,2,1,20,0,0
9735,-200,4,2,1,60,0,0
10335,-200,4,2,1,20,0,0
10592,-200,4,2,1,40,0,0
10678,-200,4,2,1,20,0,0
10935,-200,4,2,1,20,0,0
11792,-200,4,2,1,60,0,0
12478,-100,4,2,1,60,0,0
21907,-1000,4,2,1,60,0,0
22935,-200,4,2,1,50,0,0
23449,-200,4,2,2,35,0,0
33049,-100,4,2,2,35,0,0
34078,-100,4,2,2,85,0,0
34249,-100,4,2,2,50,0,0
34421,-133.333333333333,4,2,2,50,0,0
39907,-100,4,2,2,50,0,0
44878,-200,4,2,2,60,0,0
45049,-200,4,2,3,70,0,0
45221,-200,4,2,3,80,0,0
45392,-100,4,2,3,85,0,0
56364,-100,4,2,1,85,0,0
56707,-333.333333333333,4,2,3,85,0,0
57049,-66.6666666666667,4,2,3,65,0,0
57735,-100,4,2,3,75,0,0
58078,-100,4,2,3,85,0,0
58421,-66.6666666666667,4,2,3,85,0,0
59107,-100,4,2,3,85,0,0
72821,-100,4,2,3,50,0,0
73849,-100,4,2,3,60,0,0
74878,-100,4,2,3,70,0,0
75564,-200,4,2,3,40,0,0
84135,-200,4,2,3,47,0,0
84478,-200,4,2,3,55,0,0
84821,-200,4,2,3,63,0,0
85164,-200,4,2,3,70,0,0
85335,-200,4,2,3,73,0,0
85507,-200,4,2,3,75,0,0
85678,-200,4,2,3,77,0,0
85849,-200,4,2,3,80,0,0
86021,-200,4,2,3,70,0,0
86107,-200,4,2,3,60,0,0
86192,-200,4,2,3,50,0,0
86278,-200,4,2,3,40,0,0
86535,-83.3333333333333,4,2,3,85,0,1
91678,-100,4,2,3,85,0,1
92021,-83.3333333333333,4,2,3,85,0,1
97335,-200,4,2,3,85,0,1
97678,-66.6666666666667,4,2,3,85,0,1
98364,-83.3333333333333,4,2,3,85,0,1
102478,-133.333333333333,4,2,3,85,0,1
102992,-83.3333333333333,4,2,3,85,0,0
103035,-83.3333333333333,4,2,3,20,0,0
103507,-83.3333333333333,4,2,3,85,0,0
103549,-83.3333333333333,4,2,3,20,0,0
104021,-83.3333333333333,4,2,3,85,0,0
104064,-83.3333333333333,4,2,3,20,0,0
104535,-83.3333333333333,4,2,3,85,0,0
104578,-83.3333333333333,4,2,3,20,0,0
104707,-83.3333333333333,4,2,3,60,0,0
105778,-83.3333333333333,4,2,3,20,0,0
106249,-83.3333333333333,4,2,3,85,0,0
106292,-83.3333333333333,4,2,3,20,0,0
106764,-83.3333333333333,4,2,3,85,0,0
106807,-83.3333333333333,4,2,3,20,0,0
107278,-83.3333333333333,4,2,3,85,0,0
107321,-83.3333333333333,4,2,3,20,0,0
107449,-83.3333333333333,4,2,3,60,0,0
108478,-83.3333333333333,4,2,3,70,0,0
108521,-83.3333333333333,4,2,3,20,0,0
108992,-83.3333333333333,4,2,3,85,0,0
109035,-83.3333333333333,4,2,3,20,0,0
109335,-83.3333333333333,4,2,3,85,0,0
109549,-83.3333333333333,4,2,3,20,0,0
109678,-83.3333333333333,4,2,3,85,0,0
110064,-83.3333333333333,4,2,3,20,0,0
110192,-83.3333333333333,4,2,3,60,0,0
110535,-111.111111111111,4,2,3,60,0,0
111221,-83.3333333333333,4,2,3,75,0,0
111264,-83.3333333333333,4,2,3,20,0,0
111735,-50,4,2,3,85,0,0
111778,-50,4,2,3,20,0,0
112249,-35.7142857142857,4,2,3,90,0,0
112292,-35.7142857142857,4,2,3,20,0,0
112764,-27.7777777777778,4,2,3,95,0,0
112807,-27.7777777777778,4,2,3,20,0,0
112935,-27.7777777777778,4,2,3,70,0,0
113278,-66.6666666666667,4,2,3,70,0,0
113621,-27.7777777777778,4,2,3,85,0,0
113792,-27.7777777777778,4,2,3,100,0,0
113964,-76.9230769230769,4,2,3,75,0,1
114135,-76.9230769230769,4,2,3,85,0,1
135907,-133.333333333333,4,2,3,50,0,0
136592,-200,4,2,1,40,0,0
137278,-400,4,2,1,30,0,0
137964,-666.666666666667,4,2,1,20,0,0
138649,-200,4,2,1,60,0,0
139249,-200,4,2,1,20,0,0
139507,-200,4,2,1,72,0,0
139592,-200,4,2,1,20,0,0
139849,-1000,4,2,1,85,0,0
140364,-200,4,2,1,80,0,0
140707,-200,4,2,1,70,0,0
140878,-200,4,2,1,60,0,0
141049,-200,4,2,1,40,0,0
141221,-200,4,2,1,20,0,0
141392,-200,4,2,1,60,0,0
141992,-200,4,2,1,20,0,0
142249,-200,4,2,1,50,0,0
142335,-200,4,2,1,20,0,0
142592,-200,4,2,1,40,0,0
142678,-200,4,2,1,20,0,0
144135,-200,4,2,1,60,0,0
144735,-200,4,2,1,20,0,0
144992,-200,4,2,1,40,0,0
145078,-200,4,2,1,20,0,0

[Colours]
Combo1 : 225,121,202
Combo2 : 160,66,255

[HitObjects]
30,165,1507,6,0,P|76:159|114:186,1,95,2|2,0:0|0:0,0:0:0:0:
171,243,2021,2,0,L|209:224,1,23.75,2|0,0:0|0:0,0:0:0:0:
266,59,2364,2,0,L|243:62,1,23.75,2|0,0:0|0:0,0:0:0:0:
369,282,2707,2,0,L|398:251,1,23.75,2|0,0:0|0:0,0:0:0:0:
409,278,4249,6,0,P|371:251|325:257,1,95,2|2,0:0|0:0,0:0:0:0:
266,313,4764,2,0,L|224:317,1,23.75,2|0,0:0|0:0,0:0:0:0:
116,131,5107,2,0,L|133:92,1,23.75,2|0,0:0|0:0,0:0:0:0:
348,92,5449,2,0,L|372:126,1,23.75,2|0,0:0|0:0,0:0:0:0:
361,111,5964,2,0,P|383:102|407:98,5,47.5,2|0|0|0|0|0,0:0|0:0|0:0|0:0|0:0|0:0,0:0:0:0:
464,154,6992,6,0,P|459:201|458:248,1,95,2|2,0:0|0:0,0:0:0:0:
418,319,7507,2,0,L|441:322,1,23.75,2|0,0:0|0:0,0:0:0:0:
264,187,7849,2,0,L|287:183,1,23.75,2|0,0:0|0:0,0:0:0:0:
144,345,8192,2,0,L|167:348,1,23.75,2|0,0:0|0:0,0:0:0:0:
134,161,9735,5,2,0:0:0:0:
150,86,9907,1,0,0:0:0:0:
225,102,10078,1,2,0:0:0:0:
208,176,10249,2,0,P|209:188|210:200,1,23.75,2|0,0:0|0:0,0:0:0:0:
372,280,10592,2,0,P|360:282|349:285,1,23.75,2|0,0:0|0:0,0:0:0:0:
512,384,10935,2,0,P|510:372|510:360,1,23.75,2|0,0:0|0:0,0:0:0:0:
0,310,11792,2,0,B|42:299|77:260|77:260|77:304|96:330,1,166.25,4|0,3:0|0:0,0:0:0:0:
169,361,12478,6,0,P|258:328|352:311,1,190,4|0,3:2|0:0,0:0:0:0:
512,209,12992,2,0,P|418:191|329:158,1,190,2|0,0:0|0:0,0:0:0:0:
219,85,13507,2,0,B|229:61|225:10|225:10|246:39|255:69,1,142.5,2|0,0:0|0:0,0:0:0:0:
280,84,13849,1,2,0:0:0:0:
146,43,14021,1,0,3:0:0:0:
237,180,14192,2,0,P|282:166|329:158,1,95,0|2,3:0|0:0,0:0:0:0:
363,81,14535,1,0,1:0:0:0:
232,205,14707,2,0,P|187:192|140:184,1,95,0|2,3:0|0:0,0:0:0:0:
69,134,15049,1,0,3:0:0:0:
4,258,15221,6,0,P|65:223|135:209,1,142.5,2|0,3:2|0:0,0:0:0:0:
140,184,15564,2,0,P|164:184|187:190,1,47.5,2|0,0:0|0:0,0:0:0:0:
261,176,15735,2,0,P|296:208|324:246,1,95,2|0,0:0|1:0,0:0:0:0:
228,59,16078,2,0,P|182:73|135:78,1,95,2|0,0:0|0:0,0:0:0:0:
346,89,16421,1,2,0:0:0:0:
346,89,16935,6,0,P|356:42|375:-1,1,95,0|0,3:0|0:0,0:0:0:0:
261,176,17278,1,2,1:2:0:0:
135,78,17449,2,0,P|182:73|228:59,1,95,0|2,3:0|0:0,0:0:0:0:
41,43,17792,1,0,3:2:0:0:
158,176,17964,6,0,P|140:270|132:364,1,190,2|0,3:2|0:0,0:0:0:0:
413,333,18478,2,0,P|405:238|387:145,1,190,2|0,0:0|0:0,0:0:0:0:
222,114,18992,2,0,B|267:112|309:90|309:90|317:117|297:144,1,142.5,2|0,0:0|0:0,0:0:0:0:
293,157,19335,1,2,0:0:0:0:
202,31,19507,1,0,3:0:0:0:
161,198,19678,2,0,P|153:244|151:292,1,95,0|2,3:0|0:0,0:0:0:0:
318,236,20021,1,0,1:0:0:0:
168,180,20192,2,0,P|121:172|73:170,1,95,0|2,3:0|0:0,0:0:0:0:
293,157,20535,1,0,3:0:0:0:
260,301,20707,6,0,P|189:296|119:312,1,142.5,2|0,3:2|0:0,0:0:0:0:
100,322,21049,2,0,L|103:274,1,47.5,2|0,0:0|0:0,0:0:0:0:
161,197,21221,2,0,B|251:170|251:170|230:194|210:227,1,142.5,2|0,0:0|0:0,0:0:0:0:
64,185,21564,2,0,B|-4:120|-4:120|26:126|65:127,1,142.5,2|0,0:0|0:0,0:0:0:0:
103,274,21907,2,0,L|100:312,1,38,2|0,0:0|0:0,0:0:0:0:
229,266,22935,2,0,P|206:258|183:253,2,47.5,2|0|2,0:0|0:0|0:0,0:0:0:0:
292,323,23449,6,0,P|314:315|337:310,1,47.5,2|0,1:2|0:0,0:0:0:0:
380,185,23792,1,0,1:0:0:0:
380,185,23964,2,0,P|385:208|387:231,1,47.5,2|0,0:0|1:0,0:0:0:0:
478,235,24307,1,0,0:0:0:0:
420,360,24478,2,0,P|421:336|427:313,1,47.5,2|0,1:2|0:0,0:0:0:0:
394,97,24821,1,2,1:2:0:0:
312,119,24992,2,0,P|288:124|266:131,1,47.5,2|0,0:0|1:0,0:0:0:0:
55,164,25335,2,0,P|101:163|134:196,1,95,2|0,0:0|0:0,0:0:0:0:
223,312,25849,1,2,1:2:0:0:
222,323,25935,1,2,0:0:0:0:
221,334,26021,1,2,0:0:0:0:
220,345,26107,1,2,0:0:0:0:
218,356,26192,6,0,P|241:349|264:343,1,47.5,2|0,1:2|0:0,0:0:0:0:
427,234,26535,1,0,1:0:0:0:
346,210,26707,2,0,P|323:204|301:198,1,47.5,2|0,0:0|1:0,0:0:0:0:
220,175,27049,1,0,0:0:0:0:
344,321,27221,2,0,P|366:314|389:308,1,47.5,2|0,1:2|0:0,0:0:0:0:
442,153,27564,1,2,1:2:0:0:
346,209,27735,2,0,P|353:232|359:255,1,47.5,2|0,0:0|1:0,0:0:0:0:
493,377,28078,2,0,P|500:330|512:284,1,95,2|2,0:0|0:0,0:0:0:0:
442,153,28592,1,2,1:2:0:0:
443,142,28678,1,2,0:0:0:0:
444,131,28764,1,2,0:0:0:0:
445,120,28850,1,2,0:0:0:0:
447,109,28935,6,0,P|424:116|401:122,1,47.5,2|0,1:2|0:0,0:0:0:0:
304,104,29278,1,0,1:0:0:0:
227,152,29449,2,0,P|204:145|181:139,1,47.5,2|0,0:0|1:0,0:0:0:0:
346,191,29792,1,0,0:0:0:0:
281,278,29964,2,0,P|274:255|268:232,1,47.5,2|0,1:2|0:0,0:0:0:0:
117,108,30307,1,2,1:2:0:0:
182,165,30478,2,0,P|205:158|228:152,1,47.5,2|0,0:0|1:0,0:0:0:0:
361,241,30821,2,0,P|313:239|267:231,1,95,2|0,0:0|0:0,0:0:0:0:
28,283,31335,1,2,1:2:0:0:
44,278,31421,1,2,0:0:0:0:
62,280,31507,1,2,0:0:0:0:
78,290,31592,1,2,0:0:0:0:
96,323,31678,5,2,1:2:0:0:
267,231,32021,5,0,1:0:0:0:
185,204,32192,1,0,1:0:0:0:
317,161,32364,5,0,1:0:0:0:
324,128,32535,1,0,1:0:0:0:
135,273,32707,5,0,1:2:0:0:
142,306,32878,1,0,1:3:0:0:
184,118,33049,5,0,1:0:0:0:
267,316,33221,2,0,P|274:269|288:223,1,95,0|0,1:0|0:0,0:0:0:0:
448,74,33564,2,0,B|415:84|391:93|391:93|337:71|337:71|303:86|269:95,1,190,12|0,0:0|0:0,0:0:0:0:
67,137,34078,1,2,1:2:0:0:
113,65,34249,1,2,1:2:0:0:
184,118,34421,6,0,P|177:152|175:188,1,71.2500027179719,4|0,1:0|0:0,0:0:0:0:
294,277,34764,1,0,1:0:0:0:
128,287,34935,2,0,P|196:268|267:256,1,142.500005435944,2|0,0:3|0:0,0:0:0:0:
389,181,35449,1,2,1:3:0:0:
294,277,35621,1,0,0:0:0:0:
425,312,35792,2,0,P|431:347|433:382,2,71.2500027179719,2|2|0,1:2|0:3|1:0,0:0:0:0:
388,85,36307,1,2,0:0:0:0:
280,156,36478,2,0,P|315:158|351:165,1,71.2500027179719,2|2,1:3|0:0,0:0:0:0:
444,155,36821,1,2,1:3:0:0:
463,137,36907,1,2,0:0:0:0:
475,114,36992,1,2,0:0:0:0:
477,87,37078,1,2,0:0:0:0:
472,61,37164,5,2,1:3:0:0:
512,235,37335,2,0,P|476:237|441:243,1,71.2500027179719,0|0,0:0|1:0,0:0:0:0:
351,165,37678,1,2,0:3:0:0:
311,339,37849,2,0,P|346:341|381:347,1,71.2500027179719,0|0,1:0|0:0,0:0:0:0:
381,139,38192,2,0,P|345:141|310:147,1,71.2500027179719,2|0,1:3|0:0,0:0:0:0:
168,244,38535,1,2,1:2:0:0:
254,205,38707,2,0,P|262:239|258:274,1,71.2500027179719,2|0,0:3|1:0,0:0:0:0:
84,348,39049,2,0,P|80:276|73:205,1,142.500005435944,2|2,0:3|0:0,0:0:0:0:
53,82,39564,1,2,1:3:0:0:
78,94,39650,1,2,0:0:0:0:
106,93,39736,1,2,0:0:0:0:
132,82,39821,1,2,0:0:0:0:
150,64,39907,6,0,P|198:69|245:71,1,95,10|0,1:2|0:0,0:0:0:0:
385,273,40249,2,0,P|432:270|479:265,1,95,8|2,1:2|0:3,0:0:0:0:
312,141,40592,2,0,P|297:210|286:281,1,142.5,8|0,1:2|0:0,0:0:0:0:
283,302,40935,2,0,P|240:282|193:286,1,95,8|0,1:2|0:0,0:0:0:0:
37,260,41278,6,0,P|35:236|29:213,1,47.5,8|0,1:2|0:0,0:0:0:0:
131,174,41449,2,0,P|124:196|122:220,1,47.5,2|0,1:3|0:0,0:0:0:0:
54,122,41621,2,0,B|90:87|90:87|181:97,1,142.5,8|0,1:2|0:0,0:0:0:0:
263,103,41964,1,8,1:2:0:0:
168,301,42135,1,0,1:0:0:0:
345,255,42307,2,0,L|250:244,1,95,8|0,1:2|1:0,1:2:0:0:
229,227,42564,1,0,1:0:0:0:
229,227,42649,6,0,P|232:203|227:180,1,47.5,8|0,1:2|0:0,0:0:0:0:
197,97,42821,2,0,L|149:91,1,47.5,0|0,1:0|0:0,0:0:0:0:
318,120,42992,2,0,P|314:143|319:166,1,47.5,8|0,1:2|0:0,0:0:0:0:
343,252,43164,2,0,L|391:248,1,47.5,0|0,1:0|0:0,0:0:0:0:
445,171,43335,5,8,1:3:0:0:
449,172,43420,1,8,1:3:0:0:
453,172,43506,1,8,1:3:0:0:
457,172,43592,1,8,1:3:0:0:
461,172,43677,1,12,1:3:0:0:
465,173,43763,1,4,1:3:0:0:
468,173,43849,1,4,1:3:0:0:
437,169,44878,6,0,P|446:176|457:183,1,23.75,2|2,0:0|0:0,0:0:0:0:
366,149,45049,2,0,P|355:154|345:161,1,23.75,2|2,0:0|0:0,0:0:0:0:
418,98,45221,2,0,P|419:86|421:75,1,23.75,2|2,0:0|0:0,0:0:0:0:
408,140,45392,6,0,P|342:159|293:113,1,142.5,4|2,3:1|0:0,0:0:0:0:
293,114,45735,2,0,P|301:137|306:160,1,47.5,0|0,1:0|0:0,0:0:0:0:
244,244,45907,1,2,3:2:0:0:
207,255,45992,1,2,3:2:0:0:
171,240,46078,1,0,3:0:0:0:
296,321,46249,2,0,B|359:320|431:295|431:295|408:318|399:336,1,190,0|0,1:0|0:0,1:0:0:0:
212,357,46764,6,0,P|166:344|118:344,1,95,0|2,3:0|0:0,0:0:0:0:
91,354,47021,1,2,0:0:0:0:
91,354,47107,2,0,P|89:330|85:306,1,47.5,2|0,1:2|0:0,0:0:0:0:
203,114,47278,1,2,3:2:0:0:
203,114,47364,1,2,3:2:0:0:
203,114,47450,2,0,P|199:137|195:160,1,47.5,0|0,3:0|0:0,0:0:0:0:
76,222,47621,2,0,B|118:219|118:219|164:250|164:250|209:247,1,142.5,2|0,1:2|0:0,1:2:0:0:
275,189,47964,2,0,P|298:192|321:197,1,47.5,0|2,3:0|0:0,0:0:0:0:
396,277,48135,6,0,P|402:206|411:135,1,142.5,0|2,3:0|0:0,0:0:0:0:
417,104,48478,1,2,1:2:0:0:
275,189,48649,1,2,3:2:0:0:
278,226,48735,1,2,3:2:0:0:
264,260,48821,1,2,3:2:0:0:
98,150,48992,2,0,B|171:114|233:112|233:112|216:122|195:153,1,190,2|2,1:2|0:0,0:0:0:0:
194,156,49421,1,2,0:0:0:0:
190,167,49507,6,0,P|189:143|186:119,1,47.5,0|0,3:0|0:0,0:0:0:0:
323,117,49678,2,0,P|320:140|319:164,1,47.5,0|0,1:2|0:0,0:0:0:0:
167,259,49849,1,0,3:0:0:0:
348,252,50021,2,0,B|396:245|396:245|437:267|437:267|483:259,1,142.5,2|0,3:2|0:0,0:0:0:0:
484,259,50364,2,0,P|483:235|485:211,1,47.5,0|0,3:0|0:0,0:0:0:0:
323,117,50535,2,0,P|323:140|321:164,1,47.5,2|2,1:2|0:0,0:0:0:0:
311,347,50707,1,0,3:2:0:0:
379,298,50878,5,6,3:2:0:0:
354,272,50964,1,2,0:0:0:0:
320,261,51050,1,2,0:0:0:0:
285,265,51135,1,2,0:0:0:0:
253,281,51221,2,0,P|229:277|207:270,1,47.5,2|2,1:2|0:0,0:0:0:0:
59,180,51392,2,0,P|40:164|24:147,2,47.5,2|0|0,0:2|3:0|3:0,0:0:0:0:
55,352,51735,2,0,P|75:309|102:269,1,95,0|2,1:0|0:0,0:0:0:0:
240,131,52078,1,2,0:0:0:0:
240,131,52164,1,2,0:0:0:0:
240,131,52249,5,2,3:2:0:0:
272,148,52334,1,2,0:0:0:0:
307,155,52420,1,2,0:0:0:0:
342,149,52507,1,2,0:0:0:0:
373,131,52592,2,0,P|382:178|388:225,1,95,2|2,1:2|0:0,0:0:0:0:
311,295,52849,1,2,3:2:0:0:
291,287,52935,2,0,P|292:263|297:240,1,47.5,0|0,3:0|0:0,0:0:0:0:
327,59,53107,2,0,P|348:50|372:48,1,47.5,2|0,1:2|0:0,1:2:0:0:
479,173,53278,5,2,0:0:0:0:
478,178,53364,1,2,0:0:0:0:
477,183,53449,1,2,0:0:0:0:
476,188,53535,1,2,0:0:0:0:
475,193,53621,5,2,3:2:0:0:
436,220,53706,1,2,0:0:0:0:
388,225,53792,1,2,0:0:0:0:
345,209,53878,1,2,0:0:0:0:
313,174,53963,1,2,1:2:0:0:
281,139,54049,1,2,0:0:0:0:
237,122,54135,1,2,0:0:0:0:
190,128,54221,1,2,3:2:0:0:
151,154,54306,5,2,3:2:0:0:
142,133,54392,1,2,0:2:0:0:
153,114,54478,1,2,1:2:0:0:
175,111,54564,1,2,0:0:0:0:
190,128,54649,1,2,0:0:0:0:
188,141,54735,1,2,0:0:0:0:
186,155,54821,1,2,0:0:0:0:
184,169,54907,1,2,0:0:0:0:
180,182,54992,6,0,P|204:181|227:174,1,47.5,2|0,3:2|0:0,0:0:0:0:
314,304,55164,2,0,P|291:296|267:295,1,47.5,2|0,3:2|0:0,0:0:0:0:
156,305,55335,1,2,1:2:0:0:
310,149,55507,2,0,B|348:127|348:127|330:223,1,142.5,2|2,3:2|0:0,0:0:0:0:
314,304,55849,1,2,3:2:0:0:
295,36,56021,2,0,L|299:12,6,23.75,4|0|0|0|0|0|0,1:2|0:0|0:0|0:0|0:0|0:0|0:0,0:0:0:0:
259,102,56364,5,2,1:2:0:0:
290,145,56449,1,2,1:2:0:0:
247,176,56535,1,2,1:2:0:0:
278,219,56620,1,2,1:2:0:0:
235,250,56707,6,0,P|231:271|228:292,1,42.7499986953736,4|2,3:1|0:0,0:0:0:0:
223,319,57049,6,0,P|218:283|207:249,1,71.2500027179719,0|0,3:0|0:0,0:0:0:0:
132,92,57221,2,0,P|127:127|116:161,1,71.2500027179719,2|0,3:2|0:0,0:0:0:0:
32,287,57392,1,6,1:2:0:0:
65,260,57477,1,2,0:0:0:0:
105,245,57564,1,2,0:0:0:0:
147,243,57649,1,2,0:0:0:0:
187,258,57735,6,0,L|182:305,2,47.5,2|0|2,3:2|0:0|0:0,0:0:0:0:
225,183,57992,1,2,0:0:0:0:
225,183,58078,2,0,L|272:179,1,47.5,2|0,1:2|0:0,0:0:0:0:
359,326,58249,1,2,0:0:0:0:
359,326,58335,1,2,0:0:0:0:
359,326,58421,2,0,B|345:293|345:293|350:257,1,71.2500027179719,2|0,3:2|0:0,0:0:0:0:
363,22,58592,2,0,B|377:55|377:55|371:90,1,71.2500027179719,2|0,3:2|0:0,0:0:0:0:
361,174,58764,1,2,1:2:0:0:
213,252,58935,1,2,3:2:0:0:
213,252,59021,1,2,3:2:0:0:
213,252,59107,6,0,P|191:209|156:178,1,95,2|2,3:2|0:0,0:0:0:0:
24,333,59449,1,2,1:2:0:0:
204,343,59621,2,0,P|271:324|303:262,1,142.5,2|0,0:2|0:2,0:0:0:0:
303,228,59964,1,0,3:2:0:0:
127,292,60135,2,0,P|112:336|115:384,1,95,0|2,1:0|0:0,0:0:0:0:
108,159,60478,6,0,L|203:147,1,95,4|2,3:2|0:0,0:0:0:0:
467,115,60821,1,0,1:0:0:0:
303,228,60992,2,0,B|285:186|285:186|301:90,1,142.5,6|2,3:2|0:2,0:0:0:0:
312,11,61335,2,0,L|263:17,1,47.5,2|0,3:2|0:0,0:0:0:0:
374,173,61507,2,0,L|382:127,1,47.5,4|0,1:2|0:0,0:0:0:0:
211,100,61678,2,0,L|203:147,1,47.5,2|0,3:2|3:0,0:0:0:0:
401,15,61849,5,4,1:2:0:0:
108,159,62021,1,0,3:0:0:0:
382,127,62192,5,2,1:2:0:0:
158,65,62364,1,0,3:0:0:0:
363,239,62535,5,0,1:0:0:0:
107,333,62707,1,0,3:0:0:0:
344,351,62878,5,2,1:2:0:0:
157,239,63049,2,0,L|180:242,2,23.75,0|0|0,3:0|3:0|3:0,0:0:0:0:
312,112,63221,2,0,P|304:134|298:157,1,47.5,2|0,1:2|0:0,0:0:0:0:
277,283,63392,2,0,P|271:259|263:237,1,47.5,0|0,3:0|0:0,0:0:0:0:
166,155,63564,2,0,L|213:161,1,47.5,0|0,3:0|0:3,0:0:0:0:
454,186,63735,5,0,3:0:0:0:
0,333,64078,2,0,B|23:292|21:218|21:218|53:261|53:281,1,190,0|0,1:2|3:0,0:0:0:0:
76,354,64592,1,4,0:1:0:0:
256,192,72821,12,0,74878,0:0:0:0:
132,174,75564,6,0,P|176:159|223:168,1,95,4|0,0:1|0:0,0:0:0:0:
345,278,76078,2,0,P|300:264|268:230,1,95,2|0,0:0|0:0,0:0:0:0:
233,68,76592,2,0,P|261:106|268:153,1,95,2|0,0:0|0:0,0:0:0:0:
203,303,77107,2,0,P|203:256|226:215,1,95,2|0,0:0|0:0,0:0:0:0:
365,133,77621,2,0,P|338:171|296:192,1,95,8|2,0:0|0:0,0:0:0:0:
126,148,78307,6,0,P|103:141|79:137,2,47.5,4|0|0,0:1|0:0|0:0,0:0:0:0:
247,187,78821,2,0,P|269:180|293:176,2,47.5,2|8|0,0:0|0:0|0:0,0:0:0:0:
126,226,79335,2,0,P|119:248|115:272,2,47.5,2|0|0,0:0|0:0|0:0,0:0:0:0:
201,124,79849,2,0,P|197:100|190:77,2,47.5,2|4|0,0:0|0:1|0:0,0:0:0:0:
197,247,80364,2,0,L|243:239,1,47.5,10|0,0:0|0:0,0:0:0:0:
277,310,80707,2,0,L|230:317,1,47.5
84,314,81049,6,0,P|89:290|89:267,1,47.5,4|0,0:1|0:0,0:0:0:0:
0,121,81392,1,0,0:0:0:0:
197,247,81564,6,0,P|183:226|167:209,1,47.5,2|8,0:0|0:0,0:0:0:0:
31,151,81907,1,0,0:0:0:0:
187,126,82078,6,0,P|164:122|141:120,1,47.5,2|0,0:0|0:0,0:0:0:0:
66,170,82421,1,0,0:0:0:0:
113,49,82592,6,0,P|91:61|75:77,1,47.5,2|4,0:0|0:1,0:0:0:0:
141,120,82935,1,0,0:0:0:0:
217,132,83107,2,0,P|216:107|210:85,1,47.5,10|0,0:0|0:0,0:0:0:0:
94,180,83449,2,0,P|115:192|137:197,1,47.5
254,207,83792,6,0,P|276:203|299:196,1,47.5,2|0,0:0|0:0,0:0:0:0:
379,220,84135,2,0,P|356:216|333:208,1,47.5,2|0,0:0|0:0,0:0:0:0:
217,132,84478,6,0,P|240:131|263:125,1,47.5,2|0,0:0|0:0,0:0:0:0:
387,302,84821,2,0,P|364:300|341:294,1,47.5,2|0,0:0|0:0,0:0:0:0:
145,242,85164,5,2,0:0:0:0:
65,216,85335,1,2,0:0:0:0:
145,190,85507,1,2,0:0:0:0:
96,259,85678,1,2,0:0:0:0:
95,174,85849,2,0,L|95:162,12,11.875,6|0|0|0|0|0|0|0|0|0|0|0|0,0:0|0:0|0:0|0:0|0:0|0:0|0:0|0:0|0:0|0:0|0:0|0:0|0:0,0:0:0:0:
74,84,86535,6,0,B|105:77|129:88|129:88|180:57|180:57|212:68|233:68,1,170.999994781494,4|0,3:1|0:0,0:0:0:0:
263,78,86878,2,0,P|255:106|251:134,1,56.9999982604981,0|0,1:0|0:0,0:0:0:0:
160,228,87049,1,2,0:0:0:0:
160,228,87135,1,2,0:0:0:0:
160,228,87221,2,0,L|216:223,1,56.9999982604981,2|0,0:0|0:0,0:0:0:0:
270,303,87392,2,0,L|213:307,1,56.9999982604981,2|0,3:2|0:0,0:0:0:0:
115,316,87564,1,0,1:0:0:0:
251,133,87735,1,2,0:0:0:0:
373,321,87907,6,0,P|367:264|369:207,1,113.999996520996,0|2,3:0|0:0,0:0:0:0:
379,179,88164,1,2,0:0:0:0:
379,179,88249,1,2,1:2:0:0:
301,31,88421,2,0,L|244:25,2,56.9999982604981,2|2|0,0:2|0:2|0:0,0:0:0:0:
499,55,88764,1,2,3:2:0:0:
418,107,88935,2,0,B|385:-8|385:-8|433:10,1,170.999994781494,0|0,1:0|0:0,0:0:0:0:
511,146,89278,6,0,B|482:144|451:128|451:128|397:156|397:156|375:147|351:143,1,170.999994781494,0|0,3:0|0:0,0:0:0:0:
324,150,89621,1,0,1:0:0:0:
184,121,89792,2,0,P|178:92|177:64,2,56.9999982604981,2|2|2,0:0|0:0|0:0,0:0:0:0:
265,218,90135,2,0,P|238:211|210:208,1,56.9999982604981,2|0,3:2|0:0,0:0:0:0:
45,161,90307,2,0,P|73:157|100:150,1,56.9999982604981,0|0,1:0|0:0,0:0:0:0:
263,86,90478,1,2,0:0:0:0:
138,345,90649,6,0,L|129:231,1,113.999996520996,0|2,3:0|0:0,0:0:0:0:
355,29,90992,2,0,L|346:142,1,113.999996520996,0|2,1:0|0:0,0:0:0:0:
376,172,91249,1,2,0:0:0:0:
416,183,91335,1,2,0:0:0:0:
457,173,91421,1,2,0:0:0:0:
488,144,91506,1,2,3:2:0:0:
259,78,91678,2,0,P|213:92|167:103,1,95,0|0,1:0|0:0,0:0:0:0:
154,252,92021,6,0,P|236:244|292:305,1,170.999994781494,0|0,3:0|0:0,0:0:0:0:
309,332,92364,2,0,L|313:276,1,56.9999982604981,0|0,1:0|0:0,0:0:0:0:
415,98,92535,1,2,0:0:0:0:
430,123,92621,1,2,0:0:0:0:
431,152,92707,2,0,L|375:157,1,56.9999982604981,2|0,0:0|0:0,0:0:0:0:
194,201,92878,2,0,L|250:206,1,56.9999982604981,2|0,3:2|0:0,0:0:0:0:
394,248,93049,1,0,1:0:0:0:
281,104,93221,1,2,0:2:0:0:
228,287,93392,6,0,L|114:276,1,113.999996520996,0|2,3:0|0:0,0:0:0:0:
0,96,93735,2,0,P|47:67|101:78,1,113.999996520996,2|2,1:2|0:2,0:0:0:0:
165,126,93992,1,2,0:2:0:0:
165,126,94078,1,2,0:2:0:0:
281,235,94249,1,2,3:2:0:0:
78,184,94421,1,0,1:0:0:0:
258,97,94592,1,2,0:0:0:0:
191,313,94764,6,0,P|195:257|193:200,1,113.999996520996,0|2,3:0|0:0,0:0:0:0:
123,11,95107,2,0,P|145:28|169:43,1,56.9999982604981,0|0,1:0|0:0,0:0:0:0:
238,87,95278,1,2,0:2:0:0:
248,92,95364,1,2,0:2:0:0:
258,97,95449,1,2,0:0:0:0:
191,165,95621,1,2,3:2:0:0:
388,135,95792,2,0,P|336:158|288:189,1,113.999996520996,0|0,1:0|3:0,0:0:0:0:
47,248,96135,6,0,B|112:228|112:228|208:263,1,170.999994781494,0|0,3:0|0:2,0:0:0:0:
239,274,96478,2,0,L|235:217,1,56.9999982604981,0|0,1:0|0:0,0:0:0:0:
348,35,96649,2,0,L|337:205,1,170.999994781494,0|0,3:0|0:0,0:0:0:0:
337,236,96992,1,0,3:2:0:0:
248,132,97164,1,0,1:0:0:0:
175,302,97335,6,0,P|209:294|245:291,1,71.25,0|0,3:2|0:0,0:0:0:0:
329,272,97678,5,0,3:0:0:0:
334,255,97764,1,0,3:0:0:0:
337,236,97849,6,0,B|390:22|235:1|176:105|293:188,1,356.25001358986,4|2,1:2|0:0,0:0:0:0:
267,167,98364,2,0,P|240:158|211:156,1,56.9999982604981,0|0,3:0|0:2,0:0:0:0:
125,262,98535,2,0,P|135:236|137:207,1,56.9999982604981,0|0,1:0|0:2,0:0:0:0:
122,111,98707,1,2,0:0:0:0:
223,247,98878,6,0,B|275:260|275:260|328:234|328:234|384:249,1,170.999994781494,0|0,3:0|0:0,0:0:0:0:
478,140,99221,2,0,P|425:158|374:135,1,113.999996520996,0|2,1:0|0:0,0:0:0:0:
279,88,99478,1,2,0:2:0:0:
276,110,99564,2,0,L|268:166,1,56.9999982604981,2|0,0:0|0:0,0:0:0:0:
242,344,99735,1,0,3:0:0:0:
83,198,99907,2,0,P|95:254|102:311,1,113.999996520996,0|2,1:0|3:2,0:0:0:0:
102,311,100164,1,0,3:0:0:0:
102,311,100249,5,4,1:2:0:0:
238,152,100421,1,0,3:0:0:0:
247,235,100592,1,0,3:0:0:0:
93,83,100764,5,4,1:2:0:0:
288,163,100936,1,0,3:0:0:0:
212,196,101107,1,0,3:0:0:0:
308,4,101278,5,4,1:2:0:0:
293,214,101450,1,0,3:0:0:0:
238,152,101621,1,0,3:0:0:0:
450,185,101792,5,4,1:2:0:0:
247,235,101964,1,0,3:0:0:0:
288,163,102135,2,0,L|285:134,2,28.4999991302491,0|0|0,3:0|3:0|3:0,0:0:0:0:
314,357,102307,6,0,P|287:350|259:346,1,56.9999982604981,4|0,1:2|0:0,0:0:0:0:
115,280,102478,2,0,P|55:235|123:205,1,178.12500679493,0|0,3:0|0:0,0:0:0:0:
142,210,102992,6,0,L|170:213,1,28.4999991302491,4|0,3:2|0:0,0:0:0:0:
406,131,103507,6,0,L|377:134,1,28.4999991302491,2|0,0:0|0:0,0:0:0:0:
63,79,104021,38,0,L|91:82,1,28.4999991302491,2|0,0:0|0:0,0:0:0:0:
480,305,104535,6,0,L|451:308,1,28.4999991302491,2|0,0:0|0:0,0:0:0:0:
377,314,104707,1,4,3:1:0:0:
230,277,105049,2,0,B|246:200|261:120|261:120|279:151|298:176,1,227.999993041992,8|0,0:0|0:0,0:0:0:0:
317,254,105564,1,0,0:0:0:0:
178,342,105735,38,0,L|149:338,1,28.4999991302491,4|0,3:1|0:0,0:0:0:0:
377,78,106249,6,0,L|405:81,1,28.4999991302491,2|0,0:0|0:0,0:0:0:0:
99,117,106764,38,0,L|70:113,1,28.4999991302491,2|0,0:0|0:0,0:0:0:0:
362,319,107278,6,0,L|390:322,1,28.4999991302491,2|0,0:0|0:0,0:0:0:0:
464,334,107449,1,4,3:1:0:0:
321,244,107621,1,0,0:0:0:0:
391,204,107792,1,8,0:0:0:0:
267,303,107964,1,0,0:0:0:0:
262,187,108135,1,0,0:0:0:0:
362,319,108307,1,0,0:0:0:0:
190,335,108478,38,0,L|186:306,1,28.4999991302491,4|0,3:1|0:0,0:0:0:0:
421,87,108993,6,0,L|417:115,1,28.4999991302491,2|0,0:0|0:0,0:0:0:0:
172,200,109335,1,0,0:0:0:0:
162,126,109507,38,0,L|158:97,1,28.4999991302491,2|0,0:0|0:0,0:0:0:0:
148,23,109678,1,0,0:0:0:0:
449,227,110021,6,0,L|445:255,1,28.4999991302491,2|0,0:0|0:0,0:0:0:0:
435,330,110193,1,4,3:1:0:0:
204,196,110535,2,0,P|301:169|212:124,1,256.499992172241,8|0,0:0|0:0,0:0:0:0:
159,261,111221,38,0,L|163:290,1,28.4999991302491,4|0,3:1|0:0,0:0:0:0:
363,192,111735,6,0,L|368:144,1,47.5,2|0,0:0|0:0,0:0:0:0:
56,55,112249,38,0,L|64:120,1,66.4999979705811,2|0,0:0|0:0,0:0:0:0:
439,330,112764,6,0,L|450:244,1,85.4999973907472,2|0,0:0|0:0,0:0:0:0:
463,166,112936,1,4,3:1:0:0:
197,51,113278,38,0,P|213:82|226:115,1,71.2500027179719,8|0,0:0|0:0,0:0:0:0:
297,340,113449,2,0,P|310:306|326:275,1,71.2500027179719,2|0,0:0|0:0,0:0:0:0:
463,166,113621,1,2,0:0:0:0:
463,166,113707,1,2,0:0:0:0:
463,166,113792,1,2,0:0:0:0:
463,166,113878,1,2,0:0:0:0:
463,166,113964,6,0,P|371:177|279:192,1,185.249991519928,4|0,3:1|0:0,0:0:0:0:
249,200,114307,1,0,1:0:0:0:
365,90,114478,2,0,P|366:59|369:28,2,61.7499971733095,2|2|2,0:0|0:0|0:0,0:0:0:0:
352,279,114821,1,2,3:2:0:0:
212,339,114992,2,0,P|241:330|271:323,1,61.7499971733095,0|0,1:0|0:0,0:0:0:0:
491,251,115164,2,0,P|460:244|431:234,1,61.7499971733095,2|0,0:0|0:0,0:0:0:0:
273,45,115335,5,0,3:0:0:0:
249,200,115507,1,2,0:0:0:0:
249,200,115592,1,2,0:0:0:0:
249,200,115678,2,0,L|187:197,1,61.7499971733095,2|0,1:2|0:0,0:0:0:0:
154,121,115849,2,0,L|216:118,1,61.7499971733095,2|0,0:0|0:0,0:0:0:0:
326,155,116021,5,0,0:0:0:0:
337,193,116135,1,2,0:0:0:0:
329,233,116249,1,2,0:0:0:0:
264,281,116364,5,0,1:0:0:0:
252,319,116478,1,2,0:0:0:0:
260,359,116592,1,2,0:0:0:0:
341,326,116707,6,0,L|464:320,1,123.499994346619,0|2,3:0|0:0,0:0:0:0:
300,39,117049,2,0,P|286:66|279:96,1,61.7499971733095,0|0,1:0|0:0,0:0:0:0:
404,152,117221,1,2,0:0:0:0:
417,124,117306,1,2,0:0:0:0:
424,93,117392,2,0,P|393:93|362:97,1,61.7499971733095,2|0,0:0|0:0,0:0:0:0:
370,253,117564,2,0,P|400:252|431:248,1,61.7499971733095,2|0,3:2|0:0,0:0:0:0:
488,165,117735,2,0,L|303:179,1,185.249991519928,0|2,1:0|0:0,0:0:0:0:
207,104,118078,5,0,3:0:0:0:
370,253,118249,1,2,0:0:0:0:
363,97,118421,1,0,1:0:0:0:
214,260,118592,2,0,B|182:229|168:196|168:196|118:232|72:239,1,185.249991519928,6|0,0:0|0:0,0:0:0:0:
9,165,118935,2,0,P|39:163|69:157,1,61.7499971733095,2|0,3:2|0:0,0:0:0:0:
166,13,119107,2,0,B|121:-17|121:-17|144:113,1,185.249991519928,4|2,1:2|0:0,0:0:0:0:
229,136,119449,6,0,B|291:148|291:148|345:127|345:127|408:137,1,185.249991519928,4|0,3:2|0:0,0:0:0:0:
430,230,119792,2,0,P|400:221|369:217,1,61.7499971733095,0|0,1:0|0:0,0:0:0:0:
275,58,119963,1,2,0:0:0:0:
267,29,120049,1,2,0:0:0:0:
274,1,120135,2,0,L|335:11,1,61.7499971733095,2|0,0:0|0:0,0:0:0:0:
152,224,120306,2,0,L|92:212,1,61.7499971733095,2|0,3:2|0:0,0:0:0:0:
269,238,120478,1,0,1:0:0:0:
183,84,120649,1,2,0:0:0:0:
226,161,120821,5,0,3:0:0:0:
264,150,120935,1,2,0:0:0:0:
304,158,121049,1,2,0:0:0:0:
352,223,121164,5,0,1:0:0:0:
390,235,121278,1,2,0:0:0:0:
430,227,121392,1,2,0:0:0:0:
489,288,121507,5,0,0:0:0:0:
304,158,121678,1,2,3:2:0:0:
407,85,121849,2,0,P|399:115|395:146,1,61.7499971733095,0|0,1:0|0:0,0:0:0:0:
281,298,122021,2,0,P|276:267|268:237,1,61.7499971733095
159,88,122192,6,0,P|220:84|281:73,1,123.499994346619,0|2,3:0|0:0,0:0:0:0:
477,25,122535,1,0,1:0:0:0:
395,202,122707,1,2,0:0:0:0:
387,173,122793,1,2,0:0:0:0:
393,145,122878,2,0,L|453:156,1,61.7499971733095,2|0,0:2|0:0,0:0:0:0:
361,303,123049,2,0,L|300:314,1,61.7499971733095,2|0,3:2|0:0,0:0:0:0:
215,193,123221,2,0,B|235:139|250:74|250:74|265:111|276:128,1,185.249991519928,0|0,1:0|0:0,0:0:0:0:
313,217,123564,6,0,L|128:228,1,185.249991519928,0|0,3:0|0:0,0:0:0:0:
106,215,123907,1,0,1:0:0:0:
220,53,124078,2,0,P|261:117|185:122,1,185.249991519928,2|0,3:2|0:0,0:0:0:0:
174,106,124421,1,4,3:2:0:0:
313,217,124592,1,0,1:0:0:0:
150,311,124764,1,0,3:0:0:0:
255,149,124935,6,0,B|344:97|356:179|431:125,1,185.249991519928,4|0,3:2|0:0,0:0:0:0:
455,113,125278,1,0,1:0:0:0:
313,217,125449,2,0,P|307:247|305:278,2,61.7499971733095,2|2|0,0:0|0:0|0:0,0:0:0:0:
381,61,125792,1,2,3:2:0:0:
255,149,125964,1,0,1:0:0:0:
406,229,126135,1,2,0:0:0:0:
204,224,126307,6,0,P|168:175|173:114,1,123.499994346619,0|2,3:0|0:0,0:0:0:0:
458,160,126649,2,0,P|493:208|488:269,1,123.499994346619,0|2,1:0|0:0,0:0:0:0:
459,347,126907,1,2,0:0:0:0:
459,347,126992,2,0,P|430:336|399:329,1,61.7499971733095,0|0,3:0|0:0,0:0:0:0:
269,289,127164,2,0,P|299:283|328:274,1,61.7499971733095,2|0,3:2|0:0,0:0:0:0:
406,229,127335,1,0,1:0:0:0:
110,281,127507,1,2,3:2:0:0:
106,296,127592,1,0,3:0:0:0:
102,311,127678,5,4,1:2:0:0:
212,196,127849,1,0,3:0:0:0:
288,163,128021,1,0,3:0:0:0:
450,185,128192,5,4,1:2:0:0:
293,214,128364,1,0,3:0:0:0:
212,196,128535,1,0,3:0:0:0:
93,83,128707,5,4,1:2:0:0:
238,152,128878,1,0,3:0:0:0:
293,214,129049,1,0,3:0:0:0:
319,373,129221,5,4,1:2:0:0:
247,235,129392,1,0,3:0:0:0:
238,152,129564,2,0,L|209:162,2,30.8749985866547,0|0|0,3:0|3:0|3:0,0:0:0:0:
307,4,129735,2,0,P|318:34|326:63,1,61.7499971733095,4|0,1:2|0:0,0:0:0:0:
370,176,129907,2,0,P|377:146|388:117,1,61.7499971733095,0|0,3:0|0:0,0:0:0:0:
460,83,130078,2,0,L|275:99,1,185.249991519928,4|0,1:2|0:0,0:0:0:0:
33,134,130421,6,0,P|116:100|186:154,1,185.249991519928,4|0,3:1|0:0,0:0:0:0:
247,235,130764,2,0,P|329:268|399:214,1,185.249991519928,0|0,1:0|0:0,0:0:0:0:
411,186,131107,6,0,P|416:247|427:308,1,123.499994346619,0|0,3:0|0:0,0:0:0:0:
230,357,131449,2,0,P|241:296|246:234,1,123.499994346619,0|0,1:0|0:0,0:0:0:0:
135,68,131792,2,0,B|200:65|243:34|243:34|231:68|231:103,1,185.249991519928,0|0,3:0|0:0,0:0:0:0:
351,230,132135,2,0,B|370:104|370:104|346:140|333:148,1,185.249991519928,0|0,1:0|0:0,0:0:0:0:
214,206,132478,2,0,P|204:274|249:222,1,185.249991519928,0|0,3:0|0:0,0:0:0:0:
242,198,132821,1,0,1:2:0:0:
320,308,132992,1,0,3:2:0:0:
418,192,133164,6,0,P|387:188|356:183,1,61.7499971733095,2|0,3:2|0:0,0:0:0:0:
335,101,133335,2,0,P|366:106|397:110,1,61.7499971733095,0|0,3:2|0:0,0:0:0:0:
475,120,133507,1,2,3:2:0:0:
242,198,133678,1,0,3:2:0:0:
279,28,133849,6,0,P|248:31|217:36,1,61.7499971733095,2|0,3:2|0:0,0:0:0:0:
196,119,134021,2,0,P|226:113|257:110,1,61.7499971733095,0|0,3:2|0:0,0:0:0:0:
335,101,134192,1,2,3:2:0:0:
337,107,134278,1,0,3:0:0:0:
340,113,134364,1,0,3:2:0:0:
343,120,134449,1,0,3:0:0:0:
346,127,134535,5,2,3:2:0:0:
381,114,134620,1,0,3:0:0:0:
419,121,134706,1,0,3:2:0:0:
448,145,134792,1,0,3:0:0:0:
461,181,134877,1,0,3:2:0:0:
454,219,134963,1,0,3:0:0:0:
429,248,135049,1,0,3:2:0:0:
393,260,135135,1,0,3:0:0:0:
355,253,135221,1,0,1:2:0:0:
152,117,135392,1,0,3:0:0:0:
240,289,135564,1,0,1:2:0:0:
346,127,135735,1,0,3:2:0:0:
186,198,135907,6,0,P|220:204|256:205,3,71.2500027179719,4|0|2|0,3:2|0:0|0:0|0:0,0:0:0:0:
292,274,136592,2,0,P|315:270|337:262,3,47.5,2|0|2|0,0:0|0:0|0:0|0:0,0:0:0:0:
405,300,137278,2,0,P|415:294|424:286,3,23.75,2|0|2|0,0:0|0:0|0:0|0:0,0:0:0:0:
501,295,137964,2,0,P|505:289|509:283,3,14.2499995651245,2|0|2|0,0:0|0:0|0:0|0:0,0:0:0:0:
512,198,138649,6,0,P|466:204|428:177,1,95,2|2,0:0|0:0,0:0:0:0:
357,129,139164,2,0,L|319:148,1,23.75,2|0,0:0|0:0,0:0:0:0:
261,312,139507,2,0,L|285:310,1,23.75,2|0,0:0|0:0,0:0:0:0:
159,90,139849,2,0,L|142:107,1,23.75,2|0,0:0|0:0,0:0:0:0:
143,106,140364,6,0,P|132:128|126:150,1,47.5,2|2,0:0|0:0,0:0:0:0:
226,265,140707,2,0,P|249:264|272:257,1,47.5
322,115,141049,2,0,P|309:94|292:78,1,47.5
230,162,141391,6,0,L|225:256,1,95,2|2,0:0|0:0,0:0:0:0:
181,326,141907,2,0,L|158:329,1,23.75,2|0,0:0|0:0,0:0:0:0:
335,194,142249,2,0,L|312:190,1,23.75,2|0,0:0|0:0,0:0:0:0:
455,352,142592,2,0,L|432:355,1,23.75,2|0,0:0|0:0,0:0:0:0:
378,161,144135,5,2,0:0:0:0:
287,102,144307,1,0,0:0:0:0:
362,86,144478,1,2,0:0:0:0:
304,176,144649,2,0,P|303:188|302:200,1,23.75,2|0,0:0|0:0,0:0:0:0:
140,280,144992,2,0,P|152:282|163:285,1,23.75,2|0,0:0|0:0,0:0:0:0:
0,384,145335,2,0,P|2:372|2:360,1,23.75,2|0,0:0|0:0,0:0:0:0:
