osu file format v14

[General]
AudioFilename: audio.mp3
AudioLeadIn: 0
PreviewTime: 57364
Countdown: 1
SampleSet: Soft
StackLeniency: 0.5
Mode: 0
LetterboxInBreaks: 0
WidescreenStoryboard: 0

[Editor]
Bookmarks: 30614,41364,45031,52031,68046,78698,91031,112364
DistanceSpacing: 1
BeatDivisor: 4
GridSize: 32
TimelineZoom: 2.2

[Metadata]
Title:K8107
TitleUnicode:K8107
Artist:onoken
ArtistUnicode:onoken
Creator:MaridiuS
Version:Red Another
Source:
Tags:-Jordan- yaspo mrmenda jory celektus deviouspanda digital hardcore bms o2jam rhythm game best stream contest
BeatmapID:1694521
BeatmapSetID:807396

[Difficulty]
HPDrainRate:5
CircleSize:5
OverallDifficulty:8.8
ApproachRate:9.3
SliderMultiplier:1.8
SliderTickRate:1

[Events]
//Background and Video events
0,0,"792434179.jpg",0,0
//Break Periods
//Storyboard Layer 0 (Background)
//Storyboard Layer 1 (Fail)
//Storyboard Layer 2 (Pass)
//Storyboard Layer 3 (Foreground)
//Storyboard Sound Samples

[TimingPoints]
1377,333.333333333333,4,2,0,100,1,0
1377,-200,4,2,0,25,0,0
3043,-200,4,2,0,5,0,0
3126,-200,4,2,0,25,0,0
6710,-111.111111111111,4,2,1,60,0,0
17376,-100,4,2,1,60,0,0
29710,-200,4,2,1,60,0,0
30710,-100,4,2,1,75,0,1
41043,-100,4,2,1,70,0,0
41376,-83.3333333333333,4,2,2,90,0,1
52043,-83.3333333333333,4,2,1,60,0,0
52210,-200,4,2,1,30,0,0
57376,-100,4,2,1,60,0,0
82710,368.098159509202,4,2,1,60,1,0
83262,416.666666666667,4,2,1,60,1,0
83471,405.405405405405,4,2,1,60,1,0
84262,333.333333333333,4,2,1,60,1,0
85646,333.333333333333,4,2,1,60,1,0
90979,-90.9090909090909,4,2,1,75,0,1
101312,-100,4,2,1,70,0,0
101645,-76.9230769230769,4,2,2,90,0,1
112312,-76.9230769230769,4,2,1,60,0,0
112478,-76.9230769230769,4,2,1,20,0,0
114978,-76.9230769230769,4,2,1,50,0,0
115145,-76.9230769230769,4,2,1,20,0,0

[Colours]
Combo1 : 181,0,28
Combo2 : 83,71,66
Combo3 : 204,2,7
Combo4 : 79,70,74

[HitObjects]
207,297,1377,6,0,L|152:299,1,45,0|0,3:0|3:0,3:0:0:0:
204,194,2043,2,0,L|148:194,1,45,0|0,3:0|3:0,3:0:0:0:
310,192,2376,5,0,3:0:0:0:
310,192,2543,1,0,3:0:0:0:
207,103,2710,5,0,3:0:0:0:
207,103,2876,1,0,0:0:0:0:
204,194,3376,5,0,3:0:0:0:
204,194,3542,1,0,3:0:0:0:
310,192,4043,5,0,3:0:0:0:
310,192,4209,1,0,3:0:0:0:
378,22,4710,1,0,3:0:0:0:
192,97,5043,5,0,3:0:0:0:
113,129,5209,1,0,3:0:0:0:
320,97,5376,5,0,3:0:0:0:
399,129,5542,1,0,3:0:0:0:
310,192,6043,5,0,3:0:0:0:
310,192,6210,1,0,3:0:0:0:
328,306,6710,6,0,P|234:295|139:304,1,161.999995056153,4|0,1:2|0:0,0:0:0:0:
450,133,7376,1,8,0:0:0:0:
328,306,7877,1,0,1:0:0:0:
249,199,8043,1,0,1:0:0:0:
243,182,8376,1,0,1:0:0:0:
450,133,8710,1,8,0:0:0:0:
349,188,8876,1,0,1:0:0:0:
444,255,9043,1,2,0:0:0:0:
243,182,9210,1,0,1:0:0:0:
209,81,9376,6,0,P|115:70|20:79,1,161.999995056153,0|0,1:0|0:0,0:0:0:0:
179,321,10043,1,8,0:0:0:0:
209,81,10543,1,0,1:0:0:0:
118,200,10710,1,0,1:0:0:0:
118,200,11043,1,0,1:0:0:0:
179,321,11376,1,8,0:0:0:0:
118,200,11543,1,0,1:0:0:0:
33,311,11710,1,2,0:0:0:0:
118,108,11876,1,0,1:0:0:0:
304,244,12043,6,0,P|397:254|493:246,1,161.999995056153,0|0,1:2|0:0,0:0:0:0:
13,9,12710,1,10,0:3:0:0:
218,153,13210,1,0,1:0:0:0:
268,289,13377,1,0,1:0:0:0:
271,316,13710,1,0,1:0:0:0:
13,9,14043,1,10,0:3:0:0:
86,230,14210,1,0,1:0:0:0:
104,68,14376,1,2,0:0:0:0:
2,159,14543,1,0,1:0:0:0:
272,174,14710,6,0,P|282:80|274:-15,1,161.999995056153,0|0,1:0|0:0,0:0:0:0:
502,374,15376,1,10,0:3:0:0:
182,326,15876,1,0,1:0:0:0:
351,294,16043,1,0,1:0:0:0:
182,326,16376,1,0,1:0:0:0:
502,374,16710,1,10,0:3:0:0:
433,214,16876,1,0,1:0:0:0:
351,294,17043,1,2,0:0:0:0:
304,109,17210,1,0,0:0:0:0:
235,29,17376,6,0,L|127:39,1,90,6|0,1:2|0:0,0:0:0:0:
85,67,17626,2,0,L|139:62,1,45,2|0,0:0|0:0,0:0:0:0:
184,174,17876,2,0,L|238:169,1,45,2|0,0:0|0:0,0:0:0:0:
297,206,18043,1,10,0:3:0:0:
197,280,18210,2,0,L|143:285,1,45,2|0,0:0|0:0,0:0:0:0:
435,201,18543,2,0,L|381:206,1,45,2|0,0:0|0:0,0:0:0:0:
334,280,18710,6,0,L|325:377,1,90,2|0,1:2|0:0,0:0:0:0:
409,359,18960,2,0,L|463:354,1,45,2|0,0:0|0:0,0:0:0:0:
468,260,19210,2,0,L|522:255,1,45,2|0,0:0|0:0,0:0:0:0:
488,150,19376,1,10,0:3:0:0:
351,249,19543,1,0,1:0:0:0:
255,149,19710,2,0,L|245:83,1,45,2|0,0:0|0:0,0:0:0:0:
214,94,19876,2,0,L|204:28,1,45,2|0,0:0|0:0,0:0:0:0:
134,104,20043,6,0,B|141:134|141:134|129:217,1,90,2|0,1:2|0:0,0:0:0:0:
107,257,20293,2,0,L|110:318,1,45,2|0,0:0|0:0,0:0:0:0:
230,224,20543,2,0,L|233:285,1,45,2|0,0:0|0:0,0:0:0:0:
309,335,20710,1,10,0:3:0:0:
350,188,20876,2,0,L|353:249,1,45,2|0,0:0|0:0,0:0:0:0:
470,152,21210,2,0,L|473:213,1,45,2|0,0:0|0:0,0:0:0:0:
398,42,21376,6,0,B|369:56|369:56|281:48,1,90,2|0,1:2|0:0,0:0:0:0:
237,36,21626,2,0,L|168:41,1,45,2|0,0:0|0:0,0:0:0:0:
128,128,21876,2,0,L|59:123,1,45,2|0,0:0|0:0,0:0:0:0:
15,58,22043,1,10,0:3:0:0:
85,212,22210,1,0,1:0:0:0:
214,184,22376,2,0,L|276:189,1,45,2|0,0:0|0:0,0:0:0:0:
344,155,22543,1,0,0:0:0:0:
344,155,22626,1,0,0:0:0:0:
344,155,22710,6,0,L|360:269,1,90,2|0,1:2|0:0,0:0:0:0:
454,225,22960,2,0,L|447:290,1,45,2|0,0:0|0:0,0:0:0:0:
475,96,23210,2,0,L|468:161,1,45,2|0,0:0|0:0,0:0:0:0:
490,22,23376,1,10,0:3:0:0:
454,225,23543,2,0,L|447:290,1,45,2|0,0:0|0:0,0:0:0:0:
475,96,23876,2,0,L|468:161,1,45,2|0,0:0|0:0,0:0:0:0:
373,96,24043,6,0,L|252:105,1,90,2|0,1:2|0:0,0:0:0:0:
189,73,24293,2,0,L|195:29,1,45,2|0,0:0|0:0,0:0:0:0:
87,81,24543,2,0,L|79:147,1,45,2|0,0:0|0:0,0:0:0:0:
21,200,24710,1,10,0:3:0:0:
170,163,24876,1,0,1:0:0:0:
262,247,25043,2,0,L|274:300,1,45,2|0,0:0|0:0,0:0:0:0:
294,303,25210,2,0,L|303:346,1,45,2|0,0:0|0:0,0:0:0:0:
402,282,25376,6,0,L|415:175,1,90,2|0,1:2|0:0,0:0:0:0:
416,299,25626,2,0,L|411:350,1,45,2|0,0:0|0:0,0:0:0:0:
397,137,25876,2,0,L|392:188,1,45,2|0,0:0|0:0,0:0:0:0:
306,238,26043,1,10,0:3:0:0:
303,73,26210,2,0,L|298:124,1,45,2|0,0:0|0:0,0:0:0:0:
200,3,26543,2,0,L|195:54,1,45,2|0,0:0|0:0,0:0:0:0:
111,136,26710,6,0,L|0:153,1,90,2|0,1:2|0:0,0:0:0:0:
125,162,26960,2,0,L|119:219,1,45,2|0,0:0|0:0,0:0:0:0:
198,250,27210,2,0,L|192:307,1,45,2|0,0:0|0:0,0:0:0:0:
148,380,27376,1,10,0:3:0:0:
286,333,27543,2,0,L|280:277,1,45,2|0,1:2|0:0,0:0:0:0:
293,324,27710,2,0,L|287:268,1,45,2|0,0:0|0:0,0:0:0:0:
256,192,28043,12,0,28876,0:0:0:0:
52,258,29710,6,2,P|45:302|39:348,2,90
272,81,30710,6,0,L|280:18,1,45,4|0,1:0|0:0,0:0:0:0:
325,159,30876,2,0,L|363:108,1,45
331,253,31043,2,0,L|389:228,1,45,8|0,0:0|0:0,0:0:0:0:
289,337,31210,1,0,0:0:0:0:
289,345,31293,1,0,0:0:0:0:
290,353,31376,6,0,L|353:361,1,45,2|0,1:3|0:0,0:0:0:0:
450,316,31543,2,0,L|387:307,1,45
250,192,31710,1,8,0:0:0:0:
242,156,31793,1,0,0:0:0:0:
234,120,31876,1,0,0:0:0:0:
227,84,31960,1,0,0:0:0:0:
220,48,32043,6,0,L|205:-13,2,45,2|0|0,1:2|0:0|0:0,0:0:0:0:
154,152,32293,1,0,0:0:0:0:
151,169,32376,2,0,L|140:226,1,45,8|0,0:0|0:0,0:0:0:0:
38,224,32543,2,0,L|49:281,1,45
155,325,32710,1,2,1:3:0:0:
163,326,32793,1,0,0:0:0:0:
171,328,32876,1,0,0:0:0:0:
179,330,32960,1,0,0:0:0:0:
187,332,33043,5,8,0:0:0:0:
153,344,33126,1,0,0:0:0:0:
118,356,33210,1,0,0:0:0:0:
84,368,33293,1,0,0:0:0:0:
49,377,33376,5,2,1:2:0:0:
9,198,33543,1,0,0:0:0:0:
9,198,33626,1,0,0:0:0:0:
9,198,33710,2,0,L|23:140,1,45,8|0,0:0|0:0,0:0:0:0:
90,243,33876,2,0,L|104:185,1,45
197,163,34043,2,0,L|207:206,1,45,2|0,1:3|0:0,0:0:0:0:
277,118,34209,2,0,L|287:161,1,45
378,125,34376,1,8,0:0:0:0:
402,121,34460,1,0,0:0:0:0:
426,118,34543,1,0,0:0:0:0:
451,115,34626,1,0,0:0:0:0:
476,112,34710,5,2,1:2:0:0:
457,148,34793,1,0,0:0:0:0:
444,186,34876,1,0,0:0:0:0:
449,226,34960,1,0,0:0:0:0:
468,261,35043,1,8,0:0:0:0:
493,291,35126,1,0,0:0:0:0:
497,331,35210,1,0,0:0:0:0:
476,365,35293,1,0,0:0:0:0:
438,379,35376,6,0,P|408:380|366:364,1,45,2|0,1:3|0:0,0:0:0:0:
331,296,35543,2,0,P|308:292|286:293,1,45
191,335,35710,1,8,0:0:0:0:
189,339,35793,1,0,0:0:0:0:
187,343,35876,1,0,0:0:0:0:
185,347,35960,1,0,0:0:0:0:
167,362,36043,6,0,B|180:323|180:323|149:249,1,90,4|0,1:0|0:0,0:0:0:0:
150,260,36293,1,0,0:0:0:0:
141,239,36376,1,8,0:0:0:0:
153,219,36460,1,0,0:0:0:0:
143,199,36543,1,0,0:0:0:0:
157,180,36626,1,0,0:0:0:0:
150,158,36710,6,0,L|138:105,3,45,2|0|0|0,1:3|0:0|0:0|0:0,0:0:0:0:
234,236,37043,1,8,0:0:0:0:
253,247,37126,1,0,0:0:0:0:
275,251,37210,1,0,0:0:0:0:
297,247,37293,1,0,0:0:0:0:
318,240,37376,6,0,L|332:185,1,45,2|0,1:2|0:0,0:0:0:0:
445,183,37543,2,0,L|431:128,1,45
335,82,37710,1,8,0:0:0:0:
313,75,37793,1,0,0:0:0:0:
291,69,37876,1,0,0:0:0:0:
270,61,37959,1,0,0:0:0:0:
248,54,38043,5,2,1:3:0:0:
256,53,38126,1,0,0:0:0:0:
265,52,38210,1,0,0:0:0:0:
273,51,38293,1,0,0:0:0:0:
281,50,38376,2,0,L|343:68,3,45,8|0|0|0,0:0|0:0|0:0|0:0,0:0:0:0:
280,153,38710,5,2,1:2:0:0:
268,177,38793,1,0,0:0:0:0:
263,203,38876,1,0,0:0:0:0:
268,229,38960,1,0,0:0:0:0:
282,251,39043,1,8,0:0:0:0:
294,227,39126,1,0,0:0:0:0:
299,201,39209,1,0,0:0:0:0:
294,175,39293,1,0,0:0:0:0:
280,153,39376,5,2,1:3:0:0:
250,124,39460,1,0,0:0:0:0:
241,84,39543,1,0,0:0:0:0:
254,45,39626,1,0,0:0:0:0:
289,23,39710,1,8,0:0:0:0:
327,35,39793,1,0,0:0:0:0:
339,66,39876,1,0,0:0:0:0:
322,103,39960,1,0,0:0:0:0:
282,111,40043,5,2,1:2:0:0:
276,98,40126,1,2,0:0:0:0:
273,84,40210,1,2,0:0:0:0:
178,170,40376,1,10,0:0:0:0:
184,157,40459,1,2,0:0:0:0:
187,143,40543,1,2,0:0:0:0:
298,253,40710,1,2,1:3:0:0:
292,240,40793,1,2,0:0:0:0:
289,226,40877,1,2,0:0:0:0:
291,212,40960,1,2,0:0:0:0:
298,200,41043,5,0,1:0:0:0:
237,230,41126,1,0,1:0:0:0:
171,247,41210,1,0,1:0:0:0:
104,240,41293,1,0,1:0:0:0:
47,203,41376,6,0,B|33:160|33:160|40:133|40:133|30:102|30:102|57:106|57:106|68:155,1,161.999995056153,4|0,1:0|0:2,0:2:0:0:
136,174,41710,2,0,L|205:155,1,53.9999983520508,8|0,0:2|0:2,0:2:0:0:
260,94,41876,2,0,L|312:108,1,53.9999983520508,4|0,0:2|0:2,0:2:0:0:
389,165,42043,5,2,1:2:0:0:
390,170,42126,1,0,0:2:0:0:
391,175,42210,1,4,0:2:0:0:
391,180,42293,1,0,0:2:0:0:
329,233,42376,5,10,0:2:0:0:
330,238,42459,1,0,0:2:0:0:
331,243,42543,1,4,0:2:0:0:
331,248,42626,1,0,0:2:0:0:
263,184,42710,5,2,1:2:0:0:
226,179,42793,1,0,0:2:0:0:
189,173,42876,1,4,0:2:0:0:
152,167,42960,1,0,0:2:0:0:
115,161,43043,1,8,0:2:0:0:
78,155,43126,1,0,0:2:0:0:
41,149,43210,1,4,0:2:0:0:
4,143,43293,1,0,0:2:0:0:
45,74,43376,5,2,1:2:0:0:
46,68,43460,1,0,0:2:0:0:
47,62,43543,1,4,0:2:0:0:
48,56,43626,1,0,0:2:0:0:
134,83,43710,5,10,0:2:0:0:
135,77,43794,1,0,0:2:0:0:
136,71,43877,1,4,0:2:0:0:
137,65,43960,1,0,0:2:0:0:
226,76,44043,6,0,L|295:79,1,53.9999983520508,2|0,1:2|0:2,0:2:0:0:
312,176,44210,2,0,L|381:179,1,53.9999983520508,4|0,0:2|0:2,0:2:0:0:
407,270,44376,1,8,0:2:0:0:
411,307,44460,1,0,0:2:0:0:
415,344,44543,1,4,0:2:0:0:
420,381,44626,1,0,0:2:0:0:
334,353,44710,5,2,1:2:0:0:
324,348,44793,1,0,0:2:0:0:
313,347,44876,1,4,0:2:0:0:
302,349,44960,1,0,0:2:0:0:
219,366,45043,5,10,0:2:0:0:
209,371,45126,1,0,0:2:0:0:
198,372,45209,1,4,0:2:0:0:
187,370,45293,1,0,0:2:0:0:
134,304,45376,6,0,L|130:247,1,53.9999983520508,2|0,1:2|0:2,0:2:0:0:
220,221,45543,2,0,L|224:164,1,53.9999983520508,4|0,0:2|0:2,0:2:0:0:
130,84,45710,2,0,L|133:137,1,53.9999983520508,8|0,0:2|0:2,0:2:0:0:
219,54,45876,2,0,L|223:-3,1,53.9999983520508,4|0,0:2|0:2,0:2:0:0:
313,89,46043,1,2,1:2:0:0:
341,104,46126,1,0,0:2:0:0:
373,102,46210,1,4,0:2:0:0:
401,86,46293,1,0,0:2:0:0:
411,55,46376,5,10,0:2:0:0:
377,82,46460,1,0,0:2:0:0:
367,123,46543,1,4,0:2:0:0:
373,165,46626,1,0,0:2:0:0:
428,233,46710,6,0,P|435:264|439:305,1,53.9999983520508,4|0,1:0|0:2,0:2:0:0:
354,365,46876,1,4,0:2:0:0:
349,355,46960,1,0,0:2:0:0:
346,344,47043,2,0,P|338:312|335:272,1,53.9999983520508,8|0,0:2|0:2,0:2:0:0:
250,240,47210,2,0,P|242:272|239:312,1,53.9999983520508,4|0,0:2|0:2,0:2:0:0:
167,352,47376,5,2,1:2:0:0:
156,354,47460,1,0,0:2:0:0:
145,356,47543,1,4,0:2:0:0:
134,358,47626,1,0,0:2:0:0:
75,299,47710,5,10,0:2:0:0:
59,295,47793,1,0,0:2:0:0:
43,291,47876,1,4,0:2:0:0:
26,288,47960,1,0,0:2:0:0:
83,219,48043,5,2,1:2:0:0:
104,187,48126,1,0,0:2:0:0:
137,168,48210,1,4,0:2:0:0:
173,157,48293,1,0,0:2:0:0:
210,153,48376,1,8,0:2:0:0:
248,155,48460,1,0,0:2:0:0:
285,161,48543,1,4,0:2:0:0:
318,178,48626,1,0,0:2:0:0:
374,251,48710,5,2,1:2:0:0:
370,266,48793,1,0,0:2:0:0:
366,281,48876,1,4,0:2:0:0:
362,296,48960,1,0,0:2:0:0:
284,290,49043,5,10,0:2:0:0:
288,305,49126,1,0,0:2:0:0:
292,320,49209,1,4,0:2:0:0:
296,335,49293,1,0,0:2:0:0:
362,296,49376,5,2,1:2:0:0:
369,258,49460,1,0,0:2:0:0:
376,221,49543,1,4,0:2:0:0:
384,184,49626,1,0,0:2:0:0:
393,147,49710,1,8,0:2:0:0:
403,110,49793,1,0,0:2:0:0:
413,73,49876,1,4,0:2:0:0:
424,36,49960,1,0,0:2:0:0:
388,48,50043,5,2,1:2:0:0:
353,62,50126,1,0,0:2:0:0:
317,76,50210,1,4,0:2:0:0:
282,90,50293,1,0,0:2:0:0:
313,109,50376,5,10,0:2:0:0:
344,129,50460,1,0,0:2:0:0:
375,149,50543,1,4,0:2:0:0:
406,169,50626,1,0,0:2:0:0:
408,207,50710,5,2,1:2:0:0:
410,244,50793,1,0,0:2:0:0:
412,281,50876,1,4,0:2:0:0:
273,208,51043,5,10,0:2:0:0:
275,245,51126,1,0,0:2:0:0:
277,282,51209,1,4,0:2:0:0:
121,201,51376,5,2,1:2:0:0:
123,238,51459,1,0,0:2:0:0:
125,275,51542,1,4,0:2:0:0:
127,313,51626,1,0,0:2:0:0:
138,325,51710,5,8,0:2:0:0:
139,299,51793,1,0,0:2:0:0:
141,273,51876,1,4,0:2:0:0:
142,246,51960,1,0,0:2:0:0:
186,184,52043,5,4,1:2:0:0:
262,274,52210,6,0,L|309:271,1,45,2|0,0:0|0:0,0:0:0:0:
289,194,52543,2,0,L|336:191,1,45,2|0,0:0|0:0,0:0:0:0:
316,114,52876,2,0,L|363:111,1,45,2|0,0:0|0:0,0:0:0:0:
343,34,53210,2,0,L|390:31,1,45,2|0,0:0|0:0,0:0:0:0:
169,34,53543,6,0,L|122:31,1,45,2|0,0:0|0:0,0:0:0:0:
343,34,53876,2,0,L|390:31,1,45,2|0,0:0|0:0,0:0:0:0:
196,114,54210,2,0,L|149:111,1,45,2|0,0:0|0:0,0:0:0:0:
316,114,54543,2,0,L|363:111,1,45,2|0,0:0|0:0,0:0:0:0:
256,211,54876,6,0,P|254:246|260:282,1,45,2|0,0:0|0:0,0:0:0:0:
332,245,55210,2,0,P|336:279|348:314,1,45,2|0,0:0|0:0,0:0:0:0:
412,265,55543,2,0,P|422:298|440:330,1,45,2|0,0:0|0:0,0:0:0:0:
491,267,55876,2,0,P|506:298|529:326,1,45,2|0,0:0|0:0,0:0:0:0:
491,117,56210,6,0,P|506:85|529:57,1,45,2|0,0:0|0:0,0:0:0:0:
491,267,56543,2,0,P|506:298|529:326,1,45,2|0,0:0|0:0,0:0:0:0:
412,119,56876,2,0,P|422:85|440:53,1,45,2|0,0:0|0:0,0:0:0:0:
412,265,57210,1,2,0:0:0:0:
166,49,57376,5,6,1:2:0:0:
75,209,57543,1,2,1:2:0:0:
260,208,57710,1,2,1:2:0:0:
167,155,58043,5,8,0:0:0:0:
258,101,58376,5,2,1:2:0:0:
74,102,58543,1,2,1:2:0:0:
167,262,58710,1,2,1:2:0:0:
167,262,59043,1,0,0:0:0:0:
167,155,59376,5,8,0:0:0:0:
166,49,59543,1,0,1:0:0:0:
167,262,59710,2,0,L|276:278,1,90,0|0,1:0|0:0,0:0:0:0:
507,189,60043,5,2,1:2:0:0:
436,68,60210,1,2,1:2:0:0:
299,70,60377,1,2,1:2:0:0:
368,188,60710,5,8,0:0:0:0:
228,191,61043,5,2,1:2:0:0:
300,310,61210,1,2,1:2:0:0:
438,307,61377,1,2,1:2:0:0:
438,307,61710,1,0,0:0:0:0:
368,188,62043,5,8,0:0:0:0:
300,310,62210,1,0,1:0:0:0:
438,307,62376,2,0,L|496:229,1,90,0|0,1:0|0:0,0:0:0:0:
217,133,62710,5,2,1:2:0:0:
132,303,62876,1,2,1:2:0:0:
27,144,63043,1,2,1:2:0:0:
126,192,63376,5,8,0:0:0:0:
27,144,63710,5,2,1:2:0:0:
132,303,63877,1,2,1:2:0:0:
217,133,64043,1,2,1:2:0:0:
217,133,64376,1,0,0:0:0:0:
126,192,64710,5,8,0:0:0:0:
132,303,64876,1,0,1:0:0:0:
120,81,65043,2,0,L|117:-16,1,90,0|0,1:0|0:0,0:0:0:0:
308,34,65376,5,2,1:2:0:0:
339,178,65543,1,2,1:2:0:0:
370,322,65710,1,2,1:2:0:0:
426,186,66043,5,8,0:0:0:0:
482,50,66376,5,2,1:2:0:0:
426,186,66543,1,2,1:2:0:0:
370,322,66710,1,2,1:2:0:0:
370,322,67043,1,0,0:0:0:0:
426,186,67376,5,8,0:0:0:0:
339,178,67543,1,0,1:0:0:0:
370,322,67710,2,0,L|379:211,1,90,0|0,1:0|0:0,0:0:0:0:
298,106,68043,5,2,1:2:0:0:
170,73,68210,1,2,1:2:0:0:
316,18,68376,1,2,1:2:0:0:
316,18,68543,2,0,L|320:64,1,45,2|0,0:0|0:0,0:0:0:0:
276,193,68710,1,10,0:3:0:0:
276,193,68876,2,0,L|268:137,1,45,2|0,0:0|0:0,0:0:0:0:
144,229,69043,5,2,1:2:0:0:
63,350,69210,1,2,1:2:0:0:
25,186,69376,2,0,L|38:84,1,90,2|0,1:2|0:0,0:0:0:0:
119,98,69626,2,0,L|128:37,1,45,2|0,0:0|0:0,0:0:0:0:
282,69,69876,2,0,L|291:8,1,45,2|0,0:0|0:0,0:0:0:0:
317,147,70043,1,10,0:3:0:0:
205,39,70210,1,0,1:0:0:0:
381,56,70376,2,0,L|478:52,1,90,0|0,1:0|0:0,0:0:0:0:
449,284,70710,5,2,1:2:0:0:
396,169,70876,1,2,1:2:0:0:
337,321,71043,1,2,1:2:0:0:
337,321,71210,2,0,L|255:315,1,45,2|0,0:0|0:0,0:0:0:0:
153,235,71376,1,10,0:3:0:0:
153,235,71543,2,0,L|207:228,1,45,2|0,0:0|0:0,0:0:0:0:
278,186,71710,5,2,1:2:0:0:
188,341,71876,1,2,1:2:0:0:
142,153,72043,2,0,B|114:145|114:145|22:156,1,90,2|0,1:2|0:0,0:0:0:0:
49,240,72293,2,0,L|44:284,1,45,2|0,0:0|0:0,0:0:0:0:
63,19,72543,2,0,L|67:63,1,45,2|0,0:0|0:0,0:0:0:0:
225,169,72710,5,10,0:3:0:0:
53,152,72876,2,0,L|123:158,1,45,2|0,0:0|0:0,0:0:0:0:
196,81,73043,2,0,L|302:88,1,90,0|0,1:0|0:0,0:0:0:0:
512,211,73376,5,2,1:2:0:0:
428,94,73543,1,2,1:2:0:0:
386,273,73710,1,2,1:2:0:0:
386,273,73876,2,0,L|376:342,1,45,2|0,0:0|0:0,0:0:0:0:
289,213,74043,1,10,0:3:0:0:
289,213,74210,2,0,L|279:282,1,45,2|0,0:0|0:0,0:0:0:0:
145,206,74376,5,2,1:2:0:0:
90,71,74543,1,2,1:2:0:0:
35,226,74710,2,0,L|45:331,1,90,2|0,1:2|0:0,0:0:0:0:
134,359,74960,2,0,L|142:281,1,45,2|0,0:0|0:0,0:0:0:0:
254,197,75210,2,0,L|262:119,1,45,2|0,0:0|0:0,0:0:0:0:
146,122,75376,5,10,0:3:0:0:
217,291,75543,1,0,1:0:0:0:
142,111,75710,2,0,L|135:15,1,90,0|0,1:0|0:0,0:0:0:0:
346,38,76043,5,2,1:2:0:0:
494,118,76210,1,2,1:2:0:0:
337,168,76376,1,2,1:2:0:0:
337,168,76543,2,0,L|272:159,1,45,2|0,0:0|0:0,0:0:0:0:
118,234,76710,1,10,0:3:0:0:
118,234,76876,2,0,L|183:225,1,45,2|0,0:0|0:0,0:0:0:0:
314,355,77043,5,2,1:2:0:0:
416,209,77210,1,2,1:2:0:0:
486,320,77376,2,0,L|390:303,1,90,2|0,1:2|0:0,0:0:0:0:
321,254,77626,2,0,L|306:188,1,45,2|0,0:0|0:0,0:0:0:0:
212,80,77876,2,0,L|199:28,1,45,2|0,0:0|0:0,0:0:0:0:
167,278,78043,1,10,0:3:0:0:
259,143,78210,1,0,1:0:0:0:
165,291,78376,2,0,P|182:246|116:267,1,135,2|0,1:2|0:0,0:0:0:0:
256,192,78710,12,0,79876,0:0:0:0:
373,225,80043,6,0,P|349:233|317:215,1,45,6|0,1:2|0:0,0:0:0:0:
245,222,80210,2,0,P|222:234|188:221,1,45,2|0,1:2|0:0,0:0:0:0:
121,214,80376,1,8,0:0:0:0:
76,337,80543,1,0,1:0:0:0:
67,339,80626,1,0,1:0:0:0:
58,341,80710,2,0,L|67:278,1,45,2|0,1:2|0:0,0:0:0:0:
114,169,80876,2,0,L|123:232,1,45,2|0,1:2|0:0,0:0:0:0:
240,302,81043,2,0,L|290:313,2,45,8|0|0,0:0|0:0|0:0,0:0:0:0:
445,127,81376,6,0,L|461:58,1,45,2|0,1:2|0:0,0:0:0:0:
357,133,81543,1,2,1:2:0:0:
357,133,81626,1,0,1:0:0:0:
357,133,81710,2,0,L|345:76,1,45,8|0,1:2|0:0,0:0:0:0:
249,181,81876,1,0,1:0:0:0:
249,181,81960,1,0,1:0:0:0:
249,181,82043,2,0,L|261:235,1,45,2|0,1:2|0:0,0:0:0:0:
157,187,82210,2,0,L|145:241,1,45,2|0,1:2|0:0,0:0:0:0:
42,115,82376,2,0,L|30:-13,1,90,8|0,0:0|0:0,0:0:0:0:
167,109,82710,5,2,1:2:0:0:
240,83,82894,1,2,0:2:0:0:
157,187,83078,1,10,0:2:0:0:
295,134,83262,1,0,0:0:0:0:
381,245,83471,6,0,B|395:273|395:273|394:355,1,90,0|0,1:0|1:0,0:0:0:0:
297,291,83877,1,10,1:2:0:0:
297,291,84078,1,2,1:2:0:0:
228,180,84262,5,0,1:0:0:0:
245,66,84429,1,0,1:0:0:0:
245,66,84512,1,0,1:0:0:0:
245,66,84596,1,8,1:2:0:0:
304,130,84762,1,0,1:0:0:0:
304,130,84846,1,0,1:0:0:0:
304,130,84929,1,0,1:0:0:0:
316,11,85096,1,0,1:0:0:0:
168,72,85262,1,8,0:0:0:0:
330,219,85646,6,0,P|334:247|338:295,1,45,6|0,1:2|0:0,0:0:0:0:
251,331,85812,2,0,P|255:302|259:255,1,45,2|0,1:2|0:0,0:0:0:0:
206,141,85979,1,8,0:0:0:0:
195,53,86146,1,0,1:0:0:0:
194,44,86229,1,0,1:0:0:0:
193,35,86312,1,2,1:2:0:0:
123,114,86479,1,2,1:2:0:0:
264,100,86646,2,0,L|319:104,2,45,8|0|0,0:0|0:0|0:0,0:0:0:0:
145,244,86979,6,0,L|70:258,1,45,2|0,1:2|0:0,0:0:0:0:
185,325,87146,1,2,1:2:0:0:
185,325,87229,1,0,1:0:0:0:
185,325,87312,2,0,L|116:345,1,45,8|0,0:0|0:0,0:0:0:0:
299,327,87479,1,0,1:0:0:0:
299,327,87562,1,0,1:0:0:0:
299,327,87646,2,0,L|315:255,1,45,2|0,1:2|0:0,0:0:0:0:
267,207,87812,2,0,L|256:124,1,45,2|0,1:2|0:0,0:0:0:0:
287,30,87979,1,8,0:0:0:0:
118,98,88312,6,0,L|194:106,1,45,4|0,1:0|0:0,0:0:0:0:
188,187,88479,2,0,L|267:200,1,45
456,101,88646,2,0,L|380:109,1,45,12|0,0:0|0:0,0:0:0:0:
386,190,88813,2,0,L|307:203,1,45
118,286,88979,6,0,L|194:278,1,45,12|0,0:0|0:0,0:0:0:0:
456,283,89146,2,0,L|380:275,1,45,8|0,0:0|0:0,0:0:0:0:
118,98,89312,2,0,L|194:106,1,45,12|0,0:0|0:0,0:0:0:0:
456,101,89479,2,0,L|380:109,1,45,8|0,0:0|0:0,0:0:0:0:
238,269,89646,5,12,1:0:0:0:
203,279,89729,1,0,1:0:0:0:
168,289,89812,1,0,1:0:0:0:
133,300,89896,1,0,1:0:0:0:
107,215,89979,5,12,1:0:0:0:
72,205,90062,1,0,1:0:0:0:
37,195,90145,1,0,1:0:0:0:
2,184,90229,1,0,1:0:0:0:
77,116,90312,6,0,L|82:80,1,22.5,12|0,1:0|1:0,1:0:0:0:
99,109,90396,2,0,L|107:73,1,22.5,0|0,1:0|1:0,1:0:0:0:
121,103,90479,2,0,L|132:68,1,22.5,0|0,1:0|1:0,1:0:0:0:
143,99,90562,2,0,L|157:65,1,22.5,0|0,1:0|1:0,1:0:0:0:
223,97,90646,6,0,L|255:97,7,22.5,0|0|0|0|0|0|0|0,1:0|1:0|1:0|1:0|1:0|1:0|1:0|1:0,1:0:0:0:
313,137,90979,6,0,L|327:226,1,49.5000015106202,4|0,1:0|0:0,0:0:0:0:
321,272,91145,1,0,0:0:0:0:
324,296,91229,1,0,0:0:0:0:
328,321,91312,2,0,L|333:271,1,49.5000015106202,8|0,0:0|0:0,0:0:0:0:
422,295,91479,2,0,L|427:245,1,49.5000015106202
459,161,91645,5,2,1:3:0:0:
446,123,91729,1,0,0:0:0:0:
433,85,91812,1,0,0:0:0:0:
420,47,91895,1,0,0:0:0:0:
409,73,91979,5,8,0:0:0:0:
407,82,92062,1,0,0:0:0:0:
406,91,92145,1,0,0:0:0:0:
405,100,92229,1,0,0:0:0:0:
373,132,92312,5,2,1:2:0:0:
338,104,92395,1,0,0:0:0:0:
293,105,92479,1,0,0:0:0:0:
259,134,92562,1,0,0:0:0:0:
253,178,92645,1,8,0:0:0:0:
277,215,92729,1,0,0:0:0:0:
312,241,92812,1,0,0:0:0:0:
330,281,92895,1,0,0:0:0:0:
325,325,92979,2,0,L|311:388,3,49.5000015106202,2|0|0|0,1:3|0:0|0:0|0:0,0:0:0:0:
316,165,93312,5,8,0:0:0:0:
313,154,93395,1,0,0:0:0:0:
310,144,93479,1,0,0:0:0:0:
308,135,93562,1,0,0:0:0:0:
333,107,93645,5,2,1:2:0:0:
323,78,93729,1,0,0:0:0:0:
297,61,93812,1,0,0:0:0:0:
267,55,93895,1,0,0:0:0:0:
237,59,93979,1,8,0:0:0:0:
210,71,94062,1,0,0:0:0:0:
181,81,94145,1,0,0:0:0:0:
151,81,94229,1,0,0:0:0:0:
136,53,94312,5,2,1:3:0:0:
141,72,94395,1,0,0:0:0:0:
139,91,94479,1,0,0:0:0:0:
130,108,94562,1,0,0:0:0:0:
104,137,94645,5,8,0:0:0:0:
107,156,94729,1,0,0:0:0:0:
107,175,94812,1,0,0:0:0:0:
103,194,94895,1,0,0:0:0:0:
130,217,94979,6,0,P|151:228|187:231,1,49.5000015106202,2|0,1:2|0:0,0:0:0:0:
266,206,95145,1,0,0:0:0:0:
266,206,95229,1,0,0:0:0:0:
266,206,95312,2,0,P|292:197|338:198,1,49.5000015106202,8|0,0:0|0:0,0:0:0:0:
399,242,95479,2,0,P|423:239|446:230,1,49.5000015106202
311,285,95645,1,2,1:3:0:0:
267,297,95729,1,0,0:0:0:0:
224,308,95812,1,0,0:0:0:0:
181,319,95895,1,0,0:0:0:0:
137,330,95979,5,8,0:0:0:0:
146,333,96062,1,0,0:0:0:0:
155,336,96145,1,0,0:0:0:0:
164,339,96229,1,0,0:0:0:0:
173,342,96312,6,0,L|233:354,3,49.5000015106202,4|0|0|0,1:0|0:0|0:0|0:0,0:0:0:0:
179,259,96645,1,8,0:0:0:0:
177,229,96729,1,0,0:0:0:0:
175,199,96812,1,0,0:0:0:0:
173,169,96895,1,0,0:0:0:0:
247,175,96979,5,2,1:3:0:0:
262,178,97062,1,0,0:0:0:0:
277,182,97145,1,0,0:0:0:0:
292,186,97229,1,0,0:0:0:0:
287,258,97312,2,0,L|265:303,3,49.5000015106202,8|0|0|0,0:0|0:0|0:0|0:0,0:0:0:0:
138,278,97645,5,2,1:2:0:0:
132,238,97729,1,0,0:0:0:0:
126,198,97812,1,0,0:0:0:0:
120,158,97895,1,0,0:0:0:0:
114,118,97979,1,8,0:0:0:0:
109,78,98062,1,0,0:0:0:0:
101,39,98145,1,0,0:0:0:0:
92,0,98228,1,0,0:0:0:0:
180,33,98312,5,2,1:3:0:0:
189,36,98395,1,0,0:0:0:0:
198,39,98478,1,0,0:0:0:0:
207,42,98562,1,0,0:0:0:0:
299,38,98645,5,8,0:0:0:0:
290,41,98728,1,0,0:0:0:0:
281,44,98811,1,0,0:0:0:0:
272,47,98895,1,0,0:0:0:0:
234,113,98978,5,2,1:2:0:0:
209,144,99062,1,0,0:0:0:0:
204,183,99145,1,0,0:0:0:0:
224,216,99228,1,0,0:0:0:0:
258,236,99312,1,8,0:0:0:0:
280,268,99395,1,0,0:0:0:0:
287,306,99478,1,0,0:0:0:0:
274,344,99562,1,0,0:0:0:0:
243,368,99645,5,2,1:3:0:0:
219,350,99728,1,0,0:0:0:0:
211,320,99812,1,0,0:0:0:0:
223,293,99895,1,0,0:0:0:0:
249,280,99978,1,8,0:0:0:0:
220,269,100062,1,0,0:0:0:0:
190,269,100145,1,0,0:0:0:0:
162,279,100228,1,0,0:0:0:0:
141,300,100312,5,2,1:2:0:0:
149,261,100395,1,2,0:0:0:0:
157,222,100478,1,2,0:0:0:0:
371,300,100645,5,10,0:0:0:0:
363,261,100728,1,2,0:0:0:0:
355,222,100811,1,2,0:0:0:0:
256,19,100978,5,2,1:3:0:0:
255,59,101061,1,2,0:0:0:0:
256,98,101144,1,2,0:0:0:0:
255,248,101312,2,0,L|255:298,1,45,8|0,0:0|0:0,0:0:0:0:
256,143,101478,2,0,L|256:98,1,45
159,109,101645,5,4,1:0:0:0:
117,105,101728,1,0,0:2:0:0:
78,120,101812,1,4,0:2:0:0:
51,151,101895,1,0,0:2:0:0:
41,190,101978,1,8,0:2:0:0:
58,227,102062,1,0,0:2:0:0:
93,248,102145,1,4,0:2:0:0:
133,250,102228,1,0,0:2:0:0:
115,279,102312,5,2,1:2:0:0:
149,276,102395,1,0,0:2:0:0:
182,265,102478,1,4,0:2:0:0:
217,261,102562,1,0,0:2:0:0:
206,298,102645,1,10,0:2:0:0:
240,294,102728,1,0,0:2:0:0:
274,302,102812,1,4,0:2:0:0:
304,321,102895,1,0,0:2:0:0:
355,381,102978,5,2,1:2:0:0:
379,340,103062,1,0,0:2:0:0:
377,293,103145,1,4,0:2:0:0:
348,255,103228,1,0,0:2:0:0:
332,210,103312,1,8,0:2:0:0:
332,163,103395,1,0,0:2:0:0:
354,122,103478,1,4,0:2:0:0:
391,92,103562,1,0,0:2:0:0:
437,92,103645,5,2,1:2:0:0:
420,61,103728,1,0,0:2:0:0:
390,41,103812,1,4,0:2:0:0:
355,36,103895,1,0,0:2:0:0:
319,62,103978,1,10,0:2:0:0:
288,80,104061,1,0,0:2:0:0:
252,82,104145,1,4,0:2:0:0:
219,69,104228,1,0,0:2:0:0:
146,33,104312,5,2,1:2:0:0:
123,67,104395,1,0,0:2:0:0:
118,107,104478,1,4,0:2:0:0:
130,146,104562,1,0,0:2:0:0:
154,178,104645,1,8,0:2:0:0:
163,217,104728,1,0,0:2:0:0:
155,257,104812,1,4,0:2:0:0:
137,293,104895,1,0,0:2:0:0:
99,317,104978,5,2,1:2:0:0:
134,313,105062,1,0,0:2:0:0:
167,322,105145,1,4,0:2:0:0:
195,341,105228,1,0,0:2:0:0:
214,370,105312,1,10,0:2:0:0:
234,341,105395,1,0,0:2:0:0:
265,325,105478,1,4,0:2:0:0:
300,321,105562,1,0,0:2:0:0:
378,299,105645,5,2,1:2:0:0:
357,263,105728,1,0,0:2:0:0:
326,234,105812,1,4,0:2:0:0:
291,212,105895,1,0,0:2:0:0:
253,196,105978,1,8,0:2:0:0:
212,188,106062,1,0,0:2:0:0:
171,187,106145,1,4,0:2:0:0:
130,194,106228,1,0,0:2:0:0:
83,254,106312,5,2,1:2:0:0:
81,266,106395,1,0,0:2:0:0:
79,278,106478,1,4,0:2:0:0:
76,290,106562,1,0,0:2:0:0:
7,270,106645,5,10,0:2:0:0:
5,282,106728,1,0,0:2:0:0:
3,294,106811,1,4,0:2:0:0:
0,306,106895,1,0,0:2:0:0:
38,186,106978,6,0,L|23:40,1,116.999994644165,4|4,1:0|0:2,0:2:0:0:
121,81,107312,1,8,0:2:0:0:
164,98,107395,1,0,0:2:0:0:
210,101,107478,1,4,0:2:0:0:
254,85,107562,1,0,0:2:0:0:
323,23,107645,5,2,1:2:0:0:
334,26,107728,1,0,0:2:0:0:
345,29,107812,1,4,0:2:0:0:
356,32,107895,1,0,0:2:0:0:
428,95,107978,5,10,0:2:0:0:
417,98,108061,1,0,0:2:0:0:
406,101,108145,1,4,0:2:0:0:
395,104,108228,1,0,0:2:0:0:
334,164,108312,5,2,1:2:0:0:
301,197,108395,1,0,0:2:0:0:
264,226,108478,1,4,0:2:0:0:
223,249,108562,1,0,0:2:0:0:
179,264,108645,1,8,0:2:0:0:
133,273,108728,1,0,0:2:0:0:
85,272,108812,1,4,0:2:0:0:
39,261,108895,1,0,0:2:0:0:
38,181,108978,5,2,1:2:0:0:
44,164,109062,1,0,0:2:0:0:
51,147,109145,1,4,0:2:0:0:
58,131,109228,1,0,0:2:0:0:
94,183,109312,5,8,0:2:0:0:
88,166,109396,1,0,0:2:0:0:
81,149,109479,1,4,0:2:0:0:
74,133,109562,1,0,0:2:0:0:
71,42,109645,5,2,1:2:0:0:
118,64,109728,1,0,0:2:0:0:
169,77,109812,1,4,0:2:0:0:
221,74,109895,1,0,0:2:0:0:
270,55,109978,1,8,0:2:0:0:
318,33,110062,1,0,0:2:0:0:
369,24,110145,1,4,0:2:0:0:
420,35,110228,1,0,0:2:0:0:
472,114,110312,5,2,1:2:0:0:
470,125,110395,1,0,0:2:0:0:
468,136,110478,1,4,0:2:0:0:
467,147,110562,1,0,0:2:0:0:
486,236,110645,5,10,0:2:0:0:
484,247,110728,1,0,0:2:0:0:
482,258,110811,1,4,0:2:0:0:
481,269,110895,1,0,0:2:0:0:
389,237,110978,5,2,1:2:0:0:
338,221,111062,1,0,0:2:0:0:
287,206,111145,1,4,0:2:0:0:
236,191,111228,1,0,0:2:0:0:
222,169,111312,5,10,0:2:0:0:
235,219,111395,1,0,0:2:0:0:
248,269,111478,1,4,0:2:0:0:
262,320,111562,1,0,0:2:0:0:
278,332,111645,5,2,1:2:0:0:
228,315,111728,1,0,0:2:0:0:
176,303,111812,1,4,0:2:0:0:
125,288,111895,1,0,0:2:0:0:
103,294,111978,5,10,1:2:0:0:
149,240,112062,1,0,1:2:0:0:
164,171,112145,1,4,1:2:0:0:
147,103,112228,1,0,1:2:0:0:
86,65,112312,1,0,1:2:0:0:
256,192,112395,12,2,114978,1:2:0:0:
256,192,115145,12,0,117645,0:0:0:0:
