osu file format v14

[General]
AudioFilename: audio.mp3
AudioLeadIn: 0
PreviewTime: 65380
Countdown: 0
SampleSet: Soft
StackLeniency: 0
Mode: 0
LetterboxInBreaks: 0
WidescreenStoryboard: 0

[Editor]
Bookmarks: 13340,25182,29130,52814,73340,98603,104919,117551,141235,161761,187024,218603,231235,243867,246235,256498
DistanceSpacing: 1.3
BeatDivisor: 6
GridSize: 32
TimelineZoom: 1

[Metadata]
Title:Gothclomia
TitleUnicode:Gothclomia
Artist:onoken
ArtistUnicode:onoken
Creator:Alchyr
Version:Cursed
Source:
Tags:秣本 瑳羅 Sara Matsumoto Riverside ドロップス Drops
BeatmapID:1174600
BeatmapSetID:554896

[Difficulty]
HPDrainRate:4
CircleSize:4
OverallDifficulty:9
ApproachRate:9
SliderMultiplier:1.4
SliderTickRate:1

[Events]
//Background and Video events
0,0,"bg.jpeg",0,0
//Break Periods
//Storyboard Layer 0 (Background)
//Storyboard Layer 1 (Fail)
//Storyboard Layer 2 (Pass)
//Storyboard Layer 3 (Foreground)
//Storyboard Sound Samples

[TimingPoints]
154,863.309352517986,4,2,0,20,1,0
154,-200,4,2,0,20,0,0
6197,-100,4,2,0,20,0,0
7025,394.736842105263,4,2,0,20,1,0
7025,-200,4,2,0,20,0,0
8603,-133.333333333333,4,2,0,20,0,0
10972,-200,4,2,0,20,0,0
11761,-133.333333333333,4,2,0,20,0,0
12551,-200,4,2,0,20,0,0
13340,-66.6666666666667,4,2,0,20,0,0
19656,-66.5,4,2,0,20,0,0
20051,-66.6666666666667,4,2,0,20,0,0
29130,-100,4,2,0,20,0,0
34656,-111.111111111111,4,2,0,20,0,0
35051,-100,4,2,0,20,0,0
50446,-99.009900990099,4,2,0,20,0,0
51235,-100,4,2,0,20,0,0
52024,-79,4,2,0,20,0,0
52814,-79.3650793650794,4,2,0,20,0,0
54393,-100,4,2,0,20,0,0
55182,-100,4,2,0,20,0,0
58735,-91.743119266055,4,2,0,20,0,0
59524,-100,4,2,0,20,0,0
62024,-76.9230769230769,4,2,0,20,0,0
62222,-100,4,2,0,20,0,0
63143,-83.3333333333333,4,2,0,20,0,0
63472,-100,4,2,0,20,0,0
66630,-99.009900990099,4,2,0,20,0,0
67419,-100,4,2,0,20,0,0
68077,-76.9230769230769,4,2,0,20,0,0
68340,-66.6666666666667,4,2,0,20,0,0
68603,-100,4,2,0,20,0,0
68867,-76.9230769230769,4,2,0,20,0,0
69130,-66.6666666666667,4,2,0,20,0,0
73340,-66.6666666666667,4,2,0,20,0,1
76498,-52.6315789473684,4,2,0,20,0,1
76893,-66.6666666666667,4,2,0,20,0,1
78077,-51.2820512820513,4,2,0,20,0,1
79261,-66.6666666666667,4,2,0,20,0,1
79656,-50,4,2,0,20,0,1
79919,-66.6666666666667,4,2,0,20,0,1
82419,-50,4,2,0,20,0,1
83077,-66.6666666666667,4,2,0,20,0,1
85972,-50,4,2,0,20,0,0
86367,-66.6666666666667,4,2,0,20,0,0
88340,-66.6666666666667,4,2,0,20,0,1
90314,-66.2251655629139,4,2,0,20,0,1
90709,-66.6666666666667,4,2,0,20,0,1
90840,-57.1428571428571,4,2,0,20,0,1
90972,-49,4,2,0,20,0,1
91103,-66.6666666666667,4,2,0,20,0,1
92288,-50,4,2,0,20,0,1
92946,-66.6666666666667,4,2,0,20,0,1
94261,-50,4,2,0,20,0,1
95577,-66.6666666666667,4,2,0,20,0,1
96893,-66.2251655629139,4,2,0,20,0,1
97024,-66.6666666666667,4,2,0,20,0,1
97814,-66.6666666666667,4,2,0,20,0,0
98603,-166.666666666667,4,2,0,20,0,0
100972,-66.6666666666667,4,2,0,20,0,0
101761,-133.333333333333,4,2,0,20,0,0
102551,-100,4,2,0,20,0,0
103340,-200,4,2,0,20,0,0
104524,-158.730158730159,4,2,0,20,0,0
104919,-66.6666666666667,4,2,0,20,0,0
112024,-100,4,2,0,20,0,0
112288,-86.9565217391304,4,2,0,20,0,0
112551,-71.4285714285714,4,2,0,20,0,0
112814,-57.8034682080925,4,2,0,20,0,0
113603,-100,4,2,0,20,0,0
113735,-83.3333333333333,4,2,0,20,0,0
113867,-71.4285714285714,4,2,0,20,0,0
113998,-62.5,4,2,0,20,0,0
114130,-55.5555555555556,4,2,0,20,0,0
114261,-50,4,2,0,20,0,0
114393,-100,4,2,0,20,0,0
115182,-66.6666666666667,4,2,0,20,0,0
115446,-76.9230769230769,4,2,0,20,0,0
115709,-100,4,2,0,20,0,0
116367,-66.6666666666667,4,2,0,20,0,0
117551,-100,4,2,0,20,0,0
123077,-76.9230769230769,4,2,0,20,0,0
123472,-100,4,2,0,20,0,0
126630,-125,4,2,0,20,0,0
127024,-100,4,2,0,20,0,0
130577,-96.1538461538461,4,2,0,20,0,0
132946,-133.333333333333,4,2,0,20,0,0
133340,-100,4,2,0,20,0,0
135709,-99.009900990099,4,2,0,20,0,0
136103,-100,4,2,0,20,0,0
139261,-142.857142857143,4,2,0,20,0,0
139656,-100,4,2,0,20,0,0
140446,-99.009900990099,4,2,0,20,0,0
141235,-66.6666666666667,4,2,0,20,0,0
141235,-66.6666666666667,4,2,0,20,0,0
142419,-100,4,2,0,20,0,0
142814,-125,4,2,0,20,0,0
143209,-100,4,2,0,20,0,0
143867,-86.9565217391304,4,2,0,20,0,0
144130,-100,4,2,0,20,0,0
144393,-83.3333333333333,4,2,0,20,0,0
145182,-100,4,2,0,20,0,0
146630,-133.333333333333,4,2,0,20,0,0
147946,-100,4,2,0,20,0,0
148340,-66.6666666666667,4,2,0,20,0,0
149130,-100,4,2,0,20,0,0
151564,-84.0336134453781,4,2,0,20,0,0
151893,-100,4,2,0,20,0,0
154656,-99.009900990099,4,2,0,20,0,0
157024,-76.9230769230769,4,2,0,20,0,0
157551,-66.6666666666667,4,2,0,20,0,0
161761,-66.6666666666667,4,2,0,20,0,1
162024,-50,4,2,0,20,0,1
162551,-66.6666666666667,4,2,0,20,0,1
162946,-50,4,2,0,20,0,1
163340,-66.6666666666667,4,2,0,20,0,1
164130,-100,4,2,0,20,0,1
164524,-66.6666666666667,4,2,0,20,0,1
164919,-58.8235294117647,4,2,0,20,0,1
165709,-66.2251655629139,4,2,0,20,0,1
167682,-66.6666666666667,4,2,0,20,0,1
174393,-100,4,2,0,20,0,0
176761,-100,4,2,0,20,0,1
177156,-66.6666666666667,4,2,0,20,0,1
177485,-66.6666666666667,4,2,0,20,0,0
177551,-89.2857142857143,4,2,0,20,0,1
177946,-71.4285714285714,4,2,0,20,0,1
179919,-66.6666666666667,4,2,0,20,0,1
181893,-100,4,2,0,20,0,1
182288,-66.6666666666667,4,2,0,20,0,1
182682,-52.9100529100529,4,2,0,20,0,1
183077,-76.9230769230769,4,2,0,20,0,1
183340,-50,4,2,0,20,0,1
183472,-58.8235294117647,4,2,0,20,0,1
184656,-66.6666666666667,4,2,0,20,0,1
185051,-83.3333333333333,4,2,0,20,0,1
185972,-66.6666666666667,4,2,0,20,0,1
186235,-58.8235294117647,4,2,0,20,0,0
186235,-58.8235294117647,4,2,0,20,0,0
187024,-100,4,2,0,20,0,0
190182,-133.333333333333,4,2,0,20,0,0
190972,-131.578947368421,4,2,0,20,0,0
191761,-200,4,2,0,20,0,0
193340,-80,4,2,0,20,0,0
193735,-105.263157894737,4,2,0,20,0,0
194130,-83.3333333333333,4,2,0,20,0,0
197814,-71.4285714285714,4,2,0,20,0,0
198077,-83.3333333333333,4,2,0,20,0,0
198340,-90.9090909090909,4,2,0,20,0,0
198603,-66.6666666666667,4,2,0,20,0,0
198867,-76.9230769230769,4,2,0,20,0,0
199130,-83.3333333333333,4,2,0,20,0,0
199393,-66.6666666666667,4,2,0,20,0,0
199919,-50,4,2,0,20,0,0
200182,-66.6666666666667,4,2,0,20,0,0
204656,-100,4,2,0,20,0,0
204919,-200,4,2,0,20,0,0
205182,-100,4,2,0,20,0,0
205577,-104.166666666667,4,2,0,20,0,0
206367,-96.1538461538461,4,2,0,20,0,0
206630,-133.333333333333,4,2,0,20,0,0
207551,-84.7457627118644,4,2,0,20,0,0
210182,-106.382978723404,4,2,0,20,0,0
213867,-100,4,2,0,20,0,0
214130,-90.9090909090909,4,2,0,20,0,0
216235,-76.9230769230769,4,2,0,20,0,0
216498,-74.0740740740741,4,2,0,20,0,0
216761,-66.6666666666667,4,2,0,20,0,0
217024,-62.5,4,2,0,20,0,0
217551,-58.8235294117647,4,2,0,20,0,0
217814,-50,4,2,0,20,0,0
218603,-50,4,2,0,20,0,1
218867,-66.6666666666667,4,2,0,20,0,1
220446,-50,4,2,0,20,0,1
220972,-66.6666666666667,4,2,0,20,0,1
222946,-65.359477124183,4,2,0,20,0,1
223340,-66.6666666666667,4,2,0,20,0,1
223472,-62.5,4,2,0,20,0,1
223603,-58.8235294117647,4,2,0,20,0,1
224130,-66.6666666666667,4,2,0,20,0,1
224788,-58.8235294117647,4,2,0,20,0,1
225577,-66.6666666666667,4,2,0,20,0,1
227682,-52.6315789473684,4,2,0,20,0,1
228209,-66.6666666666667,4,2,0,20,0,1
230577,-58.8235294117647,4,2,0,20,0,1
230709,-50,4,2,0,20,0,1
231103,-66.6666666666667,4,2,0,20,0,0
231235,-66.6666666666667,4,2,0,20,0,1
231893,-66.2251655629139,4,2,0,20,0,1
233998,-58.8235294117647,4,2,0,20,0,1
234393,-66.6666666666667,4,2,0,20,0,1
235577,-55.5555555555556,4,2,0,20,0,1
236761,-66.6666666666667,4,2,0,20,0,1
237485,-55.5555555555556,4,2,0,20,0,1
237946,-66.6666666666667,4,2,0,20,0,1
240182,-50,4,2,0,20,0,1
240314,-66.6666666666667,4,2,0,20,0,1
241498,-100,4,2,0,20,0,1
241893,-66.6666666666667,4,2,0,20,0,1
242288,-100,4,2,0,20,0,1
243867,-66.6666666666667,4,2,0,20,0,0
246235,-100,4,2,0,20,0,1
246630,-66.6666666666667,4,2,0,20,0,1
247814,-74.0740740740741,4,2,0,20,0,1
248209,-66.6666666666667,4,2,0,20,0,1
248998,-50,4,2,0,20,0,1
249393,-66.6666666666667,4,2,0,20,0,1
250182,-50,4,2,0,20,0,1
250972,-66.6666666666667,4,2,0,20,0,1
255709,-66.6666666666667,4,2,0,20,0,0
256498,-100,4,2,0,20,0,0
258867,-66.6666666666667,4,2,0,20,0,0
259130,-77.5193798449612,4,2,0,20,0,0
259393,-66.6666666666667,4,2,0,20,0,0
259656,-200,4,2,0,20,0,0
260446,-83.3333333333333,4,2,0,20,0,0
261236,451.127819548872,4,2,0,20,1,0
261236,-200,4,2,0,20,0,0
263040,428.571428571429,4,2,0,20,1,0
263040,-133.333333333333,4,2,0,20,0,0
263897,-100,4,2,0,20,0,0
264768,517.241379310345,4,2,0,20,1,0
266836,600,4,2,0,20,1,0
266836,-200,4,2,0,20,0,0
268936,750,4,2,0,20,1,0
268936,-200,4,2,0,20,0,0

[Colours]
Combo1 : 205,120,120
Combo2 : 128,0,128
Combo3 : 118,131,182

[HitObjects]
216,312,154,6,0,L|216:171,1,140
187,209,1880,2,0,P|235:165|300:201,1,140
295,193,3607,2,0,P|256:246|284:307,1,140
284,308,6197,2,0,P|258:268|258:240,1,70
348,131,7025,6,0,P|364:198|320:256,1,140
396,260,7814,2,0,L|243:246,1,140
256,247,8603,6,0,P|279:236|302:163,1,105.000004005432
155,116,9393,2,0,L|240:184,1,105.000004005432
318,176,10182,6,0,P|286:117|158:161,1,210.000008010865
164,143,10972,2,0,L|306:115,1,140
244,45,11761,6,0,P|210:105|289:208,1,210.000008010865
284,207,12551,2,0,L|141:173,1,140
147,174,13340,6,0,L|283:141,1,140
134,108,13735,2,0,L|59:127,2,70.0000026702882
284,207,14130,2,0,B|344:244|344:244|413:217,1,140.000005340576
304,61,14524,5,0,0:0:0:0:
292,135,14656,1,0,0:0:0:0:
284,207,14788,1,0,0:0:0:0:
182,85,14919,6,0,L|174:154,2,70.0000026702882
368,174,15314,2,0,L|349:320,1,140.000005340576
266,157,15709,6,0,B|250:125|250:125|263:90,1,70.0000026702882
298,13,15972,1,0,0:0:0:0:
235,218,16103,2,0,B|205:198|205:198|198:161,1,70.0000026702882,0|0,0:3|0:3,0:3:0:0:
190,77,16366,1,0,0:3:0:0:
370,211,16498,6,0,L|382:363,1,140.000005340576
204,277,16893,5,0,0:0:0:0:
287,244,17024,1,0,0:0:0:0:
370,211,17156,1,0,0:0:0:0:
187,203,17288,6,0,P|128:269|148:329,1,140.000005340576
136,313,17551,2,0,L|149:172,1,140.000005340576
149,173,17814,2,0,P|236:205|284:165,1,140.000005340576
235,205,18077,6,0,P|220:240|231:286,2,70.0000026702882
425,214,18472,2,0,L|267:254,1,140.000005340576
196,173,18867,6,0,P|261:183|252:302,1,210.000008010865
289,248,19261,2,0,P|232:170|151:220,1,210.000008010865
151,220,19656,6,0,L|315:253,1,140.350877192982
225,96,20051,2,0,B|210:62|210:62|219:21,2,70.0000026702882
338,84,20446,2,0,P|266:58|222:105,1,140.000005340576
286,118,20709,2,0,L|142:68,1,140.000005340576
154,72,20972,2,0,P|179:109|126:195,1,140.000005340576
113,127,21235,6,0,P|93:104|87:56,2,70.0000026702882
286,118,21630,2,0,L|142:68,1,140.000005340576
248,190,22024,5,0,0:0:0:0:
321,215,22156,1,0,0:0:0:0:
393,241,22287,1,0,0:0:0:0:
234,268,22419,5,0,0:0:0:0:
248,190,22551,1,0,0:0:0:0:
263,114,22682,1,0,0:0:0:0:
174,217,22814,6,0,L|41:265,1,140.000005340576
137,93,23209,2,0,B|174:77|174:77|203:88,1,70.0000026702882
327,142,23472,1,0,0:0:0:0:
174,217,23603,2,0,L|174:59,2,140.000005340576
300,333,24393,6,0,L|280:261,2,70.0000026702882
176,243,24788,1,0,0:0:0:0:
194,168,24919,1,0,0:0:0:0:
212,92,25051,1,0,0:0:0:0:
342,126,25182,6,0,L|362:194,1,70.0000026702882
352,282,25446,1,0,0:0:0:0:
272,212,25577,6,0,L|252:144,1,70.0000026702882
176,103,25840,1,0,0:0:0:0:
175,206,25972,6,0,L|195:274,1,70.0000026702882
150,351,26235,2,0,L|161:388,1,35.0000013351441
86,272,26367,6,0,L|66:204,1,70.0000026702882
234,96,26761,6,0,L|214:164,1,70.0000026702882
384,240,27156,6,0,L|364:172,2,70.0000026702882
285,196,27551,6,0,L|269:144,1,35.0000013351441
309,32,27814,1,0,0:0:0:0:
454,172,28077,2,0,L|454:313,1,140.000005340576
201,263,29130,6,0,P|174:220|181:170,1,93.3333333333333
308,141,29524,2,0,P|284:185|237:204,1,93.3333333333333
150,110,29919,1,0,0:0:0:0:
265,290,30182,5,0,0:0:0:0:
369,258,30314,2,0,P|388:223|383:171,1,93.3333333333333
289,81,30709,2,0,P|275:141|322:207,1,140
315,203,31103,2,0,P|354:168|361:129,1,93.3333333333333
223,101,31498,2,0,L|362:129,1,140
172,162,32288,6,0,P|146:122|179:35,1,140
302,219,32946,1,0,0:0:0:0:
172,162,33077,2,0,P|144:114|149:73,1,93.3333333333333
251,3,33472,1,0,0:0:0:0:
312,127,33867,6,0,L|214:98,1,93.3333333333333
312,127,34261,2,0,P|341:172|316:254,1,140
319,251,34656,2,0,L|411:144,1,125.999996154785
401,156,35051,2,0,P|353:214|288:206,1,140
294,210,35446,6,0,P|285:164|312:128,1,93.3333333333333
472,214,35840,1,0,0:0:0:0:
146,118,36235,2,0,P|186:98|240:113,1,93.3333333333333
216,257,36630,6,0,L|195:164,1,93.3333333333333
339,241,37024,2,0,P|359:269|348:339,1,93.3333333333333
295,295,37419,2,0,L|362:211,1,93.3333333333333
362,115,37814,1,0,0:0:0:0:
227,253,38209,6,0,P|215:303|273:373,1,140
265,370,38603,2,0,L|220:230,1,140
227,253,38998,2,0,P|224:284|170:330,1,93.3333333333333
64,335,39393,1,0,0:0:0:0:
197,126,39788,1,0,0:0:0:0:
362,279,40182,6,0,P|390:330|383:372,1,93.3333333333333
247,222,40577,1,0,0:0:0:0:
313,187,40709,1,0,0:0:0:0:
379,152,40840,1,0,0:0:0:0:
188,158,40972,6,0,L|95:208,1,93.3333333333333
276,294,41367,1,0,0:0:0:0:
253,110,41761,6,0,P|227:69|164:69,1,93.3333333333333
325,76,42156,2,0,L|168:59,1,140
187,62,42551,1,0,0:0:0:0:
348,198,42814,5,0,0:0:0:0:
214,183,42946,2,0,P|171:205|155:241,1,70
258,331,43340,2,0,P|248:275|210:244,1,93.3333333333333
184,315,43735,1,0,0:0:0:0:
184,315,43998,5,0,0:0:0:0:
301,171,44130,1,0,0:0:0:0:
49,103,44524,2,0,L|58:245,1,140
58,243,44919,6,0,P|95:215|170:254,1,140
170,254,45314,2,0,P|162:214|183:167,1,93.3333333333333
283,125,45709,1,0,0:0:0:0:
170,254,46103,6,0,P|162:214|183:167,1,93.3333333333333
332,255,46498,2,0,L|324:360,1,93.3333333333333
235,218,46893,1,0,0:0:0:0:
481,118,47288,1,0,0:0:0:0:
206,81,47682,2,0,L|238:231,1,140
235,218,48077,6,0,P|201:184|124:214,1,140
124,214,48472,2,0,L|232:188,1,93.3333333333333
354,213,48867,1,0,0:0:0:0:
181,272,49261,6,0,P|182:233|222:188,1,93.3333333333333
386,289,49656,2,0,L|239:251,1,140
280,262,50051,2,0,P|325:218|326:189,1,87.5
245,57,50446,2,0,L|260:199,1,140
260,196,50840,1,0,0:0:0:0:
444,216,51235,6,0,P|407:188|327:231,1,140
330,224,51630,2,0,P|296:265|213:254,1,140
216,257,52024,2,0,L|348:219,1,118.143459915612
170,187,52419,1,0,0:0:0:0:
366,112,52814,6,0,B|380:142|380:142|380:173,1,58.7999982055665
381,307,53077,1,0,0:0:0:0:
447,156,53209,6,0,B|444:188|444:188|428:215,1,58.7999982055665
362,332,53472,1,0,0:0:0:0:
222,161,53603,6,0,B|213:130|213:130|222:92,2,58.7999982055665
390,146,53998,2,0,L|215:103,1,176.399994616699
219,104,54393,2,0,L|370:71,1,140
356,74,54788,2,0,L|330:182,1,93.3333333333333
254,240,55182,6,0,P|282:229|352:260,1,93.3333333333333
323,234,55446,2,0,P|359:230|402:179,1,93.3333333333333
384,213,55709,2,0,L|359:323,1,93.3333333333333
363,304,55972,6,0,P|308:268|297:240,1,93.3333333333333
353,115,56367,1,0,0:0:0:0:
162,182,56761,6,0,P|146:209|154:270,1,93.3333333333333
242,294,57156,2,0,L|212:230,1,70
71,163,57551,6,0,P|150:89|245:141,1,233.333333333333
246,143,58209,2,0,P|158:133|124:51,1,186.666666666667
124,50,58735,2,0,L|249:144,1,152.600001629944
388,313,59524,6,0,P|378:243|317:211,1,140
322,211,59919,5,0,0:0:0:0:
391,181,60051,1,0,0:0:0:0:
459,151,60182,1,0,0:0:0:0:
234,75,60314,5,0,0:0:0:0:
218,148,60446,1,0,0:0:0:0:
202,220,60577,1,0,0:0:0:0:
383,108,60709,6,0,L|496:19,1,140
274,80,61367,5,0,0:0:0:0:
326,234,61498,1,0,0:0:0:0:
120,127,62024,6,0,L|114:4,1,121.333327779134
116,49,62288,2,0,P|161:78|234:69,1,116.666666666667
222,75,62617,2,0,P|202:106|213:162,1,93.3333333333333
211,159,62880,2,0,L|303:104,1,93.3333333333333
271,124,63143,2,0,P|281:169|211:229,1,139.999995727539
219,229,63472,2,0,L|282:101,1,140
281,103,63867,6,0,P|283:183|239:186,1,140
138,86,64524,5,0,0:0:0:0:
304,153,64656,2,0,L|200:109,1,93.3333333333333
218,116,64919,2,0,L|351:174,1,140
212,182,65446,6,0,L|155:157,1,46.6666666666667
252,232,65709,2,0,L|294:250,1,46.6666666666667
192,255,65972,2,0,L|135:230,1,46.6666666666667
305,165,66235,2,0,L|391:127,1,93.3333333333333
210,121,66630,6,0,L|223:273,1,140
222,261,67024,1,0,0:0:0:0:
272,88,67419,6,0,P|254:65|188:53,1,93.3333333333333
289,180,67814,2,0,L|392:206,1,93.3333333333333
379,203,68077,2,0,L|254:241,1,121.333327779134
263,238,68340,2,0,L|420:268,1,140.000005340576
401,264,68603,6,0,L|340:184,1,93.3333333333333
344,190,68867,2,0,L|360:317,1,121.333327779134
359,310,69130,2,0,L|278:190,1,140.000005340576
297,219,69393,6,0,P|300:254|281:291,1,70.0000026702882
165,262,69656,2,0,P|203:241|241:247,1,70.0000026702882
360,285,69919,2,0,P|393:287|425:269,1,70.0000026702882
363,152,70182,6,0,P|380:195|370:239,1,70.0000026702882
259,326,70446,2,0,P|263:282|294:245,1,70.0000026702882
447,226,70709,2,0,P|470:192|470:153,1,70.0000026702882
356,57,70972,6,0,P|360:102|379:130,1,70.0000026702882
512,245,71235,2,0,P|471:225|437:228,1,70.0000026702882
272,285,71498,2,0,P|308:259|323:228,1,70.0000026702882
200,91,71761,6,0,L|215:168,1,70.0000026702882
441,154,72024,2,0,P|390:139|350:148,1,70.0000026702882
212,232,72288,2,0,P|167:243|135:232,1,70.0000026702882
265,27,72551,2,0,L|294:179,1,140.000005340576
265,27,73340,6,0,L|292:167,1,140.000005340576
291,164,73603,6,0,L|206:152,1,70.0000026702882
359,248,73867,1,0,0:0:0:0:
405,170,73998,1,0,0:0:0:0:
385,80,74130,2,0,L|299:67,2,70.0000026702882
432,180,74524,2,0,L|501:170,2,70.0000026702882
238,203,74919,6,0,B|204:209|204:209|172:193,1,70.0000026702882
172,193,75051,2,0,B|140:177|140:177|124:146,1,70.0000026702882
124,147,75182,2,0,B|108:115|108:115|115:80,1,70.0000026702882
115,81,75314,5,0,0:0:0:0:
205,68,75446,1,0,0:0:0:0:
294,56,75577,1,0,0:0:0:0:
406,227,75709,6,0,L|258:246,1,140.000005340576
416,136,76103,2,0,P|485:182|445:309,1,210.000008010865
466,295,76498,2,0,B|412:226|412:226|416:135,1,177.333328598023
256,265,76893,6,0,P|248:310|321:375,1,140.000005340576
477,204,77288,1,0,0:0:0:0:
416,136,77419,1,0,0:0:0:0:
354,68,77551,1,0,0:0:0:0:
194,189,77682,6,0,L|252:150,1,70.0000026702882
252,150,77814,2,0,L|319:200,1,70.0000026702882
308,192,77946,2,0,L|381:173,1,70.0000026702882
376,174,78077,6,0,L|279:183,1,91.0000003471375
286,182,78209,2,0,L|189:191,1,91.0000003471375
196,190,78340,2,0,L|98:198,1,91.0000003471375
105,198,78472,6,0,P|129:129|239:110,1,182.000000694275
329,315,78867,2,0,L|262:252,1,91.0000003471375
263,253,78998,2,0,L|196:190,1,91.0000003471375
197,191,79130,1,0,0:0:0:0:
401,75,79261,2,0,P|448:130|421:202,1,140.000005340576
196,94,79656,2,0,L|377:144,1,186.666666666667
376,144,79919,6,0,P|320:198|389:288,1,210.000008010865
458,46,80446,5,0,0:0:0:0:
425,130,80577,1,0,0:0:0:0:
392,215,80709,1,0,0:0:0:0:
232,301,80840,6,0,P|216:235|249:175,1,140.000005340576
364,317,81235,5,0,0:0:0:0:
307,246,81366,1,0,0:0:0:0:
250,175,81498,1,0,0:0:0:0:
482,254,81630,6,0,L|431:384,1,140.000005340576
219,271,82024,5,0,0:0:0:0:
307,247,82156,1,0,0:0:0:0:
395,224,82288,1,0,0:0:0:0:
186,101,82419,6,0,P|127:108|116:230,1,186.666666666667
258,153,82814,2,0,L|151:177,2,93.3333333333333
258,153,83077,2,0,L|469:108,1,210.000008010865
352,71,83603,6,0,P|334:114|343:162,1,70.0000026702882
384,259,83867,1,0,0:0:0:0:
405,121,83998,6,0,P|367:149|351:195,1,70.0000026702882
338,299,84262,1,0,0:0:0:0:
470,235,84393,6,0,P|486:201|486:167,2,70.0000026702882
262,205,84788,5,0,0:0:0:0:
176,234,84919,1,0,0:0:0:0:
133,314,85051,1,0,0:0:0:0:
289,293,85182,5,0,0:0:0:0:
262,205,85314,1,0,0:0:0:0:
234,117,85446,1,0,0:0:0:0:
155,251,85577,6,0,L|288:292,1,140.000005340576
412,172,85972,6,0,L|212:110,1,186.666666666667
84,222,86367,5,0,0:0:0:0:
172,249,86499,1,0,0:0:0:0:
259,276,86630,1,0,0:0:0:0:
217,180,86761,6,0,L|78:223,1,140.000005340576
282,238,87156,2,0,P|303:177|263:107,1,140.000005340576
104,215,87814,5,0,0:0:0:0:
300,167,87946,1,0,0:0:0:0:
235,231,88077,1,0,0:0:0:0:
170,295,88209,1,0,0:0:0:0:
261,103,88340,6,0,P|318:94|351:222,1,210.000008010865
359,214,88735,2,0,L|147:124,1,210.000008010865
208,150,89130,6,0,B|236:214|236:214|222:285,1,140.000005340576
129,192,89524,5,0,0:0:0:0:
218,173,89656,1,0,0:0:0:0:
307,154,89788,1,0,0:0:0:0:
171,252,89919,5,0,0:0:0:0:
85,283,90051,1,0,0:0:0:0:
0,314,90182,1,0,0:0:0:0:
251,296,90314,2,0,P|262:249|195:163,1,140.000005340576
218,173,90577,1,0,0:0:0:0:
359,167,90709,6,0,B|377:136|377:136|377:96,1,70.0000026702882
377,102,90840,2,0,L|443:168,1,81.6666674455007
435,160,90972,2,0,L|388:247,1,93.3333333333333
391,242,91103,5,0,0:0:0:0:
366,154,91235,1,0,0:0:0:0:
341,66,91367,1,0,0:0:0:0:
290,212,91498,6,0,L|454:263,1,140.000005340576
317,92,91893,2,0,P|281:128|303:224,1,140.000005340576
165,190,92288,2,0,L|367:160,1,186.666666666667
350,163,92551,6,0,L|257:177,1,93.3333333333333
27,214,92946,5,0,0:0:0:0:
216,97,93077,1,0,0:0:0:0:
258,177,93209,1,0,0:0:0:0:
300,257,93340,1,0,0:0:0:0:
151,199,93472,5,0,0:0:0:0:
344,97,93867,6,0,L|388:179,1,70.0000026702882
377,158,93998,2,0,L|421:240,1,70.0000026702882
410,219,94130,2,0,L|454:301,1,70.0000026702882
443,280,94261,2,0,P|365:253|289:326,1,186.666666666667
510,213,94656,6,0,L|378:344,1,186.666666666667
177,211,95051,2,0,P|212:161|352:197,1,186.666666666667
268,239,95446,5,0,0:0:0:0:
150,109,95577,2,0,B|141:74|141:74|152:32,1,70.0000026702882
149,41,95709,2,0,B|158:76|158:76|147:118,1,70.0000026702882
149,108,95840,6,0,P|194:79|272:132,1,140.000005340576
182,284,96235,2,0,L|208:130,1,140.000005340576
368,204,96630,2,0,L|295:238,1,70.0000026702882
304,234,96761,2,0,L|223:238,1,70.0000026702882
234,237,96893,2,0,L|174:292,1,70.0000026702882
182,284,97024,5,0,0:0:0:0:
151,199,97156,1,0,0:0:0:0:
119,113,97288,1,0,0:0:0:0:
83,251,97419,5,0,0:0:0:0:
182,284,97551,1,0,0:0:0:0:
281,251,97682,1,0,0:0:0:0:
237,137,97814,6,0,P|183:160|169:239,1,140.000005340576
167,234,98077,2,0,P|174:175|112:124,1,140.000005340576
118,125,98340,2,0,P|164:160|246:125,1,140.000005340576
237,137,98603,6,0,P|183:160|169:239,1,140.000005340576
363,204,99393,2,0,P|404:210|433:299,1,139.999995727539
255,300,100182,6,0,P|241:259|249:211,1,83.9999974365235
246,219,100577,2,0,P|250:179|230:138,1,83.9999974365235
232,140,100972,6,0,P|168:230|187:268,1,140.000005340576
173,246,101235,2,0,P|283:234|306:270,1,140.000005340576
294,246,101498,2,0,P|229:335|248:373,1,140.000005340576
234,351,101761,6,0,L|232:134,1,210.000008010865
232,141,102551,6,0,B|267:183|267:183|309:193,1,93.3333333333333
305,192,102814,2,0,B|251:202|251:202|223:234,1,93.3333333333333
226,231,103077,2,0,B|244:183|244:183|233:141,1,93.3333333333333
234,142,103340,6,0,P|150:187|167:297,1,210
160,289,104524,2,0,L|226:230,1,88.1999973083497
226,230,104919,6,0,P|183:217|170:121,1,140.000005340576
399,110,105314,5,0,0:0:0:0:
311,136,105446,1,0,0:0:0:0:
224,162,105577,1,0,0:0:0:0:
386,195,105709,6,0,L|409:45,1,140.000005340576
211,71,106103,5,0,0:0:0:0:
224,162,106235,1,0,0:0:0:0:
238,252,106367,1,0,0:0:0:0:
348,198,106498,6,0,L|337:127,2,70.0000026702882
370,336,106893,6,0,L|346:184,1,140.000005340576
156,209,107288,6,0,B|187:229|187:229|226:221,1,70.0000026702882
418,181,107551,1,0,0:0:0:0:
203,153,107682,6,0,B|219:185|219:185|257:198,1,70.0000026702882
443,259,107945,1,0,0:0:0:0:
269,127,108077,6,0,L|151:212,1,140.000005340576
288,216,108472,1,0,0:0:0:0:
269,127,108603,1,0,0:0:0:0:
250,37,108735,1,0,0:0:0:0:
107,157,108867,6,0,P|83:216|148:279,1,140.000005340576
99,256,109130,2,0,L|240:205,1,140.000005340576
197,221,109393,2,0,P|207:184|313:167,1,140.000005340576
295,156,109656,6,0,L|262:233,2,70.0000026702882
171,57,110051,6,0,L|204:134,2,70.0000026702882
344,106,110446,6,0,P|365:147|347:199,2,70.0000026702882
207,216,110840,6,0,P|206:265|219:285,2,70.0000026702882
422,262,111235,6,0,P|424:325|363:363,1,140.000005340576
183,264,111630,1,0,0:0:0:0:
272,279,111761,1,0,0:0:0:0:
361,294,111893,1,0,0:0:0:0:
233,128,112024,6,0,L|136:166,1,93.3333333333333
146,162,112288,2,0,L|210:64,1,107.333335380554
205,72,112551,2,0,L|219:219,1,130.666662679037
217,202,112814,6,0,L|136:156,1,80.733335304362
326,110,113209,6,0,L|483:200,1,161.466670608724
257,235,113603,6,0,L|299:187,1,46.6666666666667
288,200,113735,2,0,L|268:136,1,55.9999982910157
271,147,113867,2,0,L|355:142,1,65.3333313395183
336,143,113998,6,0,L|271:220,1,74.6666666666667
288,200,114130,2,0,L|316:289,1,83.9999974365235
313,280,114261,2,0,L|189:287,1,93.3333333333333
220,285,114393,6,0,P|258:294|290:346,1,93.3333333333333
132,375,114788,2,0,L|233:350,1,93.3333333333333
436,211,115182,2,0,L|297:216,1,140
296,216,115446,2,0,L|388:126,1,121.333327779134
383,131,115709,2,0,L|280:136,1,93.3333333333333
290,135,115972,2,0,L|429:130,1,140
383,131,116367,6,0,B|350:123|350:123|324:97,1,70.0000026702882
253,3,116630,1,0,0:0:0:0:
340,201,116761,2,0,P|346:244|273:308,1,140.000005340576
134,295,117156,1,0,0:0:0:0:
308,142,117551,6,0,P|346:137|397:184,1,93.3333333333333
292,250,117946,2,0,P|254:255|203:208,1,93.3333333333333
157,124,118340,1,0,0:0:0:0:
360,202,118603,5,0,0:0:0:0:
260,298,118735,2,0,P|224:304|170:262,1,93.3333333333333
289,109,119130,2,0,L|230:241,1,140
372,122,119788,5,0,0:0:0:0:
192,150,119919,2,0,L|133:282,1,140
135,278,120314,2,0,P|171:247|248:295,1,140
245,284,120709,6,0,L|204:377,1,93.3333333333333
335,285,121103,2,0,L|373:200,1,93.3333333333333
493,137,121498,6,0,L|433:273,1,140
437,265,121893,1,0,0:0:0:0:
229,258,122288,6,0,P|188:258|145:218,1,93.3333333333333
209,192,122682,2,0,L|249:328,1,140
249,326,123077,2,0,P|208:278|302:222,1,181.999991668702
281,212,123472,1,0,0:0:0:0:
126,140,123867,6,0,L|41:101,1,93.3333333333333
223,84,124261,2,0,L|216:240,1,140
217,224,124656,1,0,0:0:0:0:
41,101,124919,5,0,0:0:0:0:
223,84,125051,2,0,P|261:90|300:139,1,93.3333333333333
212,239,125446,2,0,P|206:210|240:147,1,93.3333333333333
367,184,125840,2,0,L|270:210,1,93.3333333333333
161,164,126235,2,0,L|314:123,1,140
296,128,126630,2,0,P|245:123|210:78,1,112
210,77,127024,6,0,L|250:230,1,140
132,64,127682,1,0,0:0:0:0:
284,90,127814,2,0,P|309:123|298:191,1,93.3333333333333
244,212,128209,1,0,0:0:0:0:
445,272,128603,6,0,P|470:305|459:373,1,93.3333333333333
258,319,128998,1,0,0:0:0:0:
332,324,129130,1,0,0:0:0:0:
406,329,129261,1,0,0:0:0:0:
242,248,129393,6,0,P|203:271|188:331,1,93.3333333333333
376,264,129788,1,0,0:0:0:0:
200,137,130182,6,0,P|163:130|113:157,1,93.3333333333333
169,204,130577,2,0,L|235:62,1,145.599999111328
230,72,130972,1,0,0:0:0:0:
297,178,131169,6,0,P|321:187|366:175,1,72.7999995556641
365,175,131367,2,0,P|326:224|326:253,1,72.7999995556641
399,242,131761,2,0,L|331:108,1,145.599999111328
441,172,132419,5,0,0:0:0:0:
326,282,132551,2,0,L|221:382,1,145.599999111328
221,382,132946,2,0,P|241:331|231:275,1,105.000004005432
241,308,133340,6,0,P|277:351|363:342,1,140
356,347,133735,2,0,L|260:340,1,93.3333333333333
94,288,134130,1,0,0:0:0:0:
312,212,134524,2,0,L|401:182,1,93.3333333333333
273,153,134919,6,0,P|246:188|286:280,1,140
250,246,135314,2,0,P|287:219|368:268,1,140
341,227,135709,2,0,L|221:307,1,140
225,304,136103,1,0,0:0:0:0:
299,139,136498,6,0,P|343:94|422:117,1,140
413,108,136893,2,0,L|307:108,1,93.3333333333333
182,91,137288,1,0,0:0:0:0:
276,234,137682,6,0,P|285:263|261:322,1,93.3333333333333
130,269,138077,2,0,P|161:255|218:271,1,93.3333333333333
300,378,138472,2,0,P|334:384|391:343,1,93.3333333333333
424,212,138867,6,0,L|322:321,1,140
328,314,139261,2,0,P|336:283|399:250,1,97.9999970092775
390,250,139656,6,0,P|336:254|286:180,1,140
295,220,140051,2,0,P|283:260|188:282,1,140
220,292,140446,2,0,L|355:327,1,140
355,327,140840,1,0,0:0:0:0:
266,144,141235,6,0,B|234:129|234:129|199:142,1,70.0000026702882
61,195,141498,1,0,0:0:0:0:
232,202,141630,6,0,B|211:173|211:173|174:166,1,70.0000026702882
28,143,141893,1,0,0:0:0:0:
191,281,142024,5,0,0:0:0:0:
278,255,142156,1,0,0:0:0:0:
365,229,142288,1,0,0:0:0:0:
246,63,142419,6,0,L|214:199,1,140.000005340576
214,199,142814,6,0,L|320:164,1,112
297,171,143209,2,0,P|279:209|295:261,1,93.3333333333333
351,217,143603,6,0,L|454:182,1,93.3333333333333
440,187,143867,2,0,P|390:172|366:123,1,107.333335380554
366,125,144130,2,0,L|349:231,1,93.3333333333333
351,217,144393,6,0,P|297:188|275:129,1,111.999996582031
290,11,144788,1,0,0:0:0:0:
133,147,145182,6,0,P|117:172|130:249,1,93.3333333333333
231,305,145709,1,0,0:0:0:0:
207,126,145972,6,0,P|192:97|60:168,1,233.333333333333
58,159,146630,2,0,L|188:73,1,140.000005340576
175,82,147156,2,0,P|154:146|176:190,1,105.000004005432
319,165,147946,6,0,L|231:136,1,93.3333333333333
294,277,148340,2,0,B|330:274|330:274|359:253,1,70.0000026702882
458,170,148603,1,0,0:0:0:0:
238,162,148735,5,0,0:0:0:0:
207,247,148866,1,0,0:0:0:0:
177,333,148998,1,0,0:0:0:0:
346,284,149130,6,0,L|399:140,1,140.000005340576
387,176,149524,2,0,P|346:184|302:149,1,93.3333333333333
275,67,149919,2,0,L|266:208,1,140
266,207,150314,1,0,0:0:0:0:
141,145,150511,6,0,P|121:114|124:80,1,70
136,69,150709,2,0,L|69:135,1,93.3333333333333
70,135,150972,2,0,L|200:154,1,116.666666666667
162,148,151301,2,0,P|126:167|99:228,1,93.3333333333333
101,212,151564,2,0,L|64:121,1,83.2999983476258
162,148,151893,6,0,L|217:284,1,140
215,278,152288,2,0,P|167:260|106:324,1,140
275,341,152946,5,0,0:0:0:0:
107,314,153077,2,0,P|79:258|85:214,2,93.3333333333333
312,205,153867,6,0,L|208:227,1,93.3333333333333
406,307,154261,1,0,0:0:0:0:
390,229,154393,1,0,0:0:0:0:
374,151,154524,1,0,0:0:0:0:
185,166,154656,6,0,P|156:201|162:259,1,93.3333333333333
156,247,154919,1,0,0:0:0:0:
286,191,155051,2,0,L|150:249,1,141.399997195129
359,307,155840,6,0,P|395:313|449:288,1,94.266664796753
488,195,156235,1,0,0:0:0:0:
255,136,156498,6,0,P|227:173|234:232,1,94.266664796753
228,219,156761,2,0,L|182:133,1,94.266664796753
184,136,157024,2,0,L|179:273,1,121.333327779134
180,257,157288,2,0,P|176:220|106:155,1,121.333327779134
121,160,157551,2,0,L|261:227,1,140.000005340576
247,220,157814,6,0,P|209:213|159:230,1,70.0000026702882
333,127,158077,2,0,P|359:97|369:45,1,70.0000026702882
369,250,158340,2,0,P|381:287|421:322,1,70.0000026702882
254,147,158603,6,0,L|172:112,1,70.0000026702882
405,183,158867,2,0,L|469:210,1,70.0000026702882
223,317,159130,2,0,L|141:352,1,70.0000026702882
450,274,159393,6,0,P|469:241|468:206,1,70.0000026702882
245,58,159656,2,0,L|255:136,1,70.0000026702882
129,292,159919,2,0,P|114:245|120:211,1,70.0000026702882
341,300,160182,6,0,L|301:373,1,70.0000026702882
137,139,160446,2,0,P|163:92|201:73,1,70.0000026702882
436,170,160709,2,0,P|410:217|372:236,1,70.0000026702882
169,252,160972,2,0,L|26:223,1,140.000005340576
169,252,161761,6,0,L|26:223,1,140.000005340576
32,224,162024,6,0,L|115:175,1,93.3333333333333
313,166,162288,1,0,0:0:0:0:
241,209,162419,1,0,0:0:0:0:
169,252,162551,2,0,L|185:161,1,70.0000026702882
181,183,162682,2,0,L|237:112,1,70.0000026702882
224,128,162814,2,0,L|218:47,1,70.0000026702882
218,58,162946,6,0,P|243:108|376:76,1,186.666666666667
300,48,163340,6,0,B|298:84|298:84|276:113,1,70.0000026702882
277,111,163472,2,0,B|256:138|256:138|254:174,1,70.0000026702882
254,174,163603,2,0,B|252:210|252:210|230:239,1,70.0000026702882
231,237,163735,5,0,0:0:0:0:
289,162,163867,1,0,0:0:0:0:
347,87,163998,1,0,0:0:0:0:
181,145,164130,6,0,P|137:192|133:272,1,140.000005340576
130,264,164524,2,0,L|214:67,1,210.000008010865
212,71,164919,6,0,B|151:124|151:124|158:202,1,158.666669692993
395,224,165314,1,0,0:0:0:0:
306,188,165446,1,0,0:0:0:0:
217,152,165578,1,0,0:0:0:0:
367,86,165709,6,0,L|397:235,1,140.000005340576
193,279,166103,6,0,P|178:240|186:205,1,70.0000026702882
182,212,166235,2,0,P|191:179|169:128,1,70.0000026702882
182,145,166367,2,0,P|166:109|174:66,1,70.0000026702882
168,79,166498,6,0,L|250:102,1,70.0000026702882
235,97,166630,2,0,L|317:120,1,70.0000026702882
302,115,166761,2,0,L|384:138,1,70.0000026702882
369,133,166893,6,0,P|341:171|368:265,1,140.000005340576
358,256,167156,1,0,0:0:0:0:
421,200,167288,6,0,L|268:241,1,140.000005340576
285,236,167551,1,0,0:0:0:0:
173,132,167682,6,0,L|317:149,1,140.000005340576
312,148,167946,2,0,L|96:120,1,210.000008010865
152,127,168340,6,0,P|188:169|110:287,1,210.000008010865
109,201,168867,5,0,0:0:0:0:
190,183,168998,1,0,0:0:0:0:
272,165,169130,1,0,0:0:0:0:
409,347,169261,6,0,L|269:290,1,140.000005340576
354,147,169656,5,0,0:0:0:0:
336,229,169788,1,0,0:0:0:0:
318,310,169919,1,0,0:0:0:0:
286,112,170051,2,0,P|330:74|419:105,1,140.000005340576
396,280,170446,5,0,0:0:0:0:
318,310,170577,1,0,0:0:0:0:
234,298,170709,1,0,0:0:0:0:
152,184,170840,6,0,P|137:148|197:72,1,140.000005340576
158,89,171103,2,0,P|137:153|189:209,1,140.000005340576,0|0,0:3|0:3,0:3:0:0:
179,205,171367,2,0,P|153:217|121:261,1,70.0000026702882
262,245,171630,2,0,P|292:229|314:202,2,70.0000026702882
169,143,172024,6,0,L|243:161,1,70.0000026702882
237,159,172156,2,0,L|311:177,1,70.0000026702882
305,175,172288,2,0,L|379:193,1,70.0000026702882
373,191,172419,6,0,L|354:110,1,70.0000026702882
357,123,172551,2,0,L|332:206,1,70.0000026702882
336,190,172682,2,0,L|310:272,1,70.0000026702882
315,256,172814,5,0,0:0:0:0:
271,184,172946,1,0,0:0:0:0:
227,112,173077,1,0,0:0:0:0:
236,258,173209,2,0,L|240:327,2,70.0000026702882
227,112,173603,2,0,B|225:77|225:77|236:41,1,70.0000026702882
235,43,173735,2,0,B|266:58|266:58|291:86,1,70.0000026702882
290,84,173867,2,0,B|260:103|260:103|224:111,1,70.0000026702882
227,112,173998,2,0,B|280:159|280:159|356:177,1,140.000005340576
288,42,174393,6,0,L|226:111,1,93.3333333333333
325,260,174788,1,0,0:0:0:0:
314,191,174919,1,0,0:0:0:0:
303,121,175051,1,0,0:0:0:0:
188,226,175182,2,0,L|332:261,1,140
325,260,175577,6,0,P|301:227|313:161,1,93.3333333333333
458,227,175972,2,0,L|353:201,1,93.3333333333333
367,204,176235,6,0,L|356:137,2,46.6666666666667
384,312,176630,1,0,0:0:0:0:
252,262,176761,2,0,L|122:213,1,140
89,226,177156,2,0,L|297:139,1,210.000008010865
252,158,177551,6,0,L|252:275,1,104.533334609375
121,212,177946,2,0,B|152:200|152:200|204:194,1,65.3333313395183
348,182,178209,1,0,0:0:0:0:
214,79,178340,5,0,0:0:0:0:
243,151,178472,1,0,0:0:0:0:
272,223,178603,1,0,0:0:0:0:
119,262,178735,6,0,L|161:206,1,65.3333313395183
158,209,178867,2,0,L|200:153,1,65.3333313395183
197,156,178998,2,0,L|239:100,1,65.3333313395183
223,123,179130,2,0,P|234:182|294:207,1,130.666662679037
453,102,179524,5,0,0:0:0:0:
370,121,179656,1,0,0:0:0:0:
287,140,179788,1,0,0:0:0:0:
409,294,179919,6,0,P|442:278|439:183,1,140.000005340576
216,236,180314,2,0,L|362:204,1,140.000005340576
245,99,180709,6,0,L|216:236,1,140.000005340576
216,236,180972,2,0,L|232:163,1,70.0000026702882
29,245,181367,5,0,0:0:0:0:
216,236,181498,1,0,0:0:0:0:
279,301,181630,1,0,0:0:0:0:
342,366,181761,1,0,0:0:0:0:
175,295,181893,2,0,L|65:180,1,140.000005340576
78,194,182288,6,0,L|148:214,1,70.0000026702882
145,213,182419,2,0,L|199:158,1,70.0000026702882
194,163,182551,2,0,L|254:198,1,70.0000026702882
255,199,182682,2,0,L|50:193,1,176.399998856049
275,130,183077,6,0,P|319:168|314:237,1,121.333327779134
319,227,183340,2,0,B|341:189|341:189|386:171,1,93.3333333333333
386,170,183472,2,0,L|244:289,1,158.666669692993
264,272,183735,2,0,P|226:237|183:240,1,79.3333348464966
201,235,183867,2,0,L|362:330,1,158.666669692993
338,316,184130,6,0,P|358:264|507:293,1,238.00000453949
424,319,184656,2,0,B|386:178|386:178|406:112,1,210.000008010865
405,117,185051,2,0,P|411:191|322:220,1,167.999994873047
335,225,185446,5,0,0:0:0:0:
351,157,185577,1,0,0:0:0:0:
368,89,185709,1,0,0:0:0:0:
161,122,185840,5,0,0:0:0:0:
183,210,185972,1,0,0:0:0:0:
205,297,186103,1,0,0:0:0:0:
368,188,186235,6,0,P|302:152|229:187,1,158.666669692993
214,200,186498,2,0,L|332:94,1,158.666669692993
368,109,186761,2,0,B|309:164|309:164|297:241,1,158.666669692993
297,241,187024,6,0,P|282:192|167:173,1,140
107,234,187682,5,0,0:0:0:0:
297,241,187814,2,0,P|282:192|167:173,1,140
188,352,188406,5,0,0:0:0:0:
297,241,188603,2,0,P|282:192|167:173,1,140
206,158,188998,2,0,L|353:136,1,140
345,137,189393,6,0,P|360:171|319:223,1,93.3333333333333
335,217,189656,2,0,P|369:230|377:296,1,93.3333333333333
384,281,189919,2,0,P|418:266|470:307,1,93.3333333333333
464,291,190182,6,0,P|431:215|484:138,1,175.00000667572
316,66,190972,2,0,L|243:31,1,70.0000026702882
253,36,191235,1,0,0:0:0:0:
309,219,191498,1,0,0:0:0:0:
118,192,191761,6,0,P|92:207|110:304,1,140
104,301,192551,2,0,L|122:161,1,140
122,162,193340,6,0,P|154:180|236:89,1,175
239,100,193735,2,0,P|196:83|169:118,1,88.6666642990113
281,207,194130,6,0,P|312:209|356:190,2,55.9999982910157
141,199,194524,2,0,P|106:206|83:223,2,55.9999982910157
307,140,194919,6,0,P|337:134|360:138,1,41.9999987182618
437,192,195117,2,0,P|411:196|389:194,1,41.9999987182618
336,116,195314,2,0,P|328:96|332:51,2,55.9999982910157
428,225,195709,6,0,P|448:267|441:332,1,111.999996582031
442,331,195972,2,0,L|339:281,1,111.999996582031
341,282,196235,2,0,P|307:320|235:315,1,111.999996582031
249,322,196498,2,0,L|308:153,1,167.999994873047
144,179,197156,5,0,0:0:0:0:
304,163,197288,2,0,P|351:172|380:228,2,111.999996582031
304,163,197814,2,0,L|317:244,1,65.3333313395183
190,270,198077,6,0,L|209:157,1,111.999996582031
208,159,198340,2,0,L|129:232,1,102.666669799805
132,228,198603,2,0,L|252:315,1,140.000005340576
246,310,198867,6,0,L|196:190,1,121.333327779134
199,198,199130,2,0,L|298:262,1,111.999996582031
293,259,199393,2,0,L|193:367,1,140.000005340576
198,361,199656,6,0,L|173:296,1,70.0000026702882
290,356,199919,2,0,L|80:343,1,185.73333793869
104,344,200182,5,0,0:0:0:0:
218,270,200314,2,0,L|312:277,1,70.0000026702882
123,314,200577,5,0,0:0:0:0:
252,272,200709,2,0,L|340:303,1,70.0000026702882
151,291,200972,5,0,0:0:0:0:
286,283,201104,2,0,L|363:336,1,70.0000026702882
186,274,201367,6,0,P|146:217|161:144,1,140.000005340576
320,126,201893,6,0,L|311:162,1,35.0000013351441
219,83,202024,2,0,L|276:75,1,52.5000020027161
386,99,202222,2,0,L|429:137,1,52.5000020027161
271,76,202419,2,0,L|236:46,2,35.0000013351441
386,99,202617,2,0,L|433:93,2,35.0000013351441
248,157,202814,6,0,L|102:180,1,140.000005340576
110,179,203077,2,0,L|252:224,1,140.000005340576
143,122,203603,6,0,L|9:80,1,140.000005340576
10,80,203867,2,0,L|118:187,1,140.000005340576
275,235,204393,6,0,P|342:234|383:168,1,140.000005340576
361,183,204656,2,0,P|333:217|285:219,1,93.3333333333333
296,197,204919,2,0,P|318:196|333:178,1,46.6666666666667
306,173,205182,2,0,P|281:140|176:141,1,140.000005340576
189,132,205577,2,0,P|242:173|376:66,1,268.8000065625
376,69,206367,6,0,P|388:113|443:156,1,97.0666660742187
424,148,206630,2,0,P|367:159|365:305,1,210.000008010865
409,232,207551,2,0,L|238:215,1,165.199994202271
108,120,208209,5,0,0:0:0:0:
250,87,208340,2,0,P|316:111|322:178,1,110.13332946818
328,144,208603,2,0,L|214:111,1,110.13332946818
265,148,208867,2,0,P|258:217|195:241,1,110.13332946818
256,223,209130,6,0,P|292:214|370:261,1,110.13332946818
401,338,209524,1,0,0:0:0:0:
217,285,209788,2,0,P|189:253|238:152,1,165.199994202271
232,154,210182,2,0,L|217:284,1,131.599997991943
137,159,210709,6,0,P|128:129|129:104,1,43.8666659973145
233,154,210972,2,0,P|238:208|217:246,1,87.7333319946289
128,117,211498,6,0,P|176:68|269:78,1,131.599997991943
236,62,211893,2,0,L|163:178,1,131.599997991943
166,173,212288,6,0,P|217:161|260:182,1,87.7333319946289
313,250,212682,2,0,P|346:263|398:246,1,87.7333319946289
385,112,213077,2,0,L|351:199,1,87.7333319946289
244,240,213472,2,0,L|210:327,1,87.7333319946289
312,250,213867,6,0,P|299:198|261:174,1,93.3333333333333
268,176,214130,2,0,L|375:199,1,102.666669799805
271,88,214524,5,0,0:0:0:0:
181,113,214656,2,0,P|145:153|143:212,2,102.666669799805
318,200,215446,6,0,P|310:245|253:283,1,102.666669799805
267,279,215709,2,0,P|313:298|361:282,1,102.666669799805
361,282,215972,2,0,P|350:331|310:361,1,102.666669799805
310,361,216235,6,0,L|338:225,1,121.333327779134
334,242,216498,2,0,L|243:345,1,126.000000480652
250,336,216761,2,0,L|402:278,1,140.000005340576
380,285,217024,6,0,B|312:248|312:248|285:182,1,149.333333333333
285,182,217288,2,0,B|314:251|314:251|321:335,1,149.333333333333
320,325,217551,2,0,L|180:249,1,158.666669692993
180,249,217814,6,0,L|337:148,1,186.666666666667
180,249,218603,6,0,L|337:148,1,186.666666666667
336,148,218867,6,0,B|303:136|303:136|272:97,1,70.0000026702882
438,111,219130,1,0,0:0:0:0:
423,200,219261,1,0,0:0:0:0:
408,290,219393,2,0,P|380:313|330:316,1,70.0000026702882
347,319,219524,2,0,P|313:290|281:286,1,70.0000026702882
289,285,219656,2,0,L|219:316,1,70.0000026702882
225,313,219788,6,0,P|257:248|234:179,1,140.000005340576
126,248,220182,6,0,B|114:280|114:280|118:323,1,70.0000026702882
117,315,220314,2,0,B|129:283|129:283|125:240,1,70.0000026702882
126,248,220446,2,0,P|96:213|52:204,2,93.3333333333333
157,378,220840,1,0,0:0:0:0:
61,278,220972,6,0,P|125:217|51:129,1,210.000008010865
66,130,221367,2,0,B|196:179|196:179|277:144,1,210.000008010865
231,164,221761,6,0,L|89:227,1,140.000005340576
333,175,222156,2,0,L|178:158,1,140.000005340576
378,119,222551,2,0,P|404:160|396:203,1,70.0000026702882
404,180,222682,2,0,P|385:224|345:242,1,70.0000026702882
368,236,222814,2,0,P|320:246|282:224,1,70.0000026702882
301,239,222946,2,0,L|379:116,1,142.800006427918
194,68,223340,6,0,B|201:102|201:102|226:134,1,70.0000026702882
222,129,223472,2,0,B|240:154|240:154|224:216,1,74.6666666666667
229,196,223603,2,0,B|221:232|221:232|239:283,1,79.3333348464966
235,272,223735,6,0,P|167:237|106:303,1,158.666669692993
300,228,224130,2,0,L|434:189,1,140.000005340576
230,76,224524,2,0,L|182:211,1,140.000005340576
183,207,224788,2,0,L|140:141,1,79.3333348464966
140,141,224919,6,0,L|304:154,1,158.666669692993
298,153,225182,6,0,L|226:114,1,79.3333348464966
314,308,225577,1,0,0:0:0:0:
298,153,225709,2,0,L|230:116,2,70.0000026702882
361,260,226103,2,0,L|218:182,1,140.000005340576
108,323,226498,6,0,L|192:278,1,70.0000026702882
170,290,226630,2,0,L|254:245,1,70.0000026702882
232,257,226761,2,0,L|316:212,1,70.0000026702882
294,224,226893,2,0,L|151:146,1,140.000005340576
326,73,227288,6,0,P|365:91|385:121,1,70.0000026702882
380,111,227419,2,0,P|340:137|295:140,1,70.0000026702882
318,140,227551,2,0,P|348:174|395:177,1,70.0000026702882
372,180,227682,6,0,P|331:145|198:196,1,177.333328598023
218,166,227946,2,0,L|308:204,1,88.6666642990113
423,266,228209,6,0,B|388:290|388:290|348:295,1,70.0000026702882
361,294,228341,2,0,B|323:288|323:288|293:301,1,70
294,300,228472,2,0,B|256:301|256:301|213:278,1,70.0000026702882
227,285,228603,2,0,B|201:258|201:258|160:255,1,70.0000026702882
168,255,228735,1,0,0:0:0:0:
279,205,228867,6,0,P|317:194|411:253,1,140.000005340576
291,358,229261,2,0,L|320:294,2,70.0000026702882
467,354,229656,5,0,0:0:0:0:
420,275,229788,1,0,0:0:0:0:
373,197,229919,1,0,0:0:0:0:
242,307,230051,5,0,0:0:0:0:
331,291,230182,1,0,0:0:0:0:
420,275,230314,1,0,0:0:0:0:
215,143,230446,6,0,L|194:232,1,70.0000026702882
198,211,230577,2,0,P|249:226|251:258,1,79.3333348464966
253,245,230709,2,0,L|171:193,1,93.3333333333333
174,195,230840,2,0,P|164:285|263:340,1,186.666666666667
389,213,231235,6,0,L|235:249,1,140.000005340576
148,154,231498,2,0,L|223:171,2,70.0000026702882
292,117,231893,2,0,L|367:99,1,70.0000026702882
360,100,232024,5,0,0:0:0:0:
311,178,232156,1,0,0:0:0:0:
262,255,232288,1,0,0:0:0:0:
374,254,232419,2,0,P|361:197|281:144,1,140.933331720479
126,119,232814,6,0,L|188:158,1,70.4666658602397
185,156,232946,2,0,L|115:202,1,70.4666658602397
126,194,233077,2,0,L|189:233,1,70.4666658602397
186,231,233209,2,0,L|115:276,2,70.4666658602397
319,151,233603,6,0,P|364:136|440:254,1,211.399997580719
442,249,233998,2,0,L|238:87,1,238.00000453949
255,100,234393,6,0,L|228:253,1,140.000005340576
368,163,234788,2,0,B|391:135|391:135|388:91,2,70.0000026702882
154,192,235182,6,0,P|132:167|122:131,1,70.0000026702882
122,132,235314,2,0,P|165:126|203:145,1,70.0000026702882
189,134,235446,2,0,P|215:168|218:210,1,70.0000026702882
220,193,235577,6,0,B|218:235|218:235|241:273,1,83.9999974365235
239,271,235709,2,0,B|278:246|278:246|295:202,1,83.9999974365235
291,210,235840,2,0,B|288:251|288:251|311:289,1,83.9999974365235
310,287,235972,6,0,L|240:214,1,83.9999974365235
252,227,236103,2,0,L|181:153,1,83.9999974365235
193,166,236235,2,0,L|122:92,1,83.9999974365235
134,105,236367,6,0,P|206:125|295:59,1,167.999994873047
198,196,236761,2,0,L|114:309,1,140.000005340576
279,236,237156,2,0,P|285:174|213:110,1,140.000005340576
211,282,237551,6,0,L|393:336,1,167.999994873047
372,329,237814,6,0,P|331:302|313:265,1,83.9999974365235
512,234,238209,1,0,0:0:0:0:
372,330,238340,1,0,0:0:0:0:
308,264,238472,1,0,0:0:0:0:
244,199,238603,1,0,0:0:0:0:
401,109,238735,2,0,L|391:257,1,140.000005340576
228,138,239130,6,0,P|196:155|184:199,1,70.0000026702882
183,185,239261,2,0,P|168:216|138:231,1,70.0000026702882
137,231,239393,2,0,P|105:248|93:292,1,70.0000026702882
92,278,239524,2,0,P|131:247|102:158,1,140.000005340576
262,247,239919,6,0,L|385:315,1,140.000005340576
385,315,240182,2,0,P|358:273|368:228,1,93.3333333333333
365,232,240314,2,0,L|236:161,1,140.000005340576
290,282,240709,6,0,P|301:324|293:354,1,70.0000026702882
296,350,240840,2,0,P|285:308|293:278,1,70.0000026702882
290,282,240972,6,0,P|313:232|280:152,1,140.000005340576
152,320,241367,1,0,0:0:0:0:
290,282,241498,2,0,P|313:232|280:152,1,140.000005340576
284,156,241893,2,0,L|424:216,1,140
241,229,242288,5,0,0:0:0:0:
152,249,242419,1,0,0:0:0:0:
97,322,242551,1,0,0:0:0:0:
91,193,242682,2,0,L|88:131,2,46.6666666666667
217,281,243077,6,0,L|214:219,1,46.6666666666667
176,99,243340,1,0,0:0:0:0:
150,304,243472,2,0,P|181:343|272:325,1,140
263,334,243867,6,0,L|263:171,1,140.000005340576
203,162,244261,2,0,P|247:192|287:190,1,70.0000026702882
373,174,244524,1,0,0:0:0:0:
263,122,244656,1,0,0:0:0:0:
212,230,245051,6,0,P|258:201|262:121,1,140.000005340576
311,271,245709,5,0,0:0:0:0:
198,156,245840,2,0,P|159:141|118:149,2,70.0000026702882
311,271,246235,6,0,L|452:299,1,140.000005340576
448,298,246630,2,0,L|238:256,1,210.000008010865
242,256,247024,6,0,L|387:217,1,140.000005340576
377,219,247288,2,0,L|363:297,1,70.0000026702882
249,160,247551,1,0,0:0:0:0:
334,133,247682,1,0,0:0:0:0:
421,106,247814,6,0,L|342:112,1,63.0000002403259
358,110,247946,2,0,L|298:166,1,63.0000002403259
311,153,248077,2,0,L|241:162,1,63.0000002403259
249,160,248209,6,0,L|105:178,1,140.000005340576
251,242,248603,6,0,B|287:257|287:257|308:301,1,70.0000026702882
301,285,248735,2,0,B|295:246|295:246|323:206,1,70.0000026702882
313,221,248867,2,0,B|282:244|282:244|233:240,1,70.0000026702882
251,242,248998,6,0,P|198:209|191:172,2,93.3333333333333
396,158,249393,2,0,L|242:178,1,140.000005340576
182,130,249788,2,0,P|263:198|255:244,1,140.000005340576
185,210,250182,6,0,L|370:185,1,186.666666666667
370,185,250446,2,0,P|352:237|311:257,1,93.3333333333333
135,124,250840,5,0,0:0:0:0:
303,189,250972,2,0,L|392:225,1,70.0000026702882
367,215,251103,2,0,L|308:270,1,70.0000026702882
316,262,251235,2,0,L|391:294,1,70.0000026702882
380,289,251367,2,0,P|334:333|256:298,1,140.000005340576
295,152,251761,6,0,B|320:128|320:128|360:120,1,70.0000026702882
354,121,251893,2,0,B|379:97|379:97|419:89,1,70.0000026702882
413,90,252024,2,0,B|438:66|438:66|478:58,1,70.0000026702882
472,59,252156,2,0,L|316:92,1,140.000005340576
201,169,252551,6,0,P|215:225|311:232,1,140.000005340576
237,108,252946,2,0,P|157:114|132:183,1,140.000005340576
268,181,253340,2,0,L|406:202,1,140.000005340576
406,202,253603,6,0,B|336:192|336:192|267:146,1,140.000005340576
278,153,253867,2,0,B|249:131|249:131|235:89,1,70.0000026702882
239,100,253998,2,0,B|268:122|268:122|282:164,1,70.0000026702882
278,153,254130,2,0,P|272:215|135:254,1,210.000008010865
148,261,254524,2,0,P|199:218|269:222,1,140.000005340576
229,306,254919,5,0,0:0:0:0:
202,218,255051,1,0,0:0:0:0:
175,131,255182,1,0,0:0:0:0:
141,287,255314,5,0,0:0:0:0:
229,306,255446,1,0,0:0:0:0:
314,277,255577,1,0,0:0:0:0:
386,178,255709,6,0,P|381:132|287:93,1,140.000005340576
305,88,255972,2,0,L|446:47,1,140.000005340576
439,48,256235,2,0,L|386:179,1,140.000005340576
386,178,256498,6,0,P|381:132|287:93,1,140.000005340576
344,285,257156,1,0,0:0:0:0:
386,178,257288,2,0,P|381:132|287:93,1,140.000005340576
344,285,257880,5,0,0:0:0:0:
386,178,258077,2,0,P|381:132|287:93,1,140.000005340576
305,88,258472,2,0,P|310:134|404:173,1,140.000005340576
385,177,258867,6,0,P|342:158|261:220,1,140.000005340576
267,202,259130,2,0,L|396:175,1,120.400001837158
385,177,259393,2,0,L|259:278,1,140.000005340576
275,264,259656,6,0,P|277:222|194:174,1,140.000005340576
202,172,260446,2,0,L|323:146,1,111.999996582031
311,148,260709,2,0,L|202:172,1,111.999996582031
202,172,260972,2,0,L|323:146,1,111.999996582031
312,148,261236,6,0,P|265:140|232:55,1,140
230,62,262138,2,0,L|330:168,1,140
326,164,263040,6,0,P|272:163|237:207,1,105.000004005432
377,219,263897,2,0,P|396:193|391:129,1,93.3333333333333
265,53,264468,1,0,0:0:0:0:
186,190,264768,6,0,L|157:262,1,70
309,212,265285,2,0,L|283:130,1,70
256,259,265802,2,0,P|309:283|353:268,1,93.3333333333333
439,129,266492,1,0,0:0:0:0:
222,76,266836,6,0,P|197:120|198:143,1,70
295,223,268036,2,0,P|291:166|262:126,1,105
264,127,268936,2,0,L|306:256,1,128.333333333333
304,249,270311,2,0,L|297:231,2,11.6666666666667
