osu file format v14

[General]
AudioFilename: audio.mp3
AudioLeadIn: 0
PreviewTime: 67593
Countdown: 0
SampleSet: Soft
StackLeniency: 0.4
Mode: 0
LetterboxInBreaks: 0
WidescreenStoryboard: 1

[Editor]
Bookmarks: 6198,11779,17361,22942,28523,34105,45268,50849,56430,62012,78756,89919,101082,106663,117826,128989,140151,145733,153407,164569,175732,186895,198058
DistanceSpacing: 1.6
BeatDivisor: 4
GridSize: 4
TimelineZoom: 2.2

[Metadata]
Title:F-mine
TitleUnicode:F-mine
Artist:onoken
ArtistUnicode:onoken
Creator:Surou
Version:Hard
Source:
Tags:RADIAL DIVERSE SYSTEM FIFTEENTH ANNIVERSARY felys 15th instrumental electronic irin -Nanako- VoiceCore
BeatmapID:4098335
BeatmapSetID:1614761

[Difficulty]
HPDrainRate:5
CircleSize:3.5
OverallDifficulty:6
ApproachRate:8
SliderMultiplier:1.25
SliderTickRate:1

[Events]
//Background and Video events
0,0,"109951166523969585.jpg",0,0
//Break Periods
2,107012,116430
//Storyboard Layer 0 (Background)
//Storyboard Layer 1 (Fail)
//Storyboard Layer 2 (Pass)
//Storyboard Layer 3 (Foreground)
//Storyboard Layer 4 (Overlay)
//Storyboard Sound Samples

[TimingPoints]
617,348.837209302326,4,2,1,35,1,0
617,-133.333333333333,4,2,1,35,0,0
22942,-111.111111111111,4,2,1,55,0,0
42477,-111.111111111111,4,2,1,45,0,0
43872,-111.111111111111,4,2,1,5,0,0
44744,-111.111111111111,4,2,1,45,0,0
45268,-111.111111111111,4,2,1,60,0,0
67593,-111.111111111111,4,2,1,70,0,0
105268,-111.111111111111,4,2,1,60,0,0
106663,-111.111111111111,4,2,1,75,0,0
117826,-133.333333333333,4,2,1,45,0,0
128989,-133.333333333333,4,2,1,55,0,0
140151,-111.111111111111,4,2,1,55,0,0
149919,-111.111111111111,4,2,1,45,0,0
152012,-111.111111111111,4,2,1,60,0,0
153407,348.837209302326,4,2,1,80,1,1
153407,-100,4,2,1,80,0,1
196489,-100,4,2,1,70,0,1
198058,-100,4,2,1,60,0,0
200849,-100,4,2,1,35,0,0

[Colours]
Combo1 : 255,187,255
Combo2 : 181,255,255
Combo3 : 96,168,255
Combo4 : 255,128,192

[HitObjects]
43,234,617,6,0,L|55:285,1,46.8750017881394,2|2,0:2|0:2,0:0:0:0:
236,7,2012,2,0,L|248:58,1,46.8750017881394,2|2,0:2|0:2,0:0:0:0:
501,259,3407,2,0,L|513:310,1,46.8750017881394,2|2,0:2|0:2,0:0:0:0:
182,382,4803,2,0,L|209:274,1,93.7500035762788,2|0,0:2|0:0,0:0:0:0:
309,207,5500,2,0,P|272:176|224:186,1,93.7500035762788,2|2,0:2|0:2,0:0:0:0:
386,74,6198,6,0,L|375:119,1,46.8750017881394,2|2,0:2|0:2,0:0:0:0:
497,235,6721,1,0,0:0:0:0:
497,235,6896,2,0,P|476:211|454:203,1,46.8750017881394
386,227,7244,1,0,0:0:0:0:
265,332,7593,2,0,L|254:377,1,46.8750017881394,2|2,0:2|0:2,0:0:0:0:
245,243,8117,1,0,0:0:0:0:
245,243,8291,2,0,P|216:238|195:219,1,46.8750017881394
186,144,8640,2,0,P|166:131|143:129,1,46.8750017881394
47,174,8989,6,0,L|36:219,1,46.8750017881394,2|2,0:2|0:2,0:0:0:0:
102,358,9512,1,0,0:0:0:0:
102,358,9686,2,0,L|119:297,1,46.8750017881394
137,237,10035,1,0,0:0:0:0:
137,237,10210,1,0,0:0:0:0:
242,275,10384,2,0,P|289:258|344:249,1,93.7500035762788,2|2,0:2|0:2,0:0:0:0:
392,190,10907,1,0,0:0:0:0:
392,190,11082,2,0,L|402:127,1,46.8750017881394,2|0,0:2|0:0,0:0:0:0:
461,85,11430,2,0,L|490:74,2,23.4375008940697,2|0|0,0:2|0:0|0:0,0:0:0:0:
357,32,11779,6,0,P|323:87|284:88,1,93.7500035762788,2|0,0:2|0:0,0:0:0:0:
225,64,12303,1,0,0:0:0:0:
225,64,12477,1,2,0:2:0:0:
111,179,12826,2,0,P|86:185|53:194,1,46.8750017881394
27,265,13175,2,0,P|80:273|136:285,1,93.7500035762788,2|0,0:2|0:0,0:0:0:0:
182,342,13698,1,0,0:0:0:0:
182,342,13872,2,0,P|204:326|217:290,1,46.8750017881394,2|0,0:2|0:0,0:0:0:0:
289,268,14221,2,0,P|293:241|276:206,1,46.8750017881394
202,144,14570,6,0,P|188:90|174:37,1,93.7500035762788,2|0,0:2|0:0,0:0:0:0:
101,20,15093,1,0,0:0:0:0:
101,20,15268,1,2,0:2:0:0:
262,75,15617,2,0,P|288:80|320:85,1,46.8750017881394
424,45,15965,2,0,P|415:21|388:2,2,46.8750017881394,2|0|0,0:2|0:0|0:0,0:0:0:0:
385,121,16489,1,0,0:0:0:0:
385,121,16663,2,0,P|378:140|374:167,1,46.8750017881394,2|0,0:2|0:0,0:0:0:0:
432,239,17012,1,0,0:0:0:0:
432,239,17186,1,0,0:0:0:0:
372,335,17361,6,0,P|357:288|327:231,1,93.7500035762788,2|0,0:2|0:0,0:0:0:0:
258,245,17884,1,0,0:0:0:0:
258,245,18058,1,2,0:2:0:0:
305,88,18407,6,0,P|278:89|243:103,1,46.8750017881394
174,67,18756,2,0,P|144:107|120:162,1,93.7500035762788,2|0,0:2|0:0,0:0:0:0:
146,306,19454,6,0,P|176:313|198:301,1,46.8750017881394,2|0,0:2|0:0,0:0:0:0:
267,339,19803,2,0,P|288:316|288:291,1,46.8750017881394
362,251,20151,2,0,P|349:198|304:169,1,93.7500035762788,2|0,0:2|0:0,0:0:0:0:
174,67,20849,6,0,B|164:57|164:57|159:9,2,46.8750017881394,2|0|0,0:2|0:0|0:0,0:0:0:0:
174,67,22942,6,0,P|228:41|283:31,2,112.499996566773,2|0|0,3:2|0:0|0:0,0:0:0:0:
40,154,23989,1,10,0:2:0:0:
40,154,24163,2,0,P|20:216|64:259,1,112.499996566773,0|2,0:0|3:2,0:0:0:0:
124,261,24686,1,0,0:0:0:0:
184,208,24861,2,0,P|175:169|168:147,1,56.2499982833863,2|2,0:2|3:2,0:0:0:0:
223,93,25210,2,0,P|232:54|239:32,2,56.2499982833863,0|10|0,0:0|0:2|0:0,0:0:0:0:
269,192,25733,6,0,P|306:230|376:209,2,112.499996566773,2|0|0,3:2|0:0|0:0,0:0:0:0:
374,73,26779,1,10,0:2:0:0:
374,73,26954,2,0,L|359:5,2,56.2499982833863,0|2|2,0:0|0:2|3:2,0:0:0:0:
391,151,27477,1,0,0:0:0:0:
442,211,27651,2,0,P|477:223|497:225,1,56.2499982833863,2|2,0:2|3:2,0:0:0:0:
414,289,28000,1,0,3:0:0:0:
363,349,28174,2,0,P|328:361|308:363,1,56.2499982833863,10|0,0:2|0:0,0:0:0:0:
231,270,28523,6,0,L|248:143,1,112.499996566773,2|0,3:2|0:0,0:0:0:0:
313,113,29047,1,2,3:2:0:0:
313,113,29221,2,0,P|270:75|217:77,1,112.499996566773,0|10,0:0|0:2,0:0:0:0:
164,135,29744,2,0,L|149:246,1,112.499996566773,0|2,0:0|3:2,0:0:0:0:
149,328,30268,1,0,0:0:0:0:
225,349,30442,2,0,P|255:349|286:324,1,56.2499982833863,2|2,0:2|3:2,0:0:0:0:
314,266,30791,2,0,P|338:252|366:254,2,56.2499982833863,0|10|0,0:0|0:2|0:0,0:0:0:0:
212,229,31314,6,0,P|154:216|97:205,1,112.499996566773,2|0,3:2|0:0,0:0:0:0:
26,198,31837,1,2,3:2:0:0:
26,198,32012,2,0,P|15:140|65:98,1,112.499996566773,0|10,0:0|0:2,0:0:0:0:
120,68,32535,2,0,L|132:6,2,56.2499982833863,0|2|2,0:0|0:2|3:2,0:0:0:0:
163,135,33058,1,0,0:0:0:0:
221,190,33233,2,0,P|228:220|229:261,1,56.2499982833863,2|2,0:2|3:2,0:0:0:0:
288,145,33582,1,0,3:0:0:0:
347,90,33757,2,0,P|353:62|355:34,1,56.2499982833863,10|0,0:2|0:0,0:0:0:0:
408,145,34105,6,0,P|454:192|511:182,1,112.499996566773,6|2,3:2|3:2,0:0:0:0:
379,298,34803,2,0,P|315:314|295:368,1,112.499996566773,2|2,3:2|3:2,0:0:0:0:
219,347,35326,1,0,0:0:0:0:
219,347,35500,2,0,P|205:282|187:223,1,112.499996566773,2|2,3:2|3:2,0:0:0:0:
290,111,36198,2,0,P|320:112|343:131,1,56.2499982833863,2|0,3:2|0:0,0:0:0:0:
308,200,36547,2,0,P|278:199|255:180,1,56.2499982833863,2|0,3:2|0:0,0:0:0:0:
181,158,36896,6,0,P|121:162|62:175,1,112.499996566773,2|2,3:2|3:2,0:0:0:0:
164,44,37593,2,0,P|224:40|283:27,1,112.499996566773,2|2,3:2|3:2,0:0:0:0:
355,58,38117,1,0,0:0:0:0:
355,58,38291,2,0,L|373:-3,2,56.2499982833863,2|0|2,3:2|0:0|3:2,0:0:0:0:
399,124,38814,1,0,0:0:0:0:
452,184,38989,2,0,P|485:187|515:197,1,56.2499982833863,2|0,3:2|0:0,0:0:0:0:
405,248,39337,2,0,P|402:281|392:311,1,56.2499982833863,2|0,3:2|0:0,0:0:0:0:
281,334,39686,6,0,B|293:345|293:345|303:395,2,56.2499982833863,6|0|2,3:2|3:0|3:2,0:0:0:0:
205,305,40210,1,0,3:0:0:0:
127,284,40384,2,0,L|56:305,1,56.2499982833863,2|0,3:2|3:0,0:0:0:0:
10,259,40733,1,2,3:2:0:0:
10,259,40908,1,0,3:0:0:0:
55,168,41082,6,0,L|69:96,1,56.2499982833863,2|0,3:2|3:0,0:0:0:0:
145,107,41430,2,0,L|131:176,1,56.2499982833863,2|0,3:2|3:0,0:0:0:0:
186,229,41779,1,2,3:2:0:0:
186,229,41954,1,0,3:0:0:0:
258,198,42128,2,0,L|324:215,1,56.2499982833863,2|0,3:2|3:0,0:0:0:0:
441,225,42477,5,2,3:2:0:0:
441,225,42564,1,0,3:0:0:0:
441,225,42651,1,0,3:0:0:0:
441,225,42739,1,0,3:0:0:0:
441,225,42826,2,0,L|449:267,3,28.1249991416931,2|0|0|0,3:2|3:0|3:0|3:0,0:0:0:0:
475,294,43175,2,0,L|467:336,3,28.1249991416931,2|0|0|0,3:2|3:0|3:0|3:0,0:0:0:0:
434,358,43523,2,0,P|405:349|364:338,1,56.2499982833863,2|0,3:2|0:0,0:0:0:0:
266,330,44744,6,0,L|279:388,2,56.2499982833863
194,294,45268,2,0,P|189:253|245:207,1,112.499996566773,6|10,3:2|0:2,0:0:0:0:
313,228,45791,1,2,0:2:0:0:
442,138,46140,2,0,L|510:117,2,56.2499982833863,2|10|2,3:2|0:2|0:2,0:0:0:0:
374,96,46663,1,0,3:0:0:0:
307,54,46837,2,0,P|246:42|183:33,1,112.499996566773,2|2,0:2|0:2,0:0:0:0:
73,134,47535,2,0,L|3:122,2,56.2499982833863,2|10|2,3:2|0:2|0:2,0:0:0:0:
131,186,48058,6,0,L|136:243,1,56.2499982833863,2|0,3:2|0:0,0:0:0:0:
82,300,48407,2,0,L|87:357,1,56.2499982833863,10|2,0:2|0:2,0:0:0:0:
246,383,48930,1,0,3:0:0:0:
246,383,49105,2,0,L|241:326,1,56.2499982833863,10|2,0:2|0:2,0:0:0:0:
221,250,49454,2,0,P|265:201|324:208,1,112.499996566773,0|10,3:0|0:2,0:0:0:0:
366,254,49977,1,2,0:2:0:0:
497,166,50326,1,0,3:0:0:0:
497,166,50500,2,0,L|433:153,1,56.2499982833863,10|2,0:2|0:2,0:0:0:0:
366,130,50849,6,0,P|349:66|300:39,1,112.499996566773,2|10,3:2|0:2,0:0:0:0:
238,70,51372,1,2,0:2:0:0:
84,36,51721,1,2,3:2:0:0:
13,72,51896,2,0,L|-2:137,1,56.2499982833863,10|2,0:2|0:2,0:0:0:0:
2,205,52244,1,0,3:0:0:0:
71,167,52419,2,0,P|134:150|199:146,1,112.499996566773,2|2,0:2|0:2,0:0:0:0:
271,275,53117,1,2,3:2:0:0:
286,352,53291,2,0,P|308:368|347:359,1,56.2499982833863,10|2,0:2|0:2,0:0:0:0:
457,337,53640,6,0,L|535:325,2,56.2499982833863,2|0|10,3:2|0:0|0:2,0:0:0:0:
387,301,54163,1,2,0:2:0:0:
357,150,54512,1,2,3:2:0:0:
357,150,54686,1,10,0:2:0:0:
435,138,54861,2,0,P|484:118|496:48,2,112.499996566773,2|0|2,0:2|0:0|0:2,0:0:0:0:
316,43,55907,1,0,3:0:0:0:
316,43,56082,1,10,0:2:0:0:
237,48,56256,1,2,0:2:0:0:
189,110,56430,6,0,P|198:154|208:209,1,84.3749974250794,6|0,3:2|0:0,0:0:0:0:
190,229,56779,2,0,P|184:261|178:302,1,56.2499982833863,10|2,0:2|0:2,0:0:0:0:
26,320,57303,1,2,3:2:0:0:
73,384,57477,1,10,0:2:0:0:
105,312,57651,1,2,0:2:0:0:
59,249,57826,1,0,3:0:0:0:
59,249,58000,2,0,P|72:185|81:127,1,112.499996566773,2|2,0:2|0:2,0:0:0:0:
176,13,58698,1,2,3:2:0:0:
108,53,58872,2,0,P|70:48|35:38,1,56.2499982833863,10|2,0:2|0:2,0:0:0:0:
160,117,59221,6,0,P|209:105|264:93,1,84.3749974250794,2|0,3:2|0:0,0:0:0:0:
280,107,59570,2,0,P|293:134|282:164,1,56.2499982833863,10|2,0:2|0:2,0:0:0:0:
161,253,60093,1,0,3:0:0:0:
216,309,60268,2,0,P|249:293|281:287,1,56.2499982833863,10|2,0:2|0:2,0:0:0:0:
330,336,60617,2,0,P|379:348|434:360,1,84.3749974250794,0|0,3:0|0:0,0:0:0:0:
450,346,60966,2,0,P|463:318|452:288,1,56.2499982833863,10|2,0:2|0:2,0:0:0:0:
349,179,61489,1,0,3:0:0:0:
349,179,61663,1,10,0:2:0:0:
417,140,61837,1,2,0:2:0:0:
421,61,62012,6,0,P|371:49|315:36,1,84.3749974250794,2|0,3:2|0:0,0:0:0:0:
302,57,62361,2,0,P|267:65|226:80,1,56.2499982833863,10|2,0:2|0:2,0:0:0:0:
257,228,62884,5,2,3:2:0:0:
244,305,63058,1,10,0:2:0:0:
167,292,63233,1,2,0:2:0:0:
180,215,63407,1,0,3:0:0:0:
180,215,63582,2,0,P|123:197|64:185,1,112.499996566773,2|2,0:2|0:2,0:0:0:0:
160,56,64279,1,2,3:2:0:0:
238,62,64454,2,0,P|272:70|312:80,1,56.2499982833863,10|2,0:2|0:2,0:0:0:0:
352,179,64803,6,0,P|338:245|378:276,1,112.499996566773,2|10,3:2|0:2,0:0:0:0:
442,252,65326,2,0,P|470:242|505:236,1,56.2499982833863,2|8,0:2|0:2,0:0:0:0:
425,334,65675,1,2,3:2:0:0:
425,334,65849,1,2,0:2:0:0:
347,349,66023,2,0,P|288:330|229:320,2,112.499996566773,2|2|2,3:2|0:2|0:2,0:0:0:0:
166,384,67593,6,0,P|149:325|126:269,1,112.499996566773,6|8,3:2|0:2,0:0:0:0:
21,169,68291,1,2,0:2:0:0:
21,169,68465,1,2,3:2:0:0:
91,203,68640,2,0,P|126:201|148:167,1,56.2499982833863,10|0,0:2|0:0,0:0:0:0:
169,114,68989,5,2,3:2:0:0:
291,15,69337,2,0,P|322:5|358:1,1,56.2499982833863,10|0,0:2|0:0,0:0:0:0:
266,92,69686,2,0,P|276:123|280:159,1,56.2499982833863,2|0,0:2|3:0,0:0:0:0:
230,208,70035,1,8,0:2:0:0:
353,305,70384,6,0,P|412:282|470:270,1,112.499996566773,2|10,3:2|0:2,0:0:0:0:
512,212,70907,1,2,0:2:0:0:
435,193,71082,2,0,P|404:199|368:211,1,56.2499982833863,2|0,0:2|3:0,0:0:0:0:
308,237,71430,1,8,0:2:0:0:
204,355,71779,6,0,L|200:390,2,28.1249991416931,2|0|2,3:2|0:0|0:2,0:0:0:0:
145,301,72128,2,0,P|112:290|80:287,1,56.2499982833863,8|0,0:2|0:0,0:0:0:0:
33,233,72477,2,0,L|29:198,2,28.1249991416931,2|0|2,0:2|0:0|3:2,0:0:0:0:
12,309,72826,1,10,0:2:0:0:
122,204,73175,6,0,P|155:185|164:166,1,56.2499982833863,2|0,3:2|0:0,0:0:0:0:
212,109,73523,2,0,P|180:90|159:92,1,56.2499982833863,8|0,0:2|0:0,0:0:0:0:
85,79,73872,2,0,P|85:118|97:135,1,56.2499982833863,0|0,0:0|3:0,0:0:0:0:
245,181,74221,6,0,P|273:171|308:164,1,56.2499982833863,10|0,0:2|0:0,0:0:0:0:
363,120,74570,2,0,P|371:93|376:65,1,56.2499982833863,0|0,3:0|0:0,0:0:0:0:
304,34,74919,2,0,P|295:60|290:88,1,56.2499982833863,8|0,0:2|0:0,0:0:0:0:
372,201,75268,6,0,L|384:268,1,56.2499982833863,2|0,0:2|3:0,0:0:0:0:
439,310,75617,1,10,0:2:0:0:
299,368,75965,6,0,P|262:368|241:338,1,56.2499982833863,2|0,3:2|0:0,0:0:0:0:
169,347,76314,2,0,P|157:312|179:283,1,56.2499982833863,8|0,0:2|0:0,0:0:0:0:
168,215,76663,2,0,P|197:193|231:205,1,56.2499982833863,0|0,0:0|3:0,0:0:0:0:
371,273,77012,6,0,P|359:308|325:318,1,56.2499982833863,10|0,0:2|0:0,0:0:0:0:
285,264,77361,2,0,P|291:232|299:191,1,56.2499982833863,0|0,3:0|0:0,0:0:0:0:
348,149,77710,2,0,P|342:117|333:76,1,56.2499982833863,8|0,0:2|0:0,0:0:0:0:
288,31,78058,5,2,0:2:0:0:
211,12,78233,1,0,3:0:0:0:
134,29,78407,1,10,0:2:0:0:
81,88,78582,1,0,0:0:0:0:
62,164,78756,6,0,P|73:212|83:266,1,84.3749974250794,6|0,3:2|0:0,0:0:0:0:
58,280,79105,2,0,P|52:320|49:357,1,56.2499982833863,8|0,0:2|0:0,0:0:0:0:
116,379,79454,2,0,P|153:364|187:348,1,56.2499982833863,2|2,0:2|3:2,0:0:0:0:
201,285,79803,1,10,0:2:0:0:
187,128,80151,6,0,P|195:86|204:45,1,84.3749974250794,2|0,3:2|0:0,0:0:0:0:
234,19,80500,2,0,P|258:14|293:32,1,56.2499982833863,10|0,0:2|0:0,0:0:0:0:
328,92,80849,1,2,0:2:0:0:
379,164,81023,1,2,3:2:0:0:
379,164,81111,1,2,0:2:0:0:
379,164,81198,2,0,L|423:151,2,37.4999988555909,10|2|2,0:2|0:2|0:2,0:0:0:0:
346,205,81547,6,0,P|335:244|392:306,1,112.499996566773,2|8,3:2|0:2,0:0:0:0:
390,377,82070,2,0,P|361:347|279:366,1,112.499996566773,2|0,0:2|3:0,0:0:0:0:
221,382,82593,2,0,P|192:369|155:362,1,56.2499982833863,10|0,0:2|0:0,0:0:0:0:
46,370,82942,5,2,3:2:0:0:
94,307,83117,2,0,P|125:293|160:287,1,56.2499982833863,2|8,0:2|0:2,0:0:0:0:
245,165,83640,2,0,P|263:137|259:98,1,56.2499982833863,2|0,0:2|3:0,0:0:0:0:
190,86,83989,2,0,P|172:114|176:153,1,56.2499982833863,10|0,0:2|0:0,0:0:0:0:
225,252,84337,6,0,P|257:259|296:271,1,56.2499982833863,6|0,3:2|0:0,0:0:0:0:
353,238,84686,2,0,P|370:265|389:301,1,56.2499982833863,8|0,0:2|0:0,0:0:0:0:
326,342,85035,1,0,0:0:0:0:
326,342,85210,1,0,3:0:0:0:
464,294,85384,6,0,P|465:261|464:219,1,56.2499982833863,10|0,0:2|0:0,0:0:0:0:
508,172,85733,2,0,P|485:147|455:119,1,56.2499982833863,0|0,3:0|0:0,0:0:0:0:
402,171,86082,1,8,0:2:0:0:
402,171,86257,1,0,0:0:0:0:
356,19,86430,6,0,P|388:26|427:38,1,56.2499982833863,2|0,0:2|3:0,0:0:0:0:
494,54,86779,1,10,0:2:0:0:
330,109,87128,6,0,P|317:133|293:152,1,56.2499982833863,6|0,3:2|0:0,0:0:0:0:
250,87,87476,2,0,P|223:91|196:80,1,56.2499982833863,8|0,0:2|0:0,0:0:0:0:
234,10,87826,1,0,0:0:0:0:
234,10,88000,1,0,3:0:0:0:
111,77,88175,6,0,P|86:89|66:109,1,56.2499982833863,10|0,0:2|0:0,0:0:0:0:
133,157,88523,2,0,P|128:183|139:209,1,56.2499982833863,0|0,3:0|0:0,0:0:0:0:
215,176,88873,1,8,0:2:0:0:
215,176,89047,1,0,0:0:0:0:
290,154,89221,5,2,0:2:0:0:
362,186,89396,1,0,3:0:0:0:
399,254,89570,1,10,0:2:0:0:
388,331,89744,1,0,0:0:0:0:
329,384,89919,6,0,P|271:368|215:357,1,112.499996566773,2|8,3:2|0:2,0:0:0:0:
69,309,90617,2,0,L|11:322,2,56.2499982833863,2|0|8,0:2|3:0|0:2,0:0:0:0:
222,273,91314,2,0,P|237:214|196:170,1,112.499996566773,2|8,3:2|0:2,0:0:0:0:
130,188,91837,1,0,0:0:0:0:
72,134,92012,2,0,L|-9:117,1,56.2499982833863,0|0,0:0|3:0,0:0:0:0:
81,55,92361,2,0,L|162:38,1,56.2499982833863,8|0,0:2|0:0,0:0:0:0:
194,96,92710,6,0,P|258:109|327:128,1,112.499996566773,2|8,3:2|0:2,0:0:0:0:
445,52,93407,2,0,L|425:-12,2,56.2499982833863,2|0|8,0:2|3:0|0:2,0:0:0:0:
499,200,94105,2,0,P|446:244|401:220,1,112.499996566773,2|8,3:2|0:2,0:0:0:0:
258,192,94803,2,0,P|222:183|184:174,1,56.2499982833863,2|0,0:2|3:0,0:0:0:0:
125,186,95151,1,8,0:2:0:0:
24,307,95500,6,0,P|76:351|121:327,1,112.499996566773,2|8,3:2|0:2,0:0:0:0:
165,280,96023,1,0,0:0:0:0:
234,317,96198,2,0,L|243:379,1,56.2499982833863,2|0,0:2|3:0,0:0:0:0:
288,262,96547,1,8,0:2:0:0:
374,130,96896,2,0,P|429:136|485:145,1,112.499996566773,2|8,3:2|0:2,0:0:0:0:
512,224,97419,1,2,0:2:0:0:
512,224,97593,1,2,0:2:0:0:
446,268,97768,1,0,3:0:0:0:
393,209,97942,2,0,P|357:203|311:199,1,56.2499982833863,8|0,0:2|0:0,0:0:0:0:
259,186,98291,6,0,P|230:134|256:82,1,112.499996566773,2|8,3:2|0:2,0:0:0:0:
290,23,98814,1,0,0:0:0:0:
290,23,98989,2,0,L|352:13,2,56.2499982833863,0|0|8,0:0|3:0|0:2,0:0:0:0:
156,106,99686,2,0,P|89:115|29:126,1,112.499996566773,2|8,3:2|0:2,0:0:0:0:
3,275,100384,2,0,P|15:308|40:328,1,56.2499982833863,2|0,0:2|3:0,0:0:0:0:
102,353,100733,2,0,P|136:349|162:330,1,56.2499982833863,10|0,0:2|0:0,0:0:0:0:
202,275,101082,6,0,P|210:210|223:145,1,112.499996566773,6|0,3:2|3:0,0:0:0:0:
242,88,101605,1,0,0:0:0:0:
391,32,101954,1,0,0:0:0:0:
391,32,102128,2,0,P|382:66|377:97,1,56.2499982833863,0|0,3:0|0:0,0:0:0:0:
428,235,102651,1,0,0:0:0:0:
478,174,102826,1,0,3:0:0:0:
401,161,103000,1,0,0:0:0:0:
354,311,103349,2,0,P|366:340|372:372,2,56.2499982833863,0|0|0,0:0|3:0|0:0,0:0:0:0:
281,279,103872,6,0,B|268:273|268:273|212:288,1,56.2499982833863,2|0,3:2|3:0,0:0:0:0:
159,323,104221,2,0,B|154:309|154:309|103:280,1,56.2499982833863,0|0,3:0|3:0,0:0:0:0:
38,272,104570,2,0,B|44:259|44:259|29:203,1,56.2499982833863,2|0,3:2|3:0,0:0:0:0:
17,145,104919,1,0,3:0:0:0:
17,145,105093,1,0,3:0:0:0:
90,96,105268,5,2,3:2:0:0:
90,96,105355,1,0,3:0:0:0:
90,96,105442,1,0,3:0:0:0:
90,96,105529,1,0,3:0:0:0:
90,96,105617,2,0,L|132:110,3,28.1249991416931,2|0|0|0,3:2|3:0|3:0|3:0,0:0:0:0:
165,117,105965,1,2,3:2:0:0:
165,117,106663,1,14,3:2:0:0:
144,153,117826,6,0,P|126:207|119:233,2,70.3125026822091,2|0|0,0:2|0:0|0:0,0:0:0:0:
32,252,119221,2,0,P|49:183|91:64,1,187.500007152558,2|0,0:2|0:0,0:0:0:0:
368,61,120617,6,0,P|389:88|431:85,2,70.3125026822091,2|0|0,0:2|0:0|0:0,0:0:0:0:
402,207,122012,2,0,P|356:157|285:156,1,140.625005364418,2|0,0:2|0:0,0:0:0:0:
253,233,122710,2,0,P|299:283|370:284,1,140.625005364418,2|0,0:2|0:0,0:0:0:0:
440,328,123407,6,0,P|481:313|521:304,2,70.3125026822091,2|0|0,0:2|0:0|0:0,0:0:0:0:
186,331,124803,2,0,P|275:303|371:284,1,187.500007152558,2|0,0:2|0:0,0:0:0:0:
119,106,126198,6,0,P|113:77|143:43,2,70.3125026822091,2|0|0,0:2|0:0|0:0,0:0:0:0:
251,270,127419,2,0,L|270:376,2,93.7500035762788
311,211,128291,2,0,L|372:223,1,46.8750017881394,2|0,0:2|0:0,0:0:0:0:
413,283,128640,2,0,L|474:295,1,46.8750017881394
511,225,128989,5,2,3:2:0:0:
511,225,129163,1,2,0:0:0:0:
244,52,130384,5,2,3:2:0:0:
244,52,130558,1,2,0:0:0:0:
50,291,131779,5,2,3:2:0:0:
50,291,131954,1,2,0:2:0:0:
340,298,133175,6,0,P|293:230|226:234,1,140.625005364418,2|0,3:2|0:0,0:0:0:0:
192,296,133872,2,0,P|239:364|306:360,1,140.625005364418,2|0,3:2|0:0,0:0:0:0:
384,374,134570,5,2,3:2:0:0:
384,374,134744,1,2,0:2:0:0:
80,205,135965,5,2,3:2:0:0:
80,205,136139,1,2,0:2:0:0:
418,45,137361,5,2,3:2:0:0:
418,45,137535,1,2,0:2:0:0:
242,11,138756,6,0,P|227:88|213:160,1,140.625005364418,2|0,3:2|0:0,0:0:0:0:
289,190,139454,2,0,P|304:267|318:339,1,140.625005364418,2|0,3:2|0:0,0:0:0:0:
253,375,140151,5,2,3:2:0:0:
253,375,140326,1,2,0:2:0:0:
184,239,140675,1,2,0:2:0:0:
184,239,140849,2,0,P|199:271|187:301,1,56.2499982833863,0|0,3:0|0:0,0:0:0:0:
152,357,141198,1,2,0:2:0:0:
29,265,141547,1,2,3:2:0:0:
29,265,141721,1,2,0:2:0:0:
66,111,142070,1,2,0:2:0:0:
66,111,142244,2,0,P|94:98|124:91,1,56.2499982833863,2|0,3:2|0:0,0:0:0:0:
175,36,142593,2,0,P|203:46|230:62,1,56.2499982833863,2|0,0:2|0:0,0:0:0:0:
253,162,142942,5,2,3:2:0:0:
253,162,143117,1,2,0:2:0:0:
346,36,143465,1,2,0:2:0:0:
346,36,143640,2,0,L|336:98,1,56.2499982833863,0|0,3:0|0:0,0:0:0:0:
369,169,143989,1,2,0:2:0:0:
369,169,144163,1,0,0:0:0:0:
415,232,144337,6,0,P|406:293|397:359,1,112.499996566773,2|0,3:2|0:0,0:0:0:0:
331,381,144861,1,2,0:2:0:0:
331,381,145035,2,0,P|299:372|264:368,1,56.2499982833863,2|0,3:2|0:0,0:0:0:0:
197,369,145384,2,0,P|176:343|187:311,1,56.2499982833863,2|0,0:2|0:0,0:0:0:0:
238,251,145733,6,0,B|273:207|273:207|264:144,1,112.499996566773,2|0,3:2|3:0,0:0:0:0:
189,127,146256,1,2,0:2:0:0:
189,127,146430,2,0,B|154:171|154:171|163:234,1,112.499996566773,0|2,3:0|3:2,0:0:0:0:
319,294,147128,6,0,L|440:272,1,112.499996566773,2|0,3:2|3:0,0:0:0:0:
488,220,147651,1,2,0:2:0:0:
488,220,147826,2,0,P|496:181|507:145,1,56.2499982833863,2|0,3:2|0:0,0:0:0:0:
446,107,148175,2,0,P|440:79|433:52,1,56.2499982833863,2|0,3:2|0:0,0:0:0:0:
337,9,148523,5,2,3:2:0:0:
337,9,148698,1,2,3:2:0:0:
273,55,148872,2,0,L|260:119,1,56.2499982833863,0|2,3:0|3:2,0:0:0:0:
303,177,149221,1,0,3:0:0:0:
341,246,149396,1,0,3:0:0:0:
315,320,149570,1,2,3:2:0:0:
242,349,149744,1,0,3:0:0:0:
174,307,149919,5,2,3:2:0:0:
170,303,150006,1,0,3:0:0:0:
166,299,150093,1,2,3:2:0:0:
162,295,150180,1,0,3:0:0:0:
158,291,150268,2,0,L|106:302,3,28.1249991416931,0|0|2|0,3:0|3:0|3:2|3:0,0:0:0:0:
83,275,150617,1,2,3:2:0:0:
79,271,150704,1,0,3:0:0:0:
75,267,150791,1,0,3:0:0:0:
71,263,150878,1,0,3:0:0:0:
67,259,150966,2,0,L|15:247,4,28.1249991416931,2|0|0|0|0,3:2|3:0|3:0|3:0|3:0,0:0:0:0:
0,178,152012,6,0,B|16:102|115:29|213:47|213:47|188:70|173:106,1,337.499989700318,2|0,0:2|0:0,0:0:0:0:
280,239,153407,6,0,P|254:293|183:297,1,125,6|10,3:2|0:2,0:0:0:0:
127,255,153930,1,2,0:2:0:0:
127,255,154104,2,0,L|58:243,2,62.5,0|0|8,0:0|3:0|0:2,0:0:0:0:
257,381,154802,6,0,P|319:360|384:344,1,125,2|10,3:2|0:2,0:0:0:0:
444,289,155325,1,2,0:2:0:0:
381,227,155500,2,0,P|369:195|363:161,1,62.5,2|0,0:2|3:0,0:0:0:0:
443,131,155848,2,0,P|479:115|516:106,1,62.5,8|0,0:2|0:0,0:0:0:0:
377,77,156197,6,0,L|356:10,2,62.5,2|0|10,3:2|0:0|0:2,0:0:0:0:
295,108,156720,1,2,0:2:0:0:
272,195,156895,1,2,0:2:0:0:
272,195,157069,1,0,3:0:0:0:
310,273,157244,2,0,P|302:312|298:344,1,62.5,10|0,0:2|0:0,0:0:0:0:
218,275,157593,6,0,P|155:287|97:303,1,125,2|10,3:2|0:2,0:0:0:0:
37,368,158116,1,2,0:2:0:0:
11,284,158290,2,0,P|25:249|48:211,1,62.5,2|0,0:2|3:0,0:0:0:0:
122,209,158639,1,8,0:2:0:0:
60,41,158988,6,0,L|-8:28,2,62.5,2|0|10,3:2|0:0|0:2,0:0:0:0:
121,103,159511,2,0,P|189:88|249:78,1,125,2|0,0:0|3:0,0:0:0:0:
293,6,160034,1,8,0:2:0:0:
330,176,160383,6,0,L|316:253,2,62.5,2|0|10,3:2|0:0|0:2,0:0:0:0:
417,168,160907,2,0,P|359:95|327:89,1,125,2|0,0:0|3:0,0:0:0:0:
258,134,161430,1,10,0:2:0:0:
258,134,161604,1,2,0:2:0:0:
151,202,161779,6,0,P|116:188|73:183,1,62.5,2|0,3:2|0:0,0:0:0:0:
24,238,162127,2,0,P|10:273|5:316,1,62.5,10|2,0:2|0:2,0:0:0:0:
71,355,162476,1,2,0:2:0:0:
147,311,162651,1,0,3:0:0:0:
219,359,162825,1,10,0:2:0:0:
295,315,163000,1,0,0:0:0:0:
369,361,163174,6,0,P|385:297|399:247,1,93.75,2|0,3:2|0:0,0:0:0:0:
420,235,163523,2,0,P|449:222|488:212,1,62.5,8|0,0:2|0:0,0:0:0:0:
497,127,163872,1,2,0:2:0:0:
437,63,164046,1,0,3:0:0:0:
412,148,164220,1,8,0:2:0:0:
259,234,164569,6,0,P|194:224|173:160,1,125,6|10,3:2|0:2,0:0:0:0:
216,100,165093,1,2,0:2:0:0:
216,100,165267,2,0,L|283:79,2,62.5,0|0|8,0:0|3:0|0:2,0:0:0:0:
66,8,165965,6,0,P|81:78|93:152,1,125,2|10,3:2|0:2,0:0:0:0:
31,196,166488,1,2,0:2:0:0:
116,215,166662,2,0,P|154:205|196:199,1,62.5,2|0,0:2|3:0,0:0:0:0:
167,288,167011,2,0,P|129:298|87:304,1,62.5,8|0,0:2|0:0,0:0:0:0:
244,323,167360,6,0,L|233:396,2,62.5,2|0|10,3:2|0:0|0:2,0:0:0:0:
325,291,167883,1,2,0:2:0:0:
399,347,168058,1,2,0:2:0:0:
399,347,168232,1,0,3:0:0:0:
483,315,168407,1,10,0:2:0:0:
483,315,168581,1,2,0:2:0:0:
378,221,168755,6,0,P|389:159|407:86,1,125,2|10,3:2|0:2,0:0:0:0:
394,10,169279,1,2,0:2:0:0:
324,62,169453,2,0,P|312:101|305:142,1,62.5,2|0,0:2|3:0,0:0:0:0:
294,209,169802,1,8,0:2:0:0:
157,319,170151,6,0,L|84:338,1,62.5,2|0,3:2|0:0,0:0:0:0:
17,296,170500,1,10,0:2:0:0:
91,250,170674,2,0,P|98:185|111:117,1,125,2|0,0:2|3:0,0:0:0:0:
46,64,171197,1,8,0:2:0:0:
186,168,171546,6,0,P|221:171|262:180,1,62.5,2|0,3:2|0:0,0:0:0:0:
333,197,171895,1,10,0:2:0:0:
363,115,172069,2,0,P|377:86|475:71,1,125,2|0,0:2|3:0,0:0:0:0:
507,144,172593,1,10,0:2:0:0:
507,144,172767,1,2,0:2:0:0:
407,244,172941,6,0,P|394:310|387:370,1,125,2|8,3:2|0:2,0:0:0:0:
304,352,173465,1,0,0:0:0:0:
304,352,173552,1,0,0:0:0:0:
304,352,173639,2,0,P|276:364|241:369,1,62.5,2|0,0:2|3:0,0:0:0:0:
159,348,173988,1,10,0:2:0:0:
317,265,174337,5,2,3:2:0:0:
317,265,174511,1,0,3:0:0:0:
347,92,174860,1,8,0:2:0:0:
183,153,175209,1,0,3:0:0:0:
248,211,175383,1,10,0:2:0:0:
267,128,175558,1,10,0:2:0:0:
267,128,175645,1,8,0:2:0:0:
267,128,175732,6,0,P|248:61|224:3,1,125,6|10,3:2|0:2,0:0:0:0:
162,69,176255,2,0,P|133:89|96:81,1,62.5,2|0,0:2|0:0,0:0:0:0:
32,41,176604,1,0,3:0:0:0:
0,122,176779,2,0,P|13:160|24:196,1,62.5,10|2,0:2|0:2,0:0:0:0:
1,286,177127,6,0,P|38:326|113:299,1,125,2|8,3:2|0:2,0:0:0:0:
160,247,177651,2,0,P|218:232|260:274,1,125,2|0,0:2|3:0,0:0:0:0:
311,346,178174,2,0,P|341:353|370:365,1,62.5,10|0,0:2|0:0,0:0:0:0:
345,248,178523,6,0,P|360:180|378:120,1,125,2|8,3:2|0:2,0:0:0:0:
456,92,179046,1,2,0:2:0:0:
384,42,179220,2,0,P|353:46|320:61,1,62.5,2|0,0:2|3:0,0:0:0:0:
283,135,179569,1,8,0:2:0:0:
218,297,179918,6,0,P|226:333|230:362,2,62.5,2|2|10,3:2|0:2|0:2,0:0:0:0:
44,269,180616,2,0,P|51:234|61:205,1,62.5,2|0,0:2|3:0,0:0:0:0:
148,190,180965,1,10,0:2:0:0:
148,190,181139,1,2,0:2:0:0:
22,132,181313,6,0,P|87:112|151:97,1,125,2|10,3:2|0:2,0:0:0:0:
199,31,181837,2,0,P|236:36|274:46,1,62.5,2|0,0:2|0:0,0:0:0:0:
305,117,182186,1,0,3:0:0:0:
377,68,182360,1,10,0:2:0:0:
377,68,182534,1,2,0:2:0:0:
470,142,182709,6,0,P|481:205|417:242,1,125,2|8,3:2|0:2,0:0:0:0:
406,322,183232,2,0,P|342:316|323:244,1,125,2|0,0:2|3:0,0:0:0:0:
270,192,183755,2,0,P|233:182|201:177,1,62.5,10|0,0:2|0:0,0:0:0:0:
44,210,184104,6,0,P|-1:253|23:323,1,125,2|8,3:2|0:2,0:0:0:0:
97,342,184627,2,0,P|142:299|118:229,1,125,2|0,0:2|3:0,0:0:0:0:
118,148,185151,1,8,0:2:0:0:
254,38,185500,5,2,3:2:0:0:
309,203,185848,2,0,L|239:183,1,62.5,8|0,0:2|3:0,0:0:0:0:
150,295,186197,2,0,L|220:275,1,62.5,10|0,0:2|3:0,0:0:0:0:
318,360,186546,1,8,0:2:0:0:
379,299,186720,1,0,3:0:0:0:
379,299,186808,1,0,3:0:0:0:
379,299,186895,6,0,P|395:229|415:156,1,125,14|0,0:2|3:0,0:0:0:0:
476,122,187418,2,0,P|458:70|379:61,1,125,10|0,0:2|3:0,0:0:0:0:
342,124,187941,2,0,P|304:133|269:145,1,62.5,10|0,0:2|3:0,0:0:0:0:
133,178,188290,6,0,P|101:182|57:180,2,62.5,10|0|0,0:2|3:0|3:0,0:0:0:0:
197,116,188813,2,0,P|208:86|232:49,2,62.5,10|0|0,0:2|3:0|3:0,0:0:0:0:
218,203,189337,2,0,P|238:228|258:267,1,62.5,10|0,0:2|3:0,0:0:0:0:
147,312,189686,6,0,P|157:349|244:362,1,125,10|0,0:2|3:0,0:0:0:0:
308,323,190209,2,0,P|375:304|435:297,1,125,10|0,0:2|3:0,0:0:0:0:
498,242,190732,2,0,P|514:207|500:181,1,62.5,10|0,0:2|3:0,0:0:0:0:
406,129,191081,6,0,P|373:134|341:142,1,62.5,10|0,0:2|3:0,0:0:0:0:
285,205,191430,1,0,3:0:0:0:
259,121,191604,2,0,P|238:94|215:71,1,62.5,10|0,0:2|3:0,0:0:0:0:
159,8,191953,1,0,3:0:0:0:
125,88,192127,2,0,P|92:93|60:101,1,62.5,10|0,0:2|3:0,0:0:0:0:
37,135,192389,1,0,3:0:0:0:
37,135,192476,6,0,P|49:172|61:212,1,62.5,10|0,0:2|3:0,0:0:0:0:
129,242,192825,2,0,P|120:280|111:320,1,62.5,8|2,0:2|3:2,0:0:0:0:
188,351,193174,2,0,P|216:324|245:323,1,62.5,8|0,0:2|3:0,0:0:0:0:
314,366,193523,2,0,P|344:359|364:336,1,62.5,10|0,0:2|3:0,0:0:0:0:
418,209,193872,6,0,P|454:197|494:189,2,62.5,10|0|8,0:2|3:0|0:2,0:0:0:0:
342,253,194395,1,2,3:2:0:0:
296,178,194569,2,0,L|311:102,1,62.5,8|0,0:2|3:0,0:0:0:0:
325,33,194918,1,10,0:2:0:0:
325,33,195093,1,2,3:2:0:0:
220,106,195267,6,0,L|158:121,1,62.5,10|0,0:2|3:0,0:0:0:0:
50,181,195616,2,0,L|112:196,1,62.5,8|0,0:2|3:0,0:0:0:0:
196,215,195965,1,8,0:2:0:0:
223,298,196139,1,0,3:0:0:0:
307,318,196313,1,8,0:2:0:0:
371,258,196488,5,10,0:2:0:0:
371,258,196575,1,10,3:2:0:0:
371,258,196662,2,0,P|390:240|414:234,3,31.25,10|10|10|10,0:2|0:2|0:2|0:2,0:0:0:0:
437,212,197011,2,0,P|459:225|472:245,3,31.25,10|10|10|10,0:2|0:2|0:2|0:2,0:0:0:0:
494,268,197360,1,10,0:2:0:0:
493,280,197447,1,10,0:2:0:0:
492,292,197534,1,10,0:2:0:0:
491,304,197622,1,10,0:2:0:0:
490,317,197709,2,0,P|463:319|441:310,3,31.25,10|10|10|10,0:2|0:2|0:2|0:2,0:0:0:0:
411,334,198058,5,6,3:2:0:0:
256,192,198145,12,2,200848,0:2:0:0:
