osu file format v14

[General]
AudioFilename: audio.mp3
AudioLeadIn: 0
PreviewTime: 67593
Countdown: 0
SampleSet: Soft
StackLeniency: 0.2
Mode: 0
LetterboxInBreaks: 0
WidescreenStoryboard: 0

[Editor]
Bookmarks: 11779,22942,34105,39686,45268,56430,67593,89483,89919,101082,103872,105268,106663,117826,128989,140151,145733,148523,149919,151314,152012,153407,158901,162563,175732,186895,196662,198058,200848
DistanceSpacing: 2
BeatDivisor: 4
GridSize: 8
TimelineZoom: 1.5

[Metadata]
Title:F-mine
TitleUnicode:F-mine
Artist:onoken
ArtistUnicode:onoken
Creator:Surou
Version:F()=F(F());
Source:
Tags:RADIAL DIVERSE SYSTEM FIFTEENTH ANNIVERSARY felys 15th instrumental electronic irin -Nanako- VoiceCore
BeatmapID:3296756
BeatmapSetID:1614761

[Difficulty]
HPDrainRate:6
CircleSize:5
OverallDifficulty:8.6
ApproachRate:9
SliderMultiplier:1.6
SliderTickRate:1

[Events]
//Background and Video events
0,0,"109951166523969585.jpg",0,0
//Break Periods
2,112244,117128
//Storyboard Layer 0 (Background)
//Storyboard Layer 1 (Fail)
//Storyboard Layer 2 (Pass)
//Storyboard Layer 3 (Foreground)
//Storyboard Layer 4 (Overlay)
//Storyboard Sound Samples

[TimingPoints]
617,348.837209302326,4,2,1,35,1,0
617,-133.333333333333,4,2,1,35,0,0
22942,-100,4,2,1,55,0,0
34105,-125,4,2,1,55,0,0
35500,-117.647058823529,4,2,1,55,0,0
36896,-111.111111111111,4,2,1,55,0,0
42477,-111.111111111111,4,2,1,45,0,0
43523,-200,4,2,1,45,0,0
43872,-200,4,2,1,5,0,0
44744,-133.333333333333,4,2,1,45,0,0
45268,-100,4,2,1,60,0,0
66023,-200,4,2,1,60,0,0
67593,-100,4,2,1,70,0,0
73175,-100,4,2,1,70,0,1
78756,-100,4,2,1,70,0,0
84337,-100,4,2,1,70,0,1
89919,-100,4,2,1,70,0,0
105268,-100,4,2,1,60,0,0
106663,-133.333333333333,4,2,1,75,0,0
117826,-393.700787401575,4,2,1,45,0,0
120617,-266.666666666667,4,2,1,45,0,0
123407,-200,4,2,1,45,0,0
126198,-158.730158730159,4,2,1,45,0,0
128989,-133.333333333333,4,2,1,55,0,0
140151,-111.111111111111,4,2,1,55,0,0
149919,-111.111111111111,4,2,1,45,0,0
152012,-100,4,2,1,60,0,0
153407,348.837209302326,4,2,1,80,1,0
153407,-90.9090909090909,4,2,1,80,0,1
164395,-90.9090909090909,4,2,1,80,0,0
164569,-90.9090909090909,4,2,1,80,0,1
175645,-90.9090909090909,4,2,1,80,0,0
175732,-90.9090909090909,4,2,1,80,0,1
186808,-90.9090909090909,4,2,1,80,0,0
186895,-90.9090909090909,4,2,1,80,0,1
196489,-90.9090909090909,4,2,1,70,0,0
196662,-90.9090909090909,4,2,1,70,0,1
198058,-181.818181818182,4,2,1,60,0,0
200849,-181.818181818182,4,2,1,35,0,0

[Colours]
Combo1 : 255,187,255
Combo2 : 181,255,255
Combo3 : 96,168,255
Combo4 : 255,128,192

[HitObjects]
76,48,617,6,0,P|60:80|71:112,1,60.0000022888184,2|2,0:2|0:2,0:0:0:0:
171,130,1140,5,0,0:0:0:0:
107,169,1314,2,0,L|117:244,2,60.0000022888184
209,35,2012,6,0,P|243:19|275:32,1,60.0000022888184,2|2,0:2|0:2,0:0:0:0:
393,94,2535,5,0,0:0:0:0:
393,94,2710,2,0,L|382:164,1,60.0000022888184
313,239,3058,2,0,L|304:179,1,60.0000022888184
467,281,3407,6,0,P|434:271|404:284,1,60.0000022888184,2|2,0:2|0:2,0:0:0:0:
278,371,3930,5,0,0:0:0:0:
352,340,4105,2,0,L|284:351,1,60.0000022888184
202,323,4454,1,0,0:0:0:0:
248,201,4628,1,0,0:0:0:0:
115,308,4803,6,0,P|51:335|12:297,1,120.000004577637,2|0,0:2|0:0,0:0:0:0:
24,231,5326,1,0,0:0:0:0:
107,208,5500,1,2,0:2:0:0:
195,93,5675,1,0,0:0:0:0:
105,114,5849,1,2,0:2:0:0:
112,128,6023,1,0,0:0:0:0:
213,0,6198,5,2,0:2:0:0:
272,140,6372,1,2,0:2:0:0:
383,20,6721,5,0,0:0:0:0:
307,39,6896,2,0,L|376:53,1,60.0000022888184
419,99,7244,1,0,0:0:0:0:
512,200,7593,5,2,0:2:0:0:
473,31,7768,1,2,0:2:0:0:
402,178,8117,5,0,0:0:0:0:
424,260,8291,2,0,L|433:185,1,60.0000022888184
467,327,8640,2,0,P|440:344|405:333,1,60.0000022888184
301,212,8989,5,2,0:2:0:0:
323,384,9163,1,2,0:2:0:0:
349,284,9512,5,0,0:0:0:0:
268,311,9686,1,0,0:0:0:0:
188,335,9861,1,0,0:0:0:0:
82,231,10035,1,0,0:0:0:0:
212,250,10210,1,0,0:0:0:0:
64,375,10384,6,0,P|68:339|84:315,1,60.0000022888184,2|0,0:2|0:0,0:0:0:0:
152,184,10733,1,2,0:2:0:0:
188,335,10907,1,0,0:0:0:0:
212,250,11082,1,2,0:2:0:0:
268,311,11256,1,0,0:0:0:0:
328,263,11430,2,0,L|353:270,6,15.0000005722046,2|0|0|0|0|0|0,0:2|0:0|0:0|0:0|0:0|0:0|0:0,0:0:0:0:
349,284,11779,6,0,L|409:267,2,60.0000022888184,2|0|0,0:2|0:0|0:0,0:0:0:0:
472,215,12303,1,0,0:0:0:0:
472,215,12477,2,0,P|472:178|452:157,1,60.0000022888184,2|0,0:2|0:0,0:0:0:0:
356,140,12826,1,0,0:0:0:0:
356,140,13000,1,0,0:0:0:0:
442,59,13175,6,0,L|513:77,2,60.0000022888184,2|0|0,0:2|0:0|0:0,0:0:0:0:
374,1,13698,1,0,0:0:0:0:
264,64,13872,2,0,P|256:97|275:128,1,60.0000022888184,2|0,0:2|0:0,0:0:0:0:
303,205,14221,2,0,L|241:193,1,60.0000022888184
123,242,14570,6,0,L|54:264,1,60.0000022888184,2|0,0:2|0:0,0:0:0:0:
3,217,14919,2,0,P|-8:179|9:152,1,60.0000022888184
47,84,15268,2,0,L|27:19,2,60.0000022888184,2|0|0,0:2|0:0|0:0,0:0:0:0:
141,166,15791,1,0,0:0:0:0:
287,47,15965,5,2,0:2:0:0:
267,125,16140,1,0,0:0:0:0:
206,67,16314,1,0,0:0:0:0:
247,200,16489,1,0,0:0:0:0:
345,104,16663,2,0,P|378:112|398:136,1,60.0000022888184,2|0,0:2|0:0,0:0:0:0:
465,169,17012,2,0,L|453:240,1,60.0000022888184
411,327,17361,6,0,P|440:354|465:354,2,60.0000022888184,2|0|0,0:2|0:0|0:0,0:0:0:0:
358,271,17884,1,0,0:0:0:0:
358,271,18058,2,0,L|372:198,1,60.0000022888184,2|0,0:2|0:0,0:0:0:0:
270,244,18407,2,0,P|267:280|279:309,1,60.0000022888184
208,363,18756,6,0,L|145:378,3,60.0000022888184,2|0|0|0,0:2|0:0|0:0|0:0,0:0:0:0:
84,327,19454,2,0,P|52:313|23:319,2,60.0000022888184,2|0|0,0:2|0:0|0:0,0:0:0:0:
165,266,19977,1,0,0:0:0:0:
165,266,20151,6,0,L|147:196,3,60.0000022888184,2|0|0|0,0:2|0:0|0:0|0:0,0:0:0:0:
232,182,20849,2,0,L|244:117,1,60.0000022888184,2|0,0:2|0:0,0:0:0:0:
246,196,21198,1,0,0:0:0:0:
303,211,22942,6,0,L|316:297,1,80,2|2,3:2|0:2,0:0:0:0:
314,290,23465,1,2,3:2:0:0:
314,290,23640,2,0,P|349:267|385:269,1,80
438,326,23989,1,10,0:2:0:0:
399,198,24163,1,0,0:0:0:0:
474,159,24337,5,2,0:2:0:0:
429,24,24512,1,2,3:2:0:0:
362,91,24686,6,0,P|327:117|277:109,1,80,0|2,0:0|0:2,0:0:0:0:
244,46,25035,5,2,3:2:0:0:
195,174,25210,1,0,0:0:0:0:
179,96,25384,5,10,0:2:0:0:
274,195,25558,1,0,0:0:0:0:
204,297,25733,5,2,3:2:0:0:
204,297,25907,2,0,L|123:283,1,80,2|0,0:2|0:0,0:0:0:0:
0,363,26256,1,2,3:2:0:0:
78,363,26430,5,0,0:0:0:0:
106,283,26605,1,0,0:0:0:0:
1,164,26779,5,10,0:2:0:0:
15,251,26954,1,0,0:0:0:0:
20,243,27128,5,2,0:2:0:0:
168,196,27303,2,0,P|133:170|92:184,1,80,2|0,3:2|0:0,0:0:0:0:
171,205,27651,1,2,0:2:0:0:
274,85,27826,5,2,3:2:0:0:
415,167,28000,1,0,3:0:0:0:
345,46,28175,5,10,0:2:0:0:
414,85,28349,1,0,0:0:0:0:
479,34,28523,5,2,3:2:0:0:
479,34,28698,2,0,L|503:127,1,80,2|0,0:2|0:0,0:0:0:0:
394,241,29047,1,2,3:2:0:0:
449,295,29221,2,0,P|472:260|470:224,1,80
415,167,29570,1,10,0:2:0:0:
274,239,29744,1,0,0:0:0:0:
209,198,29918,5,2,0:2:0:0:
345,128,30093,1,2,3:2:0:0:
325,49,30267,6,0,L|240:30,1,80,0|2,0:0|0:2,0:0:0:0:
110,128,30616,5,2,3:2:0:0:
256,130,30791,1,0,0:0:0:0:
182,86,30965,5,10,0:2:0:0:
112,214,31139,1,0,0:0:0:0:
181,268,31314,5,2,3:2:0:0:
181,268,31488,2,0,L|258:248,1,80,2|0,0:2|0:0,0:0:0:0:
454,281,31837,1,2,3:2:0:0:
355,347,32011,5,0,0:0:0:0:
376,271,32186,1,0,0:0:0:0:
249,291,32361,5,10,0:2:0:0:
228,367,32536,1,0,0:0:0:0:
108,384,32710,5,2,0:2:0:0:
14,262,32884,1,2,3:2:0:0:
10,282,33058,1,0,0:0:0:0:
21,363,33232,1,2,0:2:0:0:
160,320,33407,5,2,3:2:0:0:
103,171,33581,1,0,3:0:0:0:
165,214,33756,5,10,0:2:0:0:
99,280,33930,1,0,0:0:0:0:
30,175,34105,6,0,L|45:99,1,64,6|0,3:2|0:0,0:0:0:0:
0,44,34454,2,0,P|28:30|71:35,1,64,2|0,3:2|0:0,0:0:0:0:
140,12,34803,2,0,P|166:29|183:68,1,64,2|0,3:2|0:0,0:0:0:0:
199,154,35151,1,2,3:2:0:0:
122,130,35326,1,0,0:0:0:0:
261,92,35500,6,0,L|336:110,1,68.0000012969971,2|0,3:2|0:0,0:0:0:0:
366,181,35849,2,0,P|405:164|410:121,1,68.0000012969971,2|0,3:2|0:0,0:0:0:0:
402,0,36198,2,0,P|384:51|404:74,1,68.0000012969971,2|0,3:2|0:0,0:0:0:0:
506,142,36547,1,2,3:2:0:0:
485,63,36721,1,0,0:0:0:0:
405,201,36896,6,0,L|319:218,1,71.9999978027344,2|0,3:2|0:0,0:0:0:0:
200,156,37244,2,0,P|237:154|269:189,1,71.9999978027344,2|0,3:2|0:0,0:0:0:0:
302,307,37593,2,0,P|273:290|269:250,1,71.9999978027344,2|0,3:2|0:0,0:0:0:0:
405,201,37942,1,2,3:2:0:0:
454,271,38117,1,0,0:0:0:0:
480,116,38291,6,0,L|408:103,1,71.9999978027344,2|0,3:2|0:0,0:0:0:0:
317,43,38640,2,0,P|346:26|388:34,1,71.9999978027344,2|0,3:2|0:0,0:0:0:0:
299,157,38989,2,0,P|265:157|233:129,1,71.9999978027344,2|0,3:2|0:0,0:0:0:0:
160,9,39337,1,2,3:2:0:0:
233,55,39512,1,0,0:0:0:0:
96,114,39686,5,6,3:2:0:0:
93,132,39861,1,0,3:0:0:0:
90,150,40035,1,2,3:2:0:0:
87,168,40210,1,0,3:0:0:0:
22,232,40384,5,2,3:2:0:0:
44,249,40559,1,0,3:0:0:0:
65,268,40733,1,2,3:2:0:0:
87,285,40908,1,0,3:0:0:0:
90,373,41082,5,2,3:2:0:0:
148,349,41257,1,0,3:0:0:0:
206,325,41431,1,2,3:2:0:0:
264,301,41606,1,0,3:0:0:0:
339,374,41779,5,2,3:2:0:0:
352,283,41954,1,0,3:0:0:0:
365,192,42128,1,2,3:2:0:0:
378,101,42303,1,0,3:0:0:0:
507,73,42477,5,2,3:2:0:0:
481,58,42564,1,0,3:0:0:0:
475,89,42651,1,0,3:0:0:0:
454,74,42739,1,0,3:0:0:0:
440,94,42826,1,2,3:2:0:0:
426,75,42913,1,0,3:0:0:0:
414,90,43000,1,0,3:0:0:0:
408,75,43087,1,0,3:0:0:0:
385,81,43175,1,2,3:2:0:0:
379,70,43262,1,0,3:0:0:0:
364,71,43349,1,0,3:0:0:0:
357,62,43436,1,0,3:0:0:0:
347,62,43523,6,0,P|297:49|257:45,1,80,2|0,3:2|0:0,0:0:0:0:
92,87,44744,6,0,P|71:65|39:58,2,60.0000022888184
198,92,45268,6,0,B|163:113|163:113|142:241,1,160,6|10,3:2|0:2,0:0:0:0:
94,293,45791,2,0,P|62:269|22:279,1,80,2|0,0:2|0:0,0:0:0:0:
123,363,46140,1,2,3:2:0:0:
123,363,46314,2,0,P|167:349|214:339,1,80,10|2,0:2|0:2,0:0:0:0:
276,384,46663,5,0,3:0:0:0:
323,317,46837,1,2,0:2:0:0:
232,253,47012,2,0,L|244:170,2,80,8|2|0,0:2|0:2|0:0,0:0:0:0:
323,317,47535,1,2,3:2:0:0:
446,250,47710,1,10,0:2:0:0:
467,257,47884,1,2,0:2:0:0:
430,325,48058,6,0,P|389:313|346:302,1,80,2|0,3:2|0:0,0:0:0:0:
315,235,48407,1,10,0:2:0:0:
315,235,48582,2,0,P|341:218|347:167,1,80,2|0,0:2|0:0,0:0:0:0:
292,31,48930,1,0,3:0:0:0:
394,103,49105,1,10,0:2:0:0:
459,52,49279,1,2,0:2:0:0:
292,31,49454,6,0,P|226:27|197:79,1,120,0|0,3:0|0:0,0:0:0:0:
190,72,49803,1,10,0:2:0:0:
190,72,49977,1,2,0:2:0:0:
261,116,50151,2,0,P|268:141|269:172,1,40
261,176,50326,1,0,3:0:0:0:
408,251,50500,1,10,0:2:0:0:
281,342,50675,2,0,L|231:337,1,40,2|0,0:2|0:0,0:0:0:0:
221,268,50849,6,0,B|167:261|167:261|158:264|158:264|88:254,1,120,2|0,3:2|0:0,0:0:0:0:
92,254,51198,1,10,0:2:0:0:
66,326,51372,2,0,P|20:330|-3:292,1,80,2|0,0:2|0:0,0:0:0:0:
124,377,51721,2,0,P|166:363|209:355,2,80,2|10|2,3:2|0:2|0:2,0:0:0:0:
169,223,52244,5,0,3:0:0:0:
169,223,52419,2,0,L|187:130,1,80,2|8,0:2|0:2,0:0:0:0:
137,82,52768,2,0,P|81:84|66:121,1,80,2|0,0:2|0:0,0:0:0:0:
216,70,53116,1,2,3:2:0:0:
327,110,53291,2,0,P|291:142|250:123,1,80,10|2,0:2|0:2,0:0:0:0:
392,21,53639,6,0,L|407:111,1,80,2|0,3:2|0:0,0:0:0:0:
315,235,53988,1,10,0:2:0:0:
392,240,54163,2,0,P|420:226|430:176,1,80,2|0,0:2|0:0,0:0:0:0:
493,259,54511,1,2,3:2:0:0:
426,338,54686,1,10,0:2:0:0:
410,329,54860,1,2,0:2:0:0:
297,376,55035,6,0,P|232:366|168:361,1,120,0|0,3:0|0:0,0:0:0:0:
160,371,55384,2,0,P|145:339|170:296,1,80,8|2,0:2|0:2,0:0:0:0:
240,287,55733,2,0,L|227:236,1,40
220,219,55907,1,0,3:0:0:0:
73,285,56081,1,10,0:2:0:0:
72,124,56256,2,0,L|9:113,1,40,2|0,0:2|0:0,0:0:0:0:
142,98,56430,6,0,L|283:122,1,120,6|0,3:2|0:0,0:0:0:0:
274,121,56779,1,10,0:2:0:0:
302,194,56954,2,0,P|339:218|375:204,1,80,2|0,0:2|0:0,0:0:0:0:
471,88,57303,1,2,3:2:0:0:
381,40,57477,1,10,0:2:0:0:
475,196,57651,1,2,0:2:0:0:
439,302,57826,5,0,3:0:0:0:
439,302,58000,2,0,L|360:318,1,80,2|8,0:2|0:2,0:0:0:0:
301,376,58349,2,0,P|265:385|227:355,1,80,2|0,0:2|0:0,0:0:0:0:
250,231,58698,1,2,3:2:0:0:
250,231,58872,2,0,P|280:263|272:310,1,80,10|2,0:2|0:2,0:0:0:0:
147,383,59221,6,0,L|164:287,1,80,2|0,3:2|0:0,0:0:0:0:
123,236,59570,1,10,0:2:0:0:
123,236,59744,2,0,P|85:228|52:261,1,80,2|0,0:2|0:0,0:0:0:0:
161,305,60093,1,0,3:0:0:0:
197,152,60268,1,10,0:2:0:0:
204,167,60442,1,2,0:2:0:0:
48,137,60617,6,0,B|65:99|65:99|145:81,1,120,0|0,3:0|0:0,0:0:0:0:
152,87,60965,1,10,0:2:0:0:
152,87,61140,1,2,0:2:0:0:
212,32,61314,2,0,L|263:22,1,40
271,21,61489,1,0,3:0:0:0:
340,154,61663,1,10,0:2:0:0:
218,241,61837,2,0,P|212:260|220:278,1,40,2|0,0:2|0:0,0:0:0:0:
279,325,62012,6,0,L|413:301,1,120,2|0,3:2|0:0,0:0:0:0:
405,309,62361,1,10,0:2:0:0:
483,276,62535,2,0,P|485:231|444:204,1,80,2|0,0:2|0:0,0:0:0:0:
338,236,62884,1,2,3:2:0:0:
466,119,63058,1,10,0:2:0:0:
464,201,63233,1,2,0:2:0:0:
340,154,63407,5,0,3:0:0:0:
266,194,63582,2,0,L|186:212,1,80,2|8,0:2|0:2,0:0:0:0:
126,307,63930,2,0,P|78:312|43:277,1,80,2|0,0:2|0:0,0:0:0:0:
0,147,64279,1,2,3:2:0:0:
0,147,64454,2,0,L|83:164,1,80,10|2,0:2|0:2,0:0:0:0:
178,237,64803,6,0,B|169:178|169:178|162:167|162:167|152:114,1,120,2|0,3:2|0:0,0:0:0:0:
147,105,65151,2,0,P|172:112|196:107,1,40,10|0,0:2|0:0,0:0:0:0:
254,57,65326,1,2,0:2:0:0:
175,28,65500,1,8,0:2:0:0:
307,152,65675,1,2,3:2:0:0:
395,111,65849,1,2,0:2:0:0:
445,167,66023,6,0,B|434:181|434:181|422:243,2,80,2|2|2,3:2|0:2|0:2,0:0:0:0:
493,124,67593,6,0,B|471:80|471:80|358:60,1,160,6|8,3:2|0:2,0:0:0:0:
361,60,68291,1,2,0:2:0:0:
361,60,68465,1,2,3:2:0:0:
284,81,68640,2,0,P|263:131|284:162,1,80,10|0,0:2|0:0,0:0:0:0:
348,326,68989,6,0,P|307:370|239:362,1,120,2|0,3:2|0:0,0:0:0:0:
245,361,69337,2,0,L|164:344,1,80,10|0,0:2|0:0,0:0:0:0:
87,384,69686,1,2,0:2:0:0:
194,271,69861,1,0,3:0:0:0:
194,271,70035,2,0,P|161:259|93:308,1,120,8|0,0:2|0:0,0:0:0:0:
89,308,70384,6,0,L|106:224,1,80,2|0,3:2|0:0,0:0:0:0:
60,165,70733,1,10,0:2:0:0:
60,165,70907,2,0,P|103:134|132:147,1,80,2|2,0:2|0:2,0:0:0:0:
194,271,71256,1,0,3:0:0:0:
200,362,71430,2,0,L|185:276,1,80,8|0,0:2|0:0,0:0:0:0:
277,143,71779,6,0,L|318:135,2,40,2|0|2,3:2|0:0|0:2,0:0:0:0:
211,92,72128,2,0,P|226:36|291:28,1,120,8|0,0:2|0:0,0:0:0:0:
286,38,72477,2,0,L|330:30,1,40,2|0,0:2|0:0,0:0:0:0:
403,53,72651,1,2,3:2:0:0:
471,163,72826,2,0,P|492:127|479:93,1,80,10|0,0:2|0:0,0:0:0:0:
369,162,73175,5,2,3:2:0:0:
375,366,73349,1,0,0:0:0:0:
321,222,73523,1,8,0:2:0:0:
425,306,73698,1,0,0:0:0:0:
348,294,73872,1,0,0:0:0:0:
397,234,74047,1,0,3:0:0:0:
194,270,74221,5,10,0:2:0:0:
348,294,74396,1,0,0:0:0:0:
245,210,74570,1,0,3:0:0:0:
298,354,74744,1,0,0:0:0:0:
271,282,74919,1,8,0:2:0:0:
221,342,75093,1,0,0:0:0:0:
167,198,75268,6,0,L|176:156,2,40,2|0|0,0:2|0:0|3:0,0:0:0:0:
116,258,75617,1,10,0:2:0:0:
65,318,75791,1,0,0:0:0:0:
245,210,75965,5,2,3:2:0:0:
143,330,76140,1,0,0:0:0:0:
271,282,76314,1,8,0:2:0:0:
221,342,76488,1,0,0:0:0:0:
348,294,76663,1,0,0:0:0:0:
375,366,76837,1,0,3:0:0:0:
397,234,77012,5,10,0:2:0:0:
450,378,77186,1,0,0:0:0:0:
497,319,77361,2,0,L|479:274,1,40,0|0,3:0|0:0,0:0:0:0:
469,248,77535,1,0,0:0:0:0:
348,294,77710,1,8,0:2:0:0:
245,210,77884,1,0,0:0:0:0:
490,121,78058,6,0,P|485:148|469:166,1,40,2|0,0:2|0:0,0:0:0:0:
348,294,78233,1,0,3:0:0:0:
245,210,78407,1,10,0:2:0:0:
469,248,78582,1,0,0:0:0:0:
446,174,78756,6,0,P|387:187|327:217,1,120,6|0,3:2|0:0,0:0:0:0:
328,222,79105,2,0,L|343:125,1,80,8|0,0:2|0:0,0:0:0:0:
407,92,79454,1,2,0:2:0:0:
346,16,79628,1,2,3:2:0:0:
256,132,79803,2,0,P|194:153|167:135,1,80,10|0,0:2|0:0,0:0:0:0:
125,24,80151,6,0,L|111:102,1,80,2|0,3:2|0:0,0:0:0:0:
36,135,80500,2,0,P|17:176|31:214,1,80,10|0,0:2|0:0,0:0:0:0:
171,245,80849,1,2,0:2:0:0:
131,245,80936,1,2,0:2:0:0:
96,264,81023,1,2,3:2:0:0:
75,297,81110,1,2,0:2:0:0:
72,337,81198,6,0,B|39:347|39:347|22:340,2,53.3333333333333,10|2|2,0:2|0:2|0:2,0:0:0:0:
133,384,81547,6,0,B|230:355|230:355|265:370,1,120,2|0,3:2|0:0,0:0:0:0:
260,373,81896,1,8,0:2:0:0:
311,303,82070,2,0,P|367:313|386:286,1,80,2|0,0:2|0:0,0:0:0:0:
481,247,82419,1,0,3:0:0:0:
474,355,82593,2,0,L|457:268,1,80,10|0,0:2|0:0,0:0:0:0:
394,225,82942,6,0,L|401:172,1,40,2|0,3:2|0:0,0:0:0:0:
496,95,83117,1,2,0:2:0:0:
496,95,83291,2,0,P|433:116|410:93,1,80,8|0,0:2|0:0,0:0:0:0:
314,0,83640,2,0,L|325:45,1,40,2|0,0:2|0:0,0:0:0:0:
349,131,83814,1,0,3:0:0:0:
228,59,83989,2,0,P|183:48|139:75,1,80,10|0,0:2|0:0,0:0:0:0:
72,279,84337,5,6,3:2:0:0:
126,133,84512,1,0,0:0:0:0:
99,206,84686,1,8,0:2:0:0:
153,60,84860,1,0,0:0:0:0:
99,206,85035,1,0,0:0:0:0:
172,233,85209,1,0,3:0:0:0:
26,179,85383,5,10,0:2:0:0:
126,133,85558,1,0,0:0:0:0:
272,187,85733,1,0,3:0:0:0:
172,233,85907,1,0,0:0:0:0:
226,87,86082,1,8,0:2:0:0:
199,160,86256,1,0,0:0:0:0:
318,287,86430,5,2,0:2:0:0:
291,360,86604,1,0,3:0:0:0:
272,187,86779,1,10,0:2:0:0:
245,260,86953,1,0,0:0:0:0:
418,241,87128,5,6,3:2:0:0:
372,141,87303,1,0,0:0:0:0:
318,287,87477,1,8,0:2:0:0:
372,141,87651,1,0,0:0:0:0:
272,187,87825,1,0,0:0:0:0:
372,141,88000,1,0,3:0:0:0:
299,114,88175,5,10,0:2:0:0:
372,141,88349,1,0,0:0:0:0:
226,87,88523,2,0,L|211:131,1,40,0|0,3:0|0:0,0:0:0:0:
172,233,88698,1,0,0:0:0:0:
153,60,88872,1,8,0:2:0:0:
80,33,89047,1,0,0:0:0:0:
172,233,89221,6,0,L|212:214,1,40,2|0,0:2|0:0,0:0:0:0:
372,141,89396,1,0,3:0:0:0:
464,341,89570,1,10,0:2:0:0:
318,287,89744,1,0,0:0:0:0:
282,130,89919,6,0,P|307:78|362:52,1,120,2|0,3:2|0:0,0:0:0:0:
369,43,90268,2,0,L|272:64,1,80,8|0,0:2|0:0,0:0:0:0:
233,7,90617,1,2,0:2:0:0:
181,83,90791,1,0,3:0:0:0:
77,30,90965,2,0,P|36:73|52:131,1,120,8|0,0:2|0:0,0:0:0:0:
57,135,91314,6,0,L|16:122,2,40,2|0|0,3:2|0:0|0:0,0:0:0:0:
137,149,91663,2,0,P|157:207|138:229,1,80,8|0,0:2|0:0,0:0:0:0:
20,339,92012,1,0,0:0:0:0:
71,218,92186,1,0,3:0:0:0:
199,340,92361,1,8,0:2:0:0:
232,263,92535,1,0,0:0:0:0:
317,376,92710,6,0,P|361:338|426:354,1,120,2|0,3:2|0:0,0:0:0:0:
436,365,93058,2,0,L|453:276,1,80,8|0,0:2|0:0,0:0:0:0:
512,245,93407,1,2,0:2:0:0:
438,274,93582,2,0,L|429:223,1,40,0|0,3:0|0:0,0:0:0:0:
371,186,93756,2,0,P|383:144|422:126,1,80,8|0,0:2|0:0,0:0:0:0:
512,41,94105,6,0,P|455:48|392:58,1,120,2|0,3:2|0:0,0:0:0:0:
387,47,94454,2,0,P|339:37|297:33,1,80,8|0,0:2|0:0,0:0:0:0:
213,196,94803,5,2,0:2:0:0:
312,133,94977,1,0,3:0:0:0:
171,0,95151,1,8,0:2:0:0:
186,91,95326,2,0,P|166:78|143:74,1,40
84,111,95500,5,2,3:2:0:0:
84,111,95587,2,0,L|62:195,1,80
39,209,95849,2,0,P|20:245|38:281,1,80,8|0,0:2|0:0,0:0:0:0:
213,196,96198,1,2,0:2:0:0:
123,355,96372,1,0,3:0:0:0:
218,316,96547,2,0,L|308:338,1,80,8|0,0:2|0:0,0:0:0:0:
388,343,96896,6,0,P|398:367|401:390,2,40,2|0|0,3:2|0:0|0:0,0:0:0:0:
327,244,97244,1,8,0:2:0:0:
484,297,97419,1,2,0:2:0:0:
440,231,97593,2,0,L|446:189,1,40,2|0,0:2|0:0,0:0:0:0:
468,177,97768,2,0,L|461:118,1,40,0|0,3:0|0:0,0:0:0:0:
416,60,97942,2,0,P|456:68|485:38,1,80,8|0,0:2|0:0,0:0:0:0:
401,49,98291,6,0,B|349:63|349:63|343:59|343:59|284:74,1,120,2|0,3:2|0:0,0:0:0:0:
263,62,98640,2,0,P|287:99|270:139,1,80,8|0,0:2|0:0,0:0:0:0:
165,189,98989,1,0,0:0:0:0:
271,306,99163,1,0,3:0:0:0:
340,200,99337,1,8,0:2:0:0:
286,134,99512,1,0,0:0:0:0:
165,189,99686,6,0,B|190:91|190:91|178:58,1,120,2|0,3:2|0:0,0:0:0:0:
163,58,100035,2,0,L|72:76,1,80,8|0,0:2|0:0,0:0:0:0:
28,137,100384,1,2,0:2:0:0:
153,195,100558,2,0,L|161:243,1,40,0|0,3:0|0:0,0:0:0:0:
80,320,100733,2,0,P|65:273|93:244,1,80,10|0,0:2|0:0,0:0:0:0:
186,333,101082,6,0,L|274:351,1,80,6|0,3:2|0:0,0:0:0:0:
341,384,101430,2,0,P|366:344|350:294,1,80,0|0,3:0|0:0,0:0:0:0:
303,209,101779,2,0,P|281:265|312:288,1,80,2|0,3:2|0:0,0:0:0:0:
444,323,102128,1,0,3:0:0:0:
512,273,102303,1,0,0:0:0:0:
416,161,102477,6,0,L|435:265,1,80,2|0,3:2|0:0,0:0:0:0:
338,127,102826,1,0,3:0:0:0:
407,74,103000,1,0,0:0:0:0:
282,7,103175,2,0,P|226:17|209:46,1,80,2|0,3:2|0:0,0:0:0:0:
259,102,103523,2,0,L|270:188,1,80,0|0,3:0|0:0,0:0:0:0:
400,254,103872,5,2,3:2:0:0:
479,267,104047,1,0,3:0:0:0:
465,346,104221,1,0,3:0:0:0:
387,331,104396,1,0,3:0:0:0:
207,241,104570,5,2,3:2:0:0:
103,223,104745,1,0,3:0:0:0:
83,324,104919,1,0,3:0:0:0:
192,345,105094,1,0,3:0:0:0:
309,310,105268,5,2,3:2:0:0:
334,280,105355,1,0,3:0:0:0:
366,261,105442,1,0,3:0:0:0:
390,251,105529,1,0,3:0:0:0:
411,247,105617,1,2,3:2:0:0:
428,248,105704,1,0,3:0:0:0:
437,251,105791,1,0,3:0:0:0:
443,256,105878,1,0,3:0:0:0:
460,269,105965,6,0,B|365:194|397:93|465:75|517:140|485:180,1,280,2|0,3:2|0:0,0:0:0:0:
482,175,106663,6,0,B|366:147|366:147|278:227|278:227|161:194|161:194|75:284,1,480.000018310548,14|0,3:2|0:0,0:0:0:0:
472,323,117826,6,0,P|448:312|437:311,2,30.4800009487793,2|0|0,0:2|0:0|0:0,0:0:0:0:
415,305,119221,2,0,P|445:312|473:324,1,60.9600018975587,2|0,0:2|0:0,0:0:0:0:
363,243,120617,6,0,P|335:260|326:273,1,45.0000017166138,2|0,0:2|0:0,0:0:0:0:
304,308,121140,1,0,0:0:0:0:
304,308,122012,2,0,P|327:269|362:243,1,90.0000034332277,2|0,0:2|0:0,0:0:0:0:
358,226,122710,2,0,P|407:230|450:246,1,90.0000034332277,2|0,0:2|0:0,0:0:0:0:
452,147,123407,6,0,P|444:123|416:89,2,60,2|0|0,0:2|0:0|0:0,0:0:0:0:
378,55,124803,2,0,P|423:94|452:147,1,120,2|0,0:2|0:0,0:0:0:0:
256,0,126198,5,2,0:2:0:0:
173,0,126460,1,0,0:0:0:0:
118,62,126721,1,0,0:0:0:0:
118,62,127419,1,0,0:0:0:0:
118,62,127593,2,0,P|151:37|168:28,1,50.3999984619141,2|0,0:2|0:0,0:0:0:0:
50,110,128117,1,0,0:0:0:0:
50,110,128291,2,0,L|-11:97,1,50.3999984619141,2|0,0:2|0:0,0:0:0:0:
55,190,128640,2,0,L|116:177,1,50.3999984619141
171,130,128989,6,0,L|254:143,1,60.0000022888184,2|2,3:2|0:2,0:0:0:0:
230,139,129512,5,0,0:0:0:0:
287,192,129686,2,0,P|319:170|328:132,2,60.0000022888184
99,271,130384,6,0,L|88:348,1,60.0000022888184,2|2,3:2|0:2,0:0:0:0:
99,271,130907,5,0,0:0:0:0:
153,211,131082,2,0,P|199:214|220:243,1,60.0000022888184
184,318,131430,2,0,L|263:291,1,60.0000022888184
330,384,131779,6,0,P|320:343|343:308,1,60.0000022888184,2|2,3:2|0:2,0:0:0:0:
512,251,132302,5,0,0:0:0:0:
462,306,132477,2,0,L|380:291,1,60.0000022888184
325,327,132826,1,0,0:0:0:0:
409,205,133000,1,0,0:0:0:0:
302,101,133175,6,0,L|316:179,1,60.0000022888184,2|0,3:2|0:0,0:0:0:0:
357,41,133523,2,0,P|321:20|280:22,1,60.0000022888184
202,142,133872,5,2,3:2:0:0:
276,26,134047,1,0,0:0:0:0:
181,47,134221,1,2,0:2:0:0:
297,121,134396,1,0,0:0:0:0:
233,247,134570,5,2,3:2:0:0:
233,247,134744,1,2,0:2:0:0:
382,364,135093,1,0,0:0:0:0:
460,329,135268,2,0,L|390:342,1,60.0000022888184
348,288,135617,2,0,P|301:290|287:317,1,60.0000022888184
183,384,135965,5,2,3:2:0:0:
260,366,136140,1,2,0:2:0:0:
124,276,136489,1,0,0:0:0:0:
124,276,136663,2,0,L|133:201,1,60.0000022888184
34,145,137012,2,0,L|41:204,1,60.0000022888184
204,144,137361,5,2,3:2:0:0:
51,211,137535,1,2,0:2:0:0:
69,44,137884,1,0,0:0:0:0:
100,114,138058,1,0,0:0:0:0:
146,51,138233,1,0,0:0:0:0:
204,144,138407,1,0,0:0:0:0:
100,114,138582,1,0,0:0:0:0:
252,85,138756,6,0,L|335:100,1,60.0000022888184,2|0,3:2|0:0,0:0:0:0:
413,159,139105,1,2,0:2:0:0:
467,68,139279,1,0,0:0:0:0:
318,106,139454,2,0,P|294:138|300:166,1,60.0000022888184,2|0,3:2|0:0,0:0:0:0:
397,258,139803,1,2,0:2:0:0:
473,237,139977,1,0,0:0:0:0:
364,373,140151,5,2,3:2:0:0:
364,373,140326,1,2,0:2:0:0:
256,191,140675,1,2,0:2:0:0:
318,250,140849,2,0,P|298:285|257:294,1,71.9999978027344,0|0,3:0|0:0,0:0:0:0:
222,358,141198,1,2,0:2:0:0:
61,325,141372,1,0,0:0:0:0:
124,380,141547,5,2,3:2:0:0:
124,380,141721,2,0,B|143:366|143:366|144:309,1,71.9999978027344,2|0,0:2|0:0,0:0:0:0:
68,161,142070,1,2,0:2:0:0:
89,248,142244,2,0,L|-1:226,1,71.9999978027344,2|0,3:2|0:0,0:0:0:0:
8,80,142593,2,0,P|35:51|82:52,1,71.9999978027344,2|0,0:2|0:0,0:0:0:0:
148,147,142942,5,2,3:2:0:0:
148,147,143117,2,0,L|166:55,1,71.9999978027344,2|0,0:2|0:0,0:0:0:0:
131,3,143465,1,2,0:2:0:0:
242,0,143640,1,0,3:0:0:0:
304,56,143814,1,0,0:0:0:0:
415,53,143989,1,2,0:2:0:0:
269,128,144163,1,0,0:0:0:0:
415,53,144337,6,0,L|407:101,1,35.9999989013672,2|0,3:2|0:0,0:0:0:0:
453,160,144512,1,2,0:2:0:0:
453,160,144686,2,0,B|466:174|466:174|457:232,1,71.9999978027344,0|2,0:0|0:2,0:0:0:0:
380,338,145035,2,0,L|416:345,1,35.9999989013672,2|0,3:2|0:0,0:0:0:0:
491,356,145210,1,0,0:0:0:0:
366,259,145384,1,2,0:2:0:0:
291,293,145558,1,0,0:0:0:0:
179,384,145733,5,2,3:2:0:0:
103,365,145907,1,2,0:2:0:0:
217,258,146082,1,0,3:0:0:0:
217,258,146256,1,2,0:2:0:0:
65,226,146430,2,0,P|25:225|-4:246,1,71.9999978027344,0|0,3:0|0:0,0:0:0:0:
122,278,146779,2,0,P|142:247|136:197,1,71.9999978027344,2|0,3:2|0:0,0:0:0:0:
53,60,147128,5,2,3:2:0:0:
112,0,147303,1,2,0:2:0:0:
156,85,147477,1,0,3:0:0:0:
97,145,147651,1,2,0:2:0:0:
239,59,147826,2,0,L|322:84,1,71.9999978027344,2|0,3:2|0:0,0:0:0:0:
418,158,148175,2,0,P|384:184|342:169,1,71.9999978027344,2|0,3:2|0:0,0:0:0:0:
402,50,148523,5,2,3:2:0:0:
480,93,148698,1,2,3:2:0:0:
504,178,148872,1,0,3:0:0:0:
460,255,149047,1,2,3:2:0:0:
470,371,149221,5,0,3:0:0:0:
356,303,149396,1,0,3:0:0:0:
227,335,149570,1,2,3:2:0:0:
113,267,149744,1,0,3:0:0:0:
6,351,149919,5,2,3:2:0:0:
18,330,150006,1,0,3:0:0:0:
27,308,150093,1,2,3:2:0:0:
31,284,150180,1,0,3:0:0:0:
29,263,150268,5,0,3:0:0:0:
26,227,150355,1,0,3:0:0:0:
37,193,150442,1,2,3:2:0:0:
60,166,150529,1,0,3:0:0:0:
93,151,150617,5,2,3:2:0:0:
140,149,150704,1,0,3:0:0:0:
183,170,150791,1,0,3:0:0:0:
211,208,150878,1,0,3:0:0:0:
250,235,150965,5,2,3:2:0:0:
306,254,151052,1,0,3:0:0:0:
363,240,151139,1,0,3:0:0:0:
403,196,151226,1,0,3:0:0:0:
423,139,151314,6,0,B|358:99|288:127|331:142|259:172|205:137,1,215.999993408203,0|0,3:0|0:0,0:0:0:0:
262,61,152012,6,0,B|270:29|323:16|370:51|326:149|326:149|278:252|278:384|397:396|440:386|500:293|442:240|394:244|379:261,1,600,2|0,0:2|0:0,0:0:0:0:
330,298,153407,6,0,P|290:362|228:352,1,132.00000402832,6|0,3:2|0:0,0:0:0:0:
235,366,153755,2,0,P|232:317|197:288,2,88.000002685547,10|2|0,0:2|0:2|0:0,0:0:0:0:
158,221,154279,1,0,3:0:0:0:
19,300,154453,2,0,B|57:320|57:320|105:294,1,88.000002685547,8|0,0:2|0:0,0:0:0:0:
277,203,154802,6,0,B|289:133|289:133|285:125|285:125|294:71,1,132.00000402832,2|0,3:2|0:0,0:0:0:0:
308,56,155151,2,0,P|265:71|233:49,1,88.000002685547,10|2,0:2|0:2,0:0:0:0:
360,0,155500,1,2,0:2:0:0:
489,113,155674,2,0,L|484:166,1,44.0000013427735,0|0,3:0|0:0,0:0:0:0:
479,178,155848,2,0,P|442:154|362:198,1,132.00000402832,8|0,0:2|0:0,0:0:0:0:
418,242,156197,6,0,L|434:338,1,88.000002685547,2|0,3:2|0:0,0:0:0:0:
309,384,156546,1,10,0:2:0:0:
335,285,156720,1,2,0:2:0:0:
216,135,156895,1,2,0:2:0:0:
246,255,157069,2,0,L|233:305,1,44.0000013427735,0|0,3:0|0:0,0:0:0:0:
183,360,157244,2,0,P|132:368|99:333,1,88.000002685547,10|0,0:2|0:0,0:0:0:0:
4,248,157593,6,0,B|36:229|36:229|135:261,1,132.00000402832,2|0,3:2|0:0,0:0:0:0:
147,254,157941,2,0,P|174:208|158:165,1,88.000002685547,10|2,0:2|0:2,0:0:0:0:
55,146,158290,1,2,0:2:0:0:
248,119,158465,2,0,L|203:109,1,44.0000013427735,0|0,3:0|0:0,0:0:0:0:
40,64,158639,2,0,P|59:14|99:1,1,88.000002685547,8|0,0:2|0:0,0:0:0:0:
324,39,158988,6,0,B|343:177,1,132.00000402832,2|0,3:2|0:0,0:0:0:0:
349,173,159337,1,10,0:2:0:0:
238,209,159511,2,0,P|229:257|252:290,1,88.000002685547,2|0,0:0|0:0,0:0:0:0:
329,365,159860,1,0,3:0:0:0:
424,313,160034,2,0,L|330:343,1,88.000002685547,8|0,0:2|0:0,0:0:0:0:
489,261,160383,6,0,P|507:279|513:299,2,44.0000013427735,2|0|0,3:2|0:0|0:0,0:0:0:0:
372,245,160732,2,0,L|385:151,1,88.000002685547,10|2,0:2|0:0,0:0:0:0:
512,89,161081,1,0,0:0:0:0:
328,0,161255,2,0,L|340:57,1,44.0000013427735,0|0,3:0|0:0,0:0:0:0:
419,89,161430,1,10,0:2:0:0:
253,135,161604,1,2,0:2:0:0:
113,42,161779,6,0,B|157:33|157:33|191:59,1,88.000002685547,2|0,3:2|0:0,0:0:0:0:
253,135,162127,2,0,L|240:235,1,88.000002685547,10|2,0:2|0:2,0:0:0:0:
386,344,162476,2,0,L|374:301,1,44.0000013427735,2|0,0:2|0:0,0:0:0:0:
351,231,162651,1,0,3:0:0:0:
292,342,162825,1,10,0:2:0:0:
111,280,163000,1,0,0:0:0:0:
186,384,163174,6,0,L|197:296,1,88.000002685547,2|0,3:2|0:0,0:0:0:0:
131,116,163523,6,0,L|120:204,1,88.000002685547,8|0,0:2|0:0,0:0:0:0:
111,280,163784,1,0,0:0:0:0:
111,280,163872,1,2,0:2:0:0:
7,113,164046,2,0,L|54:100,1,44.0000013427735,0|0,3:0|0:0,0:0:0:0:
165,43,164220,2,0,P|129:18|84:30,1,88.000002685547,8|0,0:2|0:0,0:0:0:0:
236,166,164569,6,0,P|301:142|379:125,1,132.00000402832,6|0,3:2|0:0,0:0:0:0:
370,130,164918,2,0,P|374:181|333:208,1,88.000002685547,10|2,0:2|0:2,0:0:0:0:
275,238,165267,1,0,0:0:0:0:
363,53,165441,1,0,3:0:0:0:
472,113,165616,2,0,L|494:205,1,88.000002685547,8|0,0:2|0:0,0:0:0:0:
413,375,165965,6,0,P|448:336|423:255,1,132.00000402832,2|0,3:2|0:0,0:0:0:0:
424,283,166313,2,0,L|333:299,1,88.000002685547,10|2,0:2|0:2,0:0:0:0:
132,325,166662,1,2,0:2:0:0:
250,378,166837,2,0,B|262:371|262:371|268:338,1,44.0000013427735,0|0,3:0|0:0,0:0:0:0:
208,275,167010,2,0,B|200:260|200:260|213:190,1,88.000002685547,8|0,0:2|0:0,0:0:0:0:
427,112,167359,6,0,L|286:87,1,132.00000402832,2|0,3:2|0:0,0:0:0:0:
284,62,167708,1,10,0:2:0:0:
213,97,167882,1,2,0:2:0:0:
101,0,168058,1,2,0:2:0:0:
30,35,168232,1,0,3:0:0:0:
142,132,168407,1,10,0:2:0:0:
215,15,168581,5,2,0:2:0:0:
58,138,168755,6,0,B|36:162|36:162|48:227,1,88.000002685547,2|0,3:2|0:0,0:0:0:0:
25,293,169104,2,0,P|58:318|100:307,1,88.000002685547,10|2,0:2|0:2,0:0:0:0:
242,187,169452,1,2,0:2:0:0:
179,319,169627,2,0,L|236:332,1,44.0000013427735,0|0,3:0|0:0,0:0:0:0:
334,277,169802,2,0,P|300:252|259:264,1,88.000002685547,8|0,0:2|0:0,0:0:0:0:
481,360,170150,6,0,B|499:256|499:256|473:226,1,132.00000402832,2|0,3:2|0:0,0:0:0:0:
474,231,170499,1,10,0:2:0:0:
410,294,170673,2,0,P|361:302|329:261,1,88.000002685547,2|0,0:2|0:0,0:0:0:0:
286,177,171023,2,0,L|304:113,1,44.0000013427735,0|0,3:0|0:0,0:0:0:0:
357,80,171196,2,0,P|388:103|386:159,1,88.000002685547,8|0,0:2|0:0,0:0:0:0:
178,12,171545,6,0,L|124:-2,2,44.0000013427735,2|0|0,3:2|0:0|0:0,0:0:0:0:
253,63,171895,1,10,0:2:0:0:
122,143,172069,2,0,L|107:237,1,88.000002685547,2|0,0:2|0:0,0:0:0:0:
248,343,172417,2,0,L|203:335,1,44.0000013427735,0|0,3:0|0:0,0:0:0:0:
58,365,172592,1,10,0:2:0:0:
208,249,172766,1,2,0:2:0:0:
23,150,172941,6,0,B|10:113|10:113|48:15,1,132.00000402832,2|0,3:2|0:0,0:0:0:0:
71,23,173290,2,0,P|103:52|154:28,1,88.000002685547,8|0,0:2|0:0,0:0:0:0:
164,18,173552,1,0,0:0:0:0:
164,18,173639,1,2,0:2:0:0:
258,3,173813,1,0,3:0:0:0:
319,77,173988,1,10,0:2:0:0:
129,108,174162,1,0,0:0:0:0:
285,166,174337,5,2,3:2:0:0:
190,182,174511,2,0,P|168:229|181:276,1,88.000002685547,0|0,3:0|0:0,0:0:0:0:
302,384,174860,1,8,0:2:0:0:
205,362,175034,1,0,0:0:0:0:
332,272,175208,2,0,L|383:283,1,44.0000013427735,0|0,3:0|0:0,0:0:0:0:
442,378,175383,1,10,0:2:0:0:
423,180,175558,1,10,0:2:0:0:
444,149,175645,1,8,0:2:0:0:
465,118,175732,6,0,L|283:83,1,176.000005371094,6|10,3:2|0:2,0:0:0:0:
241,18,176255,2,0,P|195:44|190:81,1,88.000002685547,2|0,0:2|0:0,0:0:0:0:
326,171,176604,1,0,3:0:0:0:
241,289,176779,2,0,L|139:273,1,88.000002685547,10|2,0:2|0:2,0:0:0:0:
5,370,177127,6,0,P|59:352|64:282,1,132.00000402832,2|0,3:2|0:0,0:0:0:0:
46,273,177476,1,8,0:2:0:0:
110,195,177651,2,0,P|114:174|123:154,2,44.0000013427735,2|0|0,0:2|0:0|0:0,0:0:0:0:
27,105,178000,2,0,P|23:81|14:55,1,44.0000013427735,0|0,3:0|0:0,0:0:0:0:
2,46,178174,2,0,P|40:20|128:54,1,132.00000402832,10|0,0:2|0:0,0:0:0:0:
174,96,178523,6,0,L|261:116,1,88.000002685547,2|0,3:2|0:0,0:0:0:0:
336,174,178872,2,0,L|389:166,1,44.0000013427735,8|0,0:2|0:0,0:0:0:0:
404,162,179046,1,2,0:2:0:0:
512,104,179220,1,2,0:2:0:0:
408,34,179395,1,0,3:0:0:0:
259,115,179569,2,0,P|232:163|246:207,1,88.000002685547,8|0,0:2|0:0,0:0:0:0:
310,264,179918,5,2,3:2:0:0:
404,213,180093,1,2,0:2:0:0:
510,327,180267,2,0,L|417:307,1,88.000002685547,10|0,0:2|0:0,0:0:0:0:
359,363,180616,2,0,L|306:373,1,44.0000013427735,2|0,0:2|0:0,0:0:0:0:
255,321,180790,2,0,L|211:312,1,44.0000013427735,0|0,3:0|0:0,0:0:0:0:
114,371,180965,1,10,0:2:0:0:
200,210,181139,1,2,0:2:0:0:
27,293,181313,6,0,P|21:223|11:154,1,132.00000402832,2|0,3:2|0:0,0:0:0:0:
7,154,181662,2,0,P|26:137|54:131,1,44.0000013427735,10|0,0:2|0:0,0:0:0:0:
103,183,181837,1,2,0:2:0:0:
161,115,182011,1,0,0:0:0:0:
76,8,182186,1,0,3:0:0:0:
273,82,182360,1,10,0:2:0:0:
278,104,182534,1,2,0:2:0:0:
402,0,182709,6,0,B|381:31|381:31|409:140,1,132.00000402832,2|0,3:2|0:0,0:0:0:0:
427,131,183058,2,0,P|422:159|420:181,1,44.0000013427735,8|0,0:2|0:0,0:0:0:0:
430,260,183232,2,0,P|474:248|508:272,1,88.000002685547,2|0,0:2|0:0,0:0:0:0:
416,282,183581,2,0,P|396:286|368:273,1,44.0000013427735,0|0,3:0|0:0,0:0:0:0:
317,159,183755,2,0,B|264:148|264:148|256:152|256:152|182:138,1,132.00000402832,10|0,0:2|0:0,0:0:0:0:
109,131,184104,6,0,P|100:172|126:206,1,88.000002685547,2|0,3:2|0:0,0:0:0:0:
213,220,184453,1,8,0:2:0:0:
279,325,184627,1,2,0:2:0:0:
300,329,184714,1,0,0:0:0:0:
322,333,184801,1,0,0:0:0:0:
174,384,184976,2,0,L|116:373,1,44.0000013427735,0|0,3:0|0:0,0:0:0:0:
29,308,185151,2,0,P|21:348|53:387,1,88.000002685547,8|0,0:2|0:0,0:0:0:0:
163,283,185500,6,0,B|156:238|156:238|61:218,1,132.00000402832,2|0,3:2|0:0,0:0:0:0:
45,230,185848,2,0,P|38:206|36:177,1,44.0000013427735,8|0,0:2|0:0,0:0:0:0:
73,120,186023,1,0,3:0:0:0:
0,23,186197,2,0,P|24:28|50:41,1,44.0000013427735,10|0,0:2|0:0,0:0:0:0:
82,121,186372,1,0,3:0:0:0:
227,100,186546,2,0,P|209:118|175:138,1,44.0000013427735,8|0,0:2|0:0,0:0:0:0:
91,122,186720,1,0,3:0:0:0:
100,123,186808,1,0,3:0:0:0:
109,124,186895,5,14,0:2:0:0:
156,52,187069,1,0,3:0:0:0:
234,206,187244,1,0,3:0:0:0:
193,128,187418,5,10,0:2:0:0:
242,57,187592,1,0,3:0:0:0:
320,211,187767,1,0,3:0:0:0:
281,134,187941,5,10,0:2:0:0:
359,288,188116,1,0,3:0:0:0:
406,216,188290,5,10,0:2:0:0:
367,139,188465,1,0,3:0:0:0:
273,283,188639,1,0,3:0:0:0:
320,211,188813,5,10,0:2:0:0:
281,134,188988,1,0,3:0:0:0:
187,278,189162,1,0,3:0:0:0:
234,206,189337,5,10,0:2:0:0:
328,62,189511,1,0,3:0:0:0:
487,221,189686,5,10,0:2:0:0:
406,216,189860,1,0,3:0:0:0:
367,139,190034,1,0,3:0:0:0:
359,289,190209,5,10,0:2:0:0:
406,216,190383,1,0,3:0:0:0:
273,283,190558,1,0,3:0:0:0:
397,364,190732,5,10,0:2:0:0:
320,211,190907,1,0,3:0:0:0:
187,277,191081,5,10,0:2:0:0:
359,289,191256,1,0,3:0:0:0:
226,355,191430,1,0,3:0:0:0:
187,277,191604,5,10,0:2:0:0:
281,134,191779,1,0,3:0:0:0:
273,283,191953,1,0,3:0:0:0:
236,206,192127,5,10,0:2:0:0:
110,124,192301,1,0,3:0:0:0:
84,160,192389,1,0,3:0:0:0:
58,196,192476,5,10,0:2:0:0:
173,43,192651,1,0,3:0:0:0:
43,93,192825,5,8,0:2:0:0:
230,122,192999,1,2,3:2:0:0:
84,8,193174,5,8,0:2:0:0:
153,178,193348,1,0,3:0:0:0:
267,32,193523,5,10,0:2:0:0:
267,32,193697,1,0,3:0:0:0:
353,195,193872,5,10,0:2:0:0:
315,353,194046,1,0,3:0:0:0:
289,269,194220,5,8,0:2:0:0:
410,382,194395,1,2,3:2:0:0:
219,338,194569,5,8,0:2:0:0:
378,286,194744,1,0,3:0:0:0:
204,261,194918,5,10,0:2:0:0:
204,261,195093,1,2,3:2:0:0:
37,302,195267,5,10,0:2:0:0:
219,338,195441,1,0,3:0:0:0:
255,156,195615,1,8,0:2:0:0:
75,119,195790,1,0,3:0:0:0:
386,225,195965,5,8,0:2:0:0:
204,261,196139,1,0,3:0:0:0:
168,79,196313,1,8,0:2:0:0:
348,42,196488,1,10,0:2:0:0:
348,42,196575,1,10,3:2:0:0:
348,42,196662,5,10,0:2:0:0:
302,70,196750,1,10,0:2:0:0:
274,109,196837,1,10,0:2:0:0:
265,156,196924,1,10,0:2:0:0:
275,198,197011,1,10,0:2:0:0:
297,235,197098,1,10,0:2:0:0:
326,261,197186,1,10,0:2:0:0:
362,277,197273,1,10,0:2:0:0:
395,286,197360,5,10,0:2:0:0:
359,282,197447,1,10,0:2:0:0:
329,288,197534,1,10,0:2:0:0:
302,304,197622,1,10,0:2:0:0:
283,322,197709,1,10,0:2:0:0:
266,342,197796,1,10,0:2:0:0:
247,353,197883,1,10,0:2:0:0:
225,358,197970,1,10,0:2:0:0:
207,354,198058,6,0,P|164:343|113:334,3,88.000002685547,6|0|0|0,3:2|0:0|0:0|0:0,0:0:0:0:
331,204,199453,6,0,P|374:193|425:184,3,88.000002685547
135,89,200848,5,2,0:2:0:0:
135,89,201023,1,2,0:2:0:0:
