osu file format v14

[General]
AudioFilename: audio.mp3
AudioLeadIn: 0
PreviewTime: 40895
Countdown: 0
SampleSet: Soft
StackLeniency: 0.6
Mode: 2
LetterboxInBreaks: 0
WidescreenStoryboard: 1

[Editor]
Bookmarks: 41006,117560
DistanceSpacing: 2.1
BeatDivisor: 8
GridSize: 32
TimelineZoom: 2.179998

[Metadata]
Title:Amnolys
TitleUnicode:Amnolys
Artist:onoken
ArtistUnicode:onoken
Creator:Syamu
Version:Jemzuu's Anomaly
Source:beatmania IIDX 22 PENDUAL
Tags:video game instrumental Scaltinof ORIGINAL SOUND TRACK OST electronic artcore ART CORE AJamez Jemzuu
BeatmapID:2578171
BeatmapSetID:1231970

[Difficulty]
HPDrainRate:7
CircleSize:4
OverallDifficulty:9.4
ApproachRate:9.4
SliderMultiplier:1.94
SliderTickRate:2

[Events]
//Background and Video events
0,0,"84102508_p1.jpg",0,0
//Break Periods
2,35841,37767
2,62507,65767
//Storyboard Layer 0 (Background)
//Storyboard Layer 1 (Fail)
//Storyboard Layer 2 (Pass)
//Storyboard Layer 3 (Foreground)
//Storyboard Layer 4 (Overlay)
//Storyboard Sound Samples

[TimingPoints]
499,428.571428571429,4,2,1,30,1,0
499,-100,4,2,1,60,0,0
1356,-100,4,2,1,40,0,0
1677,-100,4,2,1,5,0,0
1784,-100,4,2,1,50,0,0
2106,-100,4,2,1,5,0,0
2213,-100,4,2,1,40,0,0
2641,-100,4,2,1,30,0,0
2963,-100,4,2,1,5,0,0
3070,-100,4,2,1,30,0,0
3284,-100,4,2,1,50,0,0
3713,-100,4,2,1,30,0,0
3927,-100,4,2,1,60,0,0
4249,-100,4,2,1,5,0,0
4356,-100,4,2,1,50,0,0
4677,-100,4,2,1,5,0,0
4784,-100,4,2,1,50,0,0
5427,-100,4,2,1,30,0,0
5641,-100,4,2,1,60,0,0
5963,-100,4,2,1,5,0,0
6070,-100,4,2,1,50,0,0
6391,-100,4,2,1,5,0,0
6499,-100,4,2,1,50,0,0
6713,-100,4,2,1,30,0,0
8213,-100,4,2,1,40,0,0
8641,-100,4,2,1,50,0,0
8963,-100,4,2,1,5,0,0
9070,-100,4,2,1,60,0,0
9391,-100,4,2,1,5,0,0
9499,-100,4,2,1,50,0,0
9820,-100,4,2,1,5,0,0
9927,-100,4,2,1,40,0,0
10784,-100,4,2,1,30,0,0
11106,-100,4,2,1,5,0,0
11213,-100,4,2,1,50,0,0
11534,-100,4,2,1,5,0,0
11641,-100,4,2,1,70,0,0
11963,-100,4,2,1,5,0,0
12070,-100,4,2,1,30,0,0
12391,-100,4,2,1,5,0,0
12499,-100,4,2,1,60,0,0
13356,-80,4,2,1,60,0,0
14213,-66.6666666666667,4,2,1,60,0,0
14641,-80,4,2,1,60,0,0
16141,-100,4,2,1,5,0,0
16356,-100,4,2,1,60,0,0
16570,-100,4,2,1,5,0,0
16784,-80,4,2,1,60,0,0
18499,-100,4,2,1,60,0,0
18606,-100,4,2,1,60,0,0
20213,-74.0740740740741,4,2,1,60,0,0
22141,-100,4,2,1,5,0,0
22249,-45.4545454545455,4,2,1,60,0,0
22463,-100,4,2,1,5,0,0
22570,-76.9230769230769,4,2,1,60,0,0
22784,-25,4,2,1,60,0,0
23213,-100,4,2,1,60,0,0
23534,-76.9230769230769,4,2,1,60,0,0
25784,-100,4,2,1,60,0,0
26213,-44.7427293064877,4,2,1,60,0,0
26427,-100,4,2,1,5,0,0
26534,-100,4,2,1,60,0,0
26749,-100,4,2,1,5,0,0
26856,-100,4,2,1,60,0,0
27284,-100,4,2,1,80,0,0
27499,-80,4,2,1,80,0,0
27927,-44.6428571428571,4,2,1,80,0,0
29213,-76.9230769230769,4,2,1,80,0,0
29641,-68.9655172413793,4,2,1,80,0,0
30284,-100,4,2,1,60,0,0
30712,-68.9655172413793,4,2,1,80,0,0
35641,333.333333333333,4,2,1,70,1,0
35807,-100,4,2,1,60,0,0
40974,-100,4,2,1,60,0,1
41015,-100,4,2,1,60,0,0
43640,-100,4,2,1,70,0,0
43974,-100,4,2,1,80,0,0
45140,-100,4,2,1,70,0,0
45474,-100,4,2,1,60,0,0
46140,-100,4,2,1,60,0,0
46474,-100,4,2,1,80,0,0
46807,-100,4,2,1,60,0,0
49140,-100,4,2,1,15,0,0
49307,-100,4,2,1,60,0,0
49474,-100,4,2,1,15,0,0
49640,-100,4,2,1,60,0,0
50307,-100,4,2,1,80,0,0
50390,-100,4,2,1,60,0,0
50640,-100,4,2,1,40,0,0
51307,-100,4,2,1,80,0,0
51640,-100,4,2,1,60,0,0
54640,-83.3333333333333,4,2,1,80,0,0
54974,-100,4,2,1,80,0,0
55307,-83.3333333333333,4,2,1,80,0,0
55474,-100,4,2,1,70,0,0
56974,-100,4,2,1,60,0,0
59640,-100,4,2,1,70,0,0
61140,-100,4,2,1,80,0,0
61307,-100,4,2,1,60,0,0
61640,-100,4,2,1,40,0,0
61974,-100,4,2,1,60,0,0
62307,-100,4,2,1,70,0,0
67640,-100,4,2,1,60,0,0
67807,-100,4,2,1,60,0,0
68974,-100,4,2,1,60,0,0
69474,-100,4,2,1,60,0,0
69974,-66.6666666666667,4,2,1,60,0,0
70307,-100,4,2,1,60,0,0
72640,-66.6666666666667,4,2,1,80,0,0
72974,-100,4,2,1,60,0,0
73307,-100,4,2,1,60,0,0
74307,-100,4,2,1,60,0,0
74974,-100,4,2,1,60,0,0
75307,-100,4,2,1,80,0,0
75640,-100,4,2,1,60,0,0
77140,-83.3333333333333,4,2,1,60,0,0
77474,-100,4,2,1,60,0,0
77974,-100,4,2,1,80,0,0
78307,-100,4,2,1,60,0,0
79640,-100,4,2,1,60,0,0
80140,-100,4,2,1,60,0,0
80640,-66.6666666666667,4,2,1,80,0,0
80974,-100,4,2,1,60,0,0
81390,-100,4,2,1,60,0,0
81474,-100,4,2,1,60,0,0
81724,-100,4,2,1,60,0,0
83307,-100,4,2,1,80,0,0
83640,-100,4,2,1,60,0,0
83863,-100,4,2,1,60,0,0
87557,-100,4,2,1,20,0,0
88974,-100,4,2,1,80,0,1
94307,-100,4,2,1,60,0,1
94640,-100,4,2,1,60,0,1
95640,-100,4,2,1,90,0,1
96307,-100,4,2,1,80,0,1
96390,-100,4,2,1,60,0,1
98307,-100,4,2,1,60,0,1
98640,-100,4,2,1,60,0,1
98974,333.333333333333,4,2,1,60,1,1
99307,-100,4,2,1,60,0,1
99640,-100,4,2,1,60,0,1
99807,-100,4,2,1,60,0,1
100973,-100,4,2,1,60,0,1
101390,-100,4,2,1,60,0,1
102974,-100,4,2,1,60,0,1
103473,-100,4,2,1,60,0,1
103640,-100,4,2,1,90,0,1
104306,-100,4,2,1,80,0,1
105640,-100,4,2,1,60,0,1
107807,-100,4,2,1,60,0,1
108140,-100,4,2,1,60,0,1
108890,-100,4,2,3,60,0,1
108973,-100,4,2,1,90,0,1
109306,-100,4,2,3,100,0,1
109639,-100,4,2,1,60,0,1
109640,-100,4,2,1,90,0,1
109806,-100,4,2,1,60,0,1
110306,-100,4,2,1,60,0,1
110973,-100,4,2,1,60,0,1
111639,-100,4,2,1,60,0,1
111806,-100,4,2,1,100,0,1
112223,-100,4,2,1,60,0,0
112306,-100,4,2,1,40,0,0
112390,-100,4,2,1,35,0,0
113640,-100,4,2,1,30,0,0
114973,-100,4,2,1,25,0,0
116307,-100,4,2,1,15,0,0
116973,-100,4,2,1,10,0,0
117557,-100,4,2,1,5,0,0

[Colours]
Combo1 : 157,0,157
Combo2 : 225,0,113
Combo3 : 70,70,142

[HitObjects]
255,198,499,6,0,L|256:75,1,97,2|0,0:2|0:2,0:0:0:0:
255,198,927,2,0,L|365:195,1,97,0|0,0:2|0:2,0:0:0:0:
154,291,1356,2,0,L|151:83,1,194,2|0,0:2|0:2,0:0:0:0:
150,98,2213,6,0,L|352:71,2,194,2|0|2,0:2|0:2|0:2,0:0:0:0:
306,149,3284,1,0,0:2:0:0:
141,182,3499,1,0,0:2:0:0:
301,227,3713,1,2,0:2:0:0:
467,165,3927,6,0,L|474:374,1,194,2|0,0:2|0:2,0:0:0:0:
92,359,4784,2,0,P|160:262|335:224,1,291,2|2,0:2|0:2,0:0:0:0:
315,123,5641,2,0,L|112:112,1,194,2|0,0:2|0:2,0:0:0:0:
477,34,6499,5,2,0:2:0:0:
477,34,6713,1,0,0:2:0:0:
477,34,6927,1,2,0:2:0:0:
254,175,7356,1,2,0:2:0:0:
254,175,7570,1,0,0:2:0:0:
450,205,7784,1,0,0:2:0:0:
137,76,8213,2,0,L|346:58,1,194,2|2,0:2|0:2,0:0:0:0:
27,32,9070,2,0,L|27:244,1,194,2|2,0:2|0:2,0:0:0:0:
27,225,9927,5,2,0:2:0:0:
121,130,10141,1,0,0:2:0:0:
247,92,10356,1,0,0:2:0:0:
379,96,10570,1,2,0:2:0:0:
181,24,10784,2,0,L|178:229,1,194,2|2,0:2|0:2,0:0:0:0:
497,313,11641,6,0,B|303:317|303:317|401:314|401:314|400:226,1,339.5,2|0,0:2|0:2,0:0:0:0:
164,320,12499,5,4,3:2:0:0:
135,330,12552,1,0,0:0:0:0:
116,317,12606,1,0,0:0:0:0:
87,327,12659,1,0,0:0:0:0:
75,290,12713,1,0,0:0:0:0:
46,300,12766,1,0,0:0:0:0:
54,248,12820,1,0,0:0:0:0:
25,258,12873,1,0,0:0:0:0:
56,200,12927,1,2,0:0:0:0:
27,210,12980,1,0,0:0:0:0:
81,159,13034,1,0,0:0:0:0:
52,169,13087,1,0,0:0:0:0:
123,136,13141,1,2,0:0:0:0:
94,146,13194,1,0,0:0:0:0:
171,138,13248,1,0,0:0:0:0:
401,82,13356,5,8,0:2:0:0:
288,69,13499,1,0,0:2:0:0:
401,82,13641,1,0,0:2:0:0:
166,215,13784,2,0,L|0:230,1,121.25,2|2,3:2|0:2,0:0:0:0:
318,333,14213,2,0,L|417:341,3,72.7500027751924,0|0|0|0,0:2|0:2|0:2|0:2,0:0:0:0:
473,329,14641,6,0,L|493:282,2,40.4166666666667,2|0|0,0:0|0:0|0:0,0:0:0:0:
424,346,14856,1,2,0:0:0:0:
372,348,14927,1,0,0:0:0:0:
425,355,14999,1,0,0:0:0:0:
242,249,15070,2,0,L|163:236,1,60.625,8|0,0:2|0:2,0:0:0:0:
258,204,15284,2,0,L|353:196,1,60.625,0|0,0:2|0:0,0:0:0:0:
116,159,15499,2,0,L|144:90,1,60.625,2|0,0:2|0:2,0:0:0:0:
28,84,15713,2,0,L|54:25,1,60.625,2|0,3:2|0:2,0:0:0:0:
319,85,15927,6,0,L|119:104,1,181.875,2|0,3:2|0:0,0:0:0:0:
408,307,16356,6,0,L|413:162,1,145.5,0|0,3:2|0:0,0:0:0:0:
158,126,16784,5,10,0:2:0:0:
254,154,16891,1,0,0:2:0:0:
158,126,16999,1,0,0:2:0:0:
112,139,17070,1,0,0:2:0:0:
93,175,17141,1,0,0:2:0:0:
114,210,17213,1,0,0:2:0:0:
160,222,17284,1,0,0:2:0:0:
250,238,17356,1,2,0:2:0:0:
160,222,17427,1,2,0:2:0:0:
101,225,17499,1,2,0:2:0:0:
160,222,17570,1,0,0:2:0:0:
381,358,17641,5,2,3:2:0:0:
267,327,17784,1,0,0:2:0:0:
398,280,17927,1,0,0:2:0:0:
160,222,18070,1,2,3:2:0:0:
270,157,18213,1,2,0:2:0:0:
399,144,18356,1,2,0:2:0:0:
135,122,18499,6,0,L|117:117,6,16.1666666666667,8|0|0|0|0|0|0,0:2|0:0|0:2|0:0|0:2|0:0|0:2,0:0:0:0:
184,146,18784,1,0,0:2:0:0:
242,152,18856,1,0,0:2:0:0:
46,218,18927,6,0,L|25:220,1,12.125,2|0,0:3|0:0,0:0:0:0:
182,353,19034,2,0,L|202:353,1,12.125,2|0,0:3|0:0,0:0:0:0:
345,303,19141,2,0,L|357:303,1,12.125,2|0,0:3|0:0,0:0:0:0:
177,155,19249,2,0,L|164:156,1,12.125,2|0,0:3|0:0,0:0:0:0:
329,56,19356,5,4,3:2:0:0:
357,46,19409,1,0,0:0:0:0:
375,59,19463,1,0,0:0:0:0:
402,49,19516,1,0,0:0:0:0:
414,86,19570,1,0,0:0:0:0:
442,76,19623,1,0,0:0:0:0:
434,128,19677,1,0,0:0:0:0:
462,118,19730,1,0,0:0:0:0:
432,176,19784,1,2,0:0:0:0:
460,166,19837,1,0,0:0:0:0:
408,217,19891,1,0,0:0:0:0:
436,207,19944,1,0,0:0:0:0:
368,240,19998,1,2,0:0:0:0:
396,230,20051,1,0,0:0:0:0:
322,238,20105,1,0,0:0:0:0:
97,323,20213,6,0,L|310:339,1,196.425000749302,8|0,0:2|0:2,0:0:0:0:
65,208,20641,1,2,3:2:0:0:
237,151,20856,1,8,0:2:0:0:
62,117,21070,2,0,L|59:38,1,65.4750002497673,2|0,0:2|0:2,0:0:0:0:
285,21,21284,1,8,0:3:0:0:
234,46,21356,1,8,0:3:0:0:
176,52,21427,1,8,0:3:0:0:
376,101,21499,5,2,3:2:0:0:
392,99,21525,1,0,0:0:0:0:
369,126,21552,1,0,0:0:0:0:
401,129,21578,1,0,0:0:0:0:
364,158,21606,1,0,0:0:0:0:
403,162,21632,1,0,0:0:0:0:
363,190,21659,1,0,0:0:0:0:
403,194,21685,1,0,0:0:0:0:
365,223,21713,1,0,0:0:0:0:
402,226,21739,1,0,0:0:0:0:
372,252,21766,1,0,0:0:0:0:
394,257,21792,1,0,0:0:0:0:
382,279,21820,1,0,0:2:0:0:
127,364,21927,6,0,L|258:352,1,130.950000499535,10|0,0:2|0:2,0:0:0:0:
28,188,22249,2,0,B|133:169|133:169|25:189,1,213.400006512451,0|0,3:0|0:2,0:0:0:0:
256,55,22570,2,0,L|323:57,1,63.0499971138002,0|0,3:2|0:2,0:0:0:0:
58,226,22784,6,0,B|29:35|29:35|60:229|60:229|485:237,1,776,2|12,3:2|0:2,0:0:0:0:
482,237,23240,1,0,0:0:0:0:
449,212,23266,1,0,0:0:0:0:
480,212,23293,1,0,0:0:0:0:
452,188,23320,1,0,0:0:0:0:
479,188,23347,1,0,0:0:0:0:
455,164,23373,1,0,0:0:0:0:
477,164,23400,1,0,0:0:0:0:
458,139,23427,1,0,0:0:0:0:
476,140,23454,1,0,0:0:0:0:
461,115,23480,1,0,0:0:0:0:
475,115,23507,1,0,0:0:0:0:
467,98,23534,1,0,0:2:0:0:
226,52,23641,5,0,3:2:0:0:
342,94,23784,1,0,0:2:0:0:
467,98,23927,1,2,0:2:0:0:
209,228,24070,2,0,L|152:243,2,42.0333314092001,2|0|2,3:2|0:0|0:2,0:0:0:0:
335,240,24356,1,2,0:2:0:0:
105,375,24499,6,0,L|23:374,1,63.0499971138002,2|0,0:2|0:2,0:0:0:0:
143,306,24713,2,0,L|67:303,1,63.0499971138002,0|0,0:2|0:2,0:0:0:0:
301,128,24927,6,0,L|362:127,2,42.0333314092001,2|0|0,0:2|0:0|0:0,0:0:0:0:
243,133,25141,1,0,0:2:0:0:
451,212,25249,1,0,3:2:0:0:
245,315,25356,2,0,L|221:280,2,31.5249985569001,10|0|0,0:2|0:0|0:2,0:0:0:0:
328,342,25570,1,0,0:2:0:0:
424,351,25677,1,0,0:2:0:0:
178,373,25784,6,0,L|158:373,1,12.125,2|0,0:3|0:0,0:0:0:0:
306,250,25891,2,0,L|325:249,1,12.125,2|0,0:3|0:0,0:0:0:0:
462,124,25999,2,0,L|441:123,1,12.125,2|0,3:3|0:0,0:0:0:0:
271,77,26106,2,0,L|252:77,1,12.125,2|0,0:3|0:0,0:0:0:0:
48,15,26213,6,0,L|337:174,2,325.192500868358,0|0|0,3:2|3:2|3:2,0:0:0:0:
48,15,27284,2,0,L|17:44,2,32.3333333333333,8|8|8,0:3|0:3|0:3,0:0:0:0:
219,128,27499,2,0,L|65:134,1,121.25,0|4,1:2|0:3,0:0:0:0:
283,211,27820,2,0,L|308:215,1,15.15625,4|0,0:3|0:0,0:0:0:0:
490,203,27927,6,0,L|197:361,2,325.920003978516,0|0|0,3:2|3:2|3:2,0:0:0:0:
490,203,28999,2,0,L|485:20,1,162.960001989258,0|0,1:2|0:2,0:0:0:0:
260,100,29213,1,8,0:3:0:0:
406,140,29427,2,0,L|326:147,1,63.0499971138002,4|0,0:3|0:2,0:0:0:0:
114,231,29641,6,0,L|275:254,1,140.650004292297,4|4,3:3|0:3,0:0:0:0:
30,131,29963,2,0,L|115:124,2,70.3250021461487,0|0|0,3:2|0:0|3:2,0:0:0:0:
254,28,30284,2,0,L|258:191,1,145.5,0|0,3:2|0:0,0:0:0:0:
484,237,30713,5,8,0:3:0:0:
494,269,30766,1,8,0:3:0:0:
479,300,30820,1,8,0:3:0:0:
448,314,30873,1,8,0:3:0:0:
234,353,30927,2,0,L|378:322,1,140.650004292297,0|8,1:2|0:3,0:0:0:0:
313,314,31213,1,4,0:3:0:0:
371,323,31284,1,4,0:3:0:0:
139,320,31356,6,0,L|132:171,1,140.650004292297,0|0,3:2|0:2,0:0:0:0:
357,98,31677,2,0,L|279:62,1,70.3250021461487,0|0,3:2|0:0,0:0:0:0:
195,64,31891,1,0,0:2:0:0:
421,27,31999,2,0,L|501:22,1,70.3250021461487,0|0,3:2|0:2,0:0:0:0:
268,194,32213,1,4,0:3:0:0:
315,223,32284,1,0,0:0:0:0:
375,231,32356,1,0,0:0:0:0:
206,304,32427,2,0,L|144:307,1,46.8833347640992,4|4,0:3|0:3,0:0:0:0:
329,354,32570,1,4,0:3:0:0:
150,380,32641,6,0,L|65:375,1,70.3250021461487,8|0,1:2|0:2,0:0:0:0:
188,307,32856,2,0,L|80:303,1,70.3250021461487,0|0,0:2|0:2,0:0:0:0:
350,148,33070,6,0,L|497:133,1,140.650004292297,0|0,3:2|0:2,0:0:0:0:
262,168,33391,2,0,L|286:97,1,70.3250021461487,0|0,3:2|0:0,0:0:0:0:
388,75,33606,1,0,0:2:0:0:
156,46,33713,2,0,L|244:10,1,70.3250021461487,0|0,3:2|0:0,0:0:0:0:
325,10,33927,1,0,0:2:0:0:
65,103,34034,6,0,L|59:256,1,140.650004292297,8|0,0:2|0:2,0:0:0:0:
280,339,34356,2,0,L|209:342,2,70.3250021461487,8|0|0,0:2|0:0|0:2,0:0:0:0:
41,171,34677,2,0,L|111:165,2,70.3250021461487,0|0|0,1:2|0:0|0:2,0:0:0:0:
321,88,34999,2,0,L|235:56,1,70.3250021461487,0|0,1:2|1:2,0:0:0:0:
30,53,35213,1,0,1:2:0:0:
321,88,35320,6,0,L|132:125,1,175.812505365372,8|0,1:2|0:0,0:0:0:0:
397,242,35641,5,4,3:2:0:0:
256,192,38307,12,0,40140,0:0:0:0:
70,323,40307,6,0,P|47:238|199:35,1,339.5,2|0,0:2|0:2,0:0:0:0:
407,86,40974,6,0,L|371:190,1,97,6|0,3:2|0:2,0:0:0:0:
238,196,41307,1,8,0:2:0:0:
481,203,41474,2,0,L|477:310,1,97,2|0,0:2|0:2,0:0:0:0:
421,322,41724,1,0,0:2:0:0:
357,334,41807,1,0,3:2:0:0:
175,286,41974,2,0,L|284:277,1,97,8|2,0:2|0:2,0:0:0:0:
336,243,42224,1,2,0:2:0:0:
141,201,42307,5,2,3:2:0:0:
229,185,42418,2,0,L|239:39,1,129.333333333333,0|8,0:0|0:2,0:0:0:0:
49,25,42724,2,0,L|122:29,1,48.5,0|0,0:2|0:2,0:0:0:0:
164,105,42890,2,0,L|81:110,2,48.5,0|0|0,0:2|0:2|0:0,0:0:0:0:
349,291,43140,2,0,L|281:301,1,48.5,2|0,3:2|0:2,0:0:0:0:
101,356,43307,5,8,0:2:0:0:
179,312,43418,1,2,0:2:0:0:
88,274,43529,1,2,0:2:0:0:
299,198,43640,1,2,3:2:0:0:
208,160,43751,1,2,0:2:0:0:
449,115,43863,1,2,0:2:0:0:
196,182,43974,6,0,L|192:71,1,97,10|0,0:2|0:2,0:0:0:0:
261,53,44224,1,0,0:2:0:0:
474,31,44307,1,8,0:2:0:0:
196,298,44474,2,0,L|359:315,1,145.5,2|0,3:2|0:0,0:0:0:0:
118,348,44807,6,0,L|153:243,1,97,2|0,3:2|0:0,0:0:0:0:
212,237,45057,1,0,0:2:0:0:
29,219,45140,2,0,L|23:166,1,48.5,2|2,3:2|0:2,0:0:0:0:
112,151,45307,2,0,L|120:87,1,48.5,2|2,0:2|0:2,0:0:0:0:
331,36,45474,2,0,L|206:25,1,97,8|0,0:2|0:0,0:0:0:0:
172,40,45724,1,0,0:2:0:0:
366,138,45807,1,2,3:2:0:0:
231,154,45974,1,2,0:2:0:0:
483,184,46140,6,0,P|493:246|428:331,1,145.5,0|0,3:2|0:2,0:0:0:0:
235,353,46474,1,4,3:2:0:0:
483,73,46640,5,8,0:2:0:0:
434,58,46723,1,0,0:2:0:0:
384,52,46806,1,0,0:2:0:0:
251,160,46974,2,0,L|326:166,1,48.5,0|0,0:2|0:0,0:0:0:0:
114,305,47140,1,2,3:2:0:0:
236,353,47307,1,8,0:2:0:0:
288,347,47390,1,0,0:2:0:0:
315,305,47473,1,2,0:2:0:0:
288,257,47557,1,0,0:0:0:0:
76,213,47640,6,0,L|65:111,1,97,2|2,3:2|0:2,0:0:0:0:
185,64,47974,1,8,0:2:0:0:
439,144,48140,2,0,L|327:152,1,97,2|0,0:2|0:2,0:0:0:0:
278,184,48390,1,0,0:2:0:0:
345,207,48474,1,0,3:2:0:0:
187,251,48640,1,8,0:2:0:0:
270,288,48752,1,2,0:2:0:0:
365,293,48863,1,2,0:2:0:0:
114,302,48974,6,0,L|106:169,1,97,2|0,3:2|0:2,0:0:0:0:
261,152,49307,1,8,0:2:0:0:
107,113,49474,1,0,0:2:0:0:
373,24,49640,6,0,L|306:51,1,48.5,8|0,0:2|0:2,0:0:0:0:
249,57,49807,2,0,L|242:120,1,48.5,2|2,3:2|0:2,0:0:0:0:
453,179,49974,1,2,0:0:0:0:
368,217,50085,1,2,0:2:0:0:
467,258,50196,1,0,0:2:0:0:
210,335,50307,6,0,L|79:326,1,97,8|0,0:2|0:2,0:0:0:0:
282,248,50640,2,0,L|214:238,1,48.5,2|0,0:3|0:3,0:0:0:0:
168,179,50807,2,0,L|240:169,1,48.5,2|0,0:3|0:3,0:0:0:0:
140,113,50974,2,0,L|74:109,1,48.5,2|0,0:3|0:3,0:0:0:0:
290,54,51140,1,2,3:3:0:0:
43,17,51307,2,0,L|106:16,1,48.5,8|0,0:2|0:0,0:0:0:0:
280,123,51474,2,0,L|348:123,1,48.5,0|0,0:0|0:2,0:0:0:0:
93,188,51640,6,0,P|73:250|164:288,1,145.5,6|0,3:2|0:2,0:0:0:0:
204,330,51974,2,0,L|98:346,1,97,8|2,0:2|0:2,0:0:0:0:
370,213,52307,2,0,L|320:186,1,48.5,2|0,0:2|0:2,0:0:0:0:
257,182,52474,1,0,3:2:0:0:
430,128,52640,2,0,L|435:240,1,97,8|0,0:2|0:0,0:0:0:0:
370,245,52890,1,0,0:2:0:0:
182,69,52974,6,0,L|182:205,1,97,2|0,3:2|0:2,0:0:0:0:
348,29,53307,2,0,L|239:34,1,97,8|2,0:2|0:2,0:0:0:0:
10,269,53640,2,0,L|68:302,1,48.5,2|0,0:2|0:2,0:0:0:0:
124,310,53807,1,0,3:2:0:0:
404,334,53974,2,0,L|280:343,1,97,8|0,0:2|0:0,0:0:0:0:
252,346,54224,1,0,0:0:0:0:
435,249,54307,2,0,P|448:173|387:141,1,145.5,2|0,3:2|0:0,0:0:0:0:
170,307,54640,6,0,P|94:273|211:162,1,290.999991119385,12|0,0:2|0:2,0:0:0:0:
118,125,55140,1,0,3:2:0:0:
404,289,55307,6,0,P|327:266|408:125,1,290.999991119385,12|0,0:2|0:2,0:0:0:0:
453,109,55807,1,2,3:2:0:0:
307,70,55890,1,2,3:2:0:0:
150,40,55974,1,8,0:2:0:0:
396,123,56140,1,2,3:2:0:0:
129,319,56307,6,0,L|32:332,1,97,8|2,0:2|3:2,0:0:0:0:
295,226,56640,1,8,0:2:0:0:
154,203,56807,1,2,3:2:0:0:
428,300,56974,2,0,P|455:238|379:182,1,145.5,2|0,3:2|0:0,0:0:0:0:
174,62,57307,6,0,L|284:55,1,97,8|0,0:2|0:2,0:0:0:0:
324,72,57557,1,0,0:2:0:0:
271,100,57640,1,0,0:2:0:0:
217,113,57724,1,0,0:2:0:0:
396,228,57807,2,0,L|506:241,1,97,2|8,3:2|0:2,0:0:0:0:
218,368,58140,2,0,P|193:304|280:253,1,145.5,2|0,3:2|0:2,0:0:0:0:
303,233,58474,1,0,3:2:0:0:
48,234,58640,6,0,L|42:131,1,97,8|0,0:2|0:0,0:0:0:0:
99,110,58890,1,0,0:2:0:0:
272,36,58974,2,0,L|335:35,2,48.5,2|0|2,3:2|0:2|3:2,0:0:0:0:
447,138,59224,2,0,L|368:144,1,48.5,0|8,0:2|0:2,0:0:0:0:
147,254,59474,1,0,0:0:0:0:
449,342,59640,6,0,L|475:217,1,97,14|0,0:2|0:2,0:0:0:0:
162,309,59974,1,8,0:2:0:0:
319,260,60140,2,0,L|296:161,1,97,2|8,3:2|0:2,0:0:0:0:
44,122,60474,1,0,3:2:0:0:
306,39,60640,1,10,0:2:0:0:
163,28,60807,1,0,3:2:0:0:
474,102,60974,5,14,3:2:0:0:
195,223,61140,2,0,L|140:230,1,48.5,8|0,0:2|0:2,0:0:0:0:
364,175,61307,1,8,0:3:0:0:
389,214,61390,1,0,0:2:0:0:
371,257,61473,1,2,0:3:0:0:
326,268,61557,1,0,0:2:0:0:
110,350,61640,5,4,0:3:0:0:
30,318,61752,1,2,0:2:0:0:
120,269,61863,1,2,0:2:0:0:
336,170,61974,1,10,0:2:0:0:
255,140,62085,1,2,0:2:0:0:
164,138,62196,1,2,0:2:0:0:
417,65,62307,5,6,3:2:0:0:
256,192,66307,12,0,67474,0:0:0:0:
309,128,67640,6,0,L|421:124,1,97,0|0,3:0|0:0,0:0:0:0:
157,206,67974,1,0,0:0:0:0:
301,242,68140,1,0,3:0:0:0:
139,311,68307,2,0,L|9:313,1,97,0|8,0:0|0:3,0:0:0:0:
97,349,68557,1,0,0:0:0:0:
305,349,68640,2,0,L|303:170,1,145.5,8|0,0:0|0:0,0:0:0:0:
83,77,68974,6,0,L|241:69,1,145.5,0|0,3:0|0:0,0:0:0:0:
282,72,69307,1,0,0:0:0:0:
50,180,69474,2,0,L|25:206,6,24.25,0|0|0|0|0|0|0,3:0|0:0|0:0|0:0|0:0|0:0|0:0,0:0:0:0:
230,150,69807,2,0,L|310:152,1,48.5,8|0,0:0|0:0,0:0:0:0:
491,62,69974,6,0,B|383:81|383:81|514:94,1,218.250008325577,8|0,0:0|0:0,0:0:0:0:
266,154,70307,6,0,P|251:225|324:266,1,145.5,0|0,3:0|0:0,0:0:0:0:
359,267,70640,1,0,0:0:0:0:
189,350,70807,2,0,L|356:347,1,145.5,0|0,3:0|0:0,0:0:0:0:
143,262,71140,2,0,L|84:257,1,48.5,8|0,0:0|0:0,0:0:0:0:
296,164,71307,1,8,0:3:0:0:
157,143,71474,1,4,0:3:0:0:
450,33,71640,6,0,P|467:95|398:138,1,145.5,0|0,3:0|0:0,0:0:0:0:
210,47,71974,2,0,L|313:53,1,97,0|8,3:0|0:0,0:0:0:0:
248,91,72224,1,0,0:0:0:0:
435,220,72307,2,0,L|500:220,2,48.5,8|0|4,0:3|0:0|0:3,0:0:0:0:
160,203,72640,6,0,B|173:297|173:297|315:289,1,218.250008325577,8|0,0:0|0:0,0:0:0:0:
83,357,72974,6,0,L|69:251,1,97,0|0,3:0|0:0,0:0:0:0:
310,138,73307,1,0,0:0:0:0:
171,99,73474,1,0,3:0:0:0:
332,39,73640,2,0,L|435:43,1,97,0|8,0:0|0:3,0:0:0:0:
368,85,73890,1,0,0:0:0:0:
151,132,73974,2,0,L|152:314,1,145.5,8|0,0:0|0:0,0:0:0:0:
390,328,74307,6,0,L|221:311,1,145.5,0|0,3:0|0:0,0:0:0:0:
300,288,74640,1,0,0:0:0:0:
26,268,74807,1,0,3:0:0:0:
53,264,74848,1,0,0:0:0:0:
83,260,74890,1,0,0:0:0:0:
112,256,74932,1,0,0:0:0:0:
113,255,74974,1,0,0:0:0:0:
113,230,75015,1,0,0:0:0:0:
114,206,75057,1,0,0:0:0:0:
319,91,75140,2,0,L|389:85,1,48.5,8|0,0:0|0:0,0:0:0:0:
140,36,75307,6,0,B|131:115|131:115|223:168,1,145.5,8|0,0:0|0:0,0:0:0:0:
419,193,75640,6,0,L|270:277,1,145.5,0|0,3:0|0:0,0:0:0:0:
234,271,75974,1,0,0:0:0:0:
478,339,76140,2,0,P|473:270|406:208,1,145.5,0|0,3:0|0:0,0:0:0:0:
221,136,76474,2,0,L|299:120,1,48.5,8|0,0:0|0:0,0:0:0:0:
473,34,76640,2,0,L|356:25,1,97,8|4,0:3|0:3,0:0:0:0:
125,234,76974,2,0,L|57:235,1,48.5,0|0,3:0|0:0,0:0:0:0:
272,315,77140,6,0,L|345:323,3,58.199998223877,8|0|8|0,0:0|0:0|0:3|0:0,0:0:0:0:
130,370,77474,2,0,L|57:373,1,48.5,4|0,0:3|0:0,0:0:0:0:
291,209,77640,1,2,0:3:0:0:
199,182,77752,1,2,0:3:0:0:
299,182,77863,1,2,0:3:0:0:
44,231,77974,6,0,P|33:181|114:118,1,145.5,8|0,0:0|0:0,0:0:0:0:
318,42,78307,6,0,L|199:40,1,97,0|0,3:0|0:0,0:0:0:0:
345,117,78640,1,0,0:0:0:0:
479,137,78807,1,0,3:0:0:0:
245,227,78974,2,0,L|124:219,1,97,0|8,0:0|0:3,0:0:0:0:
205,258,79224,1,0,0:0:0:0:
429,327,79307,2,0,P|465:256|385:215,1,145.5,8|0,0:0|0:0,0:0:0:0:
195,76,79640,6,0,L|356:94,1,145.5,0|0,3:0|0:0,0:0:0:0:
396,86,79974,1,0,0:0:0:0:
126,231,80140,1,0,3:0:0:0:
98,233,80181,1,0,0:0:0:0:
73,225,80223,1,0,0:0:0:0:
54,208,80265,1,0,0:0:0:0:
45,185,80306,1,0,0:0:0:0:
57,155,80348,1,0,0:0:0:0:
103,137,80390,1,0,0:0:0:0:
294,20,80474,2,0,L|217:14,1,48.5,8|0,0:0|0:0,0:0:0:0:
21,62,80640,6,0,B|129:81|129:81|-2:94,1,218.250008325577,8|0,0:0|0:0,0:0:0:0:
277,109,80974,6,0,L|278:273,1,145.5,0|0,3:0|0:0,0:0:0:0:
218,275,81307,1,0,0:0:0:0:
391,345,81474,2,0,L|227:360,1,145.5,0|0,3:0|0:0,0:0:0:0:
465,284,81807,2,0,L|471:220,1,48.5,8|0,0:0|0:0,0:0:0:0:
243,168,81974,1,8,0:3:0:0:
382,144,82140,1,4,0:3:0:0:
112,206,82307,6,0,P|135:156|236:131,1,145.5,0|0,3:0|0:0,0:0:0:0:
274,128,82640,1,0,3:0:0:0:
215,126,82724,1,0,0:0:0:0:
14,42,82807,2,0,L|98:31,1,48.5,8|0,0:0|0:0,0:0:0:0:
289,151,82974,2,0,L|294:216,1,48.5,8|0,0:3|0:0,0:0:0:0:
205,213,83140,2,0,L|200:288,1,48.5,4|0,0:3|0:0,0:0:0:0:
444,186,83307,6,0,P|467:255|389:297,1,145.5,8|0,0:0|0:0,0:0:0:0:
170,369,83640,6,0,L|359:348,1,129.333333333333,0|0,3:0|0:0,0:0:0:0:
78,300,83974,1,4,3:0:0:0:
274,268,84196,1,8,0:3:0:0:
49,190,84307,2,0,L|13:101,2,64.6666666666667,4|0|0,0:3|0:0|0:0,0:0:0:0:
286,47,84640,2,0,L|94:61,1,129.333333333333,8|0,0:0|0:0,0:0:0:0:
405,143,84974,5,8,0:0:0:0:
203,176,85196,1,4,0:3:0:0:
454,147,85307,2,0,P|475:213|438:275,1,129.333333333333,0|0,3:0|0:0,0:0:0:0:
171,286,85640,5,0,3:0:0:0:
81,300,85752,1,0,0:0:0:0:
291,341,85863,1,0,0:0:0:0:
61,188,85974,1,8,0:0:0:0:
150,170,86085,1,0,0:0:0:0:
383,75,86196,1,0,0:0:0:0:
46,331,86307,6,0,P|266:-55|85:377,1,1503.5,4|0,0:1|0:0,0:0:0:0:
328,258,88974,6,0,L|448:244,1,97,6|0,3:2|0:2,0:0:0:0:
168,309,89307,2,0,L|201:210,1,97,8|2,0:2|0:2,0:0:0:0:
234,206,89515,1,0,0:0:0:0:
270,202,89557,1,0,0:2:0:0:
187,133,89640,2,0,L|111:130,1,48.5,0|0,0:2|0:2,0:0:0:0:
335,38,89807,2,0,L|257:35,1,48.5,2|0,3:2|0:0,0:0:0:0:
63,31,89974,1,8,0:2:0:0:
157,53,90085,1,2,0:2:0:0:
52,66,90196,1,2,0:2:0:0:
309,124,90307,6,0,L|312:227,1,97,2|0,3:2|0:2,0:0:0:0:
174,255,90640,1,8,0:2:0:0:
424,305,90807,2,0,L|304:320,1,97,2|0,0:2|0:2,0:0:0:0:
385,348,91057,1,0,0:2:0:0:
448,353,91140,1,0,3:2:0:0:
212,252,91307,1,8,0:2:0:0:
352,222,91474,1,0,0:0:0:0:
90,310,91640,6,0,P|76:250|154:202,1,145.5,2|0,3:2|0:0,0:0:0:0:
337,93,91974,1,8,0:2:0:0:
200,64,92140,2,0,L|119:71,1,48.5,2|0,0:2|0:2,0:0:0:0:
361,194,92307,2,0,L|432:197,2,48.5,0|0|2,0:2|0:2|3:2,0:0:0:0:
195,255,92640,1,8,0:2:0:0:
283,288,92752,1,2,2:2:0:0:
381,295,92863,1,2,0:2:0:0:
127,365,92974,6,0,P|66:348|76:266,1,145.5,2|0,3:2|0:0,0:0:0:0:
271,190,93307,1,8,0:2:0:0:
134,202,93474,1,2,0:2:0:0:
90,184,93557,1,0,0:2:0:0:
73,140,93640,1,0,0:2:0:0:
94,98,93723,1,0,0:2:0:0:
139,86,93807,1,0,3:2:0:0:
379,29,93974,2,0,L|261:36,1,97,8|0,0:2|0:0,0:0:0:0:
225,44,94224,1,0,0:2:0:0:
452,114,94307,6,0,L|462:238,1,97,2|0,3:2|0:2,0:0:0:0:
341,262,94640,1,8,0:2:0:0:
95,366,94807,2,0,L|90:300,1,48.5,2|0,0:2|0:2,0:0:0:0:
177,303,94974,2,0,L|184:243,1,48.5,0|0,0:2|0:2,0:0:0:0:
94,231,95140,1,0,3:2:0:0:
267,153,95307,2,0,L|113:136,1,145.5,8|0,0:2|0:2,0:0:0:0:
357,271,95640,2,0,P|414:256|426:155,1,145.5,4|0,3:2|0:2,0:0:0:0:
213,73,95974,2,0,L|383:77,1,145.5,4|0,3:2|0:2,0:0:0:0:
105,113,96307,6,0,P|73:161|242:297,1,339.5,8|0,0:2|0:2,0:0:0:0:
37,351,96974,2,0,L|21:318,6,24.25,4|0|0|0|0|0|0,0:3|0:2|0:2|0:2|0:2|0:2|0:2,0:0:0:0:
226,198,97307,2,0,L|290:197,1,48.5,0|0,0:2|0:2,0:0:0:0:
478,86,97474,2,0,L|327:78,1,145.5,8|0,0:2|0:2,0:0:0:0:
494,249,97807,2,0,L|428:251,1,48.5,8|0,0:3|0:0,0:0:0:0:
245,360,97974,2,0,L|349:350,1,97,4|0,0:3|0:0,0:0:0:0:
277,326,98224,1,0,0:2:0:0:
71,304,98307,1,10,0:2:0:0:
300,182,98474,2,0,L|225:182,1,48.5,8|0,0:3|0:0,0:0:0:0:
44,203,98640,6,0,P|28:139|102:100,1,145.5,8|0,0:2|0:2,0:0:0:0:
302,50,98974,1,2,0:2:0:0:
56,83,99085,1,0,0:2:0:0:
226,119,99196,1,0,0:2:0:0:
399,160,99307,6,0,P|413:229|341:265,1,145.5,6|0,3:2|0:2,0:0:0:0:
294,277,99640,1,2,0:2:0:0:
467,331,99807,2,0,L|451:219,1,97,10|0,0:2|0:2,0:0:0:0:
204,195,100140,1,2,3:2:0:0:
343,127,100307,2,0,L|411:125,2,48.5,2|0|0,0:2|0:2|3:2,0:0:0:0:
186,56,100640,2,0,L|303:47,1,97,8|0,0:2|0:0,0:0:0:0:
34,91,100974,6,0,L|74:135,1,48.5,2|0,0:2|0:2,0:0:0:0:
130,146,101140,1,0,3:2:0:0:
320,260,101224,2,0,L|381:260,2,48.5,2|8|0,0:2|0:2|0:2,0:0:0:0:
133,355,101474,2,0,L|215:357,1,48.5,2|0,0:2|0:2,0:0:0:0:
257,351,101640,2,0,L|375:320,1,97,2|0,3:2|0:2,0:0:0:0:
66,284,101974,6,0,L|49:162,1,97,10|0,0:2|0:0,0:0:0:0:
219,135,102307,2,0,L|157:103,1,48.5,2|0,0:2|0:2,0:0:0:0:
109,104,102474,1,0,3:2:0:0:
385,48,102640,2,0,P|405:117|323:153,1,145.5,10|0,0:2|0:2,0:0:0:0:
116,194,102974,6,0,P|160:246|249:245,1,145.5,2|0,3:2|0:2,0:0:0:0:
298,245,103307,1,8,0:2:0:0:
61,356,103474,2,0,L|109:355,1,48.5,2|0,0:2|0:2,0:0:0:0:
321,342,103640,2,0,L|324:288,1,48.5,8|0,0:2|0:2,0:0:0:0:
116,194,103807,2,0,L|55:192,1,48.5,4|0,3:2|0:2,0:0:0:0:
336,111,103974,2,0,L|209:100,1,97,2|0,0:2|3:0,0:0:0:0:
166,104,104224,1,0,3:0:0:0:
428,38,104307,5,14,3:2:0:0:
439,155,104474,1,0,3:2:0:0:
280,204,104640,2,0,L|231:197,1,48.5,0|0,3:2|0:0,0:0:0:0:
432,276,104807,1,8,0:2:0:0:
298,322,104974,1,0,3:2:0:0:
439,364,105140,2,0,L|504:358,1,48.5,0|0,3:2|0:0,0:0:0:0:
265,102,105307,1,10,0:2:0:0:
493,37,105474,2,0,L|444:40,1,48.5,2|0,3:2|0:0,0:0:0:0:
216,188,105640,5,12,0:2:0:0:
351,244,105807,1,0,3:2:0:0:
194,300,105974,2,0,L|145:298,1,48.5,0|0,3:2|0:0,0:0:0:0:
354,352,106140,1,10,0:2:0:0:
219,297,106307,1,0,3:2:0:0:
71,206,106473,2,0,L|131:202,1,48.5,0|0,3:2|0:0,0:0:0:0:
336,191,106640,5,10,0:2:0:0:
358,147,106723,1,0,0:2:0:0:
336,104,106806,1,2,3:2:0:0:
285,88,106889,1,0,3:2:0:0:
61,106,106973,2,0,L|69:244,1,97,0|0,3:2|3:2,0:0:0:0:
127,220,107223,1,0,0:0:0:0:
347,85,107307,2,0,L|296:115,1,48.5,12|0,0:2|0:0,0:0:0:0:
236,117,107473,1,0,3:2:0:0:
468,196,107640,2,0,L|379:211,1,48.5,2|0,3:2|0:0,0:0:0:0:
188,272,107807,5,8,0:2:0:0:
322,330,107973,1,0,3:2:0:0:
474,294,108140,2,0,L|417:289,1,48.5,2|2,3:2|3:2,0:0:0:0:
192,359,108307,1,8,0:0:0:0:
70,331,108473,1,0,3:2:0:0:
297,222,108640,2,0,L|386:207,1,48.5,12|0,0:2|0:2,0:0:0:0:
145,146,108807,2,0,L|77:141,1,48.5,6|0,0:3|0:2,0:0:0:0:
309,56,108973,2,0,L|231:52,1,48.5,8|0,0:2|0:2,0:0:0:0:
54,24,109140,2,0,L|138:20,1,48.5,4|0,0:3|0:2,0:0:0:0:
335,138,109307,6,0,L|157:158,1,145.5,4|0,0:2|0:2,0:0:0:0:
446,313,109640,6,0,L|449:191,1,97,4|0,3:2|3:2,0:0:0:0:
286,277,109973,2,0,L|211:286,1,48.5,8|0,0:2|0:0,0:0:0:0:
429,108,110140,2,0,L|365:109,1,48.5,2|0,3:2|0:2,0:0:0:0:
157,48,110307,1,14,0:2:0:0:
294,31,110473,1,0,0:0:0:0:
32,80,110640,2,0,L|28:192,1,97,4|0,0:3|3:2,0:0:0:0:
72,204,110862,1,0,3:2:0:0:
125,212,110918,1,0,3:2:0:0:
325,211,110973,6,0,L|385:215,1,48.5,4|0,0:2|0:2,0:0:0:0:
171,301,111140,2,0,L|110:306,1,48.5,0|0,0:2|0:2,0:0:0:0:
354,340,111307,2,0,L|293:344,1,48.5,4|0,0:2|0:2,0:0:0:0:
97,349,111473,2,0,L|19:346,1,48.5,2|0,0:2|0:2,0:0:0:0:
283,208,111640,1,0,3:0:0:0:
25,101,111807,2,0,L|103:100,1,48.5,8|0,0:0|0:0,0:0:0:0:
305,22,111973,2,0,L|142:28,1,145.5,6|0,0:0|0:0,0:0:0:0:
414,124,112307,5,6,3:2:0:0:
256,192,112390,12,0,117557,0:0:0:0:
