osu file format v14

[General]
AudioFilename: audio.mp3
AudioLeadIn: 0
PreviewTime: 89006
Countdown: 0
SampleSet: Soft
StackLeniency: 0.4
Mode: 0
LetterboxInBreaks: 0
WidescreenStoryboard: 1

[Editor]
Bookmarks: 531,12531,23138
DistanceSpacing: 1.7
BeatDivisor: 4
GridSize: 32
TimelineZoom: 1.750003

[Metadata]
Title:Amnolys
TitleUnicode:Amnolys
Artist:onoken
ArtistUnicode:onoken
Creator:Scaltinof
Version:Extra
Source:beatmania IIDX 22 PENDUAL
Tags:rui Toyosaki Aki Kloyd
BeatmapID:2074258
BeatmapSetID:991848

[Difficulty]
HPDrainRate:7.9
CircleSize:4.2
OverallDifficulty:9
ApproachRate:9.4
SliderMultiplier:1.6
SliderTickRate:1

[Events]
//Background and Video events
0,0,"bg.jpg",0,0
//Break Periods
2,62539,65799
//Storyboard Layer 0 (Background)
//Storyboard Layer 1 (Fail)
//Storyboard Layer 2 (Pass)
//Storyboard Layer 3 (Foreground)
//Storyboard Layer 4 (Overlay)
//Storyboard Sound Samples

[TimingPoints]
531,428.571428571429,4,2,1,30,1,0
531,-200,4,2,1,30,0,0
1388,-142.857142857143,4,2,1,40,0,0
1709,-142.857142857143,4,2,1,5,0,0
1816,-111.111111111111,4,2,1,50,0,0
2138,-111.111111111111,4,2,1,5,0,0
2245,-200,4,2,1,40,0,0
2673,-200,4,2,1,30,0,0
2995,-200,4,2,1,5,0,0
3102,-200,4,2,1,30,0,0
3316,-200,4,2,1,50,0,0
3745,-200,4,2,1,30,0,0
4281,-200,4,2,1,5,0,0
4388,-111.111111111111,4,2,1,50,0,0
4709,-111.111111111111,4,2,1,5,0,0
4816,-111.111111111111,4,2,1,50,0,0
5459,-111.111111111111,4,2,1,30,0,0
5673,-200,4,2,1,30,0,0
5995,-200,4,2,1,5,0,0
6102,-111.111111111111,4,2,1,50,0,0
6423,-111.111111111111,4,2,1,5,0,0
6531,-111.111111111111,4,2,1,50,0,0
6745,-200,4,2,1,30,0,0
7388,-200,4,2,1,30,0,0
8245,-142.857142857143,4,2,1,40,0,0
8673,-111.111111111111,4,2,1,50,0,0
8995,-111.111111111111,4,2,1,5,0,0
9102,-90.9090909090909,4,2,1,60,0,0
9423,-90.9090909090909,4,2,1,5,0,0
9531,-111.111111111111,4,2,1,50,0,0
9852,-111.111111111111,4,2,1,5,0,0
9959,-111.111111111111,4,2,1,40,0,0
10816,-200,4,2,1,30,0,0
11138,-200,4,2,1,5,0,0
11245,-90.9090909090908,4,2,1,50,0,0
11566,-90.9090909090908,4,2,1,5,0,0
11673,-76.9230769230769,4,2,1,70,0,0
11995,-76.9230769230769,4,2,1,5,0,0
12102,-100,4,2,1,30,0,0
12423,-100,4,2,1,5,0,0
12531,-66.6666666666667,4,2,1,60,0,0
19388,-66.6666666666667,4,2,1,60,0,0
21531,-43.4782608695652,4,2,1,60,0,0
22816,-200,4,2,1,60,0,0
23245,-40,4,2,1,60,0,0
23673,-66.6666666666667,4,2,1,60,0,0
26245,-133.333333333333,4,2,1,60,0,0
27316,-66.6666666666667,4,2,1,80,0,0
27959,-133.333333333333,4,2,1,60,0,0
29030,-50,4,2,1,80,0,0
29245,-66.6666666666667,4,2,1,80,0,0
29673,-133.333333333333,4,2,1,60,0,0
30744,-66.6666666666667,4,2,1,80,0,0
31388,-133.333333333333,4,2,1,60,0,0
32245,-133.333333333333,4,2,1,60,0,0
32673,-66.6666666666667,4,2,1,80,0,0
33102,-133.333333333333,4,2,1,60,0,0
34709,-55.5555555555556,4,2,2,80,0,0
35352,-50,4,2,1,60,0,0
35673,333.333333333333,4,2,1,70,1,0
41006,-100,4,2,1,60,0,0
43672,-100,4,2,1,70,0,0
44006,-76.9230769230769,4,2,1,80,0,0
45172,-76.9230769230769,4,2,1,70,0,0
46172,-200,4,2,1,60,0,0
46506,-66.6666666666667,4,2,1,80,0,0
46839,-100,4,2,1,60,0,0
50339,-66.6666666666667,4,2,1,80,0,0
50672,-200,4,2,1,40,0,0
51339,-66.6666666666667,4,2,1,80,0,0
51672,-100,4,2,1,60,0,0
54672,-66.6666666666667,4,2,1,80,0,0
55506,-100,4,2,1,70,0,0
57006,-100,4,2,1,60,0,0
59672,-100,4,2,1,70,0,0
61172,-40,4,2,1,80,0,0
61339,-66.6666666666667,4,2,1,60,0,0
61672,-66.6666666666667,4,2,1,40,0,0
62006,-66.6666666666667,4,2,1,60,0,0
62339,-66.6666666666667,4,2,1,70,0,0
67672,-100,4,2,1,60,0,0
68672,-66.6666666666667,4,2,1,60,0,0
69006,-100,4,2,1,60,0,0
69839,-66.6666666666667,4,2,1,60,0,0
70006,-50,4,2,1,80,0,0
70339,-100,4,2,1,60,0,0
71172,-66.6666666666667,4,2,1,60,0,0
71672,-100,4,2,1,60,0,0
72172,-66.6666666666667,4,2,1,60,0,0
72672,-50,4,2,1,80,0,0
73006,-100,4,2,1,60,0,0
74006,-66.6666666666667,4,2,1,60,0,0
74339,-100,4,2,1,60,0,0
75172,-66.6666666666667,4,2,1,60,0,0
75339,-50,4,2,1,80,0,0
75672,-100,4,2,1,60,0,0
76506,-66.6666666666667,4,2,1,60,0,0
77006,-100,4,2,1,60,0,0
77172,-66.6666666666667,4,2,1,60,0,0
78006,-50,4,2,1,80,0,0
78339,-100,4,2,1,60,0,0
79339,-66.6666666666667,4,2,1,60,0,0
79672,-100,4,2,1,60,0,0
80506,-66.6666666666667,4,2,1,60,0,0
80672,-50,4,2,1,80,0,0
81006,-100,4,2,1,60,0,0
81839,-66.6666666666667,4,2,1,60,0,0
82339,-100,4,2,1,60,0,0
82839,-66.6666666666667,4,2,1,60,0,0
83339,-50,4,2,1,80,0,0
83672,-100,4,2,1,60,0,0
84672,-66.6666666666667,4,2,1,60,0,0
85339,-100,4,2,1,60,0,0
86006,-66.6666666666667,4,2,1,60,0,0
86339,-500,4,2,1,60,0,0
87589,-500,4,2,1,5,0,0
89006,-83.3333333333333,4,2,1,80,0,1
95672,-66.6666666666667,4,2,1,90,0,1
96339,333.333333333333,4,2,1,80,1,0
96339,-100,4,2,1,80,0,0
97005,-83.3333333333333,4,2,1,80,0,0
97505,-66.6666666666667,4,2,1,80,0,0
98005,-83.3333333333333,4,2,1,80,0,0
98672,-66.6666666666667,4,2,1,80,0,0
99005,-83.3333333333333,4,2,1,80,0,0
103672,-66.6666666666667,4,2,1,90,0,0
104172,-100,4,2,1,90,0,0
104338,-83.3333333333333,4,2,1,80,0,1
109005,-66.6666666666667,4,2,3,90,0,1
109338,-50,4,2,3,100,0,1
109672,-66.6666666666667,4,2,1,90,0,1
110338,-57.1428571428571,4,2,1,90,0,1
111838,-50,4,2,1,100,0,1
112338,-133.333333333333,4,2,1,40,0,0
114672,-133.333333333333,4,2,1,55,0,0
115005,-133.333333333333,4,2,1,40,0,0
116005,-133.333333333333,4,2,1,40,0,0
116116,-133.333333333333,4,2,1,35,0,0
116227,-133.333333333333,4,2,1,30,0,0
116338,-133.333333333333,4,2,1,25,0,0
116450,-133.333333333333,4,2,1,20,0,0
116561,-133.333333333333,4,2,1,15,0,0
116672,-133.333333333333,4,2,1,15,0,0
116783,-133.333333333333,4,2,1,20,0,0
116894,-133.333333333333,4,2,1,25,0,0
117005,-133.333333333333,4,2,1,30,0,0
117116,-133.333333333333,4,2,1,35,0,0
117227,-133.333333333333,4,2,1,40,0,0
117338,-133.333333333333,4,2,1,45,0,0
117450,-133.333333333333,4,2,1,50,0,0
117561,-133.333333333333,4,2,1,55,0,0

[Colours]
Combo1 : 231,52,52
Combo2 : 52,174,197
Combo3 : 249,210,220

[HitObjects]
39,280,531,5,2,0:2:0:0:
177,246,745,1,0,0:2:0:0:
90,342,959,2,0,P|80:359|73:378,1,40,0|0,0:2|0:2,0:2:0:0:
238,326,1388,2,0,P|224:286|201:252,1,55.9999982910157,2|0,0:2|0:2,0:2:0:0:
88,180,1816,2,0,P|138:199|191:202,1,107.999996704102,0|0,0:2|0:2,0:2:0:0:
271,177,2245,5,2,0:2:0:0:
247,256,2459,1,0,0:2:0:0:
377,346,2673,2,0,L|369:286,1,60,0|0,0:2|0:2,0:2:0:0:
289,332,3102,21,2,0:2:0:0:
353,150,3316,1,0,0:2:0:0:
477,225,3531,1,0,0:2:0:0:
494,324,3745,1,2,0:2:0:0:
369,284,3959,6,0,P|377:250|393:225,1,60,2|0,0:2|0:2,0:2:0:0:
478,184,4388,2,0,P|427:166|388:129,1,107.999996704102,0|0,0:2|0:2,0:2:0:0:
389,228,4816,1,2,0:2:0:0:
135,324,5459,21,2,0:2:0:0:
249,345,5673,2,0,P|240:317|221:286,1,60,2|0,0:2|0:2,0:2:0:0:
144,239,6102,2,0,P|194:221|233:184,1,107.999996704102,0|0,0:2|0:2,0:2:0:0:
274,114,6531,1,2,0:2:0:0:
291,243,6745,1,0,0:2:0:0:
390,163,6959,1,2,0:2:0:0:
39,280,7388,5,2,0:2:0:0:
177,246,7602,1,0,0:2:0:0:
90,342,7816,2,0,P|80:359|73:378,1,40,0|0,0:2|0:2,0:2:0:0:
0,218,8245,2,0,P|23:233|50:242,1,55.9999982910157,2|0,0:2|0:2,0:2:0:0:
158,216,8673,2,0,P|183:168|191:115,1,107.999996704102,2|0,0:2|0:2,0:2:0:0:
153,1,9102,22,0,P|206:38|270:52,1,132.00000402832,2|0,0:2|0:2,0:2:0:0:
363,11,9531,2,0,L|347:128,1,107.999996704102,2|0,0:2|0:2,0:2:0:0:
430,106,9959,5,2,0:2:0:0:
270,53,10173,1,0,0:2:0:0:
302,189,10388,1,0,0:2:0:0:
400,181,10602,1,2,0:2:0:0:
353,255,10816,22,0,P|342:283|337:321,1,60,2|0,0:2|0:2,0:2:0:0:
422,317,11245,6,0,P|364:285|300:271,1,132.00000402832,2|0,0:2|0:2,0:2:0:0:
225,327,11673,2,0,B|191:257|235:250|198:175,1,155.999992858887,2|0,0:2|0:2,0:2:0:0:
55,211,12102,2,0,P|77:260|124:234,1,120,2|0,0:2|0:2,0:2:0:0:
113,52,12531,22,0,P|103:39|92:29,6,30.0000011444092,0|0|0|0|0|0|0,3:2|0:2|0:2|0:2|0:2|0:2|0:2,0:2:0:0:
1,113,12959,2,0,P|38:123|68:121,1,60.0000022888184,2|0,0:2|0:2,0:2:0:0:
205,58,13173,2,0,P|232:30|245:3,1,60.0000022888184,2|0,0:2|0:2,0:2:0:0:
377,261,13388,22,0,P|393:297|399:336,1,80.0000030517579,8|0,0:2|0:2,0:2:0:0:
246,201,13673,1,0,0:2:0:0:
411,109,13816,1,2,3:2:0:0:
120,64,14031,1,2,0:2:0:0:
223,336,14245,22,0,L|236:258,3,60.0000022888184,0|0|0|0,0:2|0:2|0:2|0:2,0:2:0:0:
145,220,14673,2,0,P|136:203|130:184,2,40.000001525879,2|0|0,0:0|0:0|0:0,0:2:0:0:
249,129,14888,2,0,P|258:111|264:92,2,40.000001525879,2|0|0,0:0|0:0|0:0,0:2:0:0:
68,129,15102,22,0,P|53:155|47:184,1,60.0000022888184,8|0,0:2|0:2,0:2:0:0:
139,343,15316,1,0,0:2:0:0:
134,313,15423,1,0,0:0:0:0:
59,262,15531,2,0,L|0:269,1,60.0000022888184,2|0,0:2|0:2,0:2:0:0:
190,122,15745,2,0,L|248:129,1,60.0000022888184,2|0,3:2|0:2,0:2:0:0:
422,338,15959,5,2,3:2:0:0:
260,265,16173,1,0,0:2:0:0:
490,173,16388,1,0,3:2:0:0:
490,172,16816,22,0,P|463:186|433:190,1,60.0000022888184,10|0,0:2|0:2,0:2:0:0:
209,40,17031,2,0,L|163:34,4,40.000001525879,0|0|0|0|0,0:2|0:2|0:2|0:2|0:2,0:2:0:0:
112,86,17388,1,2,0:2:0:0:
103,104,17460,1,2,0:2:0:0:
97,123,17531,2,0,P|95:142|96:162,1,40.000001525879,2|0,0:2|0:2,0:2:0:0:
38,18,17673,22,0,P|20:53|9:92,1,80.0000030517579,2|0,3:2|0:2,0:2:0:0:
0,252,17959,1,0,0:2:0:0:
173,230,18102,1,2,3:2:0:0:
188,134,18245,1,2,0:2:0:0:
96,162,18388,1,2,0:2:0:0:
82,257,18531,6,0,P|75:275|71:295,3,40.000001525879,8|0|0|0,0:2|0:2|0:2|0:2,0:2:0:0:
205,370,18816,2,0,P|211:350|214:331,1,40.000001525879,0|0,0:2|0:2,0:2:0:0:
61,378,18959,5,2,0:3:0:0:
137,332,19066,1,2,0:3:0:0:
213,286,19173,1,2,0:3:0:0:
289,240,19281,1,2,0:3:0:0:
375,324,19388,22,0,L|381:372,6,30.0000011444092,4|0|0|0|0|0|0,3:2|0:2|0:2|0:2|0:2|0:2|0:2,0:2:0:0:
471,282,19816,2,0,P|484:248|488:212,1,60.0000022888184,2|0,0:2|0:2,0:2:0:0:
245,84,20031,2,0,P|231:117|227:153,1,60.0000022888184,2|0,0:2|0:2,0:2:0:0:
388,308,20245,6,0,L|167:323,1,180.000006866455,8|0,0:2|0:2,0:2:0:0:
138,359,20673,1,2,3:2:0:0:
407,226,20888,2,0,L|313:232,1,60.0000022888184,8|0,0:2|0:2,0:2:0:0:
100,290,21102,22,0,P|84:259|77:223,1,60.0000022888184,2|0,0:2|0:2,0:2:0:0:
184,48,21316,2,8,P|194:22|200:-9,2,40.000001525879,8|8|8,0:3|0:3|0:3,0:3:0:0:
41,125,21531,6,0,B|117:101|117:101|171:127|171:127|230:120|230:120|298:162,1,276.000005264282,2|0,3:2|0:2,1:2:0:0:
358,39,21959,22,0,B|397:3|397:3|361:172,1,184.000003509522,10|0,0:2|0:2,0:2:0:0:
350,221,22281,1,0,3:0:0:0:
455,106,22388,6,0,B|467:113|467:113|479:170|479:170|469:185,1,92.0000017547608,2|0,3:2|0:2,0:2:0:0:
225,286,22602,2,0,B|212:278|212:278|200:221|200:221|210:206,1,92.0000017547608,0|0,3:2|0:2,0:2:0:0:
388,326,22816,22,0,P|400:354|403:384,1,60,2|0,3:2|0:2,0:2:0:0:
503,254,23245,6,0,B|481:279|451:282|451:282|438:249|399:231|399:231|341:293|315:237|250:295,1,300,12|0,0:2|0:2,0:2:0:0:
132,269,23673,5,0,3:2:0:0:
181,364,23816,1,0,0:2:0:0:
39,317,23959,1,2,0:2:0:0:
143,156,24102,1,2,3:2:0:0:
40,205,24245,1,2,0:2:0:0:
233,222,24388,1,2,0:2:0:0:
213,60,24531,6,0,P|208:33|191:2,1,60.0000022888184,2|0,0:2|0:2,0:2:0:0:
288,117,24745,2,0,L|300:58,1,60.0000022888184,0|0,0:2|0:2,0:2:0:0:
420,53,24959,2,0,P|397:71|380:96,1,60.0000022888184,2|0,0:2|0:2,0:2:0:0:
331,282,25173,1,0,0:2:0:0:
361,276,25281,1,0,3:2:0:0:
441,233,25388,6,0,L|453:174,1,60.0000022888184,10|0,0:2|0:2,0:2:0:0:
251,325,25602,2,0,L|239:384,1,60.0000022888184,0|0,0:2|0:2,0:2:0:0:
437,323,25816,21,2,0:3:0:0:
361,276,25923,1,2,0:3:0:0:
285,229,26031,1,2,3:3:0:0:
209,182,26138,1,2,0:3:0:0:
88,222,26245,6,0,P|69:246|60:283,1,60.0000022888184,0|0,3:2|0:2,1:2:0:0:
133,135,26566,2,0,L|48:152,1,60.0000022888184,0|0,3:2|0:2,1:2:0:0:
191,12,26888,2,0,P|182:41|163:65,1,60.0000022888184,0|0,3:2|0:2,1:2:0:0:
474,28,27316,21,8,0:3:0:0:
449,57,27387,1,8,0:3:0:0:
432,93,27458,1,8,0:3:0:0:
428,133,27531,2,0,P|430:162|440:190,1,60.0000022888184,0|0,1:2|0:2,0:2:0:0:
332,266,27745,1,4,0:3:0:0:
418,328,27852,1,4,0:3:0:0:
272,370,27959,6,0,L|262:290,1,60.0000022888184,0|0,3:2|0:2,1:2:0:0:
186,300,28281,2,0,P|193:271|211:247,1,60.0000022888184,0|0,3:2|0:2,1:2:0:0:
120,164,28602,2,0,L|128:224,1,60.0000022888184,0|0,3:2|0:2,1:2:0:0:
285,59,29031,22,0,B|212:65|212:65|168:51,1,120,0|0,1:2|0:2,0:2:0:0:
103,18,29245,2,0,B|90:36|90:36|96:73,1,60.0000022888184,8|0,0:3|0:2,0:2:0:0:
310,149,29459,2,0,B|293:134|293:134|255:137,1,60.0000022888184,4|0,0:3|0:2,0:2:0:0:
79,306,29673,6,0,L|117:303,1,30.0000011444092,4|0,3:3|0:3,1:2:0:0:
272,211,29888,1,4,0:3:0:0:
308,275,29995,2,0,P|318:302|318:332,1,60.0000022888184,0|0,3:2|3:2,1:2:0:0:
460,291,30316,2,0,L|389:296,1,60.0000022888184,0|0,3:2|0:2,1:2:0:0:
54,125,30745,22,0,L|50:95,3,30.0000011444092,8|8|8|8,0:3|0:3|0:3|0:3,0:3:0:0:
135,31,30959,2,0,L|127:92,1,60.0000022888184,0|0,1:2|0:2,0:2:0:0:
12,190,31173,1,8,0:3:0:0:
11,229,31244,1,4,0:3:0:0:
24,267,31315,1,4,0:3:0:0:
47,299,31388,6,0,P|78:286|106:284,1,60.0000022888184,0|0,3:2|0:2,1:2:0:0:
152,219,31709,2,0,L|216:235,1,60.0000022888184,0|0,3:2|0:2,1:2:0:0:
279,307,32031,2,0,P|279:292|281:277,1,30.0000011444092,0|0,3:2|0:2,1:2:0:0:
393,184,32245,22,0,L|382:233,1,30.0000011444092,4|0,0:3|0:2,0:2:0:0:
414,332,32459,1,4,0:3:0:0:
429,345,32531,2,0,P|445:353|464:359,1,20.0000007629395,4|4,0:3|0:3,0:2:0:0:
274,377,32673,6,0,L|267:317,1,60.0000022888184,8|0,1:2|0:2,0:2:0:0:
246,110,32888,2,0,L|252:169,1,60.0000022888184,0|0,0:2|0:2,0:2:0:0:
357,271,33102,22,0,P|369:243|372:213,1,60.0000022888184,0|0,3:2|0:2,1:2:0:0:
229,247,33423,2,0,L|288:239,1,60.0000022888184,0|0,3:2|0:2,1:2:0:0:
141,244,33745,2,0,P|152:272|171:296,1,60.0000022888184,0|0,3:2|0:2,1:2:0:0:
77,312,34066,5,8,0:2:0:0:
123,22,34281,1,0,0:2:0:0:
204,36,34388,2,0,P|193:63|174:87,1,60.0000022888184,8|0,0:2|0:2,1:2:0:0:
57,139,34709,22,0,P|135:112|227:97,1,143.999995605469,0|0,1:2|0:2,1:2:0:0:
362,40,35031,1,0,1:2:0:0:
285,144,35138,1,0,1:2:0:0:
406,189,35245,1,0,1:2:0:0:
264,277,35352,6,2,P|379:284|447:379,1,240,8|4,1:2|3:2,0:2:0:0:
256,192,38339,12,2,40339,0:2:0:0:
52,343,40672,21,0,0:2:0:0:
71,336,40756,1,0,0:2:0:0:
100,329,40839,1,0,0:2:0:0:
140,324,40922,1,0,0:2:0:0:
190,320,41006,6,0,P|206:281|208:215,1,80,6|0,3:2|0:2,0:2:0:0:
391,269,41339,1,8,0:2:0:0:
455,85,41506,1,2,0:2:0:0:
277,130,41672,1,0,0:2:0:0:
277,130,41756,1,0,0:2:0:0:
277,130,41839,2,0,L|286:204,1,40,0|0,3:2|0:2,0:2:0:0:
300,347,42006,1,8,0:2:0:0:
109,234,42172,1,2,0:2:0:0:
86,199,42256,1,2,0:2:0:0:
74,161,42339,21,2,3:2:0:0:
3,267,42506,1,0,0:2:0:0:
170,158,42672,2,0,L|165:118,1,40,8|0,0:2|0:2,0:2:0:0:
151,11,42839,1,0,0:2:0:0:
151,11,42922,1,0,0:2:0:0:
151,11,43006,1,0,0:2:0:0:
6,83,43172,2,0,P|23:74|43:70,1,40,2|0,3:2|0:2,0:2:0:0:
226,55,43339,22,0,B|237:70|237:70|243:123,1,53.3333333333333,8|2,0:2|0:2,0:2:0:0:
252,226,43561,1,2,0:2:0:0:
404,167,43672,2,0,B|393:182|393:182|387:235,1,53.3333333333333,2|2,3:2|0:2,0:2:0:0:
378,338,43894,1,2,0:2:0:0:
309,161,44006,21,10,0:2:0:0:
469,280,44172,1,0,0:2:0:0:
469,280,44256,1,0,0:2:0:0:
469,280,44339,1,8,0:2:0:0:
491,31,44506,1,2,3:2:0:0:
55,333,44839,22,0,P|115:293|198:279,1,155.999992858887,2|0,3:2|0:2,0:2:0:0:
153,347,45172,1,2,3:2:0:0:
129,314,45256,1,2,0:2:0:0:
123,275,45339,1,2,0:2:0:0:
134,237,45422,1,2,0:2:0:0:
161,207,45506,2,0,B|203:180|255:193|255:193|235:166|197:176,1,155.999992858887,8|0,0:2|0:2,0:2:0:0:
23,166,45839,5,2,3:2:0:0:
236,30,46006,1,2,0:2:0:0:
110,142,46172,22,0,B|127:127|127:127|134:90,1,60,0|0,3:2|0:2,0:2:0:0:
226,40,46506,6,0,L|214:98,1,60.0000022888184,4|0,3:2|0:2,0:2:0:0:
49,231,46672,2,0,L|25:171,1,60.0000022888184,8|0,0:2|0:2,0:2:0:0:
262,175,46839,1,0,0:2:0:0:
262,175,46922,1,0,0:2:0:0:
262,175,47006,1,0,0:2:0:0:
104,80,47172,22,0,P|88:67|73:53,1,40,2|0,3:2|0:2,0:2:0:0:
182,232,47339,1,8,0:2:0:0:
163,240,47422,2,0,P|143:242|123:242,1,40,0|2,0:2|0:2,0:2:0:0:
432,211,47672,6,0,P|412:214|392:219,1,40,2|0,3:2|0:2,0:2:0:0:
285,312,47839,2,0,P|273:328|263:345,1,40,2|0,0:2|0:2,0:2:0:0:
478,281,48006,1,8,0:2:0:0:
347,151,48172,2,0,L|352:105,1,40,2|0,0:2|0:2,0:2:0:0:
466,20,48339,1,0,0:2:0:0:
466,20,48422,1,0,0:2:0:0:
466,20,48506,1,0,3:2:0:0:
270,116,48672,22,0,P|247:109|218:90,2,53.3333333333333,8|2|2,0:2|0:2|0:2,0:2:0:0:
474,30,49006,6,0,P|449:60|429:95,1,80,2|0,3:2|0:2,0:2:0:0:
221,250,49339,2,0,L|299:236,1,80,8|0,0:2|0:2,0:2:0:0:
512,238,49672,2,0,L|472:244,1,40,8|0,0:2|0:2,0:2:0:0:
324,350,49839,2,0,P|333:332|344:315,1,40,2|2,3:2|0:2,0:2:0:0:
512,322,50006,5,2,0:0:0:0:
452,377,50117,2,0,P|439:353|430:328,1,53.3333333333333,2|0,0:2|0:2,0:2:0:0:
492,150,50339,6,0,P|433:151|391:111,1,120.000004577637,8|0,0:2|0:2,0:2:0:0:
100,338,50672,6,0,L|124:347,1,20,2|0,0:3|0:3,0:3:0:0:
139,264,50839,2,0,L|165:266,1,20,2|0,0:3|0:3,0:3:0:0:
158,183,51006,2,0,L|184:178,1,20,2|0,0:3|0:3,0:3:0:0:
51,210,51172,2,0,L|54:230,1,20,2|0,3:3|0:3,0:3:0:0:
271,284,51339,22,0,B|312:221|296:146|296:146|287:163|292:181,1,180.000006866455,8|0,0:2|0:2,1:2:0:0:
373,276,51672,6,2,B|421:305|473:293|473:293|464:289|457:289,1,120,6|0,3:2|0:2,2:2:0:0:
381,366,52006,1,8,0:2:0:0:
437,207,52172,1,2,0:2:0:0:
249,262,52339,2,0,P|230:259|211:252,1,40,2|0,0:2|0:2,0:2:0:0:
302,338,52506,1,0,3:2:0:0:
377,156,52672,2,0,P|390:118|398:29,1,120,8|0,0:2|0:2,0:2:0:0:
472,89,53006,21,2,3:2:0:0:
302,193,53172,1,0,0:2:0:0:
487,94,53339,1,8,0:2:0:0:
319,13,53506,1,2,0:2:0:0:
456,180,53672,2,0,P|475:183|495:185,1,40,2|0,0:2|0:2,0:2:0:0:
387,238,53839,1,0,3:2:0:0:
232,89,54006,22,0,P|222:113|215:139,1,53.3333333333333,8|0,0:2|0:2,0:2:0:0:
117,45,54228,1,2,0:2:0:0:
31,134,54339,22,0,P|78:156|118:192,1,106.666666666667,2|0,3:2|0:2,0:2:0:0:
231,253,54672,2,0,B|109:254|20:353|20:353|48:340|77:339,1,300.000011444092,12|0,0:2|0:2,0:2:0:0:
206,373,55172,1,0,3:2:0:0:
63,216,55339,2,0,P|90:202|118:192,1,60.0000022888184,12|0,0:2|0:2,0:2:0:0:
289,201,55506,21,2,0:2:0:0:
298,218,55589,2,0,P|306:256|294:293,2,40,2|0|0,0:2|0:2|0:2,0:2:0:0:
174,117,55839,1,2,3:2:0:0:
165,99,55922,1,2,3:2:0:0:
217,47,56006,5,8,0:2:0:0:
132,188,56172,1,2,3:2:0:0:
74,8,56339,21,8,0:2:0:0:
11,195,56506,1,2,3:2:0:0:
315,146,56672,5,8,0:2:0:0:
186,304,56839,1,2,3:2:0:0:
464,367,57006,22,0,P|457:327|441:291,1,80,2|0,3:2|0:2,0:2:0:0:
211,139,57339,2,0,P|248:153|288:156,1,80,8|0,0:2|0:2,0:2:0:0:
389,104,57589,1,0,0:2:0:0:
395,85,57672,2,0,L|390:45,1,40,0|0,0:2|0:2,0:2:0:0:
299,167,57839,1,2,3:2:0:0:
503,238,58006,1,8,0:2:0:0:
397,11,58172,6,0,L|412:139,1,120,2|0,3:2|0:2,0:2:0:0:
421,210,58506,1,0,3:2:0:0:
121,145,58672,2,0,L|106:264,1,120,8|0,0:2|0:2,0:2:0:0:
34,323,59006,2,0,P|29:303|20:285,1,40,2|0,3:2|0:2,0:2:0:0:
201,222,59172,2,0,P|207:202|216:184,1,40,2|0,3:2|0:2,0:2:0:0:
70,26,59339,1,8,0:2:0:0:
431,76,59672,22,0,P|414:112|404:151,1,80,14|0,0:2|0:2,0:2:0:0:
301,40,60006,5,8,0:2:0:0:
392,267,60172,1,2,3:2:0:0:
512,127,60339,21,8,0:2:0:0:
404,291,60506,1,0,3:2:0:0:
255,259,60672,5,10,0:2:0:0:
422,312,60839,1,0,3:2:0:0:
225,363,61006,22,0,P|216:335|214:298,1,40,14|0,3:2|0:2,0:2:0:0:
277,97,61172,6,0,B|266:115|266:115|167:129,1,100,8|0,0:2|0:2,0:2:0:0:
2,148,61339,2,0,P|24:167|40:192,1,60.0000022888184,8|0,0:3|0:2,0:2:0:0:
179,253,61506,2,0,P|156:272|140:297,1,60.0000022888184,2|0,0:3|0:2,0:2:0:0:
12,366,61672,5,4,0:3:0:0:
27,354,61784,1,2,0:2:0:0:
46,347,61895,1,2,0:2:0:0:
132,321,62006,1,10,0:2:0:0:
73,265,62117,1,2,0:2:0:0:
118,199,62228,1,2,0:2:0:0:
89,95,62339,5,6,3:2:0:0:
256,192,66339,12,0,67589,0:0:0:0:
345,162,67672,6,0,P|353:125|355:82,1,80,0|0,3:0|0:0,1:0:0:0:
389,264,68006,1,0,0:0:0:0:
242,265,68172,2,0,B|289:245|289:245|386:261,1,120,0|0,3:0|0:0,1:0:0:0:
442,325,68506,2,0,P|450:343|455:362,1,40,8|0,0:3|0:0,0:0:0:0:
494,116,68672,22,0,P|453:165|339:157,1,180.000006866455,8|0,0:0|0:0,0:0:0:0:
204,20,69006,6,0,P|228:76|237:150,1,120,0|0,3:0|0:0,1:0:0:0:
240,174,69339,1,0,0:0:0:0:
39,203,69506,2,0,L|34:168,6,20,0|0|0|0|0|0|0,3:0|0:0|0:0|0:0|0:0|0:0|0:0,1:0:0:0:
123,77,69839,2,0,L|113:168,1,60.0000022888184,8|0,0:0|0:0,0:0:0:0:
17,337,70006,22,0,B|33:324|33:324|118:333|118:333|131:348|131:348|228:360|228:360|243:350,1,240,8|0,0:0|0:0,1:0:0:0:
347,377,70339,6,0,P|363:319|370:259,1,120,0|0,3:0|0:0,1:0:0:0:
367,220,70672,1,0,0:0:0:0:
502,290,70839,2,0,B|520:248|520:248|512:174,1,120,0|0,3:0|0:0,1:0:0:0:
480,84,71172,22,0,L|473:24,1,60.0000022888184,8|0,0:0|0:0,0:0:0:0:
338,132,71339,1,8,0:3:0:0:
442,235,71506,1,4,0:3:0:0:
185,288,71672,6,0,P|165:231|159:172,1,120,0|0,3:0|0:0,1:0:0:0:
159,131,72006,1,0,3:0:0:0:
26,32,72172,22,0,L|85:26,1,60.0000022888184,8|0,0:0|0:0,0:0:0:0:
243,134,72339,1,8,0:3:0:0:
93,258,72506,1,4,0:3:0:0:
308,225,72672,6,0,B|322:234|322:234|192:250|192:250|177:241|177:241|105:250,1,240,8|0,0:0|0:0,1:0:0:0:
23,357,73006,22,0,P|60:342|99:333,1,80,0|0,3:0|0:0,1:0:0:0:
34,201,73339,1,0,0:0:0:0:
187,366,73506,2,0,B|215:330|215:330|207:254,1,120,0|0,3:0|0:0,1:0:0:0:
172,165,73839,2,0,P|153:155|134:149,1,40,8|0,0:3|0:0,0:0:0:0:
318,352,74006,6,0,P|404:339|457:268,1,180.000006866455,8|0,0:0|0:0,0:0:0:0:
311,116,74339,22,0,P|294:173|287:235,1,120,0|0,3:0|0:0,1:0:0:0:
288,272,74672,1,0,0:0:0:0:
510,163,74839,2,0,L|504:130,6,20,0|0|0|0|0|0|0,3:0|0:0|0:0|0:0|0:0|0:0|0:0,1:0:0:0:
437,196,75172,6,0,L|428:136,1,60.0000022888184,8|0,0:0|0:0,0:0:0:0:
219,68,75339,2,0,B|238:50|238:50|310:40|310:40|332:22|332:22|352:145,1,240,8|0,0:0|0:0,1:0:0:0:
436,287,75672,22,0,P|399:269|317:250,1,120,0|0,3:0|0:0,1:0:0:0:
282,249,76006,1,0,0:0:0:0:
82,177,76172,2,0,B|113:214|113:214|121:285,1,120,0|0,3:0|0:0,1:0:0:0:
204,134,76506,6,0,L|194:197,1,60.0000022888184,8|0,0:0|0:0,0:0:0:0:
31,269,76672,1,8,0:3:0:0:
129,372,76839,1,4,0:3:0:0:
57,193,77006,2,0,P|46:177|32:163,1,40,0|0,3:0|0:0,0:0:0:0:
243,92,77172,22,0,L|233:155,1,60.0000022888184,8|0,0:0|0:0,0:0:0:0:
121,285,77339,2,0,B|76:274|76:274|92:285,1,60.0000022888184,8|0,0:3|0:0,0:0:0:0:
274,362,77506,2,0,P|305:358|338:344,1,60.0000022888184,4|0,0:3|0:0,0:0:0:0:
468,241,77672,21,2,0:3:0:0:
408,296,77783,1,2,0:3:0:0:
485,320,77895,1,2,0:3:0:0:
396,173,78006,22,0,B|344:206|344:206|415:222|415:222|473:233|512:193,1,240,8|0,0:0|0:0,1:0:0:0:
477,45,78339,22,0,P|466:82|459:123,1,80,0|0,3:0|0:0,1:0:0:0:
325,70,78672,1,0,0:0:0:0:
262,236,78839,2,0,B|302:274|302:274|385:292,1,120,0|0,3:0|0:0,1:0:0:0:
448,343,79172,2,0,P|447:323|443:303,1,40,8|0,0:3|0:0,0:0:0:0:
238,103,79339,6,0,P|179:169|181:257,1,180.000006866455,8|0,0:0|0:0,0:0:0:0:
319,384,79672,22,0,P|311:334|276:267,1,120,0|0,3:0|0:0,1:0:0:0:
262,236,80006,1,0,0:0:0:0:
8,290,80172,2,0,L|2:324,6,20,0|0|0|0|0|0|0,3:0|0:0|0:0|0:0|0:0|0:0|0:0,1:0:0:0:
79,341,80506,2,0,L|91:268,1,60.0000022888184,8|0,0:0|0:0,0:0:0:0:
299,155,80672,6,0,B|286:144|286:144|200:166|200:166|189:181|189:181|96:166|96:166|86:147,1,240,8|0,0:0|0:0,1:0:0:0:
10,14,81006,22,0,P|49:23|124:59,1,120,0|0,3:0|0:0,1:0:0:0:
152,79,81339,1,0,0:0:0:0:
30,204,81506,2,0,B|7:162|7:162|18:87,1,120,0|0,3:0|0:0,1:0:0:0:
160,19,81839,2,0,L|152:78,1,60.0000022888184,8|0,0:0|0:0,0:0:0:0:
135,211,82006,1,8,0:3:0:0:
0,280,82172,1,4,0:3:0:0:
231,201,82339,6,0,P|287:221|346:229,1,120,0|0,3:0|0:0,1:0:0:0:
385,233,82672,1,0,3:0:0:0:
349,73,82839,22,0,L|354:13,1,60.0000022888184,8|0,0:0|0:0,0:0:0:0:
475,190,83006,1,8,0:3:0:0:
356,302,83172,1,4,0:3:0:0:
507,98,83339,6,0,B|525:110|525:110|440:108|440:108|410:134|410:134|371:163|322:152,1,240,8|0,0:0|0:0,1:0:0:0:
193,32,83672,22,0,P|173:80|161:132,1,80,0|0,3:0|0:0,1:0:0:0:
161,134,83895,1,0,0:0:0:0:
26,98,84006,2,0,P|16:150|14:203,1,106.666666666667,4|8,3:0|0:3,1:0:0:0:
145,290,84339,21,4,0:3:0:0:
142,263,84450,1,0,0:0:0:0:
133,238,84561,1,0,0:0:0:0:
62,324,84672,2,0,P|129:379|224:333,1,160.000006103516,8|0,0:0|0:0,0:0:0:0:
346,232,85006,22,0,P|376:306|393:384,1,160.000006103516,8|4,0:0|0:3,1:0:0:0:
215,171,85339,2,0,P|162:160|113:140,1,106.666666666667,0|0,3:0|0:0,1:0:0:0:
322,110,85672,2,0,P|340:76|354:36,1,80,0|0,3:0|0:0,1:0:0:0:
362,0,85895,1,0,0:0:0:0:
435,166,86006,6,0,B|474:179|474:179|513:177,2,80.0000030517579,8|0|0,0:0|0:0|0:0,0:0:0:0:
240,298,86339,6,0,B|222:331|231:369|231:369|250:351|273:348,1,120,4|0,0:1|0:0,0:0:0:0:
256,192,87672,12,0,88922,0:0:0:0:
40,180,89006,6,0,P|86:186|133:199,1,95.9999970703126,6|0,3:2|0:2,0:2:0:0:
284,109,89339,1,8,0:2:0:0:
206,267,89506,1,2,0:2:0:0:
199,290,89589,1,0,0:2:0:0:
197,313,89672,2,0,P|197:345|206:374,1,47.9999985351563,0|0,0:2|0:2,0:2:0:0:
77,294,89839,1,2,3:2:0:0:
297,350,90006,6,0,P|322:324|340:286,1,63.9999980468751,8|2,0:2|0:2,0:2:0:0:
361,207,90228,1,2,0:2:0:0:
504,294,90339,6,0,P|458:277|411:269,1,95.9999970703126,2|0,3:2|0:2,0:2:0:0:
239,152,90672,1,8,0:2:0:0:
449,104,90839,1,2,0:2:0:0:
458,82,90922,1,0,0:2:0:0:
464,59,91006,2,0,P|467:35|467:11,1,47.9999985351563,0|0,0:2|0:2,0:2:0:0:
511,201,91172,1,0,3:2:0:0:
208,56,91339,2,0,B|175:84|175:84|274:66,1,143.999995605469,8|0,0:2|0:2,0:2:0:0:
413,191,91672,6,0,B|314:173,1,95.9999970703126,2|0,3:2|0:2,0:2:0:0:
119,221,92006,1,8,0:2:0:0:
241,342,92172,1,2,0:2:0:0:
221,328,92256,1,0,0:2:0:0:
197,318,92339,2,0,P|173:313|149:310,1,47.9999985351563,0|0,0:2|0:2,0:2:0:0:
15,347,92506,1,2,3:2:0:0:
208,233,92672,6,0,P|207:201|198:170,1,63.9999980468751,8|2,0:2|2:2,0:2:0:0:
159,81,92895,1,2,0:2:0:0:
0,96,93006,6,0,P|43:116|89:129,1,95.9999970703126,2|0,3:2|0:2,0:2:0:0:
263,61,93339,1,8,0:2:0:0:
79,211,93506,2,0,L|139:204,1,47.9999985351563,2|0,0:2|0:2,0:2:0:0:
328,254,93672,2,0,L|280:259,1,47.9999985351563,0|0,0:2|0:2,0:2:0:0:
138,351,93839,1,0,3:2:0:0:
331,172,94006,2,0,B|356:168|356:168|413:195|416:263,1,143.999995605469,8|0,0:2|0:2,0:2:0:0:
241,176,94339,6,0,P|221:132|208:85,1,95.9999970703126,2|0,3:2|0:2,0:2:0:0:
146,212,94672,1,8,0:2:0:0:
271,12,94839,2,0,P|293:5|317:1,1,47.9999985351563,2|0,0:2|0:2,0:2:0:0:
114,99,95006,2,0,P|90:93|66:89,1,47.9999985351563,0|0,0:2|0:2,0:2:0:0:
343,131,95172,1,0,3:2:0:0:
137,219,95339,2,0,B|89:237|31:219|31:219|47:211|71:211,1,143.999995605469,8|0,0:2|0:2,0:2:0:0:
236,245,95672,22,0,P|160:292|72:305,1,180.000006866455,4|0,3:2|0:2,0:2:0:0:
200,74,96006,2,0,P|202:161|137:220,1,180.000006866455,4|0,3:2|0:2,0:2:0:0:
6,133,96339,6,0,B|79:90|152:133|133:147|207:186|277:149,1,280,8|0,0:2|0:2,0:2:0:0:
362,32,97006,22,0,P|358:43|356:55,6,23.9999992675781,4|0|0|0|0|0|0,0:3|0:2|0:2|0:2|0:2|0:2|0:2,0:2:0:0:
463,137,97339,6,0,P|442:124|420:115,1,47.9999985351563,0|0,0:2|0:2,0:2:0:0:
258,255,97505,2,0,B|311:214|391:232|391:232|395:210|406:195,1,180.000006866455,8|0,0:2|0:2,0:2:0:0:
472,245,97839,1,8,0:3:0:0:
269,361,98005,2,0,P|317:311|387:319,1,143.999995605469,4|0,0:3|0:2,0:2:0:0:
455,369,98339,21,10,0:2:0:0:
207,308,98506,1,8,0:3:0:0:
403,167,98672,2,0,P|373:252|358:340,1,180.000006866455,8|0,0:2|0:2,0:2:0:0:
237,195,99006,22,0,P|251:224|258:255,2,63.9999980468751,2|0|0,0:2|0:2|0:2,0:2:0:0:
468,23,99339,22,0,P|402:52|331:65,1,143.999995605469,6|0,3:2|0:2,0:2:0:0:
249,66,99672,1,2,0:2:0:0:
409,156,99839,2,0,P|459:151|503:139,1,95.9999970703126,10|0,0:2|0:2,0:2:0:0:
349,217,100172,1,2,3:2:0:0:
506,255,100339,2,0,P|484:247|461:242,1,47.9999985351563,2|0,0:2|0:2,0:2:0:0:
270,317,100505,1,0,3:2:0:0:
493,358,100672,2,0,P|430:331|356:315,1,143.999995605469,8|0,0:2|0:2,0:2:0:0:
262,329,101005,22,0,P|238:336|217:347,1,47.9999985351563,2|0,0:2|0:2,0:2:0:0:
134,273,101172,1,0,3:2:0:0:
157,267,101255,1,2,0:2:0:0:
179,258,101339,2,0,P|186:235|191:211,1,47.9999985351563,8|0,0:2|0:2,0:2:0:0:
94,90,101505,2,0,P|85:110|80:134,1,47.9999985351563,2|0,0:2|0:2,0:2:0:0:
271,243,101672,6,0,P|283:197|290:149,1,95.9999970703126,2|0,3:2|0:2,0:2:0:0:
29,30,102005,2,0,P|19:50|10:74,1,47.9999985351563,10|0,0:2|0:2,0:2:0:0:
1,236,102172,1,0,0:0:0:0:
1,236,102255,1,0,0:2:0:0:
1,236,102339,2,0,P|23:229|46:225,1,47.9999985351563,2|0,0:2|0:2,0:2:0:0:
242,321,102505,1,0,3:2:0:0:
192,128,102672,2,0,B|169:79|120:48|120:48|140:50|153:59,1,143.999995605469,10|0,0:2|0:2,0:2:0:0:
359,166,103005,22,0,P|288:180|223:210,1,143.999995605469,2|0,3:2|0:2,0:2:0:0:
161,270,103339,1,8,0:2:0:0:
270,97,103505,2,0,P|278:74|282:50,1,47.9999985351563,2|0,0:2|0:2,0:2:0:0:
127,193,103672,6,0,P|99:179|76:161,1,60.0000022888184,8|0,0:2|0:2,0:2:0:0:
374,8,103838,2,0,P|374:37|371:67,1,60.0000022888184,4|0,3:2|0:2,0:2:0:0:
319,275,104005,1,2,0:2:0:0:
18,33,104172,21,0,3:0:0:0:
18,33,104255,1,0,3:0:0:0:
98,21,104338,6,0,L|80:65,1,47.9999985351563,14|0,3:2|0:2,0:2:0:0:
50,149,104505,1,0,3:2:0:0:
175,78,104672,1,0,3:2:0:0:
243,213,104838,2,0,L|251:166,1,47.9999985351563,8|0,0:2|0:2,0:2:0:0:
268,69,105005,1,0,3:2:0:0:
132,227,105172,1,0,3:2:0:0:
334,140,105338,2,0,L|326:187,1,47.9999985351563,10|0,0:2|0:2,0:2:0:0:
302,324,105505,21,2,3:2:0:0:
302,324,105588,1,0,3:2:0:0:
385,298,105672,6,0,L|432:291,1,47.9999985351563,12|0,0:2|0:2,0:2:0:0:
193,352,105838,1,0,3:2:0:0:
399,382,106005,1,0,3:2:0:0:
227,278,106172,2,0,L|179:258,1,47.9999985351563,10|0,0:2|0:2,0:2:0:0:
433,172,106338,1,0,3:2:0:0:
301,324,106505,1,0,3:2:0:0:
451,244,106672,2,0,L|498:239,1,47.9999985351563,10|0,0:2|0:2,0:2:0:0:
361,119,106838,21,2,3:2:0:0:
361,119,106922,1,0,3:2:0:0:
412,58,107005,5,0,3:2:0:0:
376,237,107172,1,0,3:2:0:0:
173,135,107338,2,0,B|144:122|144:122|78:130,1,95.9999970703126,12|0,0:2|3:2,0:2:0:0:
273,268,107672,1,2,3:2:0:0:
83,204,107838,2,0,L|130:199,1,47.9999985351563,8|0,0:2|0:2,0:2:0:0:
306,194,108005,1,0,3:2:0:0:
178,319,108172,21,2,3:2:0:0:
178,319,108255,1,2,3:2:0:0:
255,348,108338,6,0,L|321:341,1,47.9999985351563,8|0,0:0|0:0,0:0:0:0:
107,367,108505,1,0,3:2:0:0:
175,182,108672,2,0,P|152:189|130:199,1,47.9999985351563,12|0,0:2|0:2,0:2:0:0:
31,306,108838,2,0,P|20:327|12:349,1,47.9999985351563,6|0,0:3|0:2,0:2:0:0:
17,46,109005,22,0,P|18:75|25:105,1,60.0000022888184,8|0,0:2|0:2,0:2:0:0:
178,319,109172,2,0,P|179:289|186:259,1,60.0000022888184,4|0,0:3|0:2,0:2:0:0:
0,201,109338,6,0,P|118:189|226:113,1,240,4|0,0:2|0:2,0:2:0:0:
272,57,109672,21,4,3:2:0:0:
272,57,109838,1,0,3:2:0:0:
474,182,110005,1,8,0:2:0:0:
341,279,110172,2,0,P|343:249|349:219,1,60.0000022888184,2|0,3:2|0:2,0:2:0:0:
458,15,110338,6,0,B|448:35|448:35|288:72|288:72|271:56,1,210.000002002716,14|0,0:2|0:2,0:2:0:0:
206,6,110672,1,4,0:3:0:0:
348,142,110838,2,0,L|408:129,2,46.6666671117147,0|0|0,3:2|3:2|3:2,0:2:0:0:
257,263,111005,22,0,P|245:295|237:330,1,70.000000667572,4|0,0:2|0:2,0:2:0:0:
77,131,111172,2,0,P|88:164|94:198,1,70.000000667572,0|0,0:2|0:2,0:2:0:0:
16,332,111338,2,0,P|51:326|84:315,1,70.000000667572,4|0,0:2|0:2,0:2:0:0:
277,181,111505,2,0,P|244:169|209:162,1,70.000000667572,2|0,0:2|0:2,0:2:0:0:
0,188,111672,5,0,3:0:0:0:
173,2,111838,2,0,L|161:153,1,80,8|0,0:0|0:0,0:0:0:0:
148,353,112005,1,6,0:0:0:0:
453,29,112338,22,0,L|391:35,1,60.0000022888184,6|0,3:2|0:0,0:0:0:0:
281,132,112672,2,0,L|341:126,1,60.0000022888184,2|0,0:0|0:0,0:0:0:0:
425,191,113005,1,0,0:0:0:0:
431,200,113171,1,2,0:0:0:0:
458,38,113338,6,0,L|396:44,1,60.0000022888184,2|0,0:0|0:0,0:0:0:0:
286,141,113672,2,0,L|346:135,1,60.0000022888184,2|0,0:0|0:0,0:0:0:0:
431,200,114005,1,0,0:0:0:0:
437,208,114171,1,2,0:0:0:0:
503,169,114338,21,2,0:0:0:0:
492,258,114505,1,2,0:0:0:0:
379,286,114672,1,2,0:0:0:0:
354,154,114839,1,2,0:0:0:0:
463,47,115005,6,0,L|401:53,1,60.0000022888184,2|0,0:0|0:0,0:0:0:0:
291,150,115338,2,0,L|350:144,1,60.0000022888184,2|0,0:0|0:0,0:0:0:0:
436,208,115672,1,0,0:0:0:0:
441,217,115838,1,2,0:0:0:0:
299,223,116005,5,2,0:0:0:0:
259,229,116116,1,2,0:0:0:0:
227,245,116227,1,2,0:0:0:0:
201,264,116338,1,2,0:0:0:0:
181,284,116449,1,2,0:0:0:0:
168,304,116561,1,2,0:0:0:0:
162,323,116672,1,2,0:0:0:0:
163,342,116783,1,2,0:0:0:0:
174,365,116894,1,2,0:0:0:0:
203,378,117005,1,2,0:0:0:0:
239,368,117116,1,2,0:0:0:0:
266,333,117227,1,2,0:0:0:0:
273,283,117338,1,2,0:0:0:0:
259,228,117450,1,2,0:0:0:0:
220,179,117561,5,2,0:0:0:0:
