osu file format v14

[General]
AudioFilename: audio.mp3
AudioLeadIn: 0
PreviewTime: 89006
Countdown: 0
SampleSet: Soft
StackLeniency: 0.4
Mode: 0
LetterboxInBreaks: 0
WidescreenStoryboard: 1

[Editor]
Bookmarks: 531,12531
DistanceSpacing: 1
BeatDivisor: 3
GridSize: 8
TimelineZoom: 0.9000059

[Metadata]
Title:Amnolys
TitleUnicode:Amnolys
Artist:onoken
ArtistUnicode:onoken
Creator:Scaltinof
Version:Easy
Source:beatmania IIDX 22 PENDUAL
Tags:rui Toyosaki Aki Kloyd
BeatmapID:2239477
BeatmapSetID:991848

[Difficulty]
HPDrainRate:4
CircleSize:2
OverallDifficulty:4
ApproachRate:4
SliderMultiplier:1
SliderTickRate:1

[Events]
//Background and Video events
0,0,"bg.jpg",0,0
//Break Periods
2,35873,39686
2,62539,66352
2,86539,87686
//Storyboard Layer 0 (Background)
//Storyboard Layer 1 (Fail)
//Storyboard Layer 2 (Pass)
//Storyboard Layer 3 (Foreground)
//Storyboard Layer 4 (Overlay)
//Storyboard Sound Samples

[TimingPoints]
531,428.571428571429,4,2,1,30,1,0
531,-100,4,2,1,30,0,0
1388,-100,4,2,1,40,0,0
1709,-100,4,2,1,5,0,0
1816,-100,4,2,1,50,0,0
2138,-100,4,2,1,5,0,0
2245,-100,4,2,1,40,0,0
2673,-100,4,2,1,30,0,0
2995,-100,4,2,1,5,0,0
3102,-100,4,2,1,30,0,0
3316,-100,4,2,1,50,0,0
3745,-100,4,2,1,30,0,0
4281,-100,4,2,1,5,0,0
4388,-100,4,2,1,50,0,0
4709,-100,4,2,1,5,0,0
4816,-100,4,2,1,50,0,0
5459,-100,4,2,1,30,0,0
5673,-100,4,2,1,30,0,0
5995,-100,4,2,1,5,0,0
6102,-100,4,2,1,50,0,0
6423,-100,4,2,1,5,0,0
6531,-100,4,2,1,50,0,0
6745,-100,4,2,1,30,0,0
7388,-100,4,2,1,30,0,0
8245,-100,4,2,1,40,0,0
8673,-100,4,2,1,50,0,0
8995,-100,4,2,1,5,0,0
9102,-100,4,2,1,60,0,0
9423,-100,4,2,1,5,0,0
9531,-100,4,2,1,50,0,0
9852,-100,4,2,1,5,0,0
9959,-100,4,2,1,40,0,0
10816,-100,4,2,1,30,0,0
11138,-100,4,2,1,5,0,0
11245,-100,4,2,1,50,0,0
11566,-100,4,2,1,5,0,0
11673,-100,4,2,1,70,0,0
11995,-100,4,2,1,5,0,0
12102,-100,4,2,1,30,0,0
12423,-100,4,2,1,5,0,0
12531,-100,4,2,1,60,0,0
19388,-100,4,2,1,60,0,0
21531,-100,4,2,1,60,0,0
22816,-100,4,2,1,60,0,0
23245,-100,4,2,1,60,0,0
23673,-100,4,2,1,60,0,0
26245,-100,4,2,1,60,0,0
27316,-100,4,2,1,80,0,0
27959,-100,4,2,1,60,0,0
29030,-100,4,2,1,80,0,0
29245,-100,4,2,1,80,0,0
29673,-100,4,2,1,60,0,0
30744,-100,4,2,1,80,0,0
31388,-100,4,2,1,60,0,0
32245,-100,4,2,1,60,0,0
32459,-100,4,2,1,60,0,0
32673,-100,4,2,1,80,0,0
33102,-100,4,2,1,60,0,0
34709,-100,4,2,2,80,0,0
35352,-100,4,2,1,60,0,0
35673,333.333333333333,4,2,1,70,1,0
41006,-100,4,2,1,60,0,0
43672,-100,4,2,1,70,0,0
44006,-100,4,2,1,80,0,0
45172,-100,4,2,1,70,0,0
46172,-100,4,2,1,60,0,0
46506,-100,4,2,1,80,0,0
46839,-100,4,2,1,60,0,0
50339,-100,4,2,1,80,0,0
50672,-100,4,2,1,40,0,0
51339,-100,4,2,1,80,0,0
51672,-100,4,2,1,60,0,0
54672,-100,4,2,1,80,0,0
55506,-100,4,2,1,70,0,0
57006,-100,4,2,1,60,0,0
59672,-100,4,2,1,70,0,0
61172,-100,4,2,1,80,0,0
61339,-100,4,2,1,60,0,0
61672,-100,4,2,1,40,0,0
62006,-100,4,2,1,60,0,0
62339,-100,4,2,1,70,0,0
67672,-100,4,2,1,60,0,0
68672,-100,4,2,1,60,0,0
69006,-100,4,2,1,60,0,0
69839,-100,4,2,1,60,0,0
70006,-100,4,2,1,80,0,0
70339,-100,4,2,1,60,0,0
71172,-100,4,2,1,60,0,0
71672,-100,4,2,1,60,0,0
72172,-100,4,2,1,60,0,0
72672,-100,4,2,1,80,0,0
73006,-100,4,2,1,60,0,0
74006,-100,4,2,1,60,0,0
74339,-100,4,2,1,60,0,0
75172,-100,4,2,1,60,0,0
75339,-100,4,2,1,80,0,0
75672,-100,4,2,1,60,0,0
76506,-100,4,2,1,60,0,0
77006,-100,4,2,1,60,0,0
77172,-100,4,2,1,60,0,0
78006,-100,4,2,1,80,0,0
78339,-100,4,2,1,60,0,0
79339,-100,4,2,1,60,0,0
79672,-100,4,2,1,60,0,0
80506,-100,4,2,1,60,0,0
80672,-100,4,2,1,80,0,0
81006,-100,4,2,1,60,0,0
81839,-100,4,2,1,60,0,0
82339,-100,4,2,1,60,0,0
82839,-100,4,2,1,60,0,0
83339,-100,4,2,1,80,0,0
83672,-100,4,2,1,60,0,0
84672,-100,4,2,1,60,0,0
85339,-100,4,2,1,60,0,0
86006,-100,4,2,1,60,0,0
86339,-100,4,2,1,60,0,0
87589,-100,4,2,1,5,0,0
89006,-100,4,2,1,80,0,1
95672,-100,4,2,1,90,0,1
96339,333.333333333333,4,2,1,80,1,0
96339,-100,4,2,1,80,0,1
97006,-100,4,2,1,80,0,1
97506,-100,4,2,1,80,0,1
98006,-100,4,2,1,80,0,1
98672,-100,4,2,1,80,0,1
99005,-100,4,2,1,80,0,1
103672,-100,4,2,1,90,0,1
104338,-100,4,2,1,80,0,1
109005,-100,4,2,3,90,0,1
109338,-100,4,2,3,100,0,1
109672,-100,4,2,1,90,0,1
111838,-100,4,2,1,100,0,1
112338,-100,4,2,1,40,0,0
114672,-100,4,2,1,55,0,0
115005,-100,4,2,1,40,0,0
116005,-100,4,2,1,40,0,0
116116,-100,4,2,1,35,0,0
116227,-100,4,2,1,30,0,0
116338,-100,4,2,1,25,0,0
116450,-100,4,2,1,20,0,0
116561,-100,4,2,1,15,0,0
116672,-100,4,2,1,15,0,0
116783,-100,4,2,1,20,0,0
116894,-100,4,2,1,25,0,0
117005,-100,4,2,1,30,0,0
117116,-100,4,2,1,35,0,0
117227,-100,4,2,1,40,0,0
117338,-100,4,2,1,45,0,0
117450,-100,4,2,1,50,0,0
117561,-100,4,2,1,55,0,0
117672,-100,4,2,1,55,0,0

[Colours]
Combo1 : 255,157,201
Combo2 : 52,174,197
Combo3 : 249,210,220

[HitObjects]
23,176,531,6,0,L|157:166,1,100,2|0,0:2|0:2,0:0:0:0:
217,221,1388,2,0,P|232:165|248:122,2,100,2|0|2,0:2|0:2|0:2,0:0:0:0:
202,319,2673,1,0,0:2:0:0:
301,332,3102,2,0,P|358:351|394:372,1,100,2|0,0:2|0:2,0:0:0:0:
455,293,3959,5,2,0:2:0:0:
405,206,4388,1,0,0:2:0:0:
308,232,4816,1,2,0:2:0:0:
114,181,5673,5,2,0:2:0:0:
164,94,6102,1,0,0:2:0:0:
261,120,6531,2,0,P|296:129|336:133,2,50,2|0|2,0:2|0:2|0:2,0:0:0:0:
255,20,7388,6,0,P|304:26|353:38,1,100,2|0,0:2|0:2,0:0:0:0:
450,59,8245,1,2,0:2:0:0:
381,132,8673,1,2,0:2:0:0:
283,153,9102,2,0,P|299:214|321:248,1,100,2|2,0:2|0:2,0:0:0:0:
409,287,9959,2,0,P|481:298|521:315,2,100,2|0|2,0:2|0:2|0:2,0:0:0:0:
325,342,11245,5,2,0:2:0:0:
233,302,11673,1,2,0:2:0:0:
156,366,12102,1,2,0:2:0:0:
58,342,12531,6,0,P|121:323|90:195,1,200,0|8,3:2|0:2,0:0:0:0:
36,146,13816,1,2,3:2:0:0:
82,57,14245,2,0,L|181:68,1,100,0|2,0:2|0:0,0:0:0:0:
242,147,15102,2,0,L|341:136,1,100,8|2,0:2|0:2,0:0:0:0:
440,151,15959,6,0,P|465:110|466:47,2,100,2|0|10,3:2|3:2|0:2,0:0:0:0:
290,284,17673,2,0,P|265:325|264:388,2,100,2|2|8,3:2|3:2|0:2,0:0:0:0:
386,259,18959,1,2,0:3:0:0:
459,191,19388,6,0,P|409:216|313:124,1,200,4|8,3:2|0:2,0:0:0:0:
325,35,20673,1,2,3:2:0:0:
233,75,21102,2,0,L|125:90,1,100,2|2,0:2|3:2,0:0:0:0:
90,178,21959,2,0,L|198:193,1,100,10|2,0:2|3:2,0:0:0:0:
275,242,22816,5,2,3:2:0:0:
368,206,23245,2,0,B|392:220|392:220|408:263|408:263|405:289,1,100,12|0,0:2|3:2,0:0:0:0:
312,325,24102,2,0,B|288:311|288:311|272:268|272:268|274:241,1,100,2|2,3:2|0:2,0:0:0:0:
294,143,24959,1,2,0:2:0:0:
390,168,25388,1,10,0:2:0:0:
435,256,25816,1,2,0:3:0:0:
406,352,26245,6,0,B|368:347|368:347|334:363,2,75,0|0|0,3:2|3:2|3:2,0:0:0:0:
117,281,27959,2,0,B|155:276|155:276|189:292,2,75,0|0|0,3:2|3:2|3:2,0:0:0:0:
397,179,29673,2,0,B|359:174|359:174|325:190,2,75,4|0|0,3:3|3:2|3:2,0:0:0:0:
118,70,31388,2,0,B|156:65|156:65|190:81,2,75,0|0|0,3:2|3:2|3:2,0:0:0:0:
159,315,33102,6,0,B|121:320|121:320|87:304,2,75,0|0|0,3:2|3:2|3:2,0:0:0:0:
301,360,34388,2,0,L|310:268,1,75,8|0,0:2|1:2,0:0:0:0:
316,210,35031,2,0,P|349:227|385:233,1,75,0|8,1:2|1:2,0:0:0:0:
460,230,35673,5,4,3:2:0:0:
76,332,41006,6,0,B|57:307|57:307|48:218,1,100,6|8,3:2|0:2,0:0:0:0:
175,155,41839,2,0,L|169:204,1,50,0|8,3:2|0:2,0:0:0:0:
193,302,42339,1,2,3:2:0:0:
291,285,42672,1,8,0:2:0:0:
423,354,43172,2,0,L|428:298,1,50,2|8,3:2|0:2,0:0:0:0:
438,204,43672,5,2,3:2:0:0:
409,107,44006,1,10,0:2:0:0:
310,88,44339,2,0,L|291:22,1,50,8|2,0:2|3:2,0:0:0:0:
208,87,44839,2,0,P|158:110|92:100,2,100,2|2|8,3:2|3:2|0:2,0:0:0:0:
140,13,45839,1,2,3:2:0:0:
52,60,46172,6,0,L|66:175,1,100,0|4,3:2|3:2,0:0:0:0:
56,208,46672,1,8,0:2:0:0:
171,304,47172,2,0,L|231:295,1,50,2|8,3:2|0:2,0:0:0:0:
302,354,47672,1,2,3:2:0:0:
315,254,48006,1,8,0:2:0:0:
462,282,48506,2,0,L|451:210,1,50,0|8,3:2|0:2,0:0:0:0:
475,134,49006,5,2,3:2:0:0:
379,164,49339,1,8,0:2:0:0:
279,150,49672,2,0,L|222:122,1,50,8|2,0:2|3:2,0:0:0:0:
129,234,50339,2,0,L|112:132,2,100,8|2|2,0:2|0:3|0:3,0:0:0:0:
146,332,51339,1,8,0:2:0:0:
53,293,51672,6,0,P|84:254|128:232,1,100,6|8,3:2|0:2,0:0:0:0:
222,269,52339,2,0,L|335:287,1,100,2|8,0:2|0:2,0:0:0:0:
409,332,53006,2,0,P|453:309|484:271,2,100,2|8|2,3:2|0:2|0:2,0:0:0:0:
322,381,54006,1,8,0:2:0:0:
320,284,54339,1,2,3:2:0:0:
362,193,54672,6,0,P|289:188|232:235,1,150,12|0,0:2|3:2,0:0:0:0:
212,281,55339,2,0,P|155:327|82:322,1,150,12|2,0:2|3:2,0:0:0:0:
44,289,56006,1,8,0:2:0:0:
125,232,56339,1,8,0:2:0:0:
35,187,56672,1,8,0:2:0:0:
78,96,57006,6,0,P|121:74|171:66,1,100,2|8,3:2|0:2,0:0:0:0:
269,180,57839,2,0,P|239:220|224:267,2,100,2|2|0,3:2|3:2|3:2,0:0:0:0:
309,150,58672,1,8,0:2:0:0:
392,204,59006,2,0,P|446:193|482:164,1,100,2|8,3:2|0:2,0:0:0:0:
509,71,59672,6,0,L|394:51,1,100,14|8,0:2|0:2,0:0:0:0:
311,36,60339,2,0,L|291:151,1,100,8|10,0:2|0:2,0:0:0:0:
276,233,61006,2,0,P|327:260|377:264,2,100,14|8|4,3:2|0:3|0:3,0:0:0:0:
200,167,62006,1,10,0:2:0:0:
101,180,62339,5,6,3:2:0:0:
360,86,67672,6,0,B|460:67|460:67|427:101,1,150,0|0,3:0|3:0,0:0:0:0:
367,182,68506,2,0,P|357:205|355:230,1,50,8|8,0:3|0:0,0:0:0:0:
420,306,69006,2,0,B|380:338|325:326|325:326|320:353|301:373,1,150,0|0,3:0|3:0,0:0:0:0:
226,306,69839,2,0,L|167:302,1,50,8|8,0:0|0:0,0:0:0:0:
93,359,70339,6,0,B|64:317|82:263|82:263|74:230|51:213,1,150,0|0,3:0|3:0,0:0:0:0:
0,139,71172,2,0,B|33:101|33:101|81:125,1,100,8|4,0:0|0:3,0:0:0:0:
123,141,71672,2,0,L|217:99,1,100,0|0,3:0|3:0,0:0:0:0:
304,56,72339,1,8,0:3:0:0:
374,127,72672,1,8,0:0:0:0:
353,225,73006,6,0,B|408:235|445:199|445:199|447:238|423:256,1,150,0|0,3:0|3:0,0:0:0:0:
367,322,73839,2,0,P|337:319|296:309,1,50,8|8,0:3|0:0,0:0:0:0:
223,279,74339,2,0,B|211:181|211:181|269:202,1,150,0|0,3:0|3:0,0:0:0:0:
353,225,75172,2,0,L|361:159,1,50,8|8,0:0|0:0,0:0:0:0:
386,78,75672,6,0,B|334:69|292:100|292:100|276:78|253:69,1,150,0|0,3:0|3:0,0:0:0:0:
170,12,76506,2,0,B|134:47|134:47|153:92,1,100,8|4,0:0|0:3,0:0:0:0:
171,139,77006,2,0,L|154:249,1,100,0|8,3:0|0:3,0:0:0:0:
171,336,77672,1,2,0:3:0:0:
77,300,78006,1,8,0:0:0:0:
15,221,78339,6,0,B|29:123|29:123|46:147|77:163,1,150,0|0,3:0|3:0,0:0:0:0:
163,188,79172,2,0,L|171:138,1,50,8|8,0:3|0:0,0:0:0:0:
152,40,79672,2,0,B|170:86|225:102|225:102|283:93,1,150,0|0,3:0|3:0,0:0:0:0:
359,40,80506,2,0,L|372:90,1,50,8|8,0:0|0:0,0:0:0:0:
439,162,81006,6,0,B|419:212|437:260|437:260|455:277|461:302,1,150,0|0,3:0|3:0,0:0:0:0:
366,333,81839,2,0,B|333:370|333:370|286:351,1,100,8|4,0:0|0:3,0:0:0:0:
239,331,82339,1,0,3:0:0:0:
165,262,82672,2,0,P|149:221|151:160,2,100,0|8|8,3:0|0:3|0:0,0:0:0:0:
144,361,83672,6,0,L|41:348,1,100,0|4,3:0|3:0,0:0:0:0:
46,248,84339,2,0,L|149:261,1,100,4|8,0:3|0:0,0:0:0:0:
222,197,85006,1,8,0:0:0:0:
319,218,85339,2,0,P|378:212|421:190,1,100,0|0,3:0|3:0,0:0:0:0:
488,126,86006,1,8,0:0:0:0:
512,223,86339,5,4,0:1:0:0:
465,135,89006,6,0,L|336:146,1,100,6|8,3:2|0:2,0:0:0:0:
479,241,89839,2,0,L|388:233,1,50,2|8,3:2|0:2,0:0:0:0:
353,302,90339,2,0,P|301:270|240:253,1,100,2|8,3:2|0:2,0:0:0:0:
154,360,91172,2,0,P|154:337|158:310,1,50,0|8,3:2|0:2,0:0:0:0:
182,212,91672,6,0,P|138:222|71:218,1,100,2|8,3:2|0:2,0:0:0:0:
99,70,92506,2,0,P|166:65|197:68,1,50,2|8,3:2|0:2,0:0:0:0:
230,123,93006,2,0,L|343:110,1,100,2|8,3:2|0:2,0:0:0:0:
454,32,93839,2,0,L|393:25,1,50,0|8,3:2|0:2,0:0:0:0:
304,13,94339,5,2,3:2:0:0:
329,111,94672,2,0,P|372:156|464:174,1,150,8|0,0:2|3:2,0:0:0:0:
505,167,95339,1,8,0:2:0:0:
489,265,95672,1,4,3:2:0:0:
393,295,96006,1,4,3:2:0:0:
304,249,96339,6,0,P|257:316|130:165,1,350,8|8,0:2|0:2,0:0:0:0:
213,140,97839,2,0,P|224:118|231:92,1,50,8|4,0:3|0:3,0:0:0:0:
131,79,98339,2,0,P|99:40|54:11,2,100,10|10|2,0:2|0:2|0:2,0:0:0:0:
127,180,99339,6,0,P|195:157|314:168,1,150,6|10,3:2|0:2,0:0:0:0:
335,234,100172,2,0,P|381:252|420:283,1,100,2|0,3:2|3:2,0:0:0:0:
460,313,100672,1,8,0:2:0:0:
508,225,101005,2,0,L|494:120,1,100,2|8,0:2|0:2,0:0:0:0:
403,84,101672,6,0,P|364:117|304:138,1,100,2|10,3:2|0:2,0:0:0:0:
169,147,102505,2,0,L|161:205,1,50,0|10,3:2|0:2,0:0:0:0:
85,262,103005,1,2,3:2:0:0:
179,296,103339,1,8,0:2:0:0:
259,237,103672,2,0,L|267:179,2,50,8|4|2,0:2|3:2|0:2,0:0:0:0:
306,324,104338,6,0,P|374:314|468:315,2,150,6|8|10,3:2|0:2|0:2,0:0:0:0:
206,324,105672,2,0,P|138:314|44:315,2,150,6|10|10,3:2|0:2|0:2,0:0:0:0:
306,324,107005,5,2,3:2:0:0:
343,231,107338,2,0,P|341:163|329:122,1,100,12|2,0:2|3:2,0:0:0:0:
320,83,107838,1,8,0:2:0:0:
193,163,108338,2,0,L|82:150,1,100,8|12,0:0|0:2,0:0:0:0:
9,97,109005,1,8,0:2:0:0:
97,50,109338,1,4,0:2:0:0:
196,63,109672,6,0,P|198:113|193:163,1,100,4|8,3:2|0:2,0:0:0:0:
124,234,110338,2,0,P|194:211|270:216,1,150,14|0,0:2|0:2,0:0:0:0:
317,231,111005,2,0,L|418:217,1,100,4|4,0:2|0:2,0:0:0:0:
465,212,111505,2,0,P|475:190|480:157,1,50,2|0,0:2|0:0,0:0:0:0:
492,65,112005,1,6,0:0:0:0:
401,107,112338,5,6,3:2:0:0:
256,192,112505,12,2,117561,0:0:0:0:
