osu file format v14

[General]
AudioFilename: audio.mp3
AudioLeadIn: 0
PreviewTime: 88884
Countdown: 0
SampleSet: Soft
StackLeniency: 0.2
Mode: 0
LetterboxInBreaks: 0
WidescreenStoryboard: 1

[Editor]
DistanceSpacing: 2.8
BeatDivisor: 3
GridSize: 32
TimelineZoom: 3.699998

[Metadata]
Title:Amnolys
TitleUnicode:Amnolys
Artist:onoken
ArtistUnicode:onoken
Creator:LowComboFC
Version:NeilPerry's Extra
Source:
Tags:
BeatmapID:1395543
BeatmapSetID:652797

[Difficulty]
HPDrainRate:6
CircleSize:4
OverallDifficulty:8.6
ApproachRate:9.4
SliderMultiplier:1.92
SliderTickRate:1

[Events]
//Background and Video events
0,0,"bg.jpg",0,0
//Break Periods
//Storyboard Layer 0 (Background)
//Storyboard Layer 1 (Fail)
//Storyboard Layer 2 (Pass)
//Storyboard Layer 3 (Foreground)
//Storyboard Sound Samples

[TimingPoints]
492,428.571428571429,4,2,1,20,1,0
492,-142.857142857143,4,2,1,20,0,0
1777,-100,4,2,1,20,0,0
2206,-142.857142857143,4,2,1,20,0,0
4349,-100,4,2,1,20,0,0
4777,-142.857142857143,4,2,1,20,0,0
8634,-100,4,2,1,20,0,0
9063,-76.9230769230769,4,2,1,20,0,0
9492,-142.857142857143,4,2,1,20,0,0
10777,-166.666666666667,4,2,1,30,0,0
11206,-100,4,2,1,40,0,0
11634,-71.4285714285714,4,2,1,50,0,0
12492,-55.5555555555556,4,2,1,100,0,0
13777,-76.9230769230769,4,2,1,100,0,0
14206,-55.5555555555556,4,2,1,100,0,0
15920,-66.6666666666667,4,2,1,100,0,0
16349,-100,4,2,1,100,0,0
16777,-66.6666666666667,4,2,1,100,0,0
18492,-62.5,4,2,1,100,0,0
18920,-40,4,2,1,100,0,0
19349,-55.5555555555556,4,2,1,100,0,0
20206,-66.6666666666667,4,2,1,100,0,0
20634,-55.5555555555556,4,2,1,100,0,0
21063,-133.333333333333,4,2,1,100,0,0
21492,-40,4,2,1,100,0,0
21920,-50,4,2,1,100,0,0
22349,-30,4,2,1,100,0,0
22777,-55.5555555555556,4,2,1,100,0,0
23206,-40,4,2,1,100,0,0
23634,-50,4,2,1,100,0,0
24063,-40,4,2,1,100,0,0
25206,-66.6666666666667,4,2,1,100,0,0
25777,-40,4,2,1,100,0,0
26206,-34.4827586206897,4,2,1,100,0,0
27277,-133.333333333333,4,2,1,100,0,0
27706,-66.6666666666667,4,2,1,100,0,0
27920,-34.4827586206897,4,2,1,100,0,0
29206,-200,4,2,1,100,0,0
29634,-34.4827586206897,4,2,1,100,0,0
30706,-133.333333333333,4,2,1,100,0,0
31134,-66.6666666666667,4,2,1,100,0,0
31349,-34.4827586206897,4,2,1,100,0,0
32420,-100,4,2,1,100,0,0
32634,-400,4,2,1,100,0,0
32849,-33.3333333333333,4,2,1,100,0,0
33063,-34.4827586206897,4,2,1,100,0,0
34027,-100,4,2,1,100,0,0
34349,-34.4827586206897,4,2,1,100,0,0
35313,-133.333333333333,4,2,1,100,0,0
35635,333.333333333333,4,2,1,100,1,0
35635,-166.666666666667,4,2,1,50,0,0
38968,-100,4,2,1,50,0,0
39301,-125,4,2,1,50,0,0
39634,-166.666666666667,4,2,1,50,0,0
40384,-166.666666666667,4,2,1,20,0,0
40634,-166.666666666667,4,2,1,20,0,0
40801,-166.666666666667,4,2,1,20,0,0
40968,-83.3333333333333,4,2,1,100,0,0
44301,-58.8235294117647,4,2,1,100,0,0
44801,-83.3333333333333,4,2,1,100,0,0
45468,-58.8235294117647,4,2,1,100,0,0
45801,-125,4,2,1,100,0,0
46134,-83.3333333333333,4,2,1,100,0,0
46468,-58.8235294117647,4,2,1,100,0,0
46634,-83.3333333333333,4,2,1,100,0,0
47634,-200,4,2,1,100,0,0
47968,-133.333333333333,4,2,1,100,0,0
48134,-83.3333333333333,4,2,1,100,0,0
50301,-55.5555555555556,4,2,1,100,0,0
50634,-166.666666666667,4,2,1,100,0,0
50968,-100,4,2,1,100,0,0
51301,-58.8235294117647,4,2,1,100,0,0
51634,-83.3333333333333,4,2,1,100,0,0
60968,-66.6666666666667,4,2,1,100,0,0
61134,-83.3333333333333,4,2,1,100,0,0
62301,-166.666666666667,4,2,1,50,0,0
67634,-200,4,2,1,100,0,0
67801,-55.5555555555556,4,2,1,100,0,0
68134,-83.3333333333333,4,2,1,100,0,0
68968,-66.6666666666667,4,2,1,100,0,0
69468,-83.3333333333333,4,2,1,100,0,0
69968,-66.6666666666667,4,2,1,100,0,0
70301,-100,4,2,1,100,0,0
71634,-66.6666666666667,4,2,1,100,0,0
72968,-200,4,2,1,100,0,0
73134,-55.5555555555556,4,2,1,100,0,0
73468,-83.3333333333333,4,2,1,100,0,0
74302,-66.6666666666667,4,2,1,100,0,0
74801,-83.3333333333333,4,2,1,100,0,0
75301,-55.5555555555556,4,2,1,100,0,0
75634,-100,4,2,1,100,0,0
76301,-83.3333333333333,4,2,1,100,0,0
76968,-66.6666666666667,4,2,1,100,0,0
77634,-83.3333333333333,4,2,1,100,0,0
77968,-66.6666666666667,4,2,1,100,0,0
78301,-200,4,2,1,100,0,0
78468,-55.5555555555556,4,2,1,100,0,0
78801,-83.3333333333333,4,2,1,100,0,0
79634,-66.6666666666667,4,2,1,100,0,0
80634,-55.5555555555556,4,2,1,100,0,0
80968,-100,4,2,1,100,0,0
82301,-66.6666666666667,4,2,1,100,0,0
88968,-83.3333333333333,4,2,1,100,0,1
91301,-66.6666666666667,4,2,1,100,0,1
91634,-83.3333333333333,4,2,1,100,0,1
93968,-133.333333333333,4,2,1,100,0,1
94301,-66.6666666666667,4,2,1,100,0,1
94634,-83.3333333333333,4,2,1,100,0,1
94801,-66.6666666666667,4,2,1,100,0,1
95301,-133.333333333333,4,2,1,100,0,1
95634,-66.6666666666667,4,2,1,100,0,1
96301,-100,4,2,1,100,0,1
98634,-66.6666666666667,4,2,1,100,0,1
98968,333.333333333333,4,2,1,100,1,0
99301,-100,4,2,1,100,0,1
100134,-83.3333333333333,4,2,1,100,0,1
101634,-100,4,2,1,100,0,1
102968,-83.3333333333333,4,2,1,100,0,1
110801,-200,4,2,1,100,0,1
110967,-83.3333333333333,4,2,1,100,0,1
111967,-133.333333333333,4,2,1,100,0,1
112301,-166.666666666667,4,2,1,50,0,0

[Colours]
Combo1 : 128,255,169
Combo2 : 182,128,255
Combo3 : 255,128,255
Combo4 : 130,176,253

[HitObjects]
174,57,492,6,0,P|140:65|96:84,1,67.1999979492188
81,258,920,2,0,P|76:198|55:140,1,100.799996923828
18,79,1349,1,0,0:0:0:0:
27,72,1777,6,0,P|107:84|182:119,1,144
212,187,2206,6,0,P|172:154|171:88,1,100.799996923828
217,33,2634,1,0,0:0:0:0:
227,35,3063,5,0,0:0:0:0:
297,77,3277,1,0,0:0:0:0:
334,266,3492,5,0,0:0:0:0:
307,188,3706,1,0,0:0:0:0:
419,137,3920,6,0,P|465:153|512:188,1,100.799996923828
391,354,4349,6,0,P|377:291|394:198,1,144
448,51,4777,6,0,B|345:30|362:125|242:89,1,201.599993847656
142,11,5634,1,0,0:0:0:0:
142,11,6063,6,0,P|134:60|141:116,1,100.799996923828
172,228,6492,1,0,0:0:0:0:
211,306,6706,1,0,0:0:0:0:
264,247,6920,2,0,P|220:254|160:279,1,100.799996923828
33,357,7349,6,0,P|73:341|91:319,1,67.1999979492188
66,141,7777,2,0,L|35:33,1,100.799996923828
164,77,8206,1,0,0:0:0:0:
164,77,8634,6,0,P|232:83|332:100,1,144
385,236,9063,6,0,B|345:128|419:146|382:47,1,187.199991430664
278,286,9492,6,0,P|291:225|270:182,1,100.799996923828
194,188,9920,1,0,0:0:0:0:
118,220,10134,1,0,0:0:0:0:
184,355,10349,5,0,0:0:0:0:
190,273,10563,1,0,0:0:0:0:
105,23,10777,6,0,L|121:131,1,86.3999973632813
221,157,11206,6,0,L|194:2,1,144
19,224,11634,6,0,B|-48:170|-29:81|175:27|69:276|219:254|219:254|216:242|216:242|269:248|295:192,1,470.399985644532
368,108,12492,6,0,B|415:46|415:46|365:24|314:41|314:41|315:36|315:36|313:41|313:41|236:73|214:181,1,345.599989453125
344,343,13027,1,0,0:0:0:0:
379,354,13134,2,0,P|436:343|461:319,1,86.3999973632813
503,191,13349,2,0,L|288:227,1,172.799994726563
272,273,13670,1,0,0:0:0:0:
491,103,13777,6,0,L|509:24,1,62.3999971435548
387,125,13992,2,0,L|405:46,1,62.3999971435548
51,114,14206,6,0,B|220:100|134:186|318:142,1,259.199992089844
328,15,14634,2,0,P|274:20|255:82,1,115.199996484375
317,292,14849,1,0,0:0:0:0:
326,297,14920,1,0,0:0:0:0:
315,304,14992,1,0,0:0:0:0:
325,309,15063,2,0,P|336:235|289:133,1,172.799994726563
16,69,15384,1,0,0:0:0:0:
110,35,15492,6,0,P|63:42|11:59,1,86.3999973632813
147,214,15706,2,0,P|194:221|246:238,1,86.3999973632813
81,359,15920,6,0,P|24:326|26:234,1,144.000005493164
93,274,16242,1,0,0:0:0:0:
98,138,16349,6,0,L|113:302,1,144
202,33,16777,6,0,L|182:134,1,72.0000027465821
249,253,16992,5,0,0:0:0:0:
232,243,17063,1,0,0:0:0:0:
220,228,17134,1,0,0:0:0:0:
215,209,17206,1,0,0:0:0:0:
257,140,17277,5,0,0:0:0:0:
273,149,17348,1,0,0:0:0:0:
285,164,17419,1,0,0:0:0:0:
290,183,17491,1,0,0:0:0:0:
328,294,17634,5,0,0:0:0:0:
394,224,17777,1,0,0:0:0:0:
421,130,17920,1,0,0:0:0:0:
465,320,18063,5,0,0:0:0:0:
510,235,18206,1,0,0:0:0:0:
512,137,18349,1,0,0:0:0:0:
477,24,18492,6,0,B|469:67,5,38.4
374,18,18813,1,0,0:0:0:0:
488,142,18920,6,0,B|462:154|421:128|421:128|413:161|413:161|379:147|347:169,2,160
193,122,19349,6,0,B|254:75|254:75|237:146|237:146|240:146|240:146|237:149|237:149|212:273,1,259.199992089844
149,332,19777,1,0,0:0:0:0:
228,349,19920,1,0,0:0:0:0:
305,366,20063,1,0,0:0:0:0:
509,230,20206,2,0,B|381:193|424:300|255:264,1,216.000008239746
240,172,20634,6,0,P|301:174|329:193,1,86.3999973632813
488,363,20849,2,0,P|427:361|399:342,1,86.3999973632813
309,79,21063,6,0,L|299:27,1,36.0000013732911
70,170,21277,1,0,0:0:0:0:
55,165,21349,1,0,0:0:0:0:
66,157,21420,1,0,0:0:0:0:
81,162,21492,6,0,B|171:127|226:179|226:179|239:172|239:172|311:249|415:207,1,360
512,125,21920,2,0,P|427:99|390:136,2,128
486,369,22349,6,0,L|508:209,1,160
313,21,22563,1,0,0:0:0:0:
415,282,22777,6,0,B|284:232|304:388|144:320,1,259.199992089844
61,204,23206,2,0,B|26:183|26:183|22:183|22:183|23:180|23:180|-4:163|-4:163|84:101|215:146|215:257,1,360
103,371,23634,6,0,P|96:304|146:259,2,128
359,207,24063,6,0,L|-23:264,1,360
65,18,24492,5,0,0:0:0:0:
96,34,24599,1,0,0:0:0:0:
118,63,24706,1,0,0:0:0:0:
126,97,24813,1,0,0:0:0:0:
29,181,24920,5,0,0:0:0:0:
36,174,24992,1,0,0:0:0:0:
26,168,25063,1,0,0:0:0:0:
37,167,25134,1,0,0:0:0:0:
36,157,25206,2,0,L|47:84,1,48.0000018310548
291,62,25349,5,0,0:0:0:0:
241,87,25456,1,0,0:0:0:0:
206,134,25563,1,0,0:0:0:0:
193,188,25670,1,0,0:0:0:0:
203,291,25777,6,0,B|180:282|147:307|147:307|122:278|122:278|88:304|27:302,2,160
467,125,26206,6,0,B|515:68|515:68|446:76|446:76|447:73|447:73|442:76|442:76|256:101,1,278.400008496094
237,148,26527,2,0,B|189:205|189:205|257:197|257:197|257:200|257:200|262:197|262:197|448:172,1,278.400008496094
441,0,26849,2,0,L|386:316,1,278.400008496094
482,312,27277,6,0,L|475:337,3,18.0000006866455
500,214,27492,1,0,0:0:0:0:
226,350,27706,2,0,L|264:365,1,36.0000013732911
269,350,27813,2,0,L|231:335,1,36.0000013732911
151,242,27920,6,0,B|121:120|264:91|264:91|242:167,1,278.400008496094
355,266,28242,2,0,B|203:224|242:378|69:310,1,278.400008496094
25,110,28563,2,0,P|147:112|128:259,1,278.400008496094
362,348,28992,6,0,P|417:326|436:244,1,139.200004248047
357,132,29206,6,0,L|340:105,1,24
294,44,29420,2,0,L|277:17,1,24
169,120,29634,6,0,P|296:86|439:154,1,278.400008496094
19,114,29956,2,0,P|93:220|236:257,1,278.400008496094
451,225,30277,2,0,P|315:296|221:391,1,278.400008496094
207,60,30706,6,0,L|203:28,3,18.0000006866455
221,155,30920,1,0,0:0:0:0:
436,78,31134,2,0,L|446:38,1,36.0000013732911
430,35,31241,2,0,L|419:74,1,36.0000013732911
411,156,31349,6,0,B|244:161|314:204|128:213,1,278.400008496094
52,120,31670,2,0,B|3:74|3:74|93:88|93:88|93:84|93:84|96:89|96:89|223:112,1,278.400008496094
269,297,31992,2,0,B|318:343|318:343|227:328|227:328|228:333|228:333|225:328|225:328|98:305,1,278.400008496094
1,183,32313,5,0,0:0:0:0:
43,258,32420,2,0,L|25:195,1,48
201,120,32634,2,0,L|205:106,1,12
236,6,32849,6,0,P|248:78|234:154,1,144.000005493164
228,355,33063,6,0,B|191:234|330:187|330:187|300:274,1,278.400008496094
505,319,33384,2,0,L|193:360,1,278.400008496094
36,274,33706,2,0,L|348:233,1,278.400008496094
471,134,34027,6,0,P|422:138|388:182,1,96
345,370,34349,6,0,P|355:246|325:56,1,278.400008496094
243,155,34670,2,0,P|127:77|0:25,1,278.400008496094
185,283,34992,5,0,0:0:0:0:
281,268,35099,1,0,0:0:0:0:
369,229,35206,1,0,0:0:0:0:
444,166,35313,2,0,P|457:129|454:92,1,72.0000027465821
449,84,35635,5,0,0:0:0:0:
502,228,35801,1,0,0:0:0:0:
322,165,35968,5,0,0:0:0:0:
313,168,36135,1,0,0:0:0:0:
305,171,36301,5,0,0:0:0:0:
438,176,36468,1,0,0:0:0:0:
217,124,36635,5,0,0:0:0:0:
381,248,36801,1,0,0:0:0:0:
235,295,36968,5,0,0:0:0:0:
238,286,37135,1,0,0:0:0:0:
241,278,37301,5,0,0:0:0:0:
206,383,37468,1,0,0:0:0:0:
316,184,37635,5,0,0:0:0:0:
236,191,37802,1,0,0:0:0:0:
157,218,37969,1,0,0:0:0:0:
96,266,38135,1,0,0:0:0:0:
75,369,38301,6,0,P|104:325|88:254,1,115.199996484375
85,162,38746,5,0,0:0:0:0:
20,221,38857,5,0,0:0:0:0:
95,265,38968,6,0,P|157:221|169:146,1,128
48,36,39301,2,0,P|73:62|134:78,1,96
336,98,39634,5,0,0:0:0:0:
324,103,39718,1,0,0:0:0:0:
284,91,39801,5,0,0:0:0:0:
239,112,39884,1,0,0:0:0:0:
242,160,39968,5,0,0:0:0:0:
251,167,40051,1,0,0:0:0:0:
280,193,40134,5,0,0:0:0:0:
250,259,40218,1,0,0:0:0:0:
268,331,40301,1,0,0:0:0:0:
256,192,40384,12,0,40968,0:0:0:0:
398,151,41134,5,0,0:0:0:0:
437,32,41301,2,0,L|426:157,1,115.199996484375
464,322,41634,1,0,0:0:0:0:
470,306,41718,1,0,0:0:0:0:
464,262,41801,5,0,0:0:0:0:
153,334,41968,1,0,0:0:0:0:
201,318,42051,1,0,0:0:0:0:
247,310,42134,1,0,0:0:0:0:
297,309,42218,1,0,0:0:0:0:
348,319,42301,6,0,P|406:340|476:384,1,115.199996484375
318,218,42634,2,0,P|306:185|317:143,2,76.7999976562501
496,222,42968,1,0,0:0:0:0:
489,210,43051,1,0,0:0:0:0:
464,203,43134,2,0,P|436:204|398:216,1,57.5999982421876
216,224,43301,5,0,0:0:0:0:
141,221,43412,5,0,0:0:0:0:
90,167,43523,5,0,0:0:0:0:
105,19,43634,5,0,0:0:0:0:
189,61,43745,5,0,0:0:0:0:
174,151,43856,5,0,0:0:0:0:
40,79,43968,6,0,P|131:84|202:151,1,172.799994726563
381,368,44301,2,0,P|337:370|297:356,1,81.6000015563965
107,338,44468,1,0,0:0:0:0:
107,338,44801,6,0,L|89:160,1,172.799994726563
56,0,45134,1,0,0:0:0:0:
14,19,45218,1,0,0:0:0:0:
4,64,45301,1,0,0:0:0:0:
32,100,45384,1,0,0:0:0:0:
84,89,45468,2,0,L|78:8,1,81.6000015563965
201,219,45801,6,0,P|203:165|149:134,1,115.2
61,269,46134,6,0,B|162:249|123:329|253:298,1,172.799994726563
401,222,46468,6,0,P|357:227|323:245,1,81.6000015563965
300,377,46634,6,0,P|342:377|368:365,1,57.5999982421876
487,250,46801,1,0,0:0:0:0:
493,205,46884,1,0,0:0:0:0:
495,160,46967,1,0,0:0:0:0:
269,27,47134,5,0,0:0:0:0:
432,88,47301,1,0,0:0:0:0:
378,70,47384,1,0,0:0:0:0:
325,91,47468,1,0,0:0:0:0:
272,111,47551,1,0,0:0:0:0:
218,94,47634,6,0,L|195:86,1,24
118,22,47801,1,0,0:0:0:0:
0,165,47968,6,0,L|41:150,1,36.0000013732911
118,22,48134,2,0,B|78:121|143:95|117:208,1,172.799994726563
106,275,48468,1,0,0:0:0:0:
18,256,48634,5,0,0:0:0:0:
101,286,48745,5,0,0:0:0:0:
188,266,48856,5,0,0:0:0:0:
263,311,48968,6,0,P|183:306|91:336,1,172.799994726563
95,192,49301,6,0,L|86:134,1,57.5999982421876
19,20,49468,1,0,0:0:0:0:
25,34,49551,1,0,0:0:0:0:
51,56,49634,5,0,0:0:0:0:
267,72,49801,1,0,0:0:0:0:
293,140,49884,1,0,0:0:0:0:
267,208,49967,1,0,0:0:0:0:
209,266,50051,5,0,0:0:0:0:
201,258,50134,1,0,0:0:0:0:
196,245,50218,1,0,0:0:0:0:
196,162,50301,6,0,B|305:154|257:216|382:192,1,172.799994726563
495,38,50634,6,0,P|472:45|460:53,1,28.7999991210938
400,92,50801,1,0,0:0:0:0:
492,203,50968,6,0,P|476:175|456:156,1,48
330,23,51134,1,0,0:0:0:0:
408,261,51301,2,0,L|400:348,1,81.6000015563965
317,292,51468,1,0,0:0:0:0:
320,277,51551,1,0,0:0:0:0:
297,260,51634,6,0,B|192:256|224:295|114:289,1,172.799994726563
8,360,51968,6,0,P|38:353|63:338,1,57.5999982421876
150,201,52134,1,0,0:0:0:0:
17,196,52301,6,0,P|32:222|47:244,1,57.5999982421876
230,345,52468,1,0,0:0:0:0:
388,171,52634,2,0,P|388:89|370:-7,1,172.799994726563
146,19,52968,6,0,P|191:23|256:57,1,115.199996484375
302,211,53301,1,0,0:0:0:0:
219,259,53468,1,0,0:0:0:0:
205,363,53634,6,0,L|199:272,2,76.7999976562501
293,349,53968,5,0,0:0:0:0:
379,370,54079,5,0,0:0:0:0:
455,338,54190,5,0,0:0:0:0:
472,155,54301,5,0,0:0:0:0:
383,187,54412,5,0,0:0:0:0:
373,281,54523,5,0,0:0:0:0:
462,337,54634,6,0,L|419:91,1,230.39999296875
293,349,55134,6,0,P|260:367|247:391,1,57.5999982421876
373,288,55301,1,0,0:0:0:0:
368,267,55384,1,0,0:0:0:0:
364,248,55468,1,0,0:0:0:0:
359,229,55551,1,0,0:0:0:0:
321,205,55634,5,0,0:0:0:0:
305,211,55718,1,0,0:0:0:0:
278,254,55801,5,0,0:0:0:0:
210,269,55884,1,0,0:0:0:0:
143,284,55967,1,0,0:0:0:0:
82,178,56134,6,0,L|56:121,1,57.5999982421876
143,284,56301,2,0,P|122:319|60:363,2,76.7999976562501
189,183,56634,1,0,0:0:0:0:
212,106,56746,1,0,0:0:0:0:
233,26,56857,1,0,0:0:0:0:
302,126,56968,6,0,P|221:124|108:157,1,172.799994726563
6,228,57301,2,0,B|147:186|99:303|250:258,1,230.39999296875
387,189,57801,6,0,P|417:114|415:14,1,172.799994726563
326,103,58134,2,0,P|334:150|423:186,1,115.199996484375
512,280,58468,6,0,P|473:290|450:311,1,57.5999982421876
299,356,58634,2,0,L|507:389,1,172.799994726563
341,272,58968,6,0,L|200:250,2,115.199996484375
478,172,59468,1,0,0:0:0:0:
147,301,59634,1,0,0:0:0:0:
277,170,59801,1,0,0:0:0:0:
279,154,59884,1,0,0:0:0:0:
269,116,59968,5,0,0:0:0:0:
127,74,60134,2,0,L|198:96,1,57.5999982421876
359,78,60301,1,0,0:0:0:0:
357,62,60384,1,0,0:0:0:0:
367,24,60468,5,0,0:0:0:0:
489,117,60634,2,0,P|456:120|416:141,1,57.5999982421876
341,185,60801,2,0,P|360:212|398:236,1,57.5999982421876
481,320,60968,6,0,L|501:230,1,72.0000027465821
366,362,61134,2,0,L|412:351,2,38.399998828125
284,378,61301,1,0,0:0:0:0:
480,237,61468,1,0,0:0:0:0:
280,274,61634,6,0,P|223:291|201:304,2,76.7999976562501
378,258,61968,1,0,0:0:0:0:
390,173,62079,1,0,0:0:0:0:
400,88,62190,1,0,0:0:0:0:
482,60,62301,5,0,0:0:0:0:
363,13,62468,1,0,0:0:0:0:
352,17,62634,1,0,0:0:0:0:
343,24,62801,1,0,0:0:0:0:
307,107,62968,1,0,0:0:0:0:
315,115,63134,1,0,0:0:0:0:
472,234,63301,5,0,0:0:0:0:
375,343,63468,1,0,0:0:0:0:
386,339,63634,1,0,0:0:0:0:
395,332,63801,1,0,0:0:0:0:
381,238,63968,1,0,0:0:0:0:
369,239,64134,1,0,0:0:0:0:
250,356,64301,5,0,0:0:0:0:
304,294,64468,1,0,0:0:0:0:
245,127,64634,5,0,0:0:0:0:
299,189,64801,1,0,0:0:0:0:
116,251,64968,5,0,0:0:0:0:
82,161,65134,1,0,0:0:0:0:
78,150,65300,1,0,0:0:0:0:
71,141,65467,1,0,0:0:0:0:
19,239,65634,1,0,0:0:0:0:
30,234,65800,1,0,0:0:0:0:
168,82,65968,5,0,0:0:0:0:
83,48,66134,1,0,0:0:0:0:
256,192,66301,12,0,67468,0:0:0:0:
354,158,67634,6,0,L|361:128,1,24
405,3,67801,2,0,P|362:16|357:64,1,86.3999973632813
453,93,67968,1,0,0:0:0:0:
420,262,68134,6,0,L|460:54,1,172.799994726563
492,21,68468,1,0,0:0:0:0:
270,105,68634,2,0,P|231:149|307:219,1,172.799994726563
512,284,68968,6,0,B|462:292|462:292|467:284|467:284|462:292|462:292|267:325,1,216.000008239746
243,369,69301,1,0,0:0:0:0:
456,205,69468,6,0,L|476:128,1,57.5999982421876
378,19,69634,1,0,0:0:0:0:
221,83,69801,1,0,0:0:0:0:
211,55,69884,1,0,0:0:0:0:
224,33,69968,6,0,B|278:26|310:76|310:76|317:70|317:70|361:117|438:80,1,216.000008239746
509,17,70301,6,0,P|442:-7|360:38,1,144
363,14,70634,1,0,0:0:0:0:
320,190,70801,2,0,L|306:252,1,48
231,291,70968,1,0,0:0:0:0:
471,157,71134,5,0,0:0:0:0:
414,225,71301,1,0,0:0:0:0:
425,240,71468,1,0,0:0:0:0:
429,244,71634,6,0,L|451:72,1,144.000005493164
348,96,71884,1,0,0:0:0:0:
341,86,71968,2,0,L|263:102,1,72.0000027465821
249,204,72134,2,0,L|327:188,1,72.0000027465821
405,23,72301,1,0,0:0:0:0:
490,9,72468,1,0,0:0:0:0:
490,272,72634,6,0,B|422:260|404:191|404:191|397:260|318:281,1,216.000008239746
201,274,72968,6,0,L|208:310,1,24
233,384,73134,2,0,L|263:268,1,86.3999973632813
179,193,73301,1,0,0:0:0:0:
7,172,73468,6,0,L|193:194,1,172.799994726563
258,159,73801,1,0,0:0:0:0:
71,17,73968,2,0,B|23:-15|23:-15|57:112,1,172.799994726563
23,253,74301,6,0,B|66:258|66:258|72:255|72:255|77:263|77:263|83:261|83:261|197:275,1,172.799994726563
274,259,74634,1,0,0:0:0:0:
43,331,74801,6,0,L|69:398,1,57.5999982421876
111,156,74968,1,0,0:0:0:0:
331,183,75134,5,0,0:0:0:0:
347,197,75218,1,0,0:0:0:0:
353,179,75301,6,0,B|394:137|394:137|280:114|307:206|177:171,1,259.199992089844
144,81,75634,6,0,B|192:49|256:69|256:69|222:109,1,144
235,101,75968,1,0,0:0:0:0:
161,299,76134,2,0,L|168:376,1,48
92,242,76301,1,0,0:0:0:0:
281,280,76468,5,0,0:0:0:0:
224,212,76635,1,0,0:0:0:0:
235,197,76802,1,0,0:0:0:0:
239,193,76968,6,0,L|261:365,1,144.000005493164
250,354,77190,5,0,0:0:0:0:
348,349,77301,2,0,P|403:353|460:382,2,96.0000036621095
388,252,77634,5,0,0:0:0:0:
377,168,77745,1,0,0:0:0:0:
366,84,77856,1,0,0:0:0:0:
273,121,77968,6,0,B|402:93|351:204|509:160,1,216.000008239746
291,5,78301,6,0,P|307:17|317:30,1,24
473,6,78468,2,0,P|459:47|436:99,1,86.3999973632813
377,168,78634,1,0,0:0:0:0:
220,218,78801,6,0,P|324:207|384:159,1,172.799994726563
366,84,79134,1,0,0:0:0:0:
440,304,79301,2,0,L|469:132,1,172.799994726563
512,14,79634,6,0,B|410:-2|397:91|397:91|417:55|469:49,1,216.000008239746
511,111,79968,1,0,0:0:0:0:
341,209,80134,6,0,L|260:228,1,72.0000027465821
222,140,80301,1,0,0:0:0:0:
207,322,80468,1,0,0:0:0:0:
231,336,80551,1,0,0:0:0:0:
257,342,80634,6,0,B|288:338|316:306|316:306|326:314|326:314|324:331|324:331|370:307|403:326|403:326|441:353|505:325,1,259.199992089844
470,185,80968,6,0,B|429:156|429:156|449:271,1,144
448,266,81301,1,0,0:0:0:0:
498,33,81468,2,0,L|487:103,1,48
470,185,81634,1,0,0:0:0:0:
330,105,81801,5,0,0:0:0:0:
262,48,81968,1,0,0:0:0:0:
247,59,82135,1,0,0:0:0:0:
243,63,82301,6,0,L|415:85,1,144.000005493164
366,194,82551,1,0,0:0:0:0:
351,190,82634,2,0,L|366:280,1,72.0000027465821
237,239,82801,2,0,L|222:149,1,72.0000027465821
159,24,82968,1,0,0:0:0:0:
74,14,83134,1,0,0:0:0:0:
66,269,83301,6,0,B|108:235|192:232|140:368|291:312,1,216.000008239746
308,196,83634,6,0,P|255:155|212:160,1,96.0000036621095
237,239,83857,5,0,0:0:0:0:
322,278,83968,2,0,L|415:318,1,96.0000036621095
494,271,84190,5,0,0:0:0:0:
464,384,84301,2,0,P|448:286|469:172,1,192.000007324219
481,86,84634,6,0,B|371:67|388:148|266:127,1,192.000007324219
148,56,84968,2,0,P|191:38|239:68,1,96.0000036621095
324,261,85190,5,0,0:0:0:0:
258,199,85301,2,0,L|297:-29,1,192.000007324219
346,349,85634,1,0,0:0:0:0:
21,362,85857,5,0,0:0:0:0:
80,288,85968,1,0,0:0:0:0:
117,206,86079,1,0,0:0:0:0:
92,118,86190,1,0,0:0:0:0:
190,255,86301,1,0,0:0:0:0:
256,192,86384,12,0,88801,0:0:0:0:
400,106,88968,5,0,0:0:0:0:
299,77,89134,1,0,0:0:0:0:
409,199,89301,6,0,L|423:124,1,57.5999982421876
442,0,89468,1,0,0:0:0:0:
470,0,89551,1,0,0:0:0:0:
494,13,89634,1,0,0:0:0:0:
507,39,89717,1,0,0:0:0:0:
507,86,89801,5,0,0:0:0:0:
499,134,89884,1,0,0:0:0:0:
490,208,89968,6,0,P|455:224|401:261,2,76.7999976562501
318,323,90301,6,0,P|383:331|458:367,1,115.199996484375
242,243,90551,1,0,0:0:0:0:
242,243,90634,2,0,P|275:234|301:214,1,57.5999982421876
353,142,90801,2,0,L|375:18,1,115.199996484375
274,58,91051,1,0,0:0:0:0:
274,58,91134,2,0,P|233:69|215:86,1,57.5999982421876
35,96,91301,6,0,B|180:68|112:186|287:160,1,216.000008239746
443,174,91634,6,0,L|485:24,1,115.199996484375
414,365,91968,2,0,L|397:297,1,57.5999982421876
339,245,92134,1,0,0:0:0:0:
307,231,92217,1,0,0:0:0:0:
273,236,92300,1,0,0:0:0:0:
246,256,92383,1,0,0:0:0:0:
208,286,92468,5,0,0:0:0:0:
155,301,92551,1,0,0:0:0:0:
79,276,92634,6,0,P|38:292|1:319,2,76.7999976562501
161,210,92968,6,0,L|186:75,1,115.199996484375
92,102,93218,1,0,0:0:0:0:
92,102,93301,2,0,L|78:176,1,57.5999982421876
147,19,93468,2,0,B|259:-10|226:77|343:45,1,172.799994726563
417,41,93801,5,0,0:0:0:0:
378,218,93968,2,0,P|360:145|375:101,1,108.000004119873
461,113,94301,6,0,P|443:171|336:219,1,144.000005493164
138,111,94634,6,0,P|172:117|190:133,1,57.5999982421876
344,290,94801,2,0,P|279:295|210:237,1,144.000005493164
217,236,95051,1,0,0:0:0:0:
224,225,95134,1,0,0:0:0:0:
278,138,95301,6,0,L|308:26,1,108.000004119873
220,41,95634,6,0,B|169:48|169:48|168:43|168:43|167:48|167:48|-26:77,1,216.000008239746
9,89,95968,2,0,B|60:82|60:82|61:87|61:87|62:82|62:82|255:53,1,216.000008239746
367,175,96301,6,0,B|185:130|256:250|54:201,1,288
323,48,96968,5,0,0:0:0:0:
384,289,97134,1,0,0:0:0:0:
380,274,97217,1,0,0:0:0:0:
378,260,97300,1,0,0:0:0:0:
372,222,97383,5,0,0:0:0:0:
367,175,97468,2,0,P|391:114|433:22,1,144
485,247,97801,2,0,L|457:191,1,48
291,124,97968,2,0,P|215:134|120:156,1,144
123,245,98301,6,0,P|198:285|245:228,1,144
247,39,98634,6,0,P|174:31|159:157,1,216.000008239746
324,243,98968,2,0,L|340:183,1,48
445,60,99134,1,0,0:0:0:0:
411,64,99217,1,0,0:0:0:0:
378,69,99300,1,0,0:0:0:0:
489,153,99468,5,0,0:0:0:0:
430,328,99634,1,0,0:0:0:0:
435,332,99718,1,0,0:0:0:0:
441,334,99801,2,0,P|454:287|467:224,1,96
232,366,100134,6,0,L|318:352,1,57.5999982421876
406,182,100301,1,0,0:0:0:0:
398,188,100468,6,0,L|312:202,1,57.5999982421876
222,372,100634,1,0,0:0:0:0:
408,297,100801,1,0,0:0:0:0:
421,300,100884,1,0,0:0:0:0:
433,304,100968,5,0,0:0:0:0:
491,243,101134,1,0,0:0:0:0:
455,114,101301,5,0,0:0:0:0:
473,27,101468,1,0,0:0:0:0:
307,138,101634,6,0,P|282:145|255:159,1,48
188,216,101801,1,0,0:0:0:0:
308,356,101968,6,0,L|319:285,1,48
364,224,102134,1,0,0:0:0:0:
372,214,102218,1,0,0:0:0:0:
369,202,102301,1,0,0:0:0:0:
268,81,102468,1,0,0:0:0:0:
277,224,102634,6,0,L|266:61,1,144
157,49,102968,6,0,P|134:93|174:147,1,115.199996484375
372,96,103301,2,0,L|364:11,1,57.5999982421876
384,190,103468,1,0,0:0:0:0:
377,204,103551,1,0,0:0:0:0:
395,231,103634,5,0,0:0:0:0:
507,120,103801,2,0,P|471:127|438:146,1,57.5999982421876
250,272,103968,2,0,B|344:252|319:348|448:319,1,172.799994726563
495,271,104301,6,0,L|517:186,1,57.5999982421876
473,31,104468,1,0,0:0:0:0:
460,42,104634,1,0,0:0:0:0:
404,239,104801,6,0,L|388:152,1,57.5999982421876
305,29,104968,1,0,0:0:0:0:
297,44,105134,1,0,0:0:0:0:
160,75,105301,5,0,0:0:0:0:
275,133,105468,1,0,0:0:0:0:
277,145,105551,1,0,0:0:0:0:
279,154,105634,6,0,L|297:228,1,57.5999982421876
347,368,105801,1,0,0:0:0:0:
360,357,105967,1,0,0:0:0:0:
445,57,106134,6,0,L|430:131,1,57.5999982421876
413,284,106301,1,0,0:0:0:0:
430,279,106467,1,0,0:0:0:0:
234,284,106634,5,0,0:0:0:0:
193,286,106717,1,0,0:0:0:0:
153,292,106800,1,0,0:0:0:0:
114,299,106883,1,0,0:0:0:0:
75,309,106967,6,0,P|66:281|53:250,1,57.5999982421876
7,168,107134,1,0,0:0:0:0:
216,131,107301,6,0,P|227:101|240:70,1,57.5999982421876
377,13,107467,1,0,0:0:0:0:
361,30,107634,1,0,0:0:0:0:
136,84,107801,6,0,P|104:94|59:115,1,57.5999982421876
0,258,107967,1,0,0:0:0:0:
125,247,108134,1,0,0:0:0:0:
136,220,108217,1,0,0:0:0:0:
132,192,108300,1,0,0:0:0:0:
38,34,108467,1,0,0:0:0:0:
219,131,108634,5,0,0:0:0:0:
41,191,108801,1,0,0:0:0:0:
263,249,108967,5,0,0:0:0:0:
49,321,109134,1,0,0:0:0:0:
414,304,109301,6,0,B|309:282|346:351|205:332,1,172.799994726563
154,255,109634,1,0,0:0:0:0:
307,175,109801,2,0,L|325:113,1,57.5999982421876
256,27,109967,1,0,0:0:0:0:
417,139,110134,2,0,L|399:201,1,57.5999982421876
224,337,110301,6,0,P|304:331|409:289,1,172.799994726563
464,255,110634,1,0,0:0:0:0:
182,226,110801,2,0,L|173:249,2,16
229,152,110967,6,0,B|172:100|172:100|212:281,1,230.39999296875
234,370,111467,1,0,0:0:0:0:
58,261,111634,6,0,P|93:275|123:297,1,57.5999982421876
369,238,111801,2,0,P|334:252|304:274,1,57.5999982421876
233,362,111967,6,0,L|208:238,1,108.000004119873
213,244,112301,5,0,0:0:0:0:
317,149,112467,1,0,0:0:0:0:
198,132,112634,1,0,0:0:0:0:
187,135,112801,1,0,0:0:0:0:
178,142,112967,5,0,0:0:0:0:
223,252,113134,1,0,0:0:0:0:
87,167,113301,5,0,0:0:0:0:
261,76,113467,1,0,0:0:0:0:
140,26,113634,1,0,0:0:0:0:
136,38,113801,1,0,0:0:0:0:
139,50,113967,5,0,0:0:0:0:
266,84,114134,1,0,0:0:0:0:
382,47,114301,5,0,0:0:0:0:
396,54,114467,1,0,0:0:0:0:
445,127,114634,5,0,0:0:0:0:
363,178,114801,1,0,0:0:0:0:
312,315,114967,5,0,0:0:0:0:
349,179,115134,1,0,0:0:0:0:
249,247,115301,1,0,0:0:0:0:
240,255,115467,1,0,0:0:0:0:
234,266,115634,5,0,0:0:0:0:
384,367,115801,1,0,0:0:0:0:
476,215,115967,5,0,0:0:0:0:
428,227,116078,1,0,0:0:0:0:
402,267,116189,1,0,0:0:0:0:
430,312,116301,1,0,0:0:0:0:
477,299,116412,1,0,0:0:0:0:
503,259,116523,1,0,0:0:0:0:
476,215,116634,5,0,0:0:0:0:
481,188,116745,1,0,0:0:0:0:
487,162,116856,1,0,0:0:0:0:
492,127,116967,5,0,0:0:0:0:
467,83,117078,1,0,0:0:0:0:
387,67,117190,5,0,0:0:0:0:
328,117,117301,1,0,0:0:0:0:
253,135,117412,1,0,0:0:0:0:
160,94,117523,5,0,0:0:0:0:
