osu file format v14

[General]
AudioFilename: audio.mp3
AudioLeadIn: 0
PreviewTime: 88884
Countdown: 0
SampleSet: Soft
StackLeniency: 0.2
Mode: 0
LetterboxInBreaks: 0
WidescreenStoryboard: 1

[Editor]
DistanceSpacing: 0.5
BeatDivisor: 4
GridSize: 32
TimelineZoom: 1.5

[Metadata]
Title:Amnolys
TitleUnicode:Amnolys
Artist:onoken
ArtistUnicode:onoken
Creator:LowComboFC
Version:Insane
Source:
Tags:
BeatmapID:1385411
BeatmapSetID:652797

[Difficulty]
HPDrainRate:6
CircleSize:4
OverallDifficulty:7.5
ApproachRate:9
SliderMultiplier:1.55
SliderTickRate:1

[Events]
//Background and Video events
0,0,"bg.jpg",0,0
//Break Periods
2,62501,67034
//Storyboard Layer 0 (Background)
//Storyboard Layer 1 (Fail)
//Storyboard Layer 2 (Pass)
//Storyboard Layer 3 (Foreground)
//Storyboard Sound Samples

[TimingPoints]
492,428.571428571429,4,2,1,20,1,0
10777,-125,4,2,1,30,0,0
11206,-125,4,2,1,40,0,0
11634,-166.666666666667,4,2,1,50,0,0
12492,-83.3333333333333,4,2,1,100,0,0
13349,-100,4,2,1,100,0,0
15920,-71.4285714285714,4,2,1,100,0,0
16777,-83.3333333333333,4,2,1,100,0,0
17634,-100,4,2,1,100,0,0
18920,-71.4285714285714,4,2,1,100,0,0
19349,-83.3333333333333,4,2,1,100,0,0
20206,-100,4,2,1,100,0,0
21492,-71.4285714285714,4,2,1,100,0,0
21920,-83.3333333333333,4,2,1,100,0,0
22349,-71.4285714285714,4,2,1,100,0,0
22777,-100,4,2,1,100,0,0
23206,-71.4285714285714,4,2,1,100,0,0
23634,-100,4,2,1,100,0,0
25777,-71.4285714285714,4,2,1,100,0,0
27492,-83.3333333333333,4,2,1,100,0,0
27920,-71.4285714285714,4,2,1,100,0,0
29206,-83.3333333333333,4,2,1,100,0,0
29634,-71.4285714285714,4,2,1,100,0,0
30920,-83.3333333333333,4,2,1,100,0,0
31349,-71.4285714285714,4,2,1,100,0,0
35313,-100,4,2,1,100,0,0
35635,333.333333333333,4,2,1,100,1,0
35635,-166.666666666667,4,2,1,75,0,0
40968,-100,4,2,1,100,0,0
50301,-125,4,2,1,100,0,0
51301,-100,4,2,1,100,0,0
62301,-100,4,2,1,50,0,0
67634,-83.3333333333333,4,2,1,100,0,0
68134,-100,4,2,1,100,0,0
68634,-71.4285714285714,4,2,1,100,0,0
68968,-83.3333333333333,4,2,1,100,0,0
69301,-100,4,2,1,100,0,0
69968,-71.4285714285714,4,2,1,100,0,0
70301,-83.3333333333333,4,2,1,100,0,0
70801,-100,4,2,1,100,0,0
71634,-83.3333333333333,4,2,1,100,0,0
72634,-71.4285714285714,4,2,1,100,0,0
72968,-83.3333333333333,4,2,1,100,0,0
73468,-100,4,2,1,100,0,0
73968,-71.4285714285714,4,2,1,100,0,0
74301,-83.3333333333333,4,2,1,100,0,0
74634,-100,4,2,1,100,0,0
75301,-71.4285714285714,4,2,1,100,0,0
75634,-83.3333333333333,4,2,1,100,0,0
76134,-100,4,2,1,100,0,0
77968,-71.4285714285714,4,2,1,100,0,0
78301,-83.3333333333333,4,2,1,100,0,0
78801,-100,4,2,1,100,0,0
79301,-71.4285714285714,4,2,1,100,0,0
79634,-83.3333333333333,4,2,1,100,0,0
79968,-100,4,2,1,100,0,0
80634,-71.4285714285714,4,2,1,100,0,0
80968,-83.3333333333333,4,2,1,100,0,0
81468,-100,4,2,1,100,0,0
82301,-83.3333333333333,4,2,1,100,0,0
83301,-71.4285714285714,4,2,1,100,0,0
83634,-83.3333333333333,4,2,1,100,0,0
88968,-100,4,2,1,100,0,1
98968,333.333333333333,4,2,1,100,1,0
98968,-125,4,2,1,100,0,0
99301,-100,4,2,1,100,0,1
103801,-166.666666666667,4,2,1,100,0,1
104301,-100,4,2,1,100,0,1
109301,-166.666666666667,4,2,1,100,0,1
109634,-100,4,2,1,100,0,1
111801,-166.666666666667,4,2,1,100,0,1
112301,-166.666666666667,4,2,1,50,0,0

[Colours]
Combo1 : 128,255,169
Combo2 : 182,128,255
Combo3 : 255,128,255
Combo4 : 130,176,253

[HitObjects]
256,192,7349,12,0,10349,0:0:0:0:
428,43,10777,5,0,0:0:0:0:
428,43,11206,2,0,P|418:75|413:106,1,62
485,229,11634,6,0,B|411:203|430:274|346:244,1,139.499995742798
199,211,12492,6,0,B|170:156|170:156|218:96|218:96|291:128|291:128|283:187,1,278.999991485596
274,321,13349,6,0,L|261:270,2,51.6666666666667
279,348,13777,2,0,P|242:335|204:328,1,77.5
48,276,14206,5,0,0:0:0:0:
67,276,14313,1,0,0:0:0:0:
86,272,14420,1,0,0:0:0:0:
103,264,14527,1,0,0:0:0:0:
118,251,14634,2,0,L|104:175,1,77.5
94,70,14920,6,0,L|69:62,1,25.8333333333333
102,87,15063,6,0,P|129:90|177:68,1,77.5
248,15,15384,1,0,0:0:0:0:
233,4,15492,2,0,L|319:19,1,77.5
486,172,15920,6,0,B|446:217|446:217|344:190|344:190|336:140,1,216.999993377686
475,166,16777,6,0,B|441:205|441:205|354:182|354:182|347:139,1,185.999994323731
429,95,17420,1,0,0:0:0:0:
429,95,17527,1,0,0:0:0:0:
429,95,17634,6,0,L|445:34,2,51.6666666666667
331,220,18063,2,0,L|347:281,2,51.6666666666667
248,129,18492,5,0,0:0:0:0:
248,129,18706,2,0,L|205:119,1,38.75
141,20,18920,6,0,B|130:41|130:41|135:70,1,54.2499983444214
100,199,19134,2,0,B|105:175|105:175|127:156,1,54.2499983444214
335,144,19349,6,0,B|375:105|375:105|248:129,1,185.999994323731
224,288,19992,1,0,0:0:0:0:
224,288,20099,1,0,0:0:0:0:
224,288,20206,6,0,P|199:258|185:222,1,77.5
205,113,20634,1,0,0:0:0:0:
390,253,20849,1,0,0:0:0:0:
345,178,21063,6,0,L|260:196,1,77.5
192,124,21384,1,0,0:0:0:0:
205,113,21492,6,0,B|260:126|260:126|284:163|284:163|345:178,1,162.749995033264
348,84,21920,6,0,B|356:38|356:38|337:80,1,92.9999971618653
417,193,22242,1,0,0:0:0:0:
423,208,22349,6,0,B|457:187|457:187|471:98|471:98|444:69,1,162.749995033264
348,84,22777,6,0,P|305:96|266:102,1,77.5
44,112,23206,6,0,B|88:93|118:133|118:133|157:151|192:124,1,162.749995033264
191,124,23634,6,0,L|180:188,2,51.6666666666667
205,116,24063,2,0,L|191:192,1,77.5
403,185,24492,5,0,0:0:0:0:
384,185,24599,1,0,0:0:0:0:
365,181,24706,1,0,0:0:0:0:
348,173,24813,1,0,0:0:0:0:
333,160,24920,2,0,L|347:84,1,77.5
269,26,25242,1,0,0:0:0:0:
279,43,25349,2,0,L|265:119,1,77.5
355,267,25777,6,0,P|328:273|306:289,1,54.2499983444214
110,197,25992,2,0,P|133:213|159:219,1,54.2499983444214
228,194,26206,6,0,P|190:230|196:282,1,108.499996688843
295,360,26527,2,0,P|282:309|234:288,1,108.499996688843
116,334,26849,2,0,P|166:348|208:317,1,108.499996688843
264,119,27277,6,0,L|255:85,2,36.1666655629476
286,193,27492,2,0,B|252:163|252:163|205:170,1,92.9999971618653
81,244,27813,1,0,0:0:0:0:
91,257,27920,6,0,B|123:236|123:236|138:195|122:167,1,108.499996688843
33,72,28242,2,0,B|35:110|35:110|63:143|94:144,1,108.499996688843
222,114,28563,2,0,B|187:96|187:96|144:104|128:131,1,108.499996688843
208,316,28992,5,0,0:0:0:0:
208,316,29206,2,0,B|248:310|248:310|253:304|253:304|261:309|261:309|295:303,1,92.9999971618653
448,87,29634,6,0,B|442:156|415:124|410:186,1,108.499996688843
484,308,29956,2,0,B|426:268|467:261|417:226,1,108.499996688843
274,228,30277,2,0,B|337:197|322:237|378:210,1,108.499996688843
407,12,30706,5,0,0:0:0:0:
407,12,30920,2,0,B|371:38|371:38|323:35,1,92.9999971618653
253,77,31206,6,0,L|245:48,1,30.9999990539551
270,87,31349,6,0,B|293:113|293:113|271:199,1,108.499996688843
155,257,31670,2,0,B|166:224|166:224|251:200,1,108.499996688843
360,272,31992,2,0,B|325:278|325:278|262:216,1,108.499996688843
322,34,32420,5,0,0:0:0:0:
201,131,32634,2,0,P|175:128|149:120,1,54.2499983444214
18,60,32849,2,0,P|43:51|70:49,1,54.2499983444214
215,152,33063,6,0,L|183:255,1,108.499996688843
6,227,33384,2,0,L|111:202,1,108.499996688843
176,371,33706,2,0,L|102:291,1,108.499996688843
111,202,34027,1,0,0:0:0:0:
277,284,34242,5,0,0:0:0:0:
277,284,34349,2,0,B|334:289|334:289|374:253,1,108.499996688843
355,75,34670,2,0,B|322:121|322:121|333:174,1,108.499996688843
496,247,34992,2,0,B|471:195|471:195|420:178,1,108.499996688843
332,172,35313,6,0,L|255:186,1,77.5
218,195,35634,5,0,0:0:0:0:
218,195,35801,2,0,L|227:141,1,46.4999985809327
144,52,36135,1,0,0:0:0:0:
144,52,36301,2,0,L|152:106,1,46.4999985809327
119,276,36635,5,0,0:0:0:0:
119,276,36801,2,0,L|141:225,1,46.4999985809327
40,18,37135,1,0,0:0:0:0:
40,18,37301,2,0,L|62:68,1,46.4999985809327
19,155,37635,6,0,P|41:160|63:169,1,46.4999985809327
196,39,37968,2,0,P|174:48|151:53,1,46.4999985809327
137,233,38301,6,0,P|158:273|170:322,1,92.9999971618653
110,377,38746,2,0,L|76:368,1,30.9999990539551
19,309,38968,2,0,L|9:247,1,61.9999981079102
19,155,39301,2,0,L|28:216,1,61.9999981079102
137,233,39634,5,0,0:0:0:0:
139,221,39718,1,0,0:0:0:0:
141,209,39801,1,0,0:0:0:0:
143,197,39884,1,0,0:0:0:0:
146,184,39968,5,0,0:0:0:0:
133,141,40051,1,0,0:0:0:0:
95,116,40134,1,0,0:0:0:0:
49,122,40218,1,0,0:0:0:0:
19,155,40301,1,0,0:0:0:0:
19,155,40968,6,0,L|4:79,1,77.5
34,243,41301,1,0,0:0:0:0:
215,143,41468,2,0,B|253:151|253:151|274:186|274:186|310:193,1,116.25
329,197,41801,1,0,0:0:0:0:
110,228,41968,2,0,L|34:243,1,77.5
54,330,42218,1,0,0:0:0:0:
54,330,42301,5,0,0:0:0:0:
54,330,42384,2,0,B|93:335|93:335|128:308,1,77.5
194,260,42634,1,0,0:0:0:0:
132,101,42801,1,0,0:0:0:0:
119,115,42884,1,0,0:0:0:0:
119,134,42968,1,0,0:0:0:0:
261,226,43134,1,0,0:0:0:0:
216,66,43301,6,0,L|200:4,2,51.6666666666667
346,71,43634,6,0,P|332:93|323:117,2,51.6666666666667
418,14,43968,6,0,P|364:36|306:42,1,116.25
289,33,44301,1,0,0:0:0:0:
346,199,44468,1,0,0:0:0:0:
346,199,44801,6,0,P|357:255|323:300,1,116.25
314,277,45134,1,0,0:0:0:0:
277,265,45217,1,0,0:0:0:0:
240,273,45300,1,0,0:0:0:0:
211,298,45384,1,0,0:0:0:0:
199,335,45468,6,0,L|123:354,1,77.5
38,160,45801,2,0,L|150:187,1,116.25
169,193,46134,5,0,0:0:0:0:
169,193,46468,1,0,0:0:0:0:
180,25,46634,2,0,B|125:10|125:10|149:104,1,155
188,281,47134,1,0,0:0:0:0:
320,158,47301,1,0,0:0:0:0:
354,143,47384,1,0,0:0:0:0:
393,145,47467,1,0,0:0:0:0:
425,166,47551,1,0,0:0:0:0:
443,200,47634,6,0,P|449:235|462:276,1,77.5
478,107,47968,1,0,0:0:0:0:
320,158,48134,2,0,P|263:147|212:118,1,116.25
203,101,48468,1,0,0:0:0:0:
58,75,48634,6,0,L|8:88,2,51.6666666666667
109,22,48968,6,0,B|135:53|135:53|124:128,1,116.25
59,172,49301,2,0,L|81:258,1,77.5
258,193,49634,1,0,0:0:0:0:
210,314,49801,2,0,L|200:272,1,38.75
313,109,49968,1,0,0:0:0:0:
347,90,50051,1,0,0:0:0:0:
385,90,50134,1,0,0:0:0:0:
419,109,50218,1,0,0:0:0:0:
439,142,50301,6,0,L|450:202,1,62
408,335,50634,2,0,L|396:274,1,62
397,275,50968,1,0,0:0:0:0:
256,360,51134,1,0,0:0:0:0:
413,366,51301,6,0,L|331:351,1,77.5
288,287,51551,1,0,0:0:0:0:
290,268,51634,6,0,L|208:283,1,77.5
49,311,51968,1,0,0:0:0:0:
49,311,52134,1,0,0:0:0:0:
123,135,52301,2,0,B|153:161|153:161|156:198,1,77.5
115,367,52634,1,0,0:0:0:0:
115,367,52801,1,0,0:0:0:0:
290,268,52968,6,0,L|305:186,1,77.5
148,27,53301,1,0,0:0:0:0:
148,27,53468,1,0,0:0:0:0:
265,72,53634,6,0,P|290:66|314:57,2,51.6666666666667
172,149,53968,2,0,P|148:140|123:135,2,51.6666666666667
214,230,54301,5,0,0:0:0:0:
220,255,54412,1,0,0:0:0:0:
195,245,54523,1,0,0:0:0:0:
214,230,54634,6,0,B|264:222|264:222|252:118,1,155
252,118,55134,1,0,0:0:0:0:
402,311,55301,6,0,B|352:303|352:303|363:199,1,155
446,98,55801,1,0,0:0:0:0:
446,98,55884,1,0,0:0:0:0:
446,98,55968,2,0,L|369:117,1,77.5
172,149,56301,1,0,0:0:0:0:
172,149,56468,1,0,0:0:0:0:
275,134,56634,6,0,L|262:190,2,51.6666666666667
259,117,56968,6,0,P|244:88|239:37,1,77.5
420,0,57301,2,0,P|435:29|440:80,1,77.5
340,58,57634,1,0,0:0:0:0:
340,58,57718,1,0,0:0:0:0:
340,58,57801,1,0,0:0:0:0:
381,222,57968,1,0,0:0:0:0:
332,162,58134,6,0,L|446:180,1,116.25
466,183,58468,1,0,0:0:0:0:
391,315,58634,2,0,P|362:330|311:335,1,77.5
230,195,58968,2,0,P|201:180|150:175,1,77.5
84,210,59218,1,0,0:0:0:0:
78,225,59301,2,0,L|98:299,1,77.5
230,195,59634,6,0,L|273:41,1,155
271,45,60134,1,0,0:0:0:0:
92,113,60301,2,0,P|131:111|168:99,1,77.5
393,182,60634,2,0,P|359:163|330:137,1,77.5
279,19,60968,5,0,0:0:0:0:
230,195,61134,1,0,0:0:0:0:
167,99,61301,2,0,P|128:101|91:113,1,77.5
330,137,61634,2,0,P|364:156|393:182,1,77.5
216,244,61968,2,0,L|230:195,2,51.6666666666667
199,319,62301,5,0,0:0:0:0:
199,319,67634,6,0,B|160:345|160:345|107:338,1,92.9999971618653
55,274,67968,1,0,0:0:0:0:
142,106,68134,6,0,B|136:149|136:149|147:174|147:174|140:219,1,116.25
140,238,68468,1,0,0:0:0:0:
339,201,68634,6,0,B|325:258|325:258|222:241,1,162.749995033264
216,263,68968,6,0,L|238:353,1,92.9999971618653
266,162,69301,6,0,L|278:85,1,77.5
103,19,69634,2,0,B|95:58|95:58|118:87,1,77.5
181,131,69884,1,0,0:0:0:0:
191,119,69968,6,0,B|104:93|132:180|31:150,1,162.749995033264
31,140,70301,6,0,P|2:175|15:222,1,92.9999971618653
166,314,70634,1,0,0:0:0:0:
100,259,70801,6,0,B|68:283|68:283|90:364,1,116.25
94,374,71134,1,0,0:0:0:0:
183,226,71301,1,0,0:0:0:0:
183,226,71468,1,0,0:0:0:0:
131,38,71634,6,0,B|104:77|104:77|118:130,1,92.9999971618653
195,153,71884,1,0,0:0:0:0:
198,140,71968,2,0,L|217:37,1,92.9999971618653
296,65,72301,2,0,B|307:109|307:109|280:148,1,92.9999971618653
87,204,72634,6,0,B|68:246|68:246|183:226,1,162.749995033264
206,223,72968,6,0,B|230:262|230:262|210:311,1,92.9999971618653
127,345,73301,1,0,0:0:0:0:
229,325,73468,6,0,L|343:344,1,116.25
362,348,73801,1,0,0:0:0:0:
432,126,73968,6,0,B|385:143|385:143|349:179|374:255,1,162.749995033264
390,264,74301,6,0,L|493:231,1,92.9999971618653
287,128,74634,6,0,L|210:114,1,77.5
48,187,74968,2,0,B|40:226|40:226|63:255,1,77.5
141,306,75218,1,0,0:0:0:0:
145,291,75301,6,0,B|155:231|155:231|127:200|127:200|137:141,1,162.749995033264
140,118,75634,6,0,P|177:90|222:92,1,92.9999971618653
276,160,75968,1,0,0:0:0:0:
156,0,76134,6,0,P|201:16|229:85,1,116.25
222,92,76468,1,0,0:0:0:0:
50,54,76634,1,0,0:0:0:0:
50,54,76801,1,0,0:0:0:0:
104,222,76968,5,0,0:0:0:0:
104,222,77134,2,0,L|95:264,1,38.75
76,340,77301,2,0,L|67:382,3,38.75
157,319,77634,6,0,B|180:307|180:307|205:304,2,51.6666666666667
76,340,77968,6,0,L|236:365,1,162.749995033264
259,370,78301,6,0,B|276:326|276:326|249:283,1,92.9999971618653
134,221,78634,1,0,0:0:0:0:
240,119,78801,6,0,B|298:104|284:167|353:145,1,116.25
363,139,79134,1,0,0:0:0:0:
257,46,79301,6,0,P|183:70|170:146,1,162.749995033264
184,165,79634,6,0,L|168:266,1,92.9999971618653
240,119,79968,6,0,P|257:84|257:45,1,77.5
120,12,80301,2,0,L|37:25,1,77.5
37,97,80551,1,0,0:0:0:0:
30,108,80634,6,0,B|51:138|51:138|138:123|138:123|145:86,1,162.749995033264
166,77,80968,6,0,B|206:54|206:54|273:64,1,92.9999971618653
320,122,81301,1,0,0:0:0:0:
253,263,81468,6,0,P|216:220|224:164,1,116.25
237,150,81801,1,0,0:0:0:0:
377,188,81968,1,0,0:0:0:0:
377,188,82134,1,0,0:0:0:0:
263,346,82301,6,0,B|224:373|224:373|171:359,1,92.9999971618653
148,282,82551,1,0,0:0:0:0:
161,279,82635,2,0,L|264:260,1,92.9999971618653
236,181,82968,2,0,B|192:170|192:170|153:197,1,92.9999971618653
20,325,83301,6,0,B|73:348|73:348|53:244,1,162.749995033264
37,227,83634,6,0,L|52:103,1,123.99999621582
21,35,83968,2,0,P|62:78|121:74,1,123.99999621582
180,27,84301,2,0,P|223:68|219:127,1,123.99999621582
153,163,84634,2,0,L|276:178,1,123.99999621582
346,154,84968,5,0,0:0:0:0:
374,299,85190,5,0,0:0:0:0:
374,299,85301,1,0,0:0:0:0:
485,202,85523,5,0,0:0:0:0:
485,202,85634,1,0,0:0:0:0:
401,218,85857,5,0,0:0:0:0:
401,218,85968,2,0,L|339:209,2,61.9999981079102
481,119,86301,5,0,0:0:0:0:
256,192,86468,12,0,88634,0:0:0:0:
480,119,88968,6,0,P|443:127|404:128,1,77.5
209,18,89301,2,0,P|247:18|285:27,1,77.5
323,96,89551,1,0,0:0:0:0:
325,111,89634,6,0,L|310:174,2,51.6666666666667
214,198,89968,2,0,L|202:147,2,51.6666666666667
290,245,90301,5,0,0:0:0:0:
122,209,90468,2,0,L|46:227,1,77.5
200,292,90801,1,0,0:0:0:0:
231,140,90968,1,0,0:0:0:0:
231,140,91051,1,0,0:0:0:0:
231,140,91134,1,0,0:0:0:0:
317,262,91301,2,0,B|357:264|357:264|389:245,1,77.5
473,186,91551,1,0,0:0:0:0:
482,202,91634,6,0,L|463:277,1,77.5
338,174,91968,2,0,L|356:98,1,77.5
431,40,92218,1,0,0:0:0:0:
441,53,92301,6,0,P|474:46|492:37,2,51.6666666666667
309,17,92634,2,0,P|285:6|260:2,2,51.6666666666667
356,98,92968,5,0,0:0:0:0:
228,217,93134,2,0,P|190:225|151:226,1,77.5
99,146,93468,1,0,0:0:0:0:
84,283,93634,1,0,0:0:0:0:
84,283,93718,1,0,0:0:0:0:
84,283,93801,1,0,0:0:0:0:
247,235,93968,2,0,P|285:235|323:244,1,77.5
485,279,94301,6,0,P|414:309|360:364,1,155
341,126,94801,2,0,P|402:172|477:191,1,155
466,105,95301,2,0,L|456:28,1,77.5
485,278,95634,6,0,P|428:288|380:258,1,116.25
344,189,95968,2,0,P|287:179|239:209,1,116.25
210,277,96301,2,0,P|170:179|69:209,1,232.5
122,344,96968,6,0,B|143:312|143:312|139:272,1,77.5
140,252,97218,1,0,0:0:0:0:
140,252,97301,1,0,0:0:0:0:
31,110,97468,2,0,L|56:223,1,116.25
61,242,97801,1,0,0:0:0:0:
134,82,97968,2,0,P|168:99|206:105,1,77.5
387,28,98301,5,0,0:0:0:0:
268,15,98468,1,0,0:0:0:0:
319,198,98634,1,0,0:0:0:0:
319,198,98968,6,0,L|311:238,2,41.3333333333333
294,123,99301,6,0,L|310:238,1,116.25
313,257,99634,1,0,0:0:0:0:
406,192,99801,2,0,B|418:154|418:154|393:112,1,77.5
268,15,100134,6,0,P|314:47|374:37,1,116.25
387,28,100468,1,0,0:0:0:0:
221,88,100634,2,0,P|192:114|185:152,1,77.5
313,257,100968,2,0,L|389:245,1,77.5
409,245,101218,1,0,0:0:0:0:
409,245,101301,1,0,0:0:0:0:
284,341,101468,1,0,0:0:0:0:
192,222,101634,6,0,B|172:189|172:189|184:151,1,77.5
356,99,101968,2,0,B|337:131|337:131|298:140,1,77.5
168,17,102301,2,0,B|205:16|205:16|232:45,1,77.5
184,151,102634,1,0,0:0:0:0:
184,151,102801,1,0,0:0:0:0:
32,82,102968,6,0,P|107:64|168:17,1,155
254,46,103468,1,0,0:0:0:0:
260,64,103551,1,0,0:0:0:0:
266,82,103634,1,0,0:0:0:0:
339,12,103801,6,0,L|430:27,1,92.9999971618653
475,104,104301,5,0,0:0:0:0:
366,233,104468,2,0,L|354:156,1,77.5
465,95,104801,5,0,0:0:0:0:
356,224,104968,2,0,L|344:147,1,77.5
453,18,105301,6,0,L|465:95,1,77.5
471,113,105551,1,0,0:0:0:0:
471,113,105634,5,0,0:0:0:0:
366,41,105801,2,0,P|331:25|287:28,1,77.5
307,224,106134,5,0,0:0:0:0:
421,169,106301,2,0,P|452:146|471:107,1,77.5
282,152,106634,6,0,P|285:190|310:226,1,77.5
322,232,106884,1,0,0:0:0:0:
322,232,106967,5,0,0:0:0:0:
354,121,107134,1,0,0:0:0:0:
204,185,107301,2,0,L|128:166,1,77.5
53,33,107634,1,0,0:0:0:0:
203,97,107801,2,0,L|278:78,1,77.5
145,28,108134,1,0,0:0:0:0:
145,28,108217,1,0,0:0:0:0:
145,28,108301,5,0,0:0:0:0:
204,185,108467,1,0,0:0:0:0:
220,2,108634,5,0,0:0:0:0:
129,211,108801,1,0,0:0:0:0:
261,128,108967,6,0,L|298:120,1,38.75
397,227,109134,2,0,L|360:219,1,38.75
239,119,109301,6,0,L|307:103,1,69.749997871399
386,88,109634,5,0,0:0:0:0:
386,88,109801,1,0,0:0:0:0:
284,203,109967,2,0,B|271:240|271:240|289:273,1,77.5
461,318,110301,2,0,L|478:243,1,77.5
450,153,110634,1,0,0:0:0:0:
372,310,110801,2,0,L|378:347,2,25.8333333333333
397,227,110967,6,0,P|356:223|326:193,1,77.5
316,20,111301,1,0,0:0:0:0:
383,79,111467,2,0,P|400:116|389:157,1,77.5
159,67,111801,6,0,L|251:75,1,92.9999971618653
294,195,112301,5,0,0:0:0:0:
294,195,112468,2,0,L|285:141,1,46.4999985809327
368,52,112802,1,0,0:0:0:0:
368,52,112968,2,0,L|360:106,1,46.4999985809327
393,276,113302,5,0,0:0:0:0:
393,276,113468,2,0,L|371:225,1,46.4999985809327
472,18,113802,1,0,0:0:0:0:
472,18,113968,2,0,L|450:68,1,46.4999985809327
493,155,114302,6,0,P|471:160|449:169,1,46.4999985809327
316,39,114635,2,0,P|338:48|361:53,1,46.4999985809327
375,232,114967,5,0,0:0:0:0:
375,232,115134,2,0,P|380:254|389:276,1,46.4999985809327
222,355,115467,1,0,0:0:0:0:
222,355,115634,2,0,P|230:333|236:310,1,46.4999985809327
256,192,115967,12,0,117523,0:0:0:0:
