osu file format v14

[General]
AudioFilename: audio.mp3
AudioLeadIn: 0
PreviewTime: 88884
Countdown: 0
SampleSet: Soft
StackLeniency: 0.2
Mode: 0
LetterboxInBreaks: 0
WidescreenStoryboard: 1

[Editor]
DistanceSpacing: 1.2
BeatDivisor: 4
GridSize: 32
TimelineZoom: 1.5

[Metadata]
Title:Amnolys
TitleUnicode:Amnolys
Artist:onoken
ArtistUnicode:onoken
Creator:LowComboFC
Version:Hard
Source:
Tags:
BeatmapID:1386226
BeatmapSetID:652797

[Difficulty]
HPDrainRate:5
CircleSize:3.5
OverallDifficulty:6
ApproachRate:6
SliderMultiplier:1.3
SliderTickRate:1

[Events]
//Background and Video events
0,0,"bg.jpg",0,0
//Break Periods
2,38301,39918
2,62501,66584
2,86501,87918
//Storyboard Layer 0 (Background)
//Storyboard Layer 1 (Fail)
//Storyboard Layer 2 (Pass)
//Storyboard Layer 3 (Foreground)
//Storyboard Sound Samples

[TimingPoints]
492,428.571428571429,4,2,1,20,1,0
10777,-100,4,2,1,30,0,0
11206,-100,4,2,1,40,0,0
11634,-100,4,2,1,50,0,0
12492,-100,4,2,1,100,0,0
35635,333.333333333333,4,2,1,100,1,0
35635,-100,4,2,1,75,0,0
40968,-100,4,2,1,100,0,0
62301,-100,4,2,1,50,0,0
67634,-100,4,2,1,100,0,0
88968,-100,4,2,1,100,0,1
98968,333.333333333333,4,2,1,100,1,0
98968,-100,4,2,1,100,0,0
99301,-100,4,2,1,100,0,1
112301,-100,4,2,1,50,0,0

[Colours]
Combo1 : 128,255,169
Combo2 : 182,128,255
Combo3 : 255,128,255
Combo4 : 130,176,253

[HitObjects]
256,192,7349,12,0,9920,0:0:0:0:
131,297,10777,6,0,P|68:295|21:251,2,130
132,297,12492,6,0,P|193:228|281:255,1,195
269,333,13349,2,0,L|214:325,2,43.3333333333333
310,364,13777,2,0,L|382:353,1,65
441,314,14206,6,0,B|471:274|471:274|455:195,1,130
491,125,14849,1,0,0:0:0:0:
444,62,15063,2,0,P|410:46|374:38,1,65
345,107,15492,2,0,P|311:123|275:131,1,65
224,79,15920,6,0,L|95:60,1,130
69,214,16777,2,0,L|197:232,1,130
263,189,17420,1,0,0:0:0:0:
263,189,17527,1,0,0:0:0:0:
263,189,17634,6,0,L|256:146,2,43.3333333333333
294,230,18063,2,0,L|300:272,2,43.3333333333333
341,208,18492,2,0,L|405:198,1,65
476,228,18920,2,0,L|473:264,3,32.5
468,299,19349,6,0,B|403:278|420:349|340:325,1,130
300,272,19992,1,0,0:0:0:0:
300,272,20099,1,0,0:0:0:0:
299,271,20206,2,0,P|274:251|243:245,1,65
204,313,20634,2,0,P|178:333|147:339,1,65
92,283,21063,5,0,0:0:0:0:
139,221,21277,1,0,0:0:0:0:
139,221,21384,1,0,0:0:0:0:
139,221,21492,2,0,B|148:187|148:187|135:160,1,65
183,98,21920,2,0,B|217:107|217:107|243:94,1,65
295,35,22349,2,0,L|368:44,1,65
436,53,22777,5,0,0:0:0:0:
332,170,23206,2,0,B|323:204|323:204|335:230,1,65
402,271,23634,2,0,L|455:264,2,43.3333333333333
363,306,24063,2,0,B|372:340|372:340|359:366,1,65
280,362,24492,6,0,B|240:332|240:332|161:347,1,130
85,328,25134,1,0,0:0:0:0:
52,256,25349,2,0,L|63:192,1,65
79,115,25777,2,0,L|86:73,3,32.5
91,44,26206,6,0,B|138:57|138:57|178:30,2,97.5
63,190,27277,2,0,P|120:161|184:148,1,130
248,193,27920,6,0,L|343:210,2,97.5
139,305,28992,1,0,0:0:0:0:
202,350,29206,2,0,L|265:337,1,65
330,297,29634,6,0,B|357:257|357:257|343:209,2,97.5
246,164,30706,2,0,P|214:136|136:97,1,130
60,117,31349,6,0,L|36:22,2,97.5
20,268,32420,1,0,0:0:0:0:
87,228,32634,2,0,L|150:241,1,65
200,301,33063,6,0,P|247:295|287:267,2,97.5
205,183,34027,1,0,0:0:0:0:
304,120,34349,6,0,P|351:125|391:153,2,97.5
309,238,35313,1,0,0:0:0:0:
401,309,35634,5,0,0:0:0:0:
401,308,40968,6,0,P|402:276|409:244,1,65
457,183,41301,1,0,0:0:0:0:
457,183,41468,2,0,P|404:217|343:202,1,130
294,140,41968,2,0,L|229:129,1,65
165,84,42301,6,0,B|197:117|197:117|183:200,1,130
117,242,42801,2,0,L|135:320,1,65
183,363,43134,1,0,0:0:0:0:
260,353,43301,2,0,L|302:361,2,43.3333333333333
256,301,43634,6,0,L|213:292,2,43.3333333333333
281,255,43968,2,0,L|292:191,1,65
278,114,44301,1,0,0:0:0:0:
278,114,44468,2,0,P|217:134|152:142,1,130
67,273,45134,6,0,P|128:252|193:244,2,130
188,371,46134,1,0,0:0:0:0:
338,327,46468,5,0,0:0:0:0:
391,269,46634,2,0,P|407:208|376:154,1,130
302,128,47134,1,0,0:0:0:0:
239,174,47301,2,0,L|165:192,1,65
107,151,47634,6,0,L|89:77,1,65
154,40,47968,1,0,0:0:0:0:
154,40,48134,2,0,P|218:36|282:46,1,130
345,92,48634,2,0,L|409:76,2,43.3333333333333
317,136,48968,6,0,L|290:263,2,130
238,136,49801,2,0,L|211:263,1,130
248,331,50301,5,0,0:0:0:0:
248,331,51134,1,0,0:0:0:0:
190,278,51301,2,0,P|157:277|127:289,1,65
76,347,51634,6,0,P|102:290|74:234,1,130
1,264,52134,1,0,0:0:0:0:
18,187,52301,2,0,L|146:206,1,130
211,163,52801,1,0,0:0:0:0:
282,194,52968,6,0,B|317:227|317:227|301:313,1,130
253,368,53468,1,0,0:0:0:0:
190,321,53634,2,0,L|147:328,2,43.3333333333333
181,269,53968,2,0,L|138:276,2,43.3333333333333
174,219,54301,5,0,0:0:0:0:
326,240,54634,2,0,P|348:179|350:115,1,130
276,93,55134,1,0,0:0:0:0:
198,94,55301,6,0,P|176:155|175:220,1,130
249,243,55801,1,0,0:0:0:0:
285,312,55968,2,0,L|271:375,1,65
196,352,56301,2,0,L|132:365,1,65
90,299,56634,2,0,L|40:289,2,43.3333333333333
135,272,56968,6,0,B|160:211|160:211|130:153,1,130
219,25,57634,1,0,0:0:0:0:
250,96,57801,6,0,B|225:157|225:157|254:214,2,130
299,35,58634,2,0,L|362:47,1,65
411,108,58968,2,0,P|455:89|502:76,2,97.5
368,174,59634,6,0,P|408:222|405:286,1,130
328,294,60134,1,0,0:0:0:0:
266,343,60301,2,0,P|237:356|205:357,1,65
171,286,60634,2,0,P|141:272|109:271,1,65
60,332,60968,5,0,0:0:0:0:
86,259,61134,2,0,P|96:194|95:129,1,130
32,82,61634,1,0,0:0:0:0:
171,12,61968,2,0,L|220:19,2,43.3333333333333
122,29,62301,5,0,0:0:0:0:
121,29,67634,6,0,P|123:61|140:88,1,65
210,123,67968,1,0,0:0:0:0:
346,198,68301,2,0,P|375:254|363:316,1,130
208,335,68968,6,0,P|178:278|190:216,1,130
287,94,69634,2,0,L|299:30,1,65
220,25,69968,2,0,L|207:88,1,65
157,148,70301,6,0,L|31:181,1,130
134,298,70968,2,0,L|259:264,1,130
332,293,71468,1,0,0:0:0:0:
403,322,71634,6,0,P|417:291|421:246,1,65
365,205,71968,2,0,P|350:174|347:129,1,65
385,76,72301,1,0,0:0:0:0:
385,76,72384,1,0,0:0:0:0:
385,76,72468,1,0,0:0:0:0:
311,22,72634,2,0,L|244:32,1,65
207,100,72968,6,0,P|175:101|145:90,1,65
86,39,73301,1,0,0:0:0:0:
24,182,73634,2,0,B|9:247|9:247|47:297,1,130
194,349,74301,6,0,B|179:284|179:284|217:233,1,130
372,252,74968,2,0,P|404:253|435:243,1,65
426,165,75301,2,0,P|393:163|362:173,1,65
299,219,75634,6,0,L|171:243,1,130
51,142,76301,2,0,L|115:151,1,65
184,115,76634,2,0,L|248:124,1,65
321,95,76968,5,0,0:0:0:0:
393,66,77134,1,0,0:0:0:0:
393,66,77218,1,0,0:0:0:0:
393,66,77301,2,0,L|387:20,2,43.3333333333333
427,104,77634,2,0,L|432:146,2,43.3333333333333
475,83,77968,1,0,0:0:0:0:
437,234,78301,6,0,P|408:247|376:254,1,65
313,208,78634,1,0,0:0:0:0:
159,240,78968,2,0,P|132:298|129:363,1,130
241,254,79634,6,0,P|268:195|271:130,1,130
118,100,80301,2,0,P|149:93|179:79,1,65
248,42,80634,2,0,P|279:48|309:62,1,65
351,128,80968,6,0,B|398:122|398:122|428:134|428:134|476:126,1,130
379,247,81634,2,0,B|332:241|332:241|302:253|302:253|253:245,1,130
186,286,82134,1,0,0:0:0:0:
110,261,82301,6,0,P|98:232|92:200,1,65
164,170,82634,2,0,P|176:140|182:108,1,65
141,41,82968,1,0,0:0:0:0:
141,41,83051,1,0,0:0:0:0:
141,41,83134,1,0,0:0:0:0:
63,76,83301,2,0,P|50:105|44:137,1,65
92,200,83634,6,0,P|115:237|117:284,1,86.6666666666667
92,325,83968,1,0,0:0:0:0:
240,371,84301,1,0,0:0:0:0:
374,292,84634,1,0,0:0:0:0:
398,137,84968,6,0,L|382:41,1,86.6666666666667
421,15,85301,1,0,0:0:0:0:
280,82,85634,1,0,0:0:0:0:
125,58,85968,1,0,0:0:0:0:
99,211,86301,5,0,0:0:0:0:
99,211,88968,6,0,P|124:230|156:239,1,65
219,193,89301,2,0,L|285:180,1,65
355,208,89634,2,0,L|345:269,2,43.3333333333333
399,180,89968,2,0,L|409:119,2,43.3333333333333
437,215,90301,5,0,0:0:0:0:
437,215,90468,2,0,L|426:282,1,65
408,355,90801,2,0,L|278:369,1,130
214,325,91301,1,0,0:0:0:0:
74,256,91634,6,0,P|56:220|58:187,1,65
119,149,91968,2,0,P|137:113|135:80,1,65
80,35,92301,2,0,L|29:43,2,43.3333333333333
62,84,92634,2,0,L|11:92,2,43.3333333333333
44,133,92968,5,0,0:0:0:0:
44,133,93134,2,0,L|30:204,1,65
73,263,93468,2,0,P|135:275|189:242,1,130
202,165,93968,1,0,0:0:0:0:
279,29,94301,6,0,P|341:16|395:49,1,130
408,127,94801,2,0,P|395:189|428:243,1,130
504,263,95301,1,0,0:0:0:0:
367,337,95634,2,0,L|238:318,2,130
82,208,96968,6,0,L|210:226,1,130
274,181,97468,2,0,L|292:52,1,130
227,9,97968,1,0,0:0:0:0:
99,98,98301,2,0,P|67:115|18:107,1,65
19,40,98634,2,0,P|51:23|100:31,1,65
155,43,98968,6,0,L|292:71,2,130
99,98,99801,1,0,0:0:0:0:
99,98,99968,2,0,P|100:130|116:158,1,65
192,176,100301,6,0,P|129:181|100:236,1,130
200,356,100968,2,0,P|245:339|293:336,2,97.5
125,335,101634,6,0,P|73:327|2:280,1,130
72,143,102301,2,0,P|124:151|195:198,1,130
298,303,102968,6,0,P|350:295|421:248,1,130
453,186,103468,1,0,0:0:0:0:
415,118,103634,1,0,0:0:0:0:
415,118,103801,2,0,L|276:103,1,130
228,49,104301,6,0,P|196:53|166:65,2,65
302,74,104801,2,0,P|314:43|318:11,2,65
244,125,105301,2,0,P|264:150|289:170,1,65
365,186,105634,6,0,L|434:175,1,65
487,228,105968,1,0,0:0:0:0:
453,298,106134,2,0,L|384:309,1,65
331,256,106468,1,0,0:0:0:0:
287,320,106634,2,0,L|218:331,1,65
151,296,106967,6,0,P|170:235|183:171,1,130
72,61,107634,1,0,0:0:0:0:
72,61,107801,2,0,P|52:122|39:186,1,130
62,260,108301,6,0,L|75:323,1,65
151,296,108634,2,0,L|164:232,1,65
133,160,108967,1,0,0:0:0:0:
208,138,109134,1,0,0:0:0:0:
283,117,109301,2,0,L|347:130,1,65
411,85,109634,6,0,B|383:124|383:124|399:204,1,130
442,269,110134,1,0,0:0:0:0:
394,331,110301,2,0,P|364:345|332:348,1,65
274,296,110634,1,0,0:0:0:0:
195,295,110801,1,0,0:0:0:0:
195,295,110884,1,0,0:0:0:0:
195,294,110967,6,0,P|133:314|81:353,1,130
14,310,111467,2,0,P|29:246|21:182,1,130
91,146,111967,2,0,P|139:190|199:216,1,130
