osu file format v14

[General]
AudioFilename: audio.mp3
AudioLeadIn: 0
PreviewTime: 88884
Countdown: 0
SampleSet: Soft
StackLeniency: 0.2
Mode: 0
LetterboxInBreaks: 0
WidescreenStoryboard: 0

[Editor]
DistanceSpacing: 2.8
BeatDivisor: 3
GridSize: 32
TimelineZoom: 1.5

[Metadata]
Title:Amnolys
TitleUnicode:Amnolys
Artist:onoken
ArtistUnicode:onoken
Creator:LowComboFC
Version:Light Extra
Source:
Tags:
BeatmapID:1384113
BeatmapSetID:652797

[Difficulty]
HPDrainRate:6
CircleSize:4
OverallDifficulty:8.3
ApproachRate:9.3
SliderMultiplier:1.8
SliderTickRate:1

[Events]
//Background and Video events
0,0,"bg.jpg",0,0
//Break Periods
//Storyboard Layer 0 (Background)
//Storyboard Layer 1 (Fail)
//Storyboard Layer 2 (Pass)
//Storyboard Layer 3 (Foreground)
//Storyboard Sound Samples

[TimingPoints]
492,428.571428571429,4,2,1,20,1,0
10777,-166.666666666667,4,2,1,30,0,0
11206,-166.666666666667,4,2,1,40,0,0
11634,-250,4,2,1,50,0,0
12492,-62.5,4,2,1,100,0,0
13349,-83.3333333333333,4,2,1,100,0,0
13777,-100,4,2,1,100,0,0
15920,-71.4285714285714,4,2,1,100,0,0
16777,-83.3333333333333,4,2,1,100,0,0
18492,-62.5,4,2,1,100,0,0
18920,-55.5555555555556,4,2,1,100,0,0
19349,-62.5,4,2,1,100,0,0
20206,-100,4,2,1,100,0,0
20634,-83.3333333333333,4,2,1,100,0,0
21492,-55.5555555555556,4,2,1,100,0,0
21920,-71.4285714285714,4,2,1,100,0,0
23206,-55.5555555555556,4,2,1,100,0,0
23634,-83.3333333333333,4,2,1,100,0,0
24063,-71.4285714285714,4,2,1,100,0,0
24920,-83.3333333333333,4,2,1,100,0,0
25349,-62.5,4,2,1,100,0,0
25777,-55.5555555555556,4,2,1,100,0,0
26206,-62.5,4,2,1,100,0,0
27277,-83.3333333333333,4,2,1,100,0,0
27920,-62.5,4,2,1,100,0,0
29206,-71.4285714285714,4,2,1,100,0,0
29634,-62.5,4,2,1,100,0,0
30920,-83.3333333333333,4,2,1,100,0,0
31349,-62.5,4,2,1,100,0,0
32634,-71.4285714285714,4,2,1,100,0,0
33063,-62.5,4,2,1,100,0,0
34027,-83.3333333333333,4,2,1,100,0,0
34349,-62.5,4,2,1,100,0,0
35313,-83.3333333333333,4,2,1,100,0,0
35635,333.333333333333,4,2,1,100,1,0
35635,-166.666666666667,4,2,1,50,0,0
38968,-100,4,2,1,50,0,0
39301,-125,4,2,1,50,0,0
39634,-166.666666666667,4,2,1,75,0,0
40384,-166.666666666667,4,2,1,20,0,0
40968,-100,4,2,1,100,0,0
45468,-166.666666666667,4,2,1,100,0,0
45801,-125,4,2,1,100,0,0
46134,-100,4,2,1,100,0,0
51301,-166.666666666667,4,2,1,100,0,0
51634,-100,4,2,1,100,0,0
62301,-166.666666666667,4,2,1,50,0,0
67634,-100,4,2,1,100,0,0
68301,-83.3333333333333,4,2,1,100,0,0
68968,-100,4,2,1,100,0,0
69634,-83.3333333333333,4,2,1,100,0,0
69968,-71.4285714285714,4,2,1,100,0,0
70301,-100,4,2,1,100,0,0
70968,-83.3333333333333,4,2,1,100,0,0
71634,-100,4,2,1,100,0,0
72301,-83.3333333333333,4,2,1,100,0,0
72635,-71.4285714285714,4,2,1,100,0,0
72968,-100,4,2,1,100,0,0
73634,-83.3333333333333,4,2,1,100,0,0
74302,-100,4,2,1,100,0,0
74968,-83.3333333333333,4,2,1,100,0,0
75302,-71.4285714285714,4,2,1,100,0,0
75634,-100,4,2,1,100,0,0
76301,-83.3333333333333,4,2,1,100,0,0
76968,-100,4,2,1,100,0,0
77634,-83.3333333333333,4,2,1,100,0,0
77968,-71.4285714285714,4,2,1,100,0,0
78301,-100,4,2,1,100,0,0
78968,-83.3333333333333,4,2,1,100,0,0
79635,-100,4,2,1,100,0,0
80301,-83.3333333333333,4,2,1,100,0,0
80635,-71.4285714285714,4,2,1,100,0,0
80968,-100,4,2,1,100,0,0
81634,-83.3333333333333,4,2,1,100,0,0
82302,-100,4,2,1,100,0,0
82968,-83.3333333333333,4,2,1,100,0,0
83302,-71.4285714285714,4,2,1,100,0,0
88968,-100,4,2,1,100,0,1
98968,333.333333333333,4,2,1,100,1,0
99301,-100,4,2,1,100,0,1
112301,-166.666666666667,4,2,1,50,0,0

[Colours]
Combo1 : 128,255,169
Combo2 : 182,128,255
Combo3 : 255,128,255
Combo4 : 130,176,253

[HitObjects]
256,192,7349,12,0,10563,0:0:0:0:
390,92,10777,5,0,0:0:0:0:
468,307,11206,1,0,0:0:0:0:
419,175,11634,6,0,L|337:160,1,72
103,112,12492,6,0,B|166:128|205:73|205:73|179:242,1,288
165,326,13134,1,0,0:0:0:0:
130,33,13349,6,0,P|94:27|61:38,1,71.9999978027344
18,111,13634,5,0,0:0:0:0:
205,73,13777,6,0,L|294:85,1,90
509,18,14206,5,0,0:0:0:0:
454,11,14313,1,0,0:0:0:0:
407,41,14420,1,0,0:0:0:0:
388,93,14527,1,0,0:0:0:0:
406,145,14634,6,0,B|426:186|426:186|405:229,1,90
414,235,14920,5,0,0:0:0:0:
421,244,14992,5,0,0:0:0:0:
429,252,15063,6,0,L|341:268,1,90
257,281,15384,1,0,0:0:0:0:
257,281,15492,2,0,L|265:235,1,45
227,125,15706,1,0,0:0:0:0:
310,352,15920,6,0,B|357:297|357:297|336:182,1,188.999994232178
336,182,16349,1,0,0:0:0:0:
98,146,16777,6,0,P|151:137|198:111,1,107.999996704102
226,33,17063,5,0,0:0:0:0:
220,19,17134,5,0,0:0:0:0:
207,12,17206,5,0,0:0:0:0:
166,224,17420,5,0,0:0:0:0:
183,266,17527,1,0,0:0:0:0:
200,308,17634,6,0,L|212:237,1,71.9999978027344
258,168,17920,1,0,0:0:0:0:
95,273,18063,5,0,0:0:0:0:
25,231,18206,5,0,0:0:0:0:
5,151,18349,5,0,0:0:0:0:
199,95,18492,6,0,B|218:65|218:65|213:28,1,72
55,4,18706,2,0,B|36:34|36:34|40:70,1,72
202,280,18920,6,0,P|196:260|186:242,1,40.4999987640381
235,259,19027,2,0,P|220:245|203:234,1,40.4999987640381
254,215,19134,2,0,P|234:210|214:209,1,40.4999987640381
241,157,19242,2,0,P|221:162|203:172,1,40.4999987640381
199,95,19349,6,0,B|268:139|347:107|375:49|375:49|302:9,1,288
110,48,19992,1,0,0:0:0:0:
110,48,20099,1,0,0:0:0:0:
110,48,20206,6,0,B|20:71|20:71|60:82,1,135
126,133,20634,6,0,L|117:205,1,53.9999983520508
98,371,20849,1,0,0:0:0:0:
182,236,21063,6,0,P|128:234|80:258,1,107.999996704102
245,289,21384,1,0,0:0:0:0:
245,289,21492,6,0,B|282:330|282:330|302:190|302:190|260:209,1,242.999992584229
132,102,21920,6,0,B|90:139|90:139|105:207,1,125.999996154785
220,121,22242,1,0,0:0:0:0:
220,121,22349,2,0,L|227:82,2,31.4999990386963
205,207,22563,1,0,0:0:0:0:
391,103,22777,5,0,0:0:0:0:
391,103,23206,6,0,B|411:60|411:60|319:97|319:97|360:197,1,242.999992584229
409,317,23634,6,0,L|419:241,2,71.9999978027344
191,310,24063,6,0,B|206:260|206:260|293:235|293:235|328:265,1,188.999994232178
77,245,24492,5,0,0:0:0:0:
40,203,24599,1,0,0:0:0:0:
43,148,24706,1,0,0:0:0:0:
83,111,24813,1,0,0:0:0:0:
138,111,24920,6,0,L|174:102,2,35.9999989013672
58,39,25206,1,0,0:0:0:0:
236,58,25349,6,0,B|257:88|257:88|248:122,1,72
89,309,25563,2,0,B|68:279|68:279|77:245,1,72
258,200,25777,6,0,L|297:209,1,40.4999987640381
258,220,25884,2,0,L|296:208,1,40.4999987640381
274,264,25992,2,0,L|301:234,1,40.4999987640381
328,315,26099,2,0,L|336:276,1,40.4999987640381
372,260,26206,6,0,B|341:278|328:315|328:315|297:293|260:294,1,144
215,137,26527,2,0,B|247:120|260:83|260:83|291:105|328:104,1,144
173,233,26849,2,0,B|124:220|124:220|104:180|104:180|57:166,1,144
147,351,27277,6,0,L|182:344,2,35.9999989013672
134,338,27492,6,0,L|186:326,1,53.9999983520508
407,171,27706,1,0,0:0:0:0:
447,208,27813,1,0,0:0:0:0:
463,260,27920,6,0,B|421:220|421:220|438:135,1,144
296,15,28242,2,0,B|338:55|338:55|320:139,1,144
237,242,28563,2,0,B|304:216|304:216|356:265,1,144
120,359,28992,1,0,0:0:0:0:
233,324,29206,6,0,L|324:348,1,94.499997116089
322,365,29420,2,0,L|230:340,1,94.499997116089
154,263,29634,6,0,P|103:244|39:310,1,144
196,170,29956,2,0,P|173:120|81:121,1,144
291,133,30277,2,0,P|310:82|244:18,1,144
256,19,30706,2,0,B|234:47|234:47|198:53,1,72
75,16,30920,6,0,B|70:50|70:50|72:61|72:61|67:96,1,80.9999975280763
21,162,31134,5,0,0:0:0:0:
10,173,31206,5,0,0:0:0:0:
15,213,31277,5,0,0:0:0:0:
66,244,31349,6,0,B|170:260|170:260|137:281,1,144
385,157,31670,2,0,B|281:173|281:173|313:194,1,144
254,384,31992,2,0,B|276:317|223:330|252:244,2,144
375,245,32527,1,0,0:0:0:0:
385,258,32634,6,0,B|365:282|365:282|331:288,1,62.9999980773926
119,323,32849,2,0,B|150:328|150:328|170:352,1,62.9999980773926
37,360,33063,6,0,L|9:218,1,144
16,51,33384,2,0,L|43:192,1,144
182,353,33706,5,0,0:0:0:0:
172,303,33813,1,0,0:0:0:0:
162,254,33920,1,0,0:0:0:0:
222,189,34027,6,0,B|263:224|263:224|252:276,1,107.999996704102
142,159,34349,6,0,L|283:131,1,144
497,177,34670,2,0,L|355:204,1,144
182,353,34992,5,0,0:0:0:0:
172,304,35099,1,0,0:0:0:0:
162,255,35206,1,0,0:0:0:0:
248,306,35313,6,0,B|300:295|300:295|335:336,1,107.999996704102
336,336,35635,6,0,P|362:339|388:348,1,53.9999983520508
454,384,35968,2,0,P|443:359|438:332,1,53.9999983520508
437,258,36301,2,0,P|421:279|400:297,1,53.9999983520508
205,188,36635,6,0,P|231:191|257:200,1,53.9999983520508
336,336,36968,2,0,P|325:311|320:284,1,53.9999983520508
399,149,37301,2,0,P|383:170|362:188,1,53.9999983520508
210,382,37635,5,0,0:0:0:0:
140,286,37801,1,0,0:0:0:0:
252,323,37968,1,0,0:0:0:0:
140,359,38135,1,0,0:0:0:0:
210,263,38301,6,0,P|225:231|219:196,1,71.9999978027344
150,154,38635,6,0,L|110:162,2,35.9999989013672
108,89,38968,6,0,P|161:115|220:121,1,120
350,8,39301,6,0,P|319:44|304:90,1,96
350,176,39634,5,0,0:0:0:0:
389,211,39717,1,0,0:0:0:0:
442,213,39800,1,0,0:0:0:0:
484,181,39884,1,0,0:0:0:0:
497,130,39968,5,0,0:0:0:0:
445,175,40051,1,0,0:0:0:0:
415,251,40134,1,0,0:0:0:0:
421,335,40218,1,0,0:0:0:0:
432,366,40301,6,0,L|274:330,1,161.999995056153
175,372,40968,6,0,B|187:329|187:329|161:291,1,90
69,133,41301,2,0,L|61:180,1,45
29,350,41468,1,0,0:0:0:0:
139,266,41634,2,0,P|183:256|227:239,1,90
364,81,41968,2,0,P|321:64|278:55,1,90
192,78,42218,1,0,0:0:0:0:
205,100,42301,5,0,0:0:0:0:
202,125,42384,2,0,L|113:147,1,90
35,165,42634,1,0,0:0:0:0:
173,288,42801,1,0,0:0:0:0:
215,302,42884,1,0,0:0:0:0:
258,295,42967,1,0,0:0:0:0:
294,268,43051,1,0,0:0:0:0:
311,227,43134,2,0,L|368:238,1,45
390,110,43301,6,0,L|410:166,1,60
445,251,43523,5,0,0:0:0:0:
468,229,43634,5,0,0:0:0:0:
472,298,43746,5,0,0:0:0:0:
415,354,43857,5,0,0:0:0:0:
325,337,43968,6,0,B|277:333|277:333|246:354|246:354|190:348,1,135
196,348,44301,1,0,0:0:0:0:
359,222,44468,1,0,0:0:0:0:
108,327,44801,6,0,P|65:335|19:358,1,90
224,257,45134,1,0,0:0:0:0:
192,225,45217,1,0,0:0:0:0:
171,185,45300,1,0,0:0:0:0:
170,124,45384,1,0,0:0:0:0:
203,62,45468,6,0,L|296:80,1,80.9999975280763
423,67,45801,6,0,B|380:33|380:33|366:84,1,108
416,153,46134,5,0,0:0:0:0:
416,153,46468,2,0,L|427:196,1,45
288,325,46634,6,0,B|267:288|267:288|356:310,1,135
356,310,46968,1,0,0:0:0:0:
200,233,47134,1,0,0:0:0:0:
305,13,47301,1,0,0:0:0:0:
338,75,47384,1,0,0:0:0:0:
337,136,47468,1,0,0:0:0:0:
316,176,47551,1,0,0:0:0:0:
286,208,47634,6,0,L|200:233,1,90
28,115,47968,1,0,0:0:0:0:
118,89,48134,2,0,B|128:131|128:131|103:170,1,90
26,204,48384,1,0,0:0:0:0:
10,195,48468,2,0,L|24:251,1,45
247,331,48634,5,0,0:0:0:0:
220,300,48746,5,0,0:0:0:0:
161,276,48857,5,0,0:0:0:0:
84,297,48968,6,0,L|-2:322,1,90
269,226,49301,2,0,P|290:186|300:142,1,90
157,16,49634,1,0,0:0:0:0:
369,160,49801,1,0,0:0:0:0:
378,139,49884,1,0,0:0:0:0:
373,122,49968,1,0,0:0:0:0:
311,155,50051,1,0,0:0:0:0:
250,154,50135,1,0,0:0:0:0:
210,133,50218,1,0,0:0:0:0:
178,103,50301,6,0,L|154:7,1,90
283,53,50634,1,0,0:0:0:0:
283,53,50801,1,0,0:0:0:0:
71,21,50968,1,0,0:0:0:0:
104,147,51134,1,0,0:0:0:0:
361,92,51301,6,0,L|413:103,1,53.9999983520508
485,42,51551,1,0,0:0:0:0:
496,33,51634,6,0,B|513:74|513:74|491:118,1,90
277,181,51968,2,0,L|288:137,1,45
283,53,52134,1,0,0:0:0:0:
178,165,52301,1,0,0:0:0:0:
171,186,52384,1,0,0:0:0:0:
181,206,52468,1,0,0:0:0:0:
373,155,52634,2,0,P|413:174|457:183,1,90
248,278,52968,6,0,P|203:286|163:305,1,90
356,359,53301,2,0,L|347:314,1,45
331,221,53468,1,0,0:0:0:0:
152,341,53634,5,0,0:0:0:0:
95,367,53746,5,0,0:0:0:0:
63,350,53857,5,0,0:0:0:0:
49,333,53968,5,0,0:0:0:0:
79,293,54079,5,0,0:0:0:0:
63,228,54190,5,0,0:0:0:0:
4,168,54301,6,0,P|9:139|24:113,1,60
110,94,54523,5,0,0:0:0:0:
181,139,54634,6,0,B|239:129|239:129|283:152|283:152|354:136,1,180
392,57,55134,1,0,0:0:0:0:
222,223,55301,5,0,0:0:0:0:
206,255,55412,5,0,0:0:0:0:
214,305,55523,5,0,0:0:0:0:
274,352,55634,6,0,B|313:331|313:331|357:339,1,90
457,352,55884,1,0,0:0:0:0:
443,358,55968,6,0,L|434:308,1,45
412,184,56134,1,0,0:0:0:0:
237,81,56301,6,0,L|228:131,1,45
206,255,56467,1,0,0:0:0:0:
325,76,56634,5,0,0:0:0:0:
334,151,56746,5,0,0:0:0:0:
304,192,56857,5,0,0:0:0:0:
270,202,56968,6,0,P|227:216|183:225,1,90
419,336,57301,2,0,P|461:322|505:313,1,90
353,270,57634,2,0,L|358:225,1,45
325,76,57801,1,0,0:0:0:0:
441,202,57968,1,0,0:0:0:0:
244,187,58134,6,0,B|197:199|197:199|180:236|180:236|136:249,1,135
112,258,58468,1,0,0:0:0:0:
252,366,58634,2,0,L|263:274,1,90
59,97,58968,2,0,B|48:142|48:142|75:176,1,90
112,258,59218,1,0,0:0:0:0:
112,258,59301,2,0,L|128:123,1,135
135,38,59634,6,0,P|163:99|209:147,1,135
209,147,59968,1,0,0:0:0:0:
353,22,60134,6,0,L|336:78,1,45
337,147,60301,1,0,0:0:0:0:
242,1,60468,6,0,L|255:57,1,45
348,172,60634,1,0,0:0:0:0:
135,38,60801,6,0,L|174:80,1,45
359,197,60968,1,0,0:0:0:0:
203,282,61134,6,0,P|210:260|223:242,1,45
373,62,61301,2,0,P|387:79|396:99,1,45
468,246,61468,2,0,P|445:250|423:247,1,45
392,274,61634,6,0,P|370:281|352:294,1,45
252,158,61801,2,0,P|230:150|212:137,1,45
91,37,61968,5,0,0:0:0:0:
117,75,62079,5,0,0:0:0:0:
190,99,62190,5,0,0:0:0:0:
275,71,62301,6,0,P|299:60|326:58,1,53.9999983520508
268,214,62634,2,0,P|246:198|231:175,1,53.9999983520508
395,146,62968,2,0,P|392:172|379:196,1,53.9999983520508
190,99,63301,6,0,L|128:75,1,53.9999983520508
411,60,63634,2,0,L|462:18,1,53.9999983520508
334,270,63968,2,0,L|344:335,1,53.9999983520508
231,175,64301,5,0,0:0:0:0:
326,58,64468,1,0,0:0:0:0:
379,196,64634,1,0,0:0:0:0:
312,141,64801,5,0,0:0:0:0:
224,318,64968,6,0,P|199:328|172:330,1,53.9999983520508
231,175,65301,2,0,P|252:190|267:213,1,53.9999983520508
104,243,65635,2,0,P|106:216|119:192,1,53.9999983520508
309,290,65968,6,0,L|371:314,1,53.9999983520508
88,329,66301,2,0,L|36:370,1,53.9999983520508
165,119,66635,2,0,L|154:53,1,53.9999983520508
268,214,66968,5,0,0:0:0:0:
173,331,67135,1,0,0:0:0:0:
120,193,67301,1,0,0:0:0:0:
187,248,67468,5,0,0:0:0:0:
34,191,67634,6,0,B|5:152|5:152|19:69|19:69|56:39,1,180
239,100,68134,1,0,0:0:0:0:
159,55,68301,6,0,P|136:29|128:1,1,53.9999983520508
315,50,68468,2,0,P|349:43|377:50,1,53.9999983520508
241,187,68634,2,0,B|230:263|181:287|181:287|187:248,1,161.999995056153
88,382,68968,6,0,B|66:335|98:298|98:298|151:308|157:358,1,180
70,215,69468,1,0,0:0:0:0:
176,76,69634,5,0,0:0:0:0:
176,76,69718,1,0,0:0:0:0:
176,76,69801,2,0,L|167:131,1,53.9999983520508
241,335,69968,6,0,B|290:296|290:296|256:174,1,188.999994232178
323,95,70301,6,0,B|367:71|367:71|408:138|359:191,1,180
163,163,70801,1,0,0:0:0:0:
230,8,70968,6,0,B|260:10|260:10|276:27,1,53.9999983520508
512,101,71134,2,0,B|495:118|495:118|465:120,1,53.9999983520508
359,191,71301,2,0,B|353:148|353:148|356:133|356:133|348:84,1,107.999996704102
496,283,71634,6,0,P|465:254|421:257,1,90
312,325,71884,1,0,0:0:0:0:
321,338,71968,2,0,P|289:367|245:364,1,90
158,248,72218,1,0,0:0:0:0:
150,233,72301,6,0,L|155:175,1,53.9999983520508
126,91,72468,1,0,0:0:0:0:
246,167,72634,6,0,B|302:152|302:152|322:105|322:105|372:89,1,161.999995056153
427,8,72968,6,0,B|373:68|446:105|394:178,1,180
325,231,73468,1,0,0:0:0:0:
470,221,73634,6,0,P|487:207|519:200,1,53.9999983520508
307,315,73801,2,0,P|289:328|257:336,1,53.9999983520508
429,340,73968,6,0,B|401:346|386:369|386:369|370:309|416:323|401:265,1,161.999995056153
405,171,74301,6,0,B|405:122|405:122|356:95|356:95|316:134|316:134|332:186,1,215.999993408203
384,255,74801,1,0,0:0:0:0:
169,296,74968,1,0,0:0:0:0:
148,288,75051,1,0,0:0:0:0:
145,271,75134,2,0,P|171:268|197:260,1,53.9999983520508
366,151,75301,6,0,B|352:110|298:111|298:111|280:147|237:153,1,161.999995056153
144,94,75634,6,0,B|108:67|108:67|174:26|232:78,1,180
224,235,76134,1,0,0:0:0:0:
75,230,76301,6,0,B|59:206|59:206|64:181,1,53.9999983520508
237,152,76468,2,0,B|253:176|253:176|247:200,1,53.9999983520508
179,301,76634,2,0,L|156:195,1,107.999996704102
252,65,76968,5,0,0:0:0:0:
312,199,77134,2,0,P|346:211|370:211,1,45
512,55,77301,1,0,0:0:0:0:
460,35,77384,1,0,0:0:0:0:
410,58,77467,1,0,0:0:0:0:
390,109,77550,1,0,0:0:0:0:
412,159,77634,6,0,P|430:202|429:227,1,71.9999978027344
380,288,77857,5,0,0:0:0:0:
240,252,77968,6,0,B|119:279|119:279|154:278|179:301,1,188.999994232178
127,357,78301,6,0,P|83:288|12:329,1,180
102,194,78801,1,0,0:0:0:0:
37,65,78968,6,0,L|63:112,1,53.9999983520508
211,96,79134,2,0,L|170:131,1,53.9999983520508
102,194,79301,2,0,B|157:171|157:171|192:210|192:210|241:218,1,161.999995056153
347,167,79634,6,0,B|303:144|303:144|334:267|334:267|356:234,1,215.999993408203
435,188,80134,1,0,0:0:0:0:
211,96,80301,5,0,0:0:0:0:
211,96,80384,1,0,0:0:0:0:
211,96,80468,2,0,P|195:70|192:42,1,53.9999983520508
405,13,80634,6,0,B|391:37|391:37|282:23|282:23|272:45,1,161.999995056153
147,166,80968,6,0,B|191:168|232:195|232:195|253:158|298:137,1,180
249,275,81468,1,0,0:0:0:0:
340,346,81634,6,0,P|339:323|328:294,1,53.9999983520508
183,322,81801,2,0,P|183:344|195:374,1,53.9999983520508
270,380,81968,2,0,L|249:275,1,107.999996704102
321,159,82301,6,0,B|342:128|342:128|431:138|431:138|443:170,1,161.999995056153
371,255,82634,2,0,L|377:210,1,45
397,60,82801,1,0,0:0:0:0:
211,13,82968,5,0,0:0:0:0:
187,23,83051,1,0,0:0:0:0:
169,46,83134,2,0,L|235:55,1,53.9999983520508
466,80,83301,6,0,B|408:95|408:95|402:91|402:91|400:97|400:97|314:119,1,161.999995056153
184,228,83634,6,0,P|187:186|215:156,1,83.9999974365235
258,220,83857,5,0,0:0:0:0:
173,302,83968,6,0,P|97:329|37:277,1,167.999994873047
112,253,84301,5,0,0:0:0:0:
94,177,84412,5,0,0:0:0:0:
116,102,84523,5,0,0:0:0:0:
162,39,84634,6,0,B|208:71|208:71|316:43,1,167.999994873047
399,215,84968,6,0,B|353:183|353:183|244:210,1,167.999994873047
198,149,85301,6,0,L|360:106,1,167.999994873047
470,9,85634,6,0,B|445:42|445:42|441:87,1,83.9999974365235
486,156,85857,5,0,0:0:0:0:
406,92,85968,5,0,0:0:0:0:
322,73,86079,5,0,0:0:0:0:
349,153,86190,5,0,0:0:0:0:
360,105,86301,5,0,0:0:0:0:
256,192,86384,12,0,88801,0:0:0:0:
413,328,88968,6,0,P|418:292|442:244,1,90
326,76,89301,2,0,P|347:115|354:159,1,90
303,223,89551,1,0,0:0:0:0:
303,223,89634,6,0,P|272:221|244:210,1,60
203,139,89857,5,0,0:0:0:0:
125,32,89968,6,0,P|94:34|66:45,1,60
25,116,90191,5,0,0:0:0:0:
96,263,90301,6,0,L|108:171,1,90
125,32,90634,1,0,0:0:0:0:
7,218,90801,1,0,0:0:0:0:
203,139,90968,1,0,0:0:0:0:
203,139,91051,1,0,0:0:0:0:
202,139,91134,2,0,P|225:138|247:144,1,45
306,208,91301,2,0,P|352:200|390:181,1,90
416,81,91551,1,0,0:0:0:0:
423,99,91634,6,0,L|512:112,1,90
414,311,91968,2,0,B|368:318|368:318|334:292,1,90
306,208,92218,1,0,0:0:0:0:
306,208,92301,6,0,L|289:118,1,60
279,57,92523,5,0,0:0:0:0:
150,97,92634,6,0,L|240:80,1,60
301,70,92856,5,0,0:0:0:0:
438,4,92968,6,0,B|478:46|478:46|463:123,1,135
463,121,93301,1,0,0:0:0:0:
306,208,93468,1,0,0:0:0:0:
378,363,93634,1,0,0:0:0:0:
399,324,93717,1,0,0:0:0:0:
394,279,93800,1,0,0:0:0:0:
389,234,93884,1,0,0:0:0:0:
410,195,93968,2,0,L|500:213,1,90
279,57,94301,6,0,P|225:65|179:89,1,90
162,265,94634,1,0,0:0:0:0:
232,224,94801,2,0,P|252:173|254:121,1,90
110,18,95134,1,0,0:0:0:0:
110,99,95301,2,0,P|143:141|187:169,1,90
350,97,95634,6,0,L|482:70,1,135
490,90,95968,2,0,L|357:116,1,135
243,11,96301,6,0,B|329:65|329:65|299:233,1,270
179,122,96968,6,0,L|198:219,1,90
217,291,97218,1,0,0:0:0:0:
217,291,97301,1,0,0:0:0:0:
110,81,97468,2,0,B|57:95|57:95|180:123,1,180
232,39,97884,1,0,0:0:0:0:
222,55,97968,2,0,L|310:37,1,90
507,121,98301,6,0,P|488:106|460:96,1,45
375,115,98468,1,0,0:0:0:0:
468,277,98634,2,0,P|463:224|443:184,1,90
285,83,98968,6,0,B|260:78|260:78|255:75|255:75|226:70,2,60
394,45,99301,6,0,B|351:29|351:29|375:115,1,135
375,115,99634,1,0,0:0:0:0:
292,288,99801,1,0,0:0:0:0:
373,323,99968,2,0,P|335:298|291:287,1,90
97,348,100301,5,0,0:0:0:0:
97,348,100468,1,0,0:0:0:0:
172,245,100634,2,0,L|191:143,1,90
78,67,100968,2,0,B|65:111|65:111|96:143,1,90
188,156,101218,1,0,0:0:0:0:
178,139,101301,2,0,L|280:158,1,90
466,49,101634,6,0,P|422:72|375:79,1,90
287,284,101968,2,0,P|331:292|370:313,1,90
413,216,102301,1,0,0:0:0:0:
401,197,102384,1,0,0:0:0:0:
398,174,102468,1,0,0:0:0:0:
501,61,102634,2,0,B|515:104|515:104|495:144,1,90
286,193,102968,6,0,L|152:173,1,135
152,173,103301,1,0,0:0:0:0:
39,276,103468,1,0,0:0:0:0:
39,276,103551,1,0,0:0:0:0:
39,276,103634,2,0,P|47:307|59:323,1,45
134,364,103801,1,0,0:0:0:0:
279,281,103968,2,0,P|288:237|286:193,1,90
252,117,104218,1,0,0:0:0:0:
252,117,104301,5,0,0:0:0:0:
383,151,104468,1,0,0:0:0:0:
383,151,104634,1,0,0:0:0:0:
184,155,104801,5,0,0:0:0:0:
374,29,104968,1,0,0:0:0:0:
374,29,105134,1,0,0:0:0:0:
146,223,105301,5,0,0:0:0:0:
252,38,105468,1,0,0:0:0:0:
239,26,105551,1,0,0:0:0:0:
221,23,105634,5,0,0:0:0:0:
281,262,105801,1,0,0:0:0:0:
281,262,105968,1,0,0:0:0:0:
130,105,106134,5,0,0:0:0:0:
301,281,106301,1,0,0:0:0:0:
301,281,106468,1,0,0:0:0:0:
92,221,106634,5,0,0:0:0:0:
328,288,106801,1,0,0:0:0:0:
344,281,106884,1,0,0:0:0:0:
355,264,106967,6,0,L|349:215,1,45
340,142,107134,2,0,L|345:186,1,45
370,384,107301,1,0,0:0:0:0:
206,303,107467,6,0,L|255:297,1,45
328,288,107634,2,0,L|283:293,1,45
86,318,107801,1,0,0:0:0:0:
26,139,107967,6,0,P|52:151|82:156,1,60
149,99,108190,5,0,0:0:0:0:
113,23,108301,6,0,L|130:64,1,45
183,176,108467,1,0,0:0:0:0:
257,20,108634,6,0,L|249:77,1,45
236,236,108800,1,0,0:0:0:0:
419,83,108967,6,0,L|372:143,1,45
254,311,109134,2,0,L|289:338,1,45
504,249,109301,6,0,P|472:244|425:255,1,60
385,322,109523,5,0,0:0:0:0:
458,371,109634,6,0,P|425:340|385:322,1,90
495,165,109967,2,0,P|451:154|406:158,1,90
105,158,110301,2,0,P|60:154|17:165,1,90
127,322,110634,2,0,P|86:340|53:371,1,90
234,377,110884,2,0,L|241:349,1,22.5
223,368,110967,6,0,L|216:312,1,45
322,316,111134,2,0,L|287:271,1,45
381,221,111301,2,0,L|329:199,1,45
201,43,111467,6,0,L|208:99,1,45
102,95,111634,2,0,L|136:139,1,45
43,190,111801,2,0,L|94:211,1,45
210,213,111967,5,0,0:0:0:0:
210,213,112301,5,0,0:0:0:0:
179,296,112467,1,0,0:0:0:0:
221,357,112634,1,0,0:0:0:0:
279,188,112801,5,0,0:0:0:0:
307,144,112968,1,0,0:0:0:0:
301,115,113134,1,0,0:0:0:0:
268,264,113301,5,0,0:0:0:0:
351,295,113467,1,0,0:0:0:0:
412,253,113634,1,0,0:0:0:0:
222,131,113801,5,0,0:0:0:0:
178,103,113968,1,0,0:0:0:0:
149,109,114134,1,0,0:0:0:0:
39,277,114301,5,0,0:0:0:0:
128,299,114467,1,0,0:0:0:0:
50,266,114634,1,0,0:0:0:0:
139,288,114800,1,0,0:0:0:0:
302,171,114967,5,0,0:0:0:0:
333,88,115133,1,0,0:0:0:0:
291,27,115300,1,0,0:0:0:0:
233,196,115467,5,0,0:0:0:0:
205,240,115634,1,0,0:0:0:0:
211,269,115800,1,0,0:0:0:0:
506,372,115967,5,0,0:0:0:0:
489,315,116079,5,0,0:0:0:0:
450,275,116190,5,0,0:0:0:0:
421,262,116301,5,0,0:0:0:0:
404,260,116412,5,0,0:0:0:0:
394,262,116523,5,0,0:0:0:0:
371,274,116634,5,0,0:0:0:0:
340,297,116745,5,0,0:0:0:0:
310,342,116856,5,0,0:0:0:0:
246,371,116967,5,0,0:0:0:0:
169,341,117079,5,0,0:0:0:0:
134,258,117190,5,0,0:0:0:0:
185,163,117301,6,0,L|196:125,1,35.9999989013672
50,21,117523,5,0,0:0:0:0:
