osu file format v14

[General]
AudioFilename: audio.ogg
AudioLeadIn: 0
PreviewTime: 74091
Countdown: 0
SampleSet: Soft
StackLeniency: 0.7
Mode: 0
LetterboxInBreaks: 0
WidescreenStoryboard: 1

[Editor]
Bookmarks: 7005,8152,9173,78428
DistanceSpacing: 1.4
BeatDivisor: 6
GridSize: 8
TimelineZoom: 1

[Metadata]
Title:Tsuioku Merry-Go-Round (TV Size)
TitleUnicode:追憶メリーゴーランド (TV Size)
Artist:onelifecrew
ArtistUnicode:onelifecrew
Creator:pewdekz
Version:Easy
Source:FAIRY TAIL
Tags:fairy tail ed 2 1/3 フェアリーテイル series 1 season 1 anime japanese rock jrock j-rock natsu ナツ lucy ルーシィ happy ハッピー
BeatmapID:2884211
BeatmapSetID:1276836

[Difficulty]
HPDrainRate:2.5
CircleSize:3.3
OverallDifficulty:2.5
ApproachRate:4
SliderMultiplier:1.6
SliderTickRate:0.5

[Events]
//Background and Video events
0,0,"happy.png",0,0
Video,269,"Editor[11].mp4"
//Break Periods
//Storyboard Layer 0 (Background)
//Storyboard Layer 1 (Fail)
//Storyboard Layer 2 (Pass)
//Storyboard Layer 3 (Foreground)
//Storyboard Layer 4 (Overlay)
//Storyboard Sound Samples

[TimingPoints]
314,689.655172413793,4,2,1,55,1,0
314,-100,4,2,1,55,0,0
7095,731.707317073171,4,2,1,70,1,8
7095,-94.3396226415094,4,2,1,70,0,8
7217,731.707317073171,4,2,1,70,1,8
7217,-94.3396226415094,4,2,1,70,0,8
7582,670.391061452514,4,2,1,70,1,8
7582,-103.092783505155,4,2,1,70,0,8
8587,683.760683760684,4,2,1,70,1,8
8587,-101.010101010101,4,2,1,70,0,8
8814,685.714285714286,4,2,1,70,1,8
8814,-101.010101010101,4,2,1,70,0,8
9271,683.760683760684,4,2,1,70,1,8
9271,-101.010101010101,4,2,1,70,0,8
10926,691.64265129683,4,2,1,60,1,8
11271,691.64265129683,4,2,1,60,1,0
11271,-100,4,2,1,60,0,0
19570,689.655172413793,4,2,1,55,1,8
19570,-100,4,2,1,55,0,8
22328,672.268907563026,4,2,1,60,1,8
22328,-103.092783505155,4,2,1,60,0,8
24568,705.882352941176,4,2,1,60,1,8
24568,-98.0392156862745,4,2,1,60,0,8
24920,714.285714285714,4,2,1,60,1,0
24920,-96.1538461538461,4,2,1,60,0,0
25039,714.285714285714,4,2,1,60,1,8
25039,-96.1538461538461,4,2,1,60,0,8
25396,714.285714285714,4,2,1,60,1,8
25396,-96.1538461538461,4,2,1,60,0,8
25753,683.760683760684,4,2,1,60,1,8
25753,-101.010101010101,4,2,1,60,0,8
26322,689.655172413793,4,2,1,60,1,8
26322,-100,4,2,1,60,0,8
26436,689.655172413793,4,2,1,60,1,8
26436,-100,4,2,1,60,0,8
27815,691.64265129683,4,2,1,60,1,8
27815,-100,4,2,1,60,0,8
28506,674.157303370787,4,2,1,60,1,8
28506,-102.040816326531,4,2,1,60,0,8
29067,716.417910447761,4,2,1,60,1,8
29067,-96.1538461538461,4,2,1,60,0,8
29186,716.417910447761,4,2,1,60,1,8
29186,-96.1538461538461,4,2,1,60,0,8
29544,677.966101694915,4,2,1,60,1,8
29544,-102.040816326531,4,2,1,60,0,8
30221,720.720720720721,4,2,1,60,1,8
30221,-95.2380952380952,4,2,1,60,0,8
30581,689.813750287422,4,2,1,55,1,8
30581,-100,4,2,1,55,0,8
35409,681.044267877412,4,2,1,55,1,8
35409,-101.010101010101,4,2,1,55,0,8
36090,689.813750287422,4,2,1,55,1,0
36090,-100,4,2,1,55,0,0
38849,692.84064665127,4,2,1,55,1,8
38849,-100,4,2,1,55,0,8
41620,689.813750287422,4,2,1,55,1,0
41620,-100,4,2,1,55,0,0
58175,681.818181818182,4,2,1,55,1,8
58175,-101.010101010101,4,2,1,55,0,8
59197,-102.040816326531,4,2,1,55,0,8
59538,697.674418604651,4,2,1,55,1,8
59538,-99.009900990099,4,2,1,55,0,8
60933,689.655172413793,4,2,1,55,1,8
60933,-100,4,2,1,55,0,8
63001,705.882352941176,4,2,1,55,1,8
63001,-98.0392156862745,4,2,1,55,0,8
63706,689.655172413793,4,2,1,55,1,0
63706,-100,4,2,1,55,0,0
67499,-99.009900990099,4,2,1,55,0,0
67728,679.886685552408,4,2,1,55,1,8
67728,-101.010101010101,4,2,1,55,0,8
67841,679.886685552408,4,2,1,55,1,8
67841,-101.010101010101,4,2,1,55,0,8
68520,-104.493207941484,4,2,1,55,0,8
68860,727.272727272727,4,2,1,55,1,8
68860,-95.2380952380952,4,2,1,55,0,8
69223,685.714285714286,4,2,1,60,1,0
69223,-101.010101010101,4,2,1,60,0,0
71280,697.674418604651,4,2,1,60,1,8
71280,-99.009900990099,4,2,1,60,0,8
71977,685.714285714286,4,2,1,60,1,8
71977,-101.010101010101,4,2,1,60,0,8
74719,687.679083094556,4,2,1,70,1,1
74719,-100,4,2,1,70,0,1
80220,691.64265129683,4,2,1,70,1,9
80220,-100,4,2,1,70,0,9
85753,689.655172413793,4,2,1,70,1,1
85753,-100,4,2,1,70,0,1
96787,-100,4,2,1,70,0,0

[Colours]
Combo1 : 140,143,155
Combo2 : 234,255,0
Combo3 : 255,0,0
Combo4 : 4,156,183
Combo5 : 255,128,192

[HitObjects]
259,129,314,6,0,P|293:165|293:273,2,160,10|10|10,0:0|0:0|0:0,0:0:0:0:
106,58,2382,1,10,0:0:0:0:
0,183,3072,2,0,B|34:230|34:230|152:240,1,160,10|2,0:0|0:0,0:0:0:0:
262,179,4336,2,0,L|250:310,1,106.666666666667,2|2,0:0|0:0,0:0:0:0:
242,368,5141,1,2,0:0:0:0:
324,383,5486,1,2,0:0:0:0:
402,353,5831,6,0,P|464:340|478:197,1,213.333333333333,10|10,0:0|0:0,0:0:0:0:
433,149,7095,2,0,B|409:164|387:152|387:152|355:135|322:151,1,113.066666839193,10|2,0:0|1:2,0:0:0:0:
257,198,7917,2,0,P|209:200|172:174,1,77.6000018353272,10|0,1:2|1:2,0:0:0:0:
158,50,8814,1,10,0:0:0:0:
44,59,9271,2,0,B|37:106|37:106|17:133|17:133|9:192,1,131.999999597168,10|10,0:0|0:0,0:0:0:0:
45,308,11271,6,0,P|86:238|176:210,1,160,2|2,0:0|0:0,0:0:0:0:
281,277,12539,2,0,B|277:207|277:207|252:182|252:182|247:85,1,186.666666666667,2|2,0:0|0:0,0:0:0:0:
287,27,13691,1,2,0:0:0:0:
368,49,14037,2,0,B|382:168|382:168|423:207,1,160,2|0,0:0|0:0,0:0:0:0:
454,328,15305,2,0,P|413:289|285:304,1,186.666666666667,2|2,0:0|0:0,0:0:0:0:
230,357,16458,1,2,0:0:0:0:
177,291,16804,6,0,L|187:188,1,80,2|2,0:0|0:0,0:0:0:0:
191,127,17495,1,2,0:0:0:0:
150,53,17841,2,0,P|79:41|24:115,1,160,2|2,0:0|0:0,0:0:0:0:
0,182,18879,1,0,0:0:0:0:
2,343,19570,6,0,B|41:361|83:345|83:345|125:328|169:352,1,160,10|8,0:0|0:0,0:0:0:0:
233,382,20604,1,2,0:0:0:0:
270,307,20949,2,0,L|262:214,1,80,8|0,0:0|0:0,0:0:0:0:
341,195,21638,2,0,L|349:290,1,80,10|2,0:0|0:0,0:0:0:0:
353,362,22328,6,0,P|443:323|456:262,2,155.200003670654,2|2|2,1:2|1:2|1:2,0:0:0:0:
290,310,24008,1,2,1:2:0:0:
244,243,24344,2,0,L|251:173,1,51.7333345568848,2|10,1:2|0:2,0:0:0:0:
210,114,24920,6,0,P|158:136|164:34,1,194.133332148437,14|2,0:0|1:2,0:0:0:0:
265,0,26322,2,0,L|391:20,1,106.666666666667,10|10,0:0|0:0,0:0:0:0:
452,34,27125,2,0,L|467:121,1,80,2|2,1:2|0:0,0:0:0:0:
423,184,27815,1,10,0:0:0:0:
351,140,28160,1,10,0:0:0:0:
283,190,28506,2,0,P|211:192|163:151,1,130.666665470378,2|10,1:2|0:0,0:0:0:0:
91,71,29544,5,10,0:0:0:0:
29,128,29882,2,0,B|37:184|37:184|41:215,1,78.3999992822266,2|2,1:2|0:0,0:0:0:0:
52,290,30581,1,10,0:0:0:0:
196,380,31270,6,0,P|254:343|325:363,1,133.333333333333,2|10,1:2|0:0,0:0:0:0:
424,327,32305,2,0,L|414:233,1,80,8|2,0:0|1:2,0:0:0:0:
366,178,32995,1,2,0:0:0:0:
296,133,33340,2,0,L|307:39,1,80,10|10,0:0|0:0,0:0:0:0:
372,1,34030,2,0,P|437:17|475:78,1,133.333333333333,2|10,1:2|0:0,0:0:0:0:
413,164,35064,1,10,0:0:0:0:
462,232,35409,2,0,L|446:327,1,79.1999997583008,2|2,1:2|0:0,0:0:0:0:
387,370,36090,6,0,P|325:325|222:320,1,160,10|0,0:0|1:0,0:0:0:0:
116,367,37354,2,0,P|97:302|104:253,1,106.666666666667,10|8,0:0|0:0,0:0:0:0:
129,185,38159,2,0,P|138:119|131:88,1,80,0|0,1:2|0:0,0:0:0:0:
122,18,38849,2,0,B|176:32|176:32|215:9|215:9|278:24,1,160,10|0,0:2|1:0,0:0:0:0:
345,64,39888,1,2,0:0:0:0:
396,130,40234,2,0,L|412:225,1,80,0|8,0:0|0:0,0:0:0:0:
368,282,40927,2,0,L|352:377,1,80,2|2,1:2|0:0,0:0:0:0:
267,359,41620,5,14,0:0:0:0:
155,236,42309,2,0,P|206:175|274:162,1,133.333333333333,2|10,1:2|0:0,0:0:0:0:
343,165,43229,2,0,P|359:116|335:58,1,106.666666666667,2|2,0:2|1:2,0:0:0:0:
267,25,44034,2,0,L|186:14,1,80,2|8,0:0|0:0,0:0:0:0:
106,36,44724,6,0,P|83:76|145:180,1,160,10|2,0:0|0:0,0:0:0:0:
206,193,45758,2,0,P|252:301|165:363,1,240,2|2,0:0|0:0,0:0:0:0:
83,352,47138,1,10,0:0:0:0:
7,202,47828,1,2,1:2:0:0:
56,134,48173,6,0,B|97:163|134:149|134:149|173:134|216:156,1,160,14|10,0:0|0:0,0:0:0:0:
283,191,49207,1,2,1:2:0:0:
350,140,49552,1,10,0:0:0:0:
429,168,49897,2,0,L|416:342,1,160,10|0,0:0|1:0,0:0:0:0:
353,382,50932,1,2,0:0:0:0:
295,318,51277,2,0,P|282:279|290:231,1,80,10|10,0:0|0:0,0:0:0:0:
303,160,51967,2,0,P|291:121|257:86,1,80,2|10,1:2|0:0,0:0:0:0:
207,33,52657,6,0,B|170:58|130:35|130:35|87:15|45:12|1:82|-2:109|5:155|39:210|79:211|115:208|138:193,1,400,14|2,0:0|0:0,0:0:0:0:
193,142,54726,2,0,L|266:158,1,53.3333333333333,2|10,1:2|0:0,0:0:0:0:
294,252,55416,2,0,P|278:284|346:359,1,133.333333333333,10|2,0:0|0:0,0:0:0:0:
410,347,56336,2,0,P|456:299|441:205,1,160,2|2,0:0|1:2,0:0:0:0:
353,148,57485,2,0,L|371:62,1,80,0|0,1:2|0:0,0:0:0:0:
316,3,58175,6,0,P|255:46|168:31,1,158.399999516602,10|2,0:0|1:2,0:0:0:0:
95,13,59197,2,0,B|66:60|66:60|82:106|82:106|54:161,1,158.399999516602,2|2,0:0|0:0,0:0:0:0:
39,235,60235,1,0,1:2:0:0:
70,313,60584,1,2,0:0:0:0:
147,346,60933,2,0,P|193:334|238:235,1,160,10|0,0:0|1:0,0:0:0:0:
219,156,61967,1,2,0:0:0:0:
239,74,62312,2,0,B|350:89|350:89|385:36,1,160,2|2,0:0|1:2,0:0:0:0:
450,0,63353,1,2,0:2:0:0:
499,68,63706,6,0,B|539:128|505:186|505:186|469:246|528:307,1,240,14|2,0:0|0:0,0:0:0:0:
286,376,65774,2,0,P|279:325|184:266,1,160,2|0,1:2|0:0,0:0:0:0:
121,302,66809,1,10,0:0:0:0:
20,179,67499,2,0,P|47:122|149:95,1,160,10|8,0:0|0:0,0:0:0:0:
204,128,68520,2,0,P|272:174|352:166,1,158.399999516602,2|14,1:2|0:0,0:0:0:0:
425,147,69565,5,10,0:0:0:0:
425,64,69908,2,0,P|359:23|263:34,1,158.399999516602,2|2,1:2|0:0,0:0:0:0:
225,90,70937,1,10,0:0:0:0:
268,161,71280,2,0,L|257:262,1,80.7999983972168,2|0,1:2|0:0,0:0:0:0:
248,326,71977,2,0,B|197:352|197:352|138:335|138:335|85:367,2,158.399999516602,10|10|8,0:0|0:0|0:0,0:0:0:0:
105,234,74034,1,10,1:2:0:0:
57,72,74719,5,10,0:0:0:0:
134,36,75062,1,10,0:0:0:0:
192,96,75406,2,0,P|248:127|326:127,1,133.333333333333,2|10,1:2|0:0,0:0:0:0:
418,178,76438,2,0,L|430:269,1,80,10|2,0:0|1:2,0:0:0:0:
424,343,77125,1,0,0:0:0:0:
345,372,77469,2,0,B|288:362|288:362|255:327|255:327|189:322,1,160,8|2,0:0|1:2,0:0:0:0:
135,376,78501,1,2,0:0:0:0:
84,309,78845,6,0,L|90:227,1,80,2|10,0:0|0:0,0:0:0:0:
34,166,79532,1,2,1:2:0:0:
24,82,79876,1,2,0:0:0:0:
90,29,80220,1,10,0:0:0:0:
161,73,80565,2,0,P|202:79|254:68,1,80,10|2,0:0|1:2,0:0:0:0:
319,45,81257,1,2,0:0:0:0:
391,87,81603,2,0,B|386:148,1,53.3333333333333,2|2,0:0|0:0,0:0:0:0:
366,250,82294,1,0,1:0:0:0:
288,282,82640,1,2,0:0:0:0:
229,224,82986,6,0,B|209:178|209:178|215:112|215:112|193:69,1,160,10|0,0:0|1:0,0:0:0:0:
144,6,84024,1,2,0:2:0:0:
60,0,84369,2,0,P|20:35|10:140,1,160,2|0,0:0|1:2,0:0:0:0:
43,213,85407,1,2,0:0:0:0:
110,163,85753,2,0,B|147:165|147:165|192:191,1,80,10|10,0:0|0:0,0:0:0:0:
239,249,86442,1,2,1:2:0:0:
226,332,86787,2,0,L|302:351,1,53.3333333333333,2|10,0:0|0:0,0:0:0:0:
385,308,87477,2,0,L|404:215,1,80,8|2,0:0|1:2,0:0:0:0:
379,148,88166,1,2,0:0:0:0:
415,72,88511,6,0,B|477:85|477:85|510:75,2,80,10|10|2,0:0|0:0|1:2,0:0:0:0:
355,12,89546,2,0,L|279:31,1,53.3333333333333,2|10,0:0|0:0,0:0:0:0:
202,75,90235,2,0,P|224:103|232:163,1,80,8|2,0:0|1:2,0:0:0:0:
247,228,90925,1,2,0:0:0:0:
222,308,91270,2,0,B|250:327|250:327|315:334,1,80,10|10,0:0|0:0,0:0:0:0:
379,344,91959,1,2,1:2:0:0:
450,299,92304,2,0,P|449:259|435:233,1,53.3333333333333,2|8,0:0|0:0,0:0:0:0:
404,144,92994,2,0,P|408:108|443:61,1,80,10|2,0:0|1:2,0:0:0:0:
275,7,94028,6,0,P|226:53|123:36,1,160,10|8,0:0|0:0,0:0:0:0:
64,5,95063,1,10,0:0:0:0:
11,70,95408,2,0,L|24:167,1,80,8|8,0:0|0:0,0:0:0:0:
102,172,96097,2,0,L|89:269,1,80,10|10,0:0|0:0,0:0:0:0:
78,334,96787,5,8,0:0:0:0:
