osu file format v14

[General]
AudioFilename: audio.mp3
AudioLeadIn: 0
PreviewTime: -1
Countdown: 0
SampleSet: Normal
StackLeniency: 0.7
Mode: 3
LetterboxInBreaks: 0
SpecialStyle: 0
WidescreenStoryboard: 0

[Editor]
Bookmarks: -1002,740
DistanceSpacing: 0.5
BeatDivisor: 7
GridSize: 8
TimelineZoom: 1.3

[Metadata]
Title:APPLE PAY-ONE COIN
TitleUnicode:APPLE PAY-ONE COIN
Artist:onecoin
ArtistUnicode:onecoin
Creator:656owen12
Version:insano
Source:
Tags:onecoin
BeatmapID:4584180
BeatmapSetID:2171856

[Difficulty]
HPDrainRate:8
CircleSize:4
OverallDifficulty:8
ApproachRate:5
SliderMultiplier:1.4
SliderTickRate:1

[Events]
//Background and Video events
0,0,"Captura de pantalla 2024-04-25 040152.jpg",0,0
//Break Periods
//Storyboard Layer 0 (Background)
//Storyboard Layer 1 (Fail)
//Storyboard Layer 2 (Pass)
//Storyboard Layer 3 (Foreground)
//Storyboard Layer 4 (Overlay)
//Storyboard Sound Samples

[TimingPoints]
0,461.538461538462,4,1,0,100,1,0

[HitObjects]
448,192,76,5,0,0:0:0:0:
64,192,538,5,0,0:0:0:0:
448,192,692,1,0,0:0:0:0:
64,192,846,1,0,0:0:0:0:
448,192,1000,1,0,0:0:0:0:
64,192,1153,1,0,0:0:0:0:
320,192,1384,1,0,0:0:0:0:
320,192,1576,1,0,0:0:0:0:
192,192,1714,1,0,0:0:0:0:
320,192,1846,1,0,0:0:0:0:
192,192,2043,1,0,0:0:0:0:
320,192,2043,1,0,0:0:0:0:
448,192,2571,5,0,0:0:0:0:
64,192,2703,1,0,0:0:0:0:
448,192,2835,1,0,0:0:0:0:
64,192,2967,1,0,0:0:0:0:
192,192,2967,1,0,0:0:0:0:
320,192,3098,1,0,0:0:0:0:
448,192,3098,1,0,0:0:0:0:
192,192,3362,1,0,0:0:0:0:
64,192,3362,1,0,0:0:0:0:
448,192,3560,5,0,0:0:0:0:
64,192,3692,1,0,0:0:0:0:
448,192,3824,1,0,0:0:0:0:
64,192,3956,1,0,0:0:0:0:
448,192,4087,1,0,0:0:0:0:
64,192,4557,1,0,0:0:0:0:
448,192,4730,1,0,0:0:0:0:
64,192,4846,1,0,0:0:0:0:
448,192,4961,1,0,0:0:0:0:
320,192,5076,1,0,0:0:0:0:
320,192,5307,1,0,0:0:0:0:
192,192,5596,1,0,0:0:0:0:
320,192,5711,1,0,0:0:0:0:
64,192,5826,1,0,0:0:0:0:
448,192,5942,1,0,0:0:0:0:
192,192,6115,1,0,0:0:0:0:
320,192,6115,1,0,0:0:0:0:
64,192,6346,1,0,0:0:0:0:
192,192,6403,1,0,0:0:0:0:
320,192,6461,1,0,0:0:0:0:
448,192,6519,1,0,0:0:0:0:
320,192,6576,1,0,0:0:0:0:
192,192,6634,1,0,0:0:0:0:
64,192,6692,1,0,0:0:0:0:
192,192,6750,1,0,0:0:0:0:
320,192,6807,1,0,0:0:0:0:
448,192,6865,1,0,0:0:0:0:
64,192,6980,128,0,8192:0:0:0:0:
192,192,6980,128,0,8192:0:0:0:0:
192,192,8461,1,0,0:0:0:0:
320,192,8461,1,0,0:0:0:0:
448,192,8461,1,0,0:0:0:0:
64,192,8571,1,0,0:0:0:0:
192,192,8835,1,0,0:0:0:0:
320,192,8835,1,0,0:0:0:0:
448,192,9098,1,0,0:0:0:0:
320,192,9461,1,0,0:0:0:0:
192,192,9461,1,0,0:0:0:0:
64,192,9461,1,0,0:0:0:0:
448,192,9576,1,0,0:0:0:0:
192,192,9807,1,0,0:0:0:0:
320,192,9807,1,0,0:0:0:0:
64,192,10087,1,0,0:0:0:0:
320,192,10087,1,0,0:0:0:0:
448,192,10087,1,0,0:0:0:0:
448,192,10483,1,0,0:0:0:0:
320,192,10483,1,0,0:0:0:0:
192,192,10483,1,0,0:0:0:0:
64,192,10593,1,0,0:0:0:0:
192,192,10857,1,0,0:0:0:0:
320,192,10857,1,0,0:0:0:0:
448,192,11076,1,0,0:0:0:0:
448,192,11365,1,0,0:0:0:0:
192,192,11480,1,0,0:0:0:0:
320,192,11480,1,0,0:0:0:0:
64,192,11596,1,0,0:0:0:0:
192,192,11826,1,0,0:0:0:0:
320,192,11826,1,0,0:0:0:0:
448,192,11826,1,0,0:0:0:0:
192,192,12102,1,0,0:0:0:0:
320,192,12102,1,0,0:0:0:0:
448,192,12463,1,0,0:0:0:0:
192,192,12634,1,0,0:0:0:0:
192,192,12865,1,0,0:0:0:0:
320,192,12865,1,0,0:0:0:0:
192,192,13096,1,0,0:0:0:0:
320,192,13487,1,0,0:0:0:0:
448,192,13487,1,0,0:0:0:0:
192,192,13641,1,0,0:0:0:0:
64,192,13846,1,0,0:0:0:0:
192,192,13846,1,0,0:0:0:0:
448,192,14076,1,0,0:0:0:0:
320,192,14076,1,0,0:0:0:0:
192,192,14076,1,0,0:0:0:0:
192,192,14480,1,0,0:0:0:0:
320,192,14480,1,0,0:0:0:0:
64,192,14596,1,0,0:0:0:0:
320,192,14826,1,0,0:0:0:0:
448,192,14826,1,0,0:0:0:0:
192,192,14826,1,0,0:0:0:0:
64,192,15057,1,0,0:0:0:0:
64,192,15346,1,0,0:0:0:0:
64,192,15576,1,0,0:0:0:0:
64,192,15865,1,0,0:0:0:0:
448,192,15865,1,0,0:0:0:0:
64,192,16153,1,0,0:0:0:0:
192,192,16153,1,0,0:0:0:0:
320,192,16153,1,0,0:0:0:0:
64,192,16269,1,0,0:0:0:0:
192,192,16269,1,0,0:0:0:0:
320,192,16269,1,0,0:0:0:0:
64,192,16442,1,0,0:0:0:0:
320,192,16442,1,0,0:0:0:0:
448,192,16442,1,0,0:0:0:0:
64,192,16615,1,0,0:0:0:0:
192,192,16615,1,0,0:0:0:0:
320,192,16615,1,0,0:0:0:0:
64,192,16730,1,0,0:0:0:0:
192,192,16730,1,0,0:0:0:0:
320,192,16730,1,0,0:0:0:0:
192,192,17115,1,0,0:0:0:0:
320,192,17115,1,0,0:0:0:0:
448,192,17115,1,0,0:0:0:0:
192,192,17250,1,0,0:0:0:0:
320,192,17250,1,0,0:0:0:0:
448,192,17250,1,0,0:0:0:0:
64,192,17384,1,0,0:0:0:0:
192,192,17384,1,0,0:0:0:0:
320,192,17384,1,0,0:0:0:0:
320,192,17500,1,0,0:0:0:0:
192,192,17500,1,0,0:0:0:0:
64,192,17500,1,0,0:0:0:0:
448,192,17884,1,0,0:0:0:0:
320,192,17884,1,0,0:0:0:0:
64,192,17884,1,0,0:0:0:0:
64,192,18057,1,0,0:0:0:0:
192,192,18057,1,0,0:0:0:0:
320,192,18057,1,0,0:0:0:0:
64,192,18230,1,0,0:0:0:0:
192,192,18230,1,0,0:0:0:0:
320,192,18230,1,0,0:0:0:0:
448,192,18230,1,0,0:0:0:0:
192,192,18403,1,0,0:0:0:0:
448,192,18403,1,0,0:0:0:0:
64,192,18576,1,0,0:0:0:0:
192,192,18576,1,0,0:0:0:0:
320,192,18576,1,0,0:0:0:0:
448,192,18576,1,0,0:0:0:0:
192,192,18750,1,0,0:0:0:0:
448,192,18750,1,0,0:0:0:0:
64,192,18923,1,0,0:0:0:0:
192,192,18923,1,0,0:0:0:0:
320,192,18923,1,0,0:0:0:0:
448,192,18923,1,0,0:0:0:0:
64,192,19038,1,0,0:0:0:0:
448,192,19038,1,0,0:0:0:0:
192,192,19269,1,0,0:0:0:0:
320,192,19269,1,0,0:0:0:0:
64,192,19557,1,0,0:0:0:0:
192,192,19557,1,0,0:0:0:0:
320,192,19557,1,0,0:0:0:0:
448,192,19557,1,0,0:0:0:0:
192,192,19788,1,0,0:0:0:0:
64,192,19961,1,0,0:0:0:0:
320,192,19961,1,0,0:0:0:0:
448,192,19961,1,0,0:0:0:0:
64,192,20134,1,0,0:0:0:0:
192,192,20134,1,0,0:0:0:0:
320,192,20134,1,0,0:0:0:0:
192,192,20307,1,0,0:0:0:0:
320,192,20307,1,0,0:0:0:0:
192,192,20423,1,0,0:0:0:0:
320,192,20423,1,0,0:0:0:0:
448,192,20423,1,0,0:0:0:0:
64,192,20423,1,0,0:0:0:0:
64,192,20596,1,0,0:0:0:0:
192,192,20596,1,0,0:0:0:0:
448,192,20596,1,0,0:0:0:0:
192,192,20769,1,0,0:0:0:0:
320,192,20769,1,0,0:0:0:0:
448,192,20769,1,0,0:0:0:0:
448,192,21115,1,0,0:0:0:0:
320,192,21115,1,0,0:0:0:0:
448,192,21230,1,0,0:0:0:0:
320,192,21230,1,0,0:0:0:0:
192,192,21230,1,0,0:0:0:0:
192,192,21346,1,0,0:0:0:0:
448,192,21346,1,0,0:0:0:0:
320,192,21346,1,0,0:0:0:0:
192,192,21634,1,0,0:0:0:0:
320,192,21634,1,0,0:0:0:0:
64,192,21923,1,0,0:0:0:0:
192,192,21923,1,0,0:0:0:0:
320,192,21923,1,0,0:0:0:0:
448,192,21923,1,0,0:0:0:0:
320,192,22087,1,0,0:0:0:0:
448,192,22087,1,0,0:0:0:0:
320,192,22219,1,0,0:0:0:0:
448,192,22219,1,0,0:0:0:0:
320,192,22417,1,0,0:0:0:0:
64,192,22417,1,0,0:0:0:0:
64,192,22615,1,0,0:0:0:0:
192,192,22615,1,0,0:0:0:0:
320,192,22615,1,0,0:0:0:0:
448,192,22615,1,0,0:0:0:0:
192,192,22813,1,0,0:0:0:0:
320,192,22813,1,0,0:0:0:0:
64,192,22945,128,0,23472:0:0:0:0:
448,192,22945,128,0,23472:0:0:0:0:
64,192,23884,1,0,0:0:0:0:
192,192,23884,1,0,0:0:0:0:
320,192,23884,1,0,0:0:0:0:
448,192,23884,1,0,0:0:0:0:
64,192,24028,1,0,0:0:0:0:
192,192,24028,1,0,0:0:0:0:
448,192,24028,1,0,0:0:0:0:
192,192,24201,1,0,0:0:0:0:
320,192,24201,1,0,0:0:0:0:
448,192,24201,1,0,0:0:0:0:
64,192,24432,1,0,0:0:0:0:
320,192,24432,1,0,0:0:0:0:
448,192,24432,1,0,0:0:0:0:
64,192,24564,1,0,0:0:0:0:
192,192,24564,1,0,0:0:0:0:
320,192,24564,1,0,0:0:0:0:
448,192,24564,1,0,0:0:0:0:
448,192,24769,1,0,0:0:0:0:
192,192,24778,1,0,0:0:0:0:
64,192,24778,1,0,0:0:0:0:
64,192,24923,1,0,0:0:0:0:
192,192,24923,1,0,0:0:0:0:
320,192,24923,1,0,0:0:0:0:
448,192,24923,1,0,0:0:0:0:
320,192,25076,1,0,0:0:0:0:
448,192,25076,1,0,0:0:0:0:
64,192,25076,1,0,0:0:0:0:
64,192,25230,1,0,0:0:0:0:
192,192,25230,1,0,0:0:0:0:
320,192,25230,1,0,0:0:0:0:
448,192,25230,1,0,0:0:0:0:
64,192,25384,1,0,0:0:0:0:
192,192,25384,1,0,0:0:0:0:
448,192,25384,1,0,0:0:0:0:
448,192,25538,1,0,0:0:0:0:
320,192,25538,1,0,0:0:0:0:
64,192,25538,1,0,0:0:0:0:
64,192,25743,1,0,0:0:0:0:
192,192,25743,1,0,0:0:0:0:
448,192,25743,1,0,0:0:0:0:
64,192,25846,1,0,0:0:0:0:
192,192,25846,1,0,0:0:0:0:
192,192,25961,1,0,0:0:0:0:
448,192,25961,1,0,0:0:0:0:
320,192,25961,1,0,0:0:0:0:
320,192,26221,1,0,0:0:0:0:
448,192,26221,1,0,0:0:0:0:
64,192,26221,1,0,0:0:0:0:
192,192,26336,1,0,0:0:0:0:
320,192,26336,1,0,0:0:0:0:
64,192,26336,1,0,0:0:0:0:
448,192,26336,1,0,0:0:0:0:
64,192,26509,1,0,0:0:0:0:
192,192,26509,1,0,0:0:0:0:
320,192,26653,1,0,0:0:0:0:
64,192,26653,1,0,0:0:0:0:
448,192,26653,1,0,0:0:0:0:
192,192,26653,1,0,0:0:0:0:
320,192,26855,1,0,0:0:0:0:
448,192,26855,1,0,0:0:0:0:
448,192,27000,1,0,0:0:0:0:
64,192,27000,1,0,0:0:0:0:
320,192,27000,1,0,0:0:0:0:
192,192,27000,1,0,0:0:0:0:
64,192,27128,1,0,0:0:0:0:
448,192,27128,1,0,0:0:0:0:
64,192,27333,1,0,0:0:0:0:
192,192,27333,1,0,0:0:0:0:
320,192,27333,1,0,0:0:0:0:
448,192,27333,1,0,0:0:0:0:
64,192,27487,1,0,0:0:0:0:
448,192,27589,1,0,0:0:0:0:
320,192,27589,1,0,0:0:0:0:
192,192,27589,1,0,0:0:0:0:
64,192,27750,1,0,0:0:0:0:
192,192,27750,1,0,0:0:0:0:
64,192,27865,1,0,0:0:0:0:
320,192,28153,1,0,0:0:0:0:
448,192,28153,1,0,0:0:0:0:
192,192,28153,1,0,0:0:0:0:
64,192,28153,1,0,0:0:0:0:
64,192,28549,1,0,0:0:0:0:
192,192,28549,1,0,0:0:0:0:
320,192,28549,1,0,0:0:0:0:
448,192,28549,1,0,0:0:0:0:
320,192,28945,1,0,0:0:0:0:
64,192,28945,1,0,0:0:0:0:
448,192,28945,1,0,0:0:0:0:
64,192,29076,1,0,0:0:0:0:
192,192,29076,1,0,0:0:0:0:
320,192,29076,1,0,0:0:0:0:
64,192,29208,1,0,0:0:0:0:
192,192,29208,1,0,0:0:0:0:
320,192,29208,1,0,0:0:0:0:
448,192,29208,1,0,0:0:0:0:
448,192,29340,1,0,0:0:0:0:
320,192,29340,1,0,0:0:0:0:
64,192,29340,1,0,0:0:0:0:
192,192,29472,1,0,0:0:0:0:
320,192,29472,1,0,0:0:0:0:
448,192,29472,1,0,0:0:0:0:
64,192,29604,1,0,0:0:0:0:
192,192,29604,1,0,0:0:0:0:
320,192,29604,1,0,0:0:0:0:
448,192,29604,1,0,0:0:0:0:
64,192,29736,1,0,0:0:0:0:
192,192,29736,1,0,0:0:0:0:
448,192,29868,1,0,0:0:0:0:
320,192,29868,1,0,0:0:0:0:
192,192,29868,1,0,0:0:0:0:
192,192,30000,1,0,0:0:0:0:
320,192,30000,1,0,0:0:0:0:
448,192,30000,1,0,0:0:0:0:
64,192,30000,1,0,0:0:0:0:
192,192,30131,1,0,0:0:0:0:
320,192,30131,1,0,0:0:0:0:
64,192,30461,1,0,0:0:0:0:
320,192,30461,1,0,0:0:0:0:
192,192,30461,1,0,0:0:0:0:
448,192,30461,1,0,0:0:0:0:
64,192,30593,1,0,0:0:0:0:
192,192,30593,1,0,0:0:0:0:
448,192,30593,1,0,0:0:0:0:
192,192,30725,1,0,0:0:0:0:
320,192,30725,1,0,0:0:0:0:
448,192,30725,1,0,0:0:0:0:
64,192,30857,1,0,0:0:0:0:
320,192,30857,1,0,0:0:0:0:
448,192,30857,1,0,0:0:0:0:
64,192,30989,1,0,0:0:0:0:
320,192,30989,1,0,0:0:0:0:
448,192,30989,1,0,0:0:0:0:
192,192,30989,1,0,0:0:0:0:
64,192,31120,1,0,0:0:0:0:
192,192,31120,1,0,0:0:0:0:
64,192,31252,1,0,0:0:0:0:
192,192,31252,1,0,0:0:0:0:
320,192,31252,1,0,0:0:0:0:
448,192,31252,1,0,0:0:0:0:
320,192,31384,1,0,0:0:0:0:
448,192,31384,1,0,0:0:0:0:
64,192,31516,1,0,0:0:0:0:
192,192,31516,1,0,0:0:0:0:
320,192,31516,1,0,0:0:0:0:
448,192,31516,1,0,0:0:0:0:
192,192,31648,1,0,0:0:0:0:
320,192,31648,1,0,0:0:0:0:
64,192,31780,1,0,0:0:0:0:
448,192,31780,1,0,0:0:0:0:
320,192,31780,1,0,0:0:0:0:
64,192,31912,1,0,0:0:0:0:
192,192,31912,1,0,0:0:0:0:
320,192,31912,1,0,0:0:0:0:
448,192,31912,1,0,0:0:0:0:
448,192,32123,1,0,0:0:0:0:
192,192,32123,1,0,0:0:0:0:
320,192,32123,1,0,0:0:0:0:
64,192,32123,1,0,0:0:0:0:
64,192,32307,1,0,0:0:0:0:
192,192,32307,1,0,0:0:0:0:
448,192,32307,1,0,0:0:0:0:
192,192,32492,1,0,0:0:0:0:
320,192,32492,1,0,0:0:0:0:
448,192,32492,1,0,0:0:0:0:
64,192,32676,1,0,0:0:0:0:
320,192,32676,1,0,0:0:0:0:
448,192,32676,1,0,0:0:0:0:
64,192,32861,1,0,0:0:0:0:
192,192,32861,1,0,0:0:0:0:
320,192,32861,1,0,0:0:0:0:
448,192,32861,1,0,0:0:0:0:
64,192,33115,1,0,0:0:0:0:
192,192,33115,1,0,0:0:0:0:
64,192,33288,1,0,0:0:0:0:
192,192,33288,1,0,0:0:0:0:
320,192,33288,1,0,0:0:0:0:
448,192,33288,1,0,0:0:0:0:
64,192,33692,1,0,0:0:0:0:
192,192,33692,1,0,0:0:0:0:
320,192,33692,1,0,0:0:0:0:
448,192,33692,1,0,0:0:0:0:
320,192,33865,1,0,0:0:0:0:
448,192,33865,1,0,0:0:0:0:
64,192,33865,1,0,0:0:0:0:
64,192,34153,1,0,0:0:0:0:
192,192,34153,1,0,0:0:0:0:
320,192,34153,1,0,0:0:0:0:
448,192,34153,1,0,0:0:0:0:
64,192,34285,1,0,0:0:0:0:
192,192,34442,1,0,0:0:0:0:
320,192,34442,1,0,0:0:0:0:
448,192,34442,1,0,0:0:0:0:
64,192,34681,1,0,0:0:0:0:
192,192,34681,1,0,0:0:0:0:
320,192,34681,1,0,0:0:0:0:
448,192,34681,1,0,0:0:0:0:
192,192,34813,1,0,0:0:0:0:
64,192,34945,1,0,0:0:0:0:
320,192,34945,1,0,0:0:0:0:
448,192,34945,1,0,0:0:0:0:
320,192,35192,1,0,0:0:0:0:
448,192,35192,1,0,0:0:0:0:
64,192,35192,1,0,0:0:0:0:
192,192,35307,1,0,0:0:0:0:
448,192,35307,1,0,0:0:0:0:
64,192,35472,1,0,0:0:0:0:
192,192,35472,1,0,0:0:0:0:
320,192,35472,1,0,0:0:0:0:
448,192,35472,1,0,0:0:0:0:
64,192,35736,1,0,0:0:0:0:
192,192,35736,1,0,0:0:0:0:
320,192,35736,1,0,0:0:0:0:
448,192,35736,1,0,0:0:0:0:
192,192,35868,1,0,0:0:0:0:
320,192,35868,1,0,0:0:0:0:
64,192,36000,1,0,0:0:0:0:
192,192,36000,1,0,0:0:0:0:
448,192,36000,1,0,0:0:0:0:
320,192,36000,1,0,0:0:0:0:
64,192,36131,1,0,0:0:0:0:
448,192,36131,1,0,0:0:0:0:
320,192,36131,1,0,0:0:0:0:
64,192,36262,1,0,0:0:0:0:
192,192,36262,1,0,0:0:0:0:
320,192,36262,1,0,0:0:0:0:
448,192,36394,1,0,0:0:0:0:
64,192,36394,1,0,0:0:0:0:
320,192,36394,1,0,0:0:0:0:
192,192,36394,1,0,0:0:0:0:
192,192,36658,1,0,0:0:0:0:
320,192,36658,1,0,0:0:0:0:
448,192,36658,1,0,0:0:0:0:
64,192,36658,1,0,0:0:0:0:
448,192,36790,1,0,0:0:0:0:
64,192,36790,1,0,0:0:0:0:
64,192,36923,1,0,0:0:0:0:
448,192,36923,1,0,0:0:0:0:
192,192,36923,1,0,0:0:0:0:
320,192,36923,1,0,0:0:0:0:
320,192,37054,1,0,0:0:0:0:
192,192,37054,1,0,0:0:0:0:
320,192,37186,1,0,0:0:0:0:
192,192,37186,1,0,0:0:0:0:
448,192,37186,1,0,0:0:0:0:
64,192,37186,1,0,0:0:0:0:
320,192,37318,1,0,0:0:0:0:
448,192,37318,1,0,0:0:0:0:
64,192,37450,1,0,0:0:0:0:
192,192,37450,1,0,0:0:0:0:
320,192,37450,1,0,0:0:0:0:
448,192,37450,1,0,0:0:0:0:
64,192,37714,1,0,0:0:0:0:
320,192,37714,1,0,0:0:0:0:
448,192,37714,1,0,0:0:0:0:
64,192,37846,1,0,0:0:0:0:
192,192,37846,1,0,0:0:0:0:
320,192,37846,1,0,0:0:0:0:
64,192,38109,1,0,0:0:0:0:
192,192,38109,1,0,0:0:0:0:
448,192,38109,1,0,0:0:0:0:
320,192,38109,1,0,0:0:0:0:
448,192,38241,1,0,0:0:0:0:
64,192,38241,1,0,0:0:0:0:
64,192,38439,1,0,0:0:0:0:
192,192,38439,1,0,0:0:0:0:
320,192,38439,1,0,0:0:0:0:
448,192,38439,1,0,0:0:0:0:
64,192,38637,1,0,0:0:0:0:
448,192,38637,1,0,0:0:0:0:
64,192,38846,1,0,0:0:0:0:
192,192,38923,1,0,0:0:0:0:
320,192,39000,1,0,0:0:0:0:
448,192,39076,1,0,0:0:0:0:
320,192,39153,1,0,0:0:0:0:
192,192,39230,1,0,0:0:0:0:
64,192,39307,1,0,0:0:0:0:
448,192,39956,1,0,0:0:0:0:
320,192,39956,1,0,0:0:0:0:
64,192,40087,1,0,0:0:0:0:
192,192,40087,1,0,0:0:0:0:
320,192,40087,1,0,0:0:0:0:
448,192,40087,1,0,0:0:0:0:
64,192,40351,1,0,0:0:0:0:
320,192,40351,1,0,0:0:0:0:
448,192,40351,1,0,0:0:0:0:
64,192,40483,1,0,0:0:0:0:
192,192,40483,1,0,0:0:0:0:
320,192,40483,1,0,0:0:0:0:
64,192,40615,1,0,0:0:0:0:
320,192,40615,1,0,0:0:0:0:
448,192,40615,1,0,0:0:0:0:
192,192,40615,1,0,0:0:0:0:
64,192,40879,1,0,0:0:0:0:
192,192,40879,1,0,0:0:0:0:
448,192,40879,1,0,0:0:0:0:
320,192,40879,1,0,0:0:0:0:
64,192,41010,1,0,0:0:0:0:
448,192,41010,1,0,0:0:0:0:
192,192,41273,1,0,0:0:0:0:
320,192,41273,1,0,0:0:0:0:
64,192,41273,1,0,0:0:0:0:
448,192,41273,1,0,0:0:0:0:
448,192,41538,1,0,0:0:0:0:
320,192,41538,1,0,0:0:0:0:
64,192,41538,1,0,0:0:0:0:
320,192,41669,1,0,0:0:0:0:
192,192,41669,1,0,0:0:0:0:
64,192,41669,1,0,0:0:0:0:
320,192,41801,1,0,0:0:0:0:
192,192,41801,1,0,0:0:0:0:
448,192,41801,1,0,0:0:0:0:
64,192,41801,1,0,0:0:0:0:
448,192,41933,1,0,0:0:0:0:
192,192,41933,1,0,0:0:0:0:
64,192,42065,1,0,0:0:0:0:
448,192,42065,1,0,0:0:0:0:
192,192,42065,1,0,0:0:0:0:
320,192,42065,1,0,0:0:0:0:
448,192,42196,1,0,0:0:0:0:
64,192,42196,1,0,0:0:0:0:
64,192,42329,1,0,0:0:0:0:
192,192,42329,1,0,0:0:0:0:
448,192,42461,1,0,0:0:0:0:
320,192,42461,1,0,0:0:0:0:
192,192,42461,1,0,0:0:0:0:
64,192,42461,1,0,0:0:0:0:
64,192,42725,1,0,0:0:0:0:
320,192,42725,1,0,0:0:0:0:
448,192,42725,1,0,0:0:0:0:
64,192,42857,1,0,0:0:0:0:
320,192,42857,1,0,0:0:0:0:
192,192,42857,1,0,0:0:0:0:
64,192,42989,1,0,0:0:0:0:
192,192,42989,1,0,0:0:0:0:
320,192,42989,1,0,0:0:0:0:
448,192,42989,1,0,0:0:0:0:
64,192,43307,1,0,0:0:0:0:
192,192,43307,1,0,0:0:0:0:
320,192,43307,1,0,0:0:0:0:
448,192,43307,1,0,0:0:0:0:
448,192,43461,1,0,0:0:0:0:
64,192,43461,1,0,0:0:0:0:
448,192,43661,1,0,0:0:0:0:
320,192,43661,1,0,0:0:0:0:
192,192,43792,1,0,0:0:0:0:
320,192,43792,1,0,0:0:0:0:
64,192,43792,1,0,0:0:0:0:
448,192,43792,1,0,0:0:0:0:
448,192,44056,1,0,0:0:0:0:
64,192,44056,1,0,0:0:0:0:
320,192,44056,1,0,0:0:0:0:
320,192,44188,1,0,0:0:0:0:
64,192,44188,1,0,0:0:0:0:
192,192,44188,1,0,0:0:0:0:
448,192,44320,1,0,0:0:0:0:
320,192,44320,1,0,0:0:0:0:
192,192,44320,1,0,0:0:0:0:
64,192,44320,1,0,0:0:0:0:
320,192,44584,1,0,0:0:0:0:
448,192,44584,1,0,0:0:0:0:
64,192,44584,1,0,0:0:0:0:
192,192,44584,1,0,0:0:0:0:
448,192,44846,1,0,0:0:0:0:
320,192,44846,1,0,0:0:0:0:
192,192,44978,1,0,0:0:0:0:
448,192,44978,1,0,0:0:0:0:
64,192,44978,1,0,0:0:0:0:
320,192,44978,1,0,0:0:0:0:
64,192,45153,1,0,0:0:0:0:
192,192,45153,1,0,0:0:0:0:
320,192,45692,1,0,0:0:0:0:
448,192,45692,1,0,0:0:0:0:
192,192,45846,1,0,0:0:0:0:
64,192,45846,1,0,0:0:0:0:
320,192,46000,1,0,0:0:0:0:
448,192,46000,1,0,0:0:0:0:
320,192,46153,1,0,0:0:0:0:
64,192,46153,1,0,0:0:0:0:
64,192,46307,1,0,0:0:0:0:
448,192,46307,1,0,0:0:0:0:
192,192,46307,1,0,0:0:0:0:
192,192,46461,1,0,0:0:0:0:
320,192,46461,1,0,0:0:0:0:
448,192,46615,1,0,0:0:0:0:
64,192,46615,1,0,0:0:0:0:
448,192,46769,1,0,0:0:0:0:
320,192,46769,1,0,0:0:0:0:
320,192,46923,1,0,0:0:0:0:
64,192,46923,1,0,0:0:0:0:
448,192,46923,1,0,0:0:0:0:
448,192,47076,1,0,0:0:0:0:
64,192,47076,1,0,0:0:0:0:
192,192,47076,1,0,0:0:0:0:
320,192,47076,1,0,0:0:0:0:
64,192,47261,1,0,0:0:0:0:
192,192,47261,1,0,0:0:0:0:
448,192,47261,1,0,0:0:0:0:
448,192,47446,1,0,0:0:0:0:
320,192,47446,1,0,0:0:0:0:
64,192,47446,1,0,0:0:0:0:
64,192,47923,1,0,0:0:0:0:
192,192,47923,1,0,0:0:0:0:
320,192,47923,1,0,0:0:0:0:
448,192,47923,1,0,0:0:0:0:
64,192,48076,1,0,0:0:0:0:
192,192,48076,1,0,0:0:0:0:
448,192,48076,1,0,0:0:0:0:
192,192,48230,1,0,0:0:0:0:
320,192,48230,1,0,0:0:0:0:
448,192,48230,1,0,0:0:0:0:
64,192,48384,1,0,0:0:0:0:
320,192,48384,1,0,0:0:0:0:
448,192,48384,1,0,0:0:0:0:
64,192,48538,1,0,0:0:0:0:
320,192,48538,1,0,0:0:0:0:
448,192,48538,1,0,0:0:0:0:
192,192,48538,1,0,0:0:0:0:
192,192,48692,1,0,0:0:0:0:
64,192,48692,1,0,0:0:0:0:
64,192,48846,1,0,0:0:0:0:
192,192,48846,1,0,0:0:0:0:
448,192,48846,1,0,0:0:0:0:
320,192,48846,1,0,0:0:0:0:
320,192,49000,1,0,0:0:0:0:
448,192,49000,1,0,0:0:0:0:
64,192,49153,1,0,0:0:0:0:
192,192,49153,1,0,0:0:0:0:
320,192,49153,1,0,0:0:0:0:
448,192,49153,1,0,0:0:0:0:
448,192,49714,1,0,0:0:0:0:
320,192,49714,1,0,0:0:0:0:
64,192,49846,1,0,0:0:0:0:
192,192,49846,1,0,0:0:0:0:
320,192,49846,1,0,0:0:0:0:
448,192,49846,1,0,0:0:0:0:
64,192,50109,1,0,0:0:0:0:
320,192,50109,1,0,0:0:0:0:
448,192,50109,1,0,0:0:0:0:
64,192,50241,1,0,0:0:0:0:
192,192,50241,1,0,0:0:0:0:
320,192,50241,1,0,0:0:0:0:
64,192,50373,1,0,0:0:0:0:
192,192,50373,1,0,0:0:0:0:
320,192,50373,1,0,0:0:0:0:
448,192,50373,1,0,0:0:0:0:
192,192,50505,1,0,0:0:0:0:
64,192,50637,1,0,0:0:0:0:
192,192,50637,1,0,0:0:0:0:
320,192,50637,1,0,0:0:0:0:
448,192,50637,1,0,0:0:0:0:
192,192,50835,1,0,0:0:0:0:
64,192,50835,1,0,0:0:0:0:
320,192,50835,1,0,0:0:0:0:
320,192,51164,1,0,0:0:0:0:
448,192,51164,1,0,0:0:0:0:
64,192,51296,1,0,0:0:0:0:
448,192,51296,1,0,0:0:0:0:
192,192,51296,1,0,0:0:0:0:
320,192,51296,1,0,0:0:0:0:
64,192,51559,1,0,0:0:0:0:
320,192,51559,1,0,0:0:0:0:
448,192,51559,1,0,0:0:0:0:
64,192,51692,1,0,0:0:0:0:
192,192,51692,1,0,0:0:0:0:
320,192,51692,1,0,0:0:0:0:
320,192,51823,1,0,0:0:0:0:
64,192,51823,1,0,0:0:0:0:
192,192,51823,1,0,0:0:0:0:
448,192,51823,1,0,0:0:0:0:
448,192,52021,1,0,0:0:0:0:
320,192,52021,1,0,0:0:0:0:
192,192,52021,1,0,0:0:0:0:
64,192,52021,1,0,0:0:0:0:
192,192,52219,1,0,0:0:0:0:
320,192,52417,1,0,0:0:0:0:
448,192,52417,1,0,0:0:0:0:
448,192,52549,1,0,0:0:0:0:
192,192,52549,1,0,0:0:0:0:
64,192,52549,1,0,0:0:0:0:
320,192,52549,1,0,0:0:0:0:
64,192,52812,1,0,0:0:0:0:
448,192,52812,1,0,0:0:0:0:
320,192,52812,1,0,0:0:0:0:
320,192,52945,1,0,0:0:0:0:
64,192,52945,1,0,0:0:0:0:
192,192,52945,1,0,0:0:0:0:
448,192,53076,1,0,0:0:0:0:
64,192,53076,1,0,0:0:0:0:
320,192,53076,1,0,0:0:0:0:
192,192,53076,1,0,0:0:0:0:
192,192,53274,1,0,0:0:0:0:
64,192,53274,1,0,0:0:0:0:
448,192,53340,1,0,0:0:0:0:
320,192,53340,1,0,0:0:0:0:
64,192,53472,1,0,0:0:0:0:
448,192,53472,1,0,0:0:0:0:
64,192,53934,1,0,0:0:0:0:
192,192,53934,1,0,0:0:0:0:
448,192,54131,1,0,0:0:0:0:
320,192,54131,1,0,0:0:0:0:
192,192,54263,1,0,0:0:0:0:
320,192,54263,1,0,0:0:0:0:
64,192,54263,1,0,0:0:0:0:
448,192,54263,1,0,0:0:0:0:
64,192,54526,1,0,0:0:0:0:
320,192,54526,1,0,0:0:0:0:
448,192,54526,1,0,0:0:0:0:
320,192,54658,1,0,0:0:0:0:
192,192,54658,1,0,0:0:0:0:
64,192,54658,1,0,0:0:0:0:
192,192,54790,1,0,0:0:0:0:
64,192,54790,1,0,0:0:0:0:
320,192,54790,1,0,0:0:0:0:
448,192,54790,1,0,0:0:0:0:
64,192,54989,1,0,0:0:0:0:
192,192,54989,1,0,0:0:0:0:
448,192,55054,1,0,0:0:0:0:
320,192,55054,1,0,0:0:0:0:
448,192,55186,1,0,0:0:0:0:
64,192,55186,1,0,0:0:0:0:
320,192,55714,1,0,0:0:0:0:
448,192,55714,1,0,0:0:0:0:
64,192,55714,1,0,0:0:0:0:
64,192,55846,1,0,0:0:0:0:
320,192,55846,1,0,0:0:0:0:
192,192,55846,1,0,0:0:0:0:
64,192,55977,1,0,0:0:0:0:
320,192,55977,1,0,0:0:0:0:
192,192,55977,1,0,0:0:0:0:
448,192,55977,1,0,0:0:0:0:
320,192,56109,1,0,0:0:0:0:
64,192,56109,1,0,0:0:0:0:
448,192,56109,1,0,0:0:0:0:
320,192,56241,1,0,0:0:0:0:
192,192,56241,1,0,0:0:0:0:
448,192,56241,1,0,0:0:0:0:
448,192,56373,1,0,0:0:0:0:
192,192,56373,1,0,0:0:0:0:
64,192,56373,1,0,0:0:0:0:
320,192,56373,1,0,0:0:0:0:
64,192,56505,1,0,0:0:0:0:
192,192,56505,1,0,0:0:0:0:
448,192,56637,1,0,0:0:0:0:
192,192,56637,1,0,0:0:0:0:
320,192,56637,1,0,0:0:0:0:
192,192,56769,1,0,0:0:0:0:
320,192,56769,1,0,0:0:0:0:
448,192,56769,1,0,0:0:0:0:
64,192,56769,1,0,0:0:0:0:
192,192,56900,1,0,0:0:0:0:
320,192,56900,1,0,0:0:0:0:
64,192,57098,1,0,0:0:0:0:
448,192,57098,1,0,0:0:0:0:
320,192,57098,1,0,0:0:0:0:
64,192,57296,1,0,0:0:0:0:
192,192,57296,1,0,0:0:0:0:
320,192,57296,1,0,0:0:0:0:
448,192,57296,1,0,0:0:0:0:
192,192,57428,1,0,0:0:0:0:
320,192,57428,1,0,0:0:0:0:
448,192,57758,1,0,0:0:0:0:
192,192,57758,1,0,0:0:0:0:
320,192,57758,1,0,0:0:0:0:
192,192,57890,1,0,0:0:0:0:
448,192,57890,1,0,0:0:0:0:
320,192,57890,1,0,0:0:0:0:
64,192,58021,1,0,0:0:0:0:
192,192,58021,1,0,0:0:0:0:
320,192,58021,1,0,0:0:0:0:
448,192,58021,1,0,0:0:0:0:
64,192,58153,1,0,0:0:0:0:
192,192,58153,1,0,0:0:0:0:
448,192,58219,1,0,0:0:0:0:
192,192,58351,1,0,0:0:0:0:
64,192,58351,1,0,0:0:0:0:
448,192,58549,1,0,0:0:0:0:
320,192,58549,1,0,0:0:0:0:
192,192,58549,1,0,0:0:0:0:
64,192,58549,1,0,0:0:0:0:
192,192,58747,1,0,0:0:0:0:
320,192,58747,1,0,0:0:0:0:
192,192,58945,1,0,0:0:0:0:
320,192,58945,1,0,0:0:0:0:
448,192,58945,1,0,0:0:0:0:
64,192,59076,1,0,0:0:0:0:
192,192,59076,1,0,0:0:0:0:
320,192,59076,1,0,0:0:0:0:
448,192,59274,1,0,0:0:0:0:
320,192,59274,1,0,0:0:0:0:
192,192,59340,1,0,0:0:0:0:
64,192,59340,1,0,0:0:0:0:
320,192,59406,1,0,0:0:0:0:
448,192,59406,1,0,0:0:0:0:
64,192,59472,1,0,0:0:0:0:
192,192,59472,1,0,0:0:0:0:
64,192,59802,1,0,0:0:0:0:
192,192,59802,1,0,0:0:0:0:
320,192,59934,1,0,0:0:0:0:
448,192,59934,1,0,0:0:0:0:
64,192,60065,1,0,0:0:0:0:
320,192,60065,1,0,0:0:0:0:
64,192,60197,1,0,0:0:0:0:
192,192,60197,1,0,0:0:0:0:
448,192,60197,1,0,0:0:0:0:
192,192,60329,1,0,0:0:0:0:
320,192,60329,1,0,0:0:0:0:
64,192,60461,1,0,0:0:0:0:
448,192,60461,1,0,0:0:0:0:
320,192,60593,1,0,0:0:0:0:
448,192,60593,1,0,0:0:0:0:
64,192,60725,1,0,0:0:0:0:
192,192,60725,1,0,0:0:0:0:
320,192,60725,1,0,0:0:0:0:
192,192,60923,1,0,0:0:0:0:
64,192,61054,1,0,0:0:0:0:
320,192,61054,1,0,0:0:0:0:
448,192,61054,1,0,0:0:0:0:
64,192,61252,1,0,0:0:0:0:
320,192,61252,1,0,0:0:0:0:
192,192,61252,1,0,0:0:0:0:
64,192,61384,1,0,0:0:0:0:
192,192,61384,1,0,0:0:0:0:
448,192,61384,1,0,0:0:0:0:
320,192,61384,1,0,0:0:0:0:
64,192,61582,1,0,0:0:0:0:
448,192,61582,1,0,0:0:0:0:
320,192,61582,1,0,0:0:0:0:
64,192,61780,1,0,0:0:0:0:
192,192,61780,1,0,0:0:0:0:
320,192,61780,1,0,0:0:0:0:
64,192,62043,1,0,0:0:0:0:
192,192,62043,1,0,0:0:0:0:
448,192,62109,1,0,0:0:0:0:
192,192,62241,1,0,0:0:0:0:
320,192,62241,1,0,0:0:0:0:
448,192,62439,1,0,0:0:0:0:
320,192,62439,1,0,0:0:0:0:
64,192,62439,1,0,0:0:0:0:
192,192,62439,1,0,0:0:0:0:
64,192,62769,1,0,0:0:0:0:
320,192,62769,1,0,0:0:0:0:
192,192,62769,1,0,0:0:0:0:
448,192,62769,1,0,0:0:0:0:
64,192,62900,1,0,0:0:0:0:
192,192,62900,1,0,0:0:0:0:
320,192,63032,1,0,0:0:0:0:
448,192,63032,1,0,0:0:0:0:
192,192,63032,1,0,0:0:0:0:
448,192,63230,1,0,0:0:0:0:
320,192,63230,1,0,0:0:0:0:
64,192,63230,1,0,0:0:0:0:
448,192,63362,1,0,0:0:0:0:
192,192,63362,1,0,0:0:0:0:
64,192,63362,1,0,0:0:0:0:
320,192,63362,1,0,0:0:0:0:
64,192,63890,1,0,0:0:0:0:
192,192,64153,1,0,0:0:0:0:
320,192,64153,1,0,0:0:0:0:
64,192,64153,1,0,0:0:0:0:
320,192,64269,1,0,0:0:0:0:
192,192,64269,1,0,0:0:0:0:
64,192,64269,1,0,0:0:0:0:
64,192,64442,1,0,0:0:0:0:
448,192,64442,1,0,0:0:0:0:
320,192,64442,1,0,0:0:0:0:
320,192,64615,1,0,0:0:0:0:
192,192,64615,1,0,0:0:0:0:
64,192,64615,1,0,0:0:0:0:
64,192,64730,1,0,0:0:0:0:
192,192,64730,1,0,0:0:0:0:
320,192,64730,1,0,0:0:0:0:
448,192,65115,1,0,0:0:0:0:
320,192,65115,1,0,0:0:0:0:
192,192,65115,1,0,0:0:0:0:
192,192,65250,1,0,0:0:0:0:
448,192,65250,1,0,0:0:0:0:
320,192,65250,1,0,0:0:0:0:
192,192,65384,1,0,0:0:0:0:
64,192,65384,1,0,0:0:0:0:
320,192,65384,1,0,0:0:0:0:
192,192,65500,1,0,0:0:0:0:
320,192,65500,1,0,0:0:0:0:
64,192,65500,1,0,0:0:0:0:
448,192,65868,1,0,0:0:0:0:
320,192,65868,1,0,0:0:0:0:
64,192,65868,1,0,0:0:0:0:
64,192,66041,1,0,0:0:0:0:
192,192,66041,1,0,0:0:0:0:
320,192,66041,1,0,0:0:0:0:
64,192,66214,1,0,0:0:0:0:
192,192,66214,1,0,0:0:0:0:
320,192,66214,1,0,0:0:0:0:
448,192,66214,1,0,0:0:0:0:
192,192,66387,1,0,0:0:0:0:
448,192,66387,1,0,0:0:0:0:
64,192,66560,1,0,0:0:0:0:
192,192,66560,1,0,0:0:0:0:
320,192,66560,1,0,0:0:0:0:
448,192,66560,1,0,0:0:0:0:
192,192,66734,1,0,0:0:0:0:
448,192,66734,1,0,0:0:0:0:
64,192,66907,1,0,0:0:0:0:
192,192,66907,1,0,0:0:0:0:
320,192,66907,1,0,0:0:0:0:
448,192,66907,1,0,0:0:0:0:
64,192,67022,1,0,0:0:0:0:
448,192,67022,1,0,0:0:0:0:
192,192,67253,1,0,0:0:0:0:
320,192,67253,1,0,0:0:0:0:
64,192,67541,1,0,0:0:0:0:
192,192,67541,1,0,0:0:0:0:
320,192,67541,1,0,0:0:0:0:
448,192,67541,1,0,0:0:0:0:
192,192,67772,1,0,0:0:0:0:
64,192,67945,1,0,0:0:0:0:
320,192,67945,1,0,0:0:0:0:
448,192,67945,1,0,0:0:0:0:
64,192,68118,1,0,0:0:0:0:
192,192,68118,1,0,0:0:0:0:
320,192,68118,1,0,0:0:0:0:
192,192,68291,1,0,0:0:0:0:
320,192,68291,1,0,0:0:0:0:
192,192,68407,1,0,0:0:0:0:
320,192,68407,1,0,0:0:0:0:
448,192,68407,1,0,0:0:0:0:
64,192,68407,1,0,0:0:0:0:
64,192,68580,1,0,0:0:0:0:
192,192,68580,1,0,0:0:0:0:
448,192,68580,1,0,0:0:0:0:
192,192,68753,1,0,0:0:0:0:
320,192,68753,1,0,0:0:0:0:
448,192,68753,1,0,0:0:0:0:
448,192,69099,1,0,0:0:0:0:
320,192,69099,1,0,0:0:0:0:
448,192,69214,1,0,0:0:0:0:
320,192,69214,1,0,0:0:0:0:
192,192,69214,1,0,0:0:0:0:
192,192,69330,1,0,0:0:0:0:
448,192,69330,1,0,0:0:0:0:
320,192,69330,1,0,0:0:0:0:
192,192,69618,1,0,0:0:0:0:
320,192,69618,1,0,0:0:0:0:
64,192,69907,1,0,0:0:0:0:
192,192,69907,1,0,0:0:0:0:
320,192,69907,1,0,0:0:0:0:
448,192,69907,1,0,0:0:0:0:
320,192,70071,1,0,0:0:0:0:
448,192,70071,1,0,0:0:0:0:
320,192,70203,1,0,0:0:0:0:
448,192,70203,1,0,0:0:0:0:
320,192,70401,1,0,0:0:0:0:
64,192,70401,1,0,0:0:0:0:
64,192,70599,1,0,0:0:0:0:
192,192,70599,1,0,0:0:0:0:
320,192,70599,1,0,0:0:0:0:
448,192,70599,1,0,0:0:0:0:
192,192,70797,1,0,0:0:0:0:
320,192,70797,1,0,0:0:0:0:
64,192,70929,128,0,71456:0:0:0:0:
448,192,70929,128,0,71456:0:0:0:0:
64,192,72593,1,0,0:0:0:0:
192,192,72593,1,0,0:0:0:0:
448,192,72593,1,0,0:0:0:0:
192,192,72725,1,0,0:0:0:0:
320,192,72725,1,0,0:0:0:0:
448,192,72725,1,0,0:0:0:0:
64,192,72857,1,0,0:0:0:0:
192,192,72857,1,0,0:0:0:0:
320,192,72857,1,0,0:0:0:0:
448,192,72857,1,0,0:0:0:0:
64,192,72989,1,0,0:0:0:0:
192,192,72989,1,0,0:0:0:0:
448,192,72989,1,0,0:0:0:0:
64,192,73120,1,0,0:0:0:0:
192,192,73120,1,0,0:0:0:0:
320,192,73120,1,0,0:0:0:0:
64,192,73252,1,0,0:0:0:0:
192,192,73252,1,0,0:0:0:0:
448,192,73252,1,0,0:0:0:0:
320,192,73252,1,0,0:0:0:0:
64,192,73582,1,0,0:0:0:0:
320,192,73582,1,0,0:0:0:0:
448,192,73582,1,0,0:0:0:0:
64,192,73714,1,0,0:0:0:0:
192,192,73714,1,0,0:0:0:0:
320,192,73714,1,0,0:0:0:0:
64,192,73846,1,0,0:0:0:0:
192,192,73846,1,0,0:0:0:0:
320,192,73846,1,0,0:0:0:0:
448,192,73846,1,0,0:0:0:0:
192,192,73978,1,0,0:0:0:0:
448,192,73978,1,0,0:0:0:0:
64,192,74175,1,0,0:0:0:0:
192,192,74175,1,0,0:0:0:0:
320,192,74175,1,0,0:0:0:0:
448,192,74175,1,0,0:0:0:0:
64,192,74505,1,0,0:0:0:0:
192,192,74505,1,0,0:0:0:0:
64,192,74637,1,0,0:0:0:0:
192,192,74637,1,0,0:0:0:0:
320,192,74637,1,0,0:0:0:0:
448,192,74637,1,0,0:0:0:0:
320,192,74769,1,0,0:0:0:0:
448,192,74769,1,0,0:0:0:0:
64,192,74901,1,0,0:0:0:0:
192,192,74901,1,0,0:0:0:0:
320,192,74901,1,0,0:0:0:0:
448,192,74901,1,0,0:0:0:0:
64,192,75032,1,0,0:0:0:0:
448,192,75032,1,0,0:0:0:0:
64,192,75164,1,0,0:0:0:0:
192,192,75164,1,0,0:0:0:0:
320,192,75164,1,0,0:0:0:0:
448,192,75164,1,0,0:0:0:0:
192,192,75296,1,0,0:0:0:0:
320,192,75296,1,0,0:0:0:0:
64,192,75428,1,0,0:0:0:0:
192,192,75428,1,0,0:0:0:0:
320,192,75428,1,0,0:0:0:0:
448,192,75428,1,0,0:0:0:0:
64,192,75560,1,0,0:0:0:0:
192,192,75560,1,0,0:0:0:0:
448,192,75560,1,0,0:0:0:0:
320,192,75692,1,0,0:0:0:0:
192,192,75692,1,0,0:0:0:0:
64,192,75824,1,0,0:0:0:0:
448,192,75824,1,0,0:0:0:0:
320,192,75824,1,0,0:0:0:0:
64,192,75956,1,0,0:0:0:0:
320,192,75956,1,0,0:0:0:0:
192,192,75956,1,0,0:0:0:0:
192,192,76087,1,0,0:0:0:0:
320,192,76087,1,0,0:0:0:0:
448,192,76219,1,0,0:0:0:0:
320,192,76219,1,0,0:0:0:0:
192,192,76219,1,0,0:0:0:0:
320,192,76549,1,0,0:0:0:0:
448,192,76549,1,0,0:0:0:0:
64,192,76549,1,0,0:0:0:0:
64,192,76681,1,0,0:0:0:0:
192,192,76681,1,0,0:0:0:0:
320,192,76681,1,0,0:0:0:0:
448,192,76681,1,0,0:0:0:0:
320,192,77010,1,0,0:0:0:0:
448,192,77010,1,0,0:0:0:0:
64,192,77010,1,0,0:0:0:0:
64,192,77142,1,0,0:0:0:0:
192,192,77142,1,0,0:0:0:0:
320,192,77142,1,0,0:0:0:0:
448,192,77142,1,0,0:0:0:0:
192,192,77472,1,0,0:0:0:0:
320,192,77472,1,0,0:0:0:0:
448,192,77472,1,0,0:0:0:0:
64,192,77604,1,0,0:0:0:0:
192,192,77604,1,0,0:0:0:0:
320,192,77604,1,0,0:0:0:0:
448,192,77604,1,0,0:0:0:0:
64,192,78000,1,0,0:0:0:0:
192,192,78000,1,0,0:0:0:0:
320,192,78000,1,0,0:0:0:0:
64,192,78131,1,0,0:0:0:0:
320,192,78131,1,0,0:0:0:0:
192,192,78131,1,0,0:0:0:0:
448,192,78131,1,0,0:0:0:0:
64,192,78329,1,0,0:0:0:0:
192,192,78329,1,0,0:0:0:0:
64,192,78527,1,0,0:0:0:0:
192,192,78527,1,0,0:0:0:0:
320,192,78527,1,0,0:0:0:0:
448,192,78527,1,0,0:0:0:0:
64,192,78659,1,0,0:0:0:0:
448,192,78659,1,0,0:0:0:0:
64,192,78791,1,0,0:0:0:0:
192,192,78791,1,0,0:0:0:0:
320,192,78791,1,0,0:0:0:0:
448,192,78791,1,0,0:0:0:0:
64,192,78923,1,0,0:0:0:0:
192,192,78923,1,0,0:0:0:0:
64,192,79054,1,0,0:0:0:0:
192,192,79054,1,0,0:0:0:0:
320,192,79054,1,0,0:0:0:0:
448,192,79054,1,0,0:0:0:0:
448,192,79186,1,0,0:0:0:0:
320,192,79186,1,0,0:0:0:0:
192,192,79318,1,0,0:0:0:0:
320,192,79318,1,0,0:0:0:0:
448,192,79318,1,0,0:0:0:0:
64,192,79516,1,0,0:0:0:0:
192,192,79516,1,0,0:0:0:0:
64,192,79714,1,0,0:0:0:0:
192,192,79714,1,0,0:0:0:0:
320,192,79714,1,0,0:0:0:0:
448,192,79714,1,0,0:0:0:0:
64,192,79846,1,0,0:0:0:0:
192,192,79846,1,0,0:0:0:0:
448,192,79846,1,0,0:0:0:0:
448,192,79978,1,0,0:0:0:0:
320,192,79978,1,0,0:0:0:0:
192,192,79978,1,0,0:0:0:0:
64,192,80109,1,0,0:0:0:0:
320,192,80109,1,0,0:0:0:0:
448,192,80109,1,0,0:0:0:0:
64,192,80307,1,0,0:0:0:0:
192,192,80307,1,0,0:0:0:0:
320,192,80307,1,0,0:0:0:0:
448,192,80307,1,0,0:0:0:0:
64,192,80571,1,0,0:0:0:0:
448,192,80571,1,0,0:0:0:0:
192,192,80571,1,0,0:0:0:0:
448,192,80703,1,0,0:0:0:0:
320,192,80703,1,0,0:0:0:0:
192,192,80703,1,0,0:0:0:0:
64,192,80835,1,0,0:0:0:0:
192,192,80835,1,0,0:0:0:0:
320,192,80835,1,0,0:0:0:0:
448,192,80835,1,0,0:0:0:0:
64,192,80967,1,0,0:0:0:0:
192,192,80967,1,0,0:0:0:0:
64,192,81098,1,0,0:0:0:0:
192,192,81098,1,0,0:0:0:0:
320,192,81098,1,0,0:0:0:0:
448,192,81230,1,0,0:0:0:0:
320,192,81230,1,0,0:0:0:0:
192,192,81230,1,0,0:0:0:0:
64,192,81230,1,0,0:0:0:0:
320,192,81362,1,0,0:0:0:0:
448,192,81362,1,0,0:0:0:0:
64,192,81626,1,0,0:0:0:0:
192,192,81626,1,0,0:0:0:0:
192,192,81758,1,0,0:0:0:0:
320,192,81758,1,0,0:0:0:0:
448,192,81758,1,0,0:0:0:0:
64,192,81758,1,0,0:0:0:0:
192,192,81890,1,0,0:0:0:0:
320,192,81890,1,0,0:0:0:0:
64,192,82021,1,0,0:0:0:0:
192,192,82021,1,0,0:0:0:0:
320,192,82021,1,0,0:0:0:0:
448,192,82153,1,0,0:0:0:0:
320,192,82153,1,0,0:0:0:0:
192,192,82153,1,0,0:0:0:0:
192,192,82285,1,0,0:0:0:0:
320,192,82285,1,0,0:0:0:0:
64,192,82549,1,0,0:0:0:0:
320,192,82549,1,0,0:0:0:0:
448,192,82549,1,0,0:0:0:0:
64,192,82681,1,0,0:0:0:0:
192,192,82681,1,0,0:0:0:0:
320,192,82681,1,0,0:0:0:0:
64,192,82813,1,0,0:0:0:0:
192,192,82813,1,0,0:0:0:0:
320,192,82813,1,0,0:0:0:0:
448,192,82813,1,0,0:0:0:0:
192,192,82945,1,0,0:0:0:0:
448,192,82945,1,0,0:0:0:0:
192,192,83076,1,0,0:0:0:0:
320,192,83076,1,0,0:0:0:0:
64,192,83208,1,0,0:0:0:0:
192,192,83208,1,0,0:0:0:0:
320,192,83208,1,0,0:0:0:0:
448,192,83208,1,0,0:0:0:0:
64,192,83472,1,0,0:0:0:0:
192,192,83472,1,0,0:0:0:0:
320,192,83472,1,0,0:0:0:0:
448,192,83472,1,0,0:0:0:0:
192,192,83604,1,0,0:0:0:0:
320,192,83604,1,0,0:0:0:0:
64,192,83604,1,0,0:0:0:0:
192,192,83736,1,0,0:0:0:0:
320,192,83736,1,0,0:0:0:0:
64,192,83736,1,0,0:0:0:0:
192,192,83868,1,0,0:0:0:0:
320,192,83868,1,0,0:0:0:0:
448,192,83868,1,0,0:0:0:0:
448,192,84131,1,0,0:0:0:0:
320,192,84131,1,0,0:0:0:0:
192,192,84131,1,0,0:0:0:0:
64,192,84131,1,0,0:0:0:0:
448,192,84263,1,0,0:0:0:0:
64,192,84263,1,0,0:0:0:0:
320,192,84263,1,0,0:0:0:0:
64,192,84395,1,0,0:0:0:0:
192,192,84395,1,0,0:0:0:0:
448,192,84395,1,0,0:0:0:0:
64,192,84923,1,0,0:0:0:0:
192,192,84923,1,0,0:0:0:0:
320,192,85120,1,0,0:0:0:0:
448,192,85120,1,0,0:0:0:0:
64,192,85318,1,0,0:0:0:0:
320,192,85318,1,0,0:0:0:0:
192,192,85582,1,0,0:0:0:0:
64,192,85582,1,0,0:0:0:0:
448,192,85582,1,0,0:0:0:0:
192,192,85846,1,0,0:0:0:0:
320,192,85846,1,0,0:0:0:0:
64,192,86109,1,0,0:0:0:0:
448,192,86109,1,0,0:0:0:0:
448,192,86373,1,0,0:0:0:0:
320,192,86373,1,0,0:0:0:0:
64,192,86967,1,0,0:0:0:0:
192,192,86967,1,0,0:0:0:0:
64,192,87098,1,0,0:0:0:0:
192,192,87098,1,0,0:0:0:0:
320,192,87098,1,0,0:0:0:0:
64,192,87230,1,0,0:0:0:0:
192,192,87230,1,0,0:0:0:0:
320,192,87230,1,0,0:0:0:0:
448,192,87230,1,0,0:0:0:0:
64,192,87362,1,0,0:0:0:0:
320,192,87362,1,0,0:0:0:0:
448,192,87362,1,0,0:0:0:0:
192,192,87494,1,0,0:0:0:0:
320,192,87494,1,0,0:0:0:0:
448,192,87494,1,0,0:0:0:0:
64,192,87626,1,0,0:0:0:0:
192,192,87626,1,0,0:0:0:0:
448,192,87626,1,0,0:0:0:0:
320,192,87626,1,0,0:0:0:0:
192,192,87890,1,0,0:0:0:0:
320,192,87890,1,0,0:0:0:0:
448,192,87890,1,0,0:0:0:0:
64,192,88021,1,0,0:0:0:0:
192,192,88021,1,0,0:0:0:0:
320,192,88021,1,0,0:0:0:0:
448,192,88021,1,0,0:0:0:0:
192,192,88153,1,0,0:0:0:0:
320,192,88153,1,0,0:0:0:0:
448,192,88285,1,0,0:0:0:0:
320,192,88285,1,0,0:0:0:0:
192,192,88285,1,0,0:0:0:0:
64,192,88285,1,0,0:0:0:0:
320,192,88417,1,0,0:0:0:0:
192,192,88417,1,0,0:0:0:0:
192,192,88945,1,0,0:0:0:0:
320,192,88945,1,0,0:0:0:0:
64,192,89076,1,0,0:0:0:0:
192,192,89076,1,0,0:0:0:0:
320,192,89076,1,0,0:0:0:0:
448,192,89076,1,0,0:0:0:0:
64,192,89208,1,0,0:0:0:0:
192,192,89340,1,0,0:0:0:0:
320,192,89340,1,0,0:0:0:0:
448,192,89340,1,0,0:0:0:0:
64,192,89472,1,0,0:0:0:0:
320,192,89472,1,0,0:0:0:0:
64,192,89604,1,0,0:0:0:0:
192,192,89604,1,0,0:0:0:0:
448,192,89604,1,0,0:0:0:0:
320,192,89604,1,0,0:0:0:0:
192,192,89736,1,0,0:0:0:0:
64,192,89868,1,0,0:0:0:0:
320,192,89868,1,0,0:0:0:0:
448,192,89868,1,0,0:0:0:0:
320,192,90000,1,0,0:0:0:0:
448,192,90000,1,0,0:0:0:0:
64,192,90263,1,0,0:0:0:0:
192,192,90263,1,0,0:0:0:0:
320,192,90263,1,0,0:0:0:0:
448,192,90263,1,0,0:0:0:0:
64,192,90395,1,0,0:0:0:0:
192,192,90395,1,0,0:0:0:0:
448,192,90395,1,0,0:0:0:0:
192,192,90527,1,0,0:0:0:0:
320,192,90527,1,0,0:0:0:0:
448,192,90527,1,0,0:0:0:0:
320,192,90659,1,0,0:0:0:0:
448,192,90659,1,0,0:0:0:0:
64,192,90791,1,0,0:0:0:0:
192,192,90791,1,0,0:0:0:0:
320,192,90791,1,0,0:0:0:0:
448,192,90791,1,0,0:0:0:0:
64,192,90923,1,0,0:0:0:0:
192,192,90923,1,0,0:0:0:0:
64,192,91054,1,0,0:0:0:0:
320,192,91054,1,0,0:0:0:0:
192,192,91054,1,0,0:0:0:0:
448,192,91054,1,0,0:0:0:0:
320,192,91186,1,0,0:0:0:0:
448,192,91186,1,0,0:0:0:0:
64,192,91516,1,0,0:0:0:0:
192,192,91516,1,0,0:0:0:0:
320,192,91516,1,0,0:0:0:0:
448,192,91516,1,0,0:0:0:0:
192,192,91648,1,0,0:0:0:0:
320,192,91648,1,0,0:0:0:0:
448,192,91648,1,0,0:0:0:0:
320,192,91780,1,0,0:0:0:0:
448,192,91780,1,0,0:0:0:0:
64,192,91912,1,0,0:0:0:0:
192,192,91912,1,0,0:0:0:0:
192,192,92043,1,0,0:0:0:0:
320,192,92043,1,0,0:0:0:0:
448,192,92043,1,0,0:0:0:0:
192,192,92307,1,0,0:0:0:0:
320,192,92307,1,0,0:0:0:0:
448,192,92307,1,0,0:0:0:0:
64,192,92439,1,0,0:0:0:0:
192,192,92439,1,0,0:0:0:0:
448,192,92571,1,0,0:0:0:0:
192,192,92571,1,0,0:0:0:0:
320,192,92571,1,0,0:0:0:0:
64,192,92703,1,0,0:0:0:0:
192,192,92703,1,0,0:0:0:0:
320,192,92703,1,0,0:0:0:0:
448,192,92703,1,0,0:0:0:0:
320,192,92901,1,0,0:0:0:0:
448,192,92901,1,0,0:0:0:0:
64,192,93032,1,0,0:0:0:0:
192,192,93032,1,0,0:0:0:0:
320,192,93032,1,0,0:0:0:0:
448,192,93032,1,0,0:0:0:0:
192,192,93164,1,0,0:0:0:0:
64,192,93296,1,0,0:0:0:0:
320,192,93296,1,0,0:0:0:0:
448,192,93296,1,0,0:0:0:0:
64,192,93428,1,0,0:0:0:0:
192,192,93428,1,0,0:0:0:0:
320,192,93428,1,0,0:0:0:0:
64,192,93560,1,0,0:0:0:0:
192,192,93560,1,0,0:0:0:0:
320,192,93560,1,0,0:0:0:0:
448,192,93560,1,0,0:0:0:0:
192,192,93692,1,0,0:0:0:0:
448,192,93692,1,0,0:0:0:0:
64,192,93890,1,0,0:0:0:0:
192,192,93890,1,0,0:0:0:0:
320,192,93890,1,0,0:0:0:0:
448,192,93890,1,0,0:0:0:0:
64,192,94021,1,0,0:0:0:0:
448,192,94021,1,0,0:0:0:0:
320,192,94021,1,0,0:0:0:0:
448,192,94219,1,0,0:0:0:0:
320,192,94219,1,0,0:0:0:0:
192,192,94219,1,0,0:0:0:0:
192,192,94351,1,0,0:0:0:0:
320,192,94351,1,0,0:0:0:0:
64,192,94483,1,0,0:0:0:0:
192,192,94483,1,0,0:0:0:0:
320,192,94483,1,0,0:0:0:0:
448,192,94483,1,0,0:0:0:0:
64,192,95274,1,0,0:0:0:0:
64,192,95504,1,0,0:0:0:0:
448,192,95793,1,0,0:0:0:0:
64,192,95793,1,0,0:0:0:0:
320,192,96081,1,0,0:0:0:0:
192,192,96081,1,0,0:0:0:0:
64,192,96081,1,0,0:0:0:0:
320,192,96197,1,0,0:0:0:0:
192,192,96197,1,0,0:0:0:0:
64,192,96197,1,0,0:0:0:0:
448,192,96370,1,0,0:0:0:0:
320,192,96370,1,0,0:0:0:0:
64,192,96370,1,0,0:0:0:0:
320,192,96543,1,0,0:0:0:0:
192,192,96543,1,0,0:0:0:0:
64,192,96543,1,0,0:0:0:0:
320,192,96658,1,0,0:0:0:0:
192,192,96658,1,0,0:0:0:0:
64,192,96658,1,0,0:0:0:0:
320,192,96774,1,0,0:0:0:0:
192,192,96774,1,0,0:0:0:0:
64,192,96774,1,0,0:0:0:0:
448,192,97043,1,0,0:0:0:0:
320,192,97043,1,0,0:0:0:0:
192,192,97043,1,0,0:0:0:0:
448,192,97178,1,0,0:0:0:0:
320,192,97178,1,0,0:0:0:0:
192,192,97178,1,0,0:0:0:0:
320,192,97312,1,0,0:0:0:0:
192,192,97312,1,0,0:0:0:0:
64,192,97312,1,0,0:0:0:0:
64,192,97428,1,0,0:0:0:0:
192,192,97428,1,0,0:0:0:0:
320,192,97428,1,0,0:0:0:0:
64,192,97812,1,0,0:0:0:0:
320,192,97812,1,0,0:0:0:0:
448,192,97812,1,0,0:0:0:0:
320,192,97985,1,0,0:0:0:0:
192,192,97985,1,0,0:0:0:0:
64,192,97985,1,0,0:0:0:0:
320,192,98158,1,0,0:0:0:0:
448,192,98158,1,0,0:0:0:0:
64,192,98158,1,0,0:0:0:0:
192,192,98158,1,0,0:0:0:0:
448,192,98331,1,0,0:0:0:0:
192,192,98331,1,0,0:0:0:0:
320,192,98504,1,0,0:0:0:0:
448,192,98504,1,0,0:0:0:0:
64,192,98504,1,0,0:0:0:0:
192,192,98504,1,0,0:0:0:0:
448,192,98678,1,0,0:0:0:0:
192,192,98678,1,0,0:0:0:0:
320,192,98851,1,0,0:0:0:0:
448,192,98851,1,0,0:0:0:0:
64,192,98851,1,0,0:0:0:0:
192,192,98851,1,0,0:0:0:0:
448,192,98966,1,0,0:0:0:0:
64,192,98966,1,0,0:0:0:0:
320,192,99197,1,0,0:0:0:0:
192,192,99197,1,0,0:0:0:0:
320,192,99485,1,0,0:0:0:0:
448,192,99485,1,0,0:0:0:0:
64,192,99485,1,0,0:0:0:0:
192,192,99485,1,0,0:0:0:0:
192,192,99716,1,0,0:0:0:0:
448,192,99889,1,0,0:0:0:0:
320,192,99889,1,0,0:0:0:0:
64,192,99889,1,0,0:0:0:0:
320,192,100062,1,0,0:0:0:0:
192,192,100062,1,0,0:0:0:0:
64,192,100062,1,0,0:0:0:0:
320,192,100235,1,0,0:0:0:0:
192,192,100235,1,0,0:0:0:0:
448,192,100351,1,0,0:0:0:0:
64,192,100351,1,0,0:0:0:0:
192,192,100351,1,0,0:0:0:0:
320,192,100351,1,0,0:0:0:0:
448,192,100524,1,0,0:0:0:0:
192,192,100524,1,0,0:0:0:0:
64,192,100524,1,0,0:0:0:0:
448,192,100697,1,0,0:0:0:0:
320,192,100697,1,0,0:0:0:0:
192,192,100697,1,0,0:0:0:0:
320,192,101043,1,0,0:0:0:0:
448,192,101043,1,0,0:0:0:0:
192,192,101158,1,0,0:0:0:0:
320,192,101158,1,0,0:0:0:0:
448,192,101158,1,0,0:0:0:0:
320,192,101274,1,0,0:0:0:0:
448,192,101274,1,0,0:0:0:0:
192,192,101274,1,0,0:0:0:0:
320,192,101562,1,0,0:0:0:0:
192,192,101562,1,0,0:0:0:0:
320,192,101851,1,0,0:0:0:0:
448,192,101851,1,0,0:0:0:0:
64,192,101851,1,0,0:0:0:0:
192,192,101851,1,0,0:0:0:0:
448,192,102015,1,0,0:0:0:0:
320,192,102015,1,0,0:0:0:0:
448,192,102147,1,0,0:0:0:0:
320,192,102147,1,0,0:0:0:0:
64,192,102346,1,0,0:0:0:0:
320,192,102346,1,0,0:0:0:0:
320,192,102543,1,0,0:0:0:0:
448,192,102543,1,0,0:0:0:0:
64,192,102543,1,0,0:0:0:0:
192,192,102543,1,0,0:0:0:0:
320,192,102741,1,0,0:0:0:0:
192,192,102741,1,0,0:0:0:0:
448,192,102873,128,0,103400:0:0:0:0:
64,192,102873,128,0,103400:0:0:0:0:
64,192,104109,1,0,0:0:0:0:
192,192,104109,1,0,0:0:0:0:
320,192,104109,1,0,0:0:0:0:
448,192,104109,1,0,0:0:0:0:
192,192,104241,1,0,0:0:0:0:
64,192,104241,1,0,0:0:0:0:
320,192,104241,1,0,0:0:0:0:
64,192,104373,1,0,0:0:0:0:
448,192,104373,1,0,0:0:0:0:
64,192,104505,1,0,0:0:0:0:
192,192,104505,1,0,0:0:0:0:
192,192,104637,1,0,0:0:0:0:
320,192,104637,1,0,0:0:0:0:
448,192,104637,1,0,0:0:0:0:
64,192,104769,1,0,0:0:0:0:
320,192,104769,1,0,0:0:0:0:
448,192,104769,1,0,0:0:0:0:
448,192,104967,1,0,0:0:0:0:
320,192,104967,1,0,0:0:0:0:
64,192,105098,1,0,0:0:0:0:
192,192,105098,1,0,0:0:0:0:
64,192,105230,1,0,0:0:0:0:
192,192,105230,1,0,0:0:0:0:
320,192,105230,1,0,0:0:0:0:
64,192,105362,1,0,0:0:0:0:
192,192,105362,1,0,0:0:0:0:
320,192,105362,1,0,0:0:0:0:
448,192,105362,1,0,0:0:0:0:
64,192,105494,1,0,0:0:0:0:
192,192,105494,1,0,0:0:0:0:
192,192,105626,1,0,0:0:0:0:
320,192,105626,1,0,0:0:0:0:
448,192,105626,1,0,0:0:0:0:
64,192,105758,1,0,0:0:0:0:
320,192,105758,1,0,0:0:0:0:
448,192,105758,1,0,0:0:0:0:
64,192,105890,1,0,0:0:0:0:
192,192,105890,1,0,0:0:0:0:
320,192,105890,1,0,0:0:0:0:
448,192,105890,1,0,0:0:0:0:
64,192,106153,1,0,0:0:0:0:
192,192,106153,1,0,0:0:0:0:
320,192,106153,1,0,0:0:0:0:
64,192,106285,1,0,0:0:0:0:
192,192,106285,1,0,0:0:0:0:
320,192,106285,1,0,0:0:0:0:
448,192,106417,1,0,0:0:0:0:
320,192,106417,1,0,0:0:0:0:
64,192,106417,1,0,0:0:0:0:
192,192,106417,1,0,0:0:0:0:
320,192,106549,1,0,0:0:0:0:
192,192,106549,1,0,0:0:0:0:
192,192,106681,1,0,0:0:0:0:
320,192,106681,1,0,0:0:0:0:
448,192,106681,1,0,0:0:0:0:
64,192,106813,1,0,0:0:0:0:
192,192,106813,1,0,0:0:0:0:
320,192,106813,1,0,0:0:0:0:
64,192,106945,1,0,0:0:0:0:
192,192,106945,1,0,0:0:0:0:
320,192,106945,1,0,0:0:0:0:
448,192,106945,1,0,0:0:0:0:
64,192,107076,1,0,0:0:0:0:
320,192,107076,1,0,0:0:0:0:
448,192,107076,1,0,0:0:0:0:
64,192,107208,1,0,0:0:0:0:
192,192,107208,1,0,0:0:0:0:
448,192,107208,1,0,0:0:0:0:
64,192,107538,1,0,0:0:0:0:
192,192,107538,1,0,0:0:0:0:
448,192,107735,1,0,0:0:0:0:
320,192,107735,1,0,0:0:0:0:
320,192,107933,1,0,0:0:0:0:
64,192,107933,1,0,0:0:0:0:
448,192,108197,1,0,0:0:0:0:
192,192,108197,1,0,0:0:0:0:
64,192,108197,1,0,0:0:0:0:
448,192,108461,1,0,0:0:0:0:
320,192,108461,1,0,0:0:0:0:
192,192,108593,1,0,0:0:0:0:
448,192,108593,1,0,0:0:0:0:
64,192,108593,1,0,0:0:0:0:
320,192,108593,1,0,0:0:0:0:
448,192,108724,1,0,0:0:0:0:
64,192,108724,1,0,0:0:0:0:
192,192,108725,1,0,0:0:0:0:
64,192,108857,1,0,0:0:0:0:
448,192,108857,1,0,0:0:0:0:
320,192,108857,1,0,0:0:0:0:
192,192,108988,1,0,0:0:0:0:
320,192,108988,1,0,0:0:0:0:
192,192,109120,1,0,0:0:0:0:
448,192,109120,1,0,0:0:0:0:
64,192,109120,1,0,0:0:0:0:
320,192,109120,1,0,0:0:0:0:
64,192,109252,1,0,0:0:0:0:
192,192,109252,1,0,0:0:0:0:
448,192,109252,1,0,0:0:0:0:
64,192,109450,1,0,0:0:0:0:
192,192,109450,1,0,0:0:0:0:
320,192,109450,1,0,0:0:0:0:
448,192,109450,1,0,0:0:0:0:
320,192,109582,1,0,0:0:0:0:
448,192,109582,1,0,0:0:0:0:
192,192,109582,1,0,0:0:0:0:
64,192,109714,1,0,0:0:0:0:
320,192,109714,1,0,0:0:0:0:
448,192,109714,1,0,0:0:0:0:
64,192,109846,1,0,0:0:0:0:
192,192,109846,1,0,0:0:0:0:
320,192,109846,1,0,0:0:0:0:
448,192,109978,1,0,0:0:0:0:
64,192,109978,1,0,0:0:0:0:
192,192,109978,1,0,0:0:0:0:
320,192,109978,1,0,0:0:0:0:
192,192,110109,1,0,0:0:0:0:
320,192,110109,1,0,0:0:0:0:
320,192,110307,1,0,0:0:0:0:
448,192,110307,1,0,0:0:0:0:
192,192,110439,1,0,0:0:0:0:
320,192,110439,1,0,0:0:0:0:
448,192,110439,1,0,0:0:0:0:
64,192,110439,1,0,0:0:0:0:
448,192,110570,1,0,0:0:0:0:
64,192,110570,1,0,0:0:0:0:
192,192,110571,1,0,0:0:0:0:
192,192,110703,1,0,0:0:0:0:
320,192,110703,1,0,0:0:0:0:
320,192,110834,1,0,0:0:0:0:
192,192,110834,1,0,0:0:0:0:
64,192,110835,1,0,0:0:0:0:
448,192,110835,1,0,0:0:0:0:
192,192,110966,1,0,0:0:0:0:
64,192,110966,1,0,0:0:0:0:
448,192,110966,1,0,0:0:0:0:
448,192,111230,1,0,0:0:0:0:
64,192,111230,1,0,0:0:0:0:
192,192,111362,1,0,0:0:0:0:
320,192,111362,1,0,0:0:0:0:
448,192,111494,1,0,0:0:0:0:
320,192,111494,1,0,0:0:0:0:
192,192,111494,1,0,0:0:0:0:
64,192,111494,1,0,0:0:0:0:
448,192,111626,1,0,0:0:0:0:
320,192,111626,1,0,0:0:0:0:
192,192,111626,1,0,0:0:0:0:
448,192,111758,1,0,0:0:0:0:
320,192,111758,1,0,0:0:0:0:
192,192,111758,1,0,0:0:0:0:
320,192,111890,1,0,0:0:0:0:
448,192,111890,1,0,0:0:0:0:
64,192,112021,1,0,0:0:0:0:
192,192,112021,1,0,0:0:0:0:
320,192,112021,1,0,0:0:0:0:
64,192,112153,1,0,0:0:0:0:
192,192,112153,1,0,0:0:0:0:
320,192,112153,1,0,0:0:0:0:
64,192,112285,1,0,0:0:0:0:
320,192,112285,1,0,0:0:0:0:
448,192,112285,1,0,0:0:0:0:
64,192,112417,1,0,0:0:0:0:
192,192,112417,1,0,0:0:0:0:
320,192,112417,1,0,0:0:0:0:
64,192,112549,1,0,0:0:0:0:
192,192,112549,1,0,0:0:0:0:
320,192,112549,1,0,0:0:0:0:
448,192,112549,1,0,0:0:0:0:
192,192,112681,1,0,0:0:0:0:
320,192,112681,1,0,0:0:0:0:
192,192,112813,1,0,0:0:0:0:
64,192,112945,1,0,0:0:0:0:
320,192,112945,1,0,0:0:0:0:
448,192,112945,1,0,0:0:0:0:
64,192,113076,1,0,0:0:0:0:
192,192,113076,1,0,0:0:0:0:
320,192,113076,1,0,0:0:0:0:
448,192,113208,1,0,0:0:0:0:
320,192,113208,1,0,0:0:0:0:
192,192,113208,1,0,0:0:0:0:
64,192,113208,1,0,0:0:0:0:
192,192,113340,1,0,0:0:0:0:
448,192,113340,1,0,0:0:0:0:
320,192,113340,1,0,0:0:0:0:
192,192,113472,1,0,0:0:0:0:
320,192,113472,1,0,0:0:0:0:
448,192,113472,1,0,0:0:0:0:
64,192,113604,1,0,0:0:0:0:
192,192,113604,1,0,0:0:0:0:
64,192,113736,1,0,0:0:0:0:
192,192,113736,1,0,0:0:0:0:
320,192,113736,1,0,0:0:0:0:
448,192,113736,1,0,0:0:0:0:
320,192,113868,1,0,0:0:0:0:
64,192,114000,1,0,0:0:0:0:
192,192,114000,1,0,0:0:0:0:
448,192,114000,1,0,0:0:0:0:
64,192,114131,1,0,0:0:0:0:
192,192,114131,1,0,0:0:0:0:
320,192,114131,1,0,0:0:0:0:
448,192,114263,1,0,0:0:0:0:
192,192,114263,1,0,0:0:0:0:
64,192,114263,1,0,0:0:0:0:
320,192,114263,1,0,0:0:0:0:
64,192,114527,128,0,114989:0:0:0:0:
192,192,114527,128,0,114923:0:0:0:0:
320,192,114527,128,0,114857:0:0:0:0:
64,192,115186,1,0,0:0:0:0:
192,192,115186,1,0,0:0:0:0:
320,192,115186,1,0,0:0:0:0:
448,192,115186,1,0,0:0:0:0:
192,192,115318,1,0,0:0:0:0:
320,192,115318,1,0,0:0:0:0:
448,192,115318,1,0,0:0:0:0:
64,192,115450,1,0,0:0:0:0:
320,192,115450,1,0,0:0:0:0:
192,192,115582,1,0,0:0:0:0:
320,192,115582,1,0,0:0:0:0:
448,192,115582,1,0,0:0:0:0:
64,192,115846,1,0,0:0:0:0:
192,192,115846,1,0,0:0:0:0:
320,192,115846,1,0,0:0:0:0:
448,192,115846,1,0,0:0:0:0:
64,192,115978,1,0,0:0:0:0:
192,192,115978,1,0,0:0:0:0:
320,192,115978,1,0,0:0:0:0:
448,192,115978,1,0,0:0:0:0:
64,192,116109,1,0,0:0:0:0:
192,192,116109,1,0,0:0:0:0:
320,192,116109,1,0,0:0:0:0:
448,192,116109,1,0,0:0:0:0:
64,192,116241,1,0,0:0:0:0:
192,192,116241,1,0,0:0:0:0:
320,192,116241,1,0,0:0:0:0:
448,192,116241,1,0,0:0:0:0:
64,192,116373,1,0,0:0:0:0:
192,192,116373,1,0,0:0:0:0:
320,192,116373,1,0,0:0:0:0:
448,192,116373,1,0,0:0:0:0:
64,192,116505,1,0,0:0:0:0:
192,192,116505,1,0,0:0:0:0:
320,192,116505,1,0,0:0:0:0:
448,192,116505,1,0,0:0:0:0:
64,192,116637,1,0,0:0:0:0:
192,192,116637,1,0,0:0:0:0:
320,192,116637,1,0,0:0:0:0:
448,192,116637,1,0,0:0:0:0:
448,192,117428,1,0,0:0:0:0:
64,192,117560,1,0,0:0:0:0:
320,192,117692,1,0,0:0:0:0:
320,192,117890,1,0,0:0:0:0:
192,192,118153,1,0,0:0:0:0:
320,192,118417,1,0,0:0:0:0:
448,192,118549,1,0,0:0:0:0:
64,192,118681,1,0,0:0:0:0:
448,192,118879,1,0,0:0:0:0:
448,192,119406,1,0,0:0:0:0:
192,192,119538,1,0,0:0:0:0:
64,192,119538,1,0,0:0:0:0:
320,192,119670,1,0,0:0:0:0:
448,192,119670,1,0,0:0:0:0:
64,192,119802,1,0,0:0:0:0:
192,192,119802,1,0,0:0:0:0:
448,192,119934,1,0,0:0:0:0:
64,192,120131,1,0,0:0:0:0:
448,192,120395,1,0,0:0:0:0:
448,192,120527,1,0,0:0:0:0:
64,192,120725,1,0,0:0:0:0:
448,192,120857,1,0,0:0:0:0:
192,192,120923,1,0,0:0:0:0:
320,192,120923,1,0,0:0:0:0:
64,192,121384,1,0,0:0:0:0:
320,192,121570,1,0,0:0:0:0:
320,192,121801,1,0,0:0:0:0:
192,192,121978,1,0,0:0:0:0:
320,192,122109,1,0,0:0:0:0:
64,192,122439,1,0,0:0:0:0:
448,192,122571,1,0,0:0:0:0:
192,192,122769,1,0,0:0:0:0:
320,192,122769,1,0,0:0:0:0:
64,192,122901,1,0,0:0:0:0:
448,192,122901,1,0,0:0:0:0:
448,192,123362,1,0,0:0:0:0:
64,192,123362,1,0,0:0:0:0:
192,192,123560,1,0,0:0:0:0:
320,192,123692,1,0,0:0:0:0:
192,192,123824,1,0,0:0:0:0:
448,192,123956,1,0,0:0:0:0:
64,192,124153,1,0,0:0:0:0:
320,192,124417,1,0,0:0:0:0:
448,192,124483,1,0,0:0:0:0:
64,192,124615,1,0,0:0:0:0:
192,192,124681,1,0,0:0:0:0:
320,192,124747,1,0,0:0:0:0:
448,192,124813,1,0,0:0:0:0:
320,192,124945,1,0,0:0:0:0:
